  0
SECTION
  2
HEADER
  9
$ACADVER
  1
AC1014
  9
$ACADMAINTVER
 70
     8
  9
$DWGCODEPAGE
  3
ANSI_1252
  9
$INSBASE
 10
0.0
 20
0.0
 30
0.0
  9
$EXTMIN
 10
-1.7325
 20
-1.7325
 30
0.0
  9
$EXTMAX
 10
3.963617
 20
2.252371
 30
0.146667
  9
$LIMMIN
 10
0.0
 20
0.0
  9
$LIMMAX
 10
12.0
 20
9.0
  9
$ORTHOMODE
 70
     0
  9
$REGENMODE
 70
     1
  9
$FILLMODE
 70
     1
  9
$QTEXTMODE
 70
     0
  9
$MIRRTEXT
 70
     1
  9
$DRAGMODE
 70
     2
  9
$LTSCALE
 40
1.0
  9
$OSMODE
 70
    37
  9
$ATTMODE
 70
     2
  9
$TEXTSIZE
 40
0.217585
  9
$TRACEWID
 40
0.05
  9
$TEXTSTYLE
  7
STANDARD
  9
$CLAYER
  8
0
  9
$CELTYPE
  6
BYLAYER
  9
$CECOLOR
 62
   256
  9
$CELTSCALE
 40
1.0
  9
$DELOBJ
 70
     1
  9
$DISPSILH
 70
     0
  9
$DIMSCALE
 40
1.0
  9
$DIMASZ
 40
0.18
  9
$DIMEXO
 40
0.0625
  9
$DIMDLI
 40
0.375
  9
$DIMRND
 40
0.0
  9
$DIMDLE
 40
0.0
  9
$DIMEXE
 40
0.18
  9
$DIMTP
 40
0.0
  9
$DIMTM
 40
0.0
  9
$DIMTXT
 40
0.09
  9
$DIMCEN
 40
0.09
  9
$DIMTSZ
 40
0.0
  9
$DIMTOL
 70
     0
  9
$DIMLIM
 70
     0
  9
$DIMTIH
 70
     0
  9
$DIMTOH
 70
     1
  9
$DIMSE1
 70
     0
  9
$DIMSE2
 70
     0
  9
$DIMTAD
 70
     0
  9
$DIMZIN
 70
     4
  9
$DIMBLK
  1

  9
$DIMASO
 70
     1
  9
$DIMSHO
 70
     1
  9
$DIMPOST
  1

  9
$DIMAPOST
  1

  9
$DIMALT
 70
     1
  9
$DIMALTD
 70
     1
  9
$DIMALTF
 40
25.4
  9
$DIMLFAC
 40
1.0
  9
$DIMTOFL
 70
     0
  9
$DIMTVP
 40
0.0
  9
$DIMTIX
 70
     0
  9
$DIMSOXD
 70
     0
  9
$DIMSAH
 70
     0
  9
$DIMBLK1
  1

  9
$DIMBLK2
  1

  9
$DIMSTYLE
  2
ABECAD_3D
  9
$DIMCLRD
 70
     0
  9
$DIMCLRE
 70
     0
  9
$DIMCLRT
 70
     0
  9
$DIMTFAC
 40
1.5
  9
$DIMGAP
 40
0.09
  9
$DIMJUST
 70
     0
  9
$DIMSD1
 70
     0
  9
$DIMSD2
 70
     0
  9
$DIMTOLJ
 70
     1
  9
$DIMTZIN
 70
     4
  9
$DIMALTZ
 70
     4
  9
$DIMALTTZ
 70
     4
  9
$DIMFIT
 70
     3
  9
$DIMUPT
 70
     0
  9
$DIMUNIT
 70
     7
  9
$DIMDEC
 70
     6
  9
$DIMTDEC
 70
     6
  9
$DIMALTU
 70
     2
  9
$DIMALTTD
 70
     1
  9
$DIMTXSTY
  7
STANDARD
  9
$DIMAUNIT
 70
     0
  9
$LUNITS
 70
     2
  9
$LUPREC
 70
     4
  9
$SKETCHINC
 40
0.1
  9
$FILLETRAD
 40
0.0
  9
$AUNITS
 70
     0
  9
$AUPREC
 70
     0
  9
$MENU
  1
ACAD
  9
$ELEVATION
 40
0.0
  9
$PELEVATION
 40
0.0
  9
$THICKNESS
 40
0.0
  9
$LIMCHECK
 70
     0
  9
$BLIPMODE
 70
     0
  9
$CHAMFERA
 40
0.0
  9
$CHAMFERB
 40
0.0
  9
$CHAMFERC
 40
0.0
  9
$CHAMFERD
 40
0.0
  9
$SKPOLY
 70
     0
  9
$TDCREATE
 40
2451660.588350463
  9
$TDUPDATE
 40
2452010.486812731
  9
$TDINDWG
 40
0.0272853009
  9
$TDUSRTIMER
 40
0.0272847222
  9
$USRTIMER
 70
     1
  9
$ANGBASE
 50
0.0
  9
$ANGDIR
 70
     0
  9
$PDMODE
 70
     3
  9
$PDSIZE
 40
0.09
  9
$PLINEWID
 40
0.0
  9
$COORDS
 70
     1
  9
$SPLFRAME
 70
     1
  9
$SPLINETYPE
 70
     6
  9
$SPLINESEGS
 70
     8
  9
$ATTDIA
 70
     0
  9
$ATTREQ
 70
     1
  9
$HANDLING
 70
     1
  9
$HANDSEED
  5
45F9B
  9
$SURFTAB1
 70
     6
  9
$SURFTAB2
 70
     6
  9
$SURFTYPE
 70
     6
  9
$SURFU
 70
     6
  9
$SURFV
 70
     6
  9
$UCSNAME
  2

  9
$UCSORG
 10
0.0
 20
0.0
 30
0.0
  9
$UCSXDIR
 10
1.0
 20
0.0
 30
0.0
  9
$UCSYDIR
 10
0.0
 20
1.0
 30
0.0
  9
$PUCSNAME
  2

  9
$PUCSORG
 10
0.0
 20
0.0
 30
0.0
  9
$PUCSXDIR
 10
1.0
 20
0.0
 30
0.0
  9
$PUCSYDIR
 10
0.0
 20
1.0
 30
0.0
  9
$USERI1
 70
     0
  9
$USERI2
 70
     0
  9
$USERI3
 70
     0
  9
$USERI4
 70
     0
  9
$USERI5
 70
     0
  9
$USERR1
 40
0.0
  9
$USERR2
 40
0.0
  9
$USERR3
 40
0.0
  9
$USERR4
 40
0.0
  9
$USERR5
 40
0.0
  9
$WORLDVIEW
 70
     1
  9
$SHADEDGE
 70
     3
  9
$SHADEDIF
 70
    70
  9
$TILEMODE
 70
     1
  9
$MAXACTVP
 70
    16
  9
$PINSBASE
 10
0.0
 20
0.0
 30
0.0
  9
$PLIMCHECK
 70
     0
  9
$PEXTMIN
 10
1.000000E+20
 20
1.000000E+20
 30
1.000000E+20
  9
$PEXTMAX
 10
-1.000000E+20
 20
-1.000000E+20
 30
-1.000000E+20
  9
$PLIMMIN
 10
0.0
 20
0.0
  9
$PLIMMAX
 10
12.0
 20
9.0
  9
$UNITMODE
 70
     0
  9
$VISRETAIN
 70
     0
  9
$PLINEGEN
 70
     0
  9
$PSLTSCALE
 70
     1
  9
$TREEDEPTH
 70
  3020
  9
$PICKSTYLE
 70
     1
  9
$CMLSTYLE
  2
STANDARD
  9
$CMLJUST
 70
     0
  9
$CMLSCALE
 40
1.0
  9
$PROXYGRAPHICS
 70
     1
  9
$MEASUREMENT
 70
     0
  0
ENDSEC
  0
SECTION
  2
CLASSES
  0
CLASS
  1
DICTIONARYVAR
  2
AcDbDictionaryVar
  3
"AutoCAD"
 90
        0
280
     0
281
     0
  0
CLASS
  1
ACDBDICTIONARYWDFLT
  2
AcDbDictionaryWithDefault
  3
AutoCAD 2000
 90
        0
280
     0
281
     0
  0
CLASS
  1
ACDBPLACEHOLDER
  2
AcDbPlaceHolder
  3
AutoCAD 2000
 90
        0
280
     0
281
     0
  0
CLASS
  1
LAYOUT
  2
AcDbLayout
  3
AutoCAD 2000
 90
        0
280
     0
281
     0
  0
CLASS
  1
LONG_TRANSACTION
  2
AcDbLongTransaction
  3
AutoCAD 2000
 90
        0
280
     0
281
     0
  0
CLASS
  1
LWPOLYLINE
  2
AcDbPolyline
  3
"AutoCAD"
 90
        0
280
     0
281
     1
  0
CLASS
  1
HATCH
  2
AcDbHatch
  3
"ACAD_SEDONA"
 90
        0
280
     0
281
     1
  0
CLASS
  1
XRECORD
  2
AcDbXrecord
  3
"<Built In>"
 90
        0
280
     0
281
     0
  0
CLASS
  1
LONG_TRANSACTION
  2
AcDbLongTransaction
  3
AutoCAD 2000
 90
        0
280
     0
281
     0
  0
CLASS
  1
LWPOLYLINE
  2
AcDbPolyline
  3
"AutoCAD"
 90
        0
280
     0
281
     1
  0
CLASS
  1
HATCH
  2
AcDbHatch
  3
"ACAD_SEDONA"
 90
        0
280
     0
281
     1
  0
CLASS
  1
XRECORD
  2
AcDbXrecord
  3
"<Built In>"
 90
        0
280
     0
281
     0
  0
CLASS
  1
LONG_TRANSACTION
  2
AcDbLongTransaction
  3
AutoCAD 2000
 90
        0
280
     0
281
     0
  0
CLASS
  1
LWPOLYLINE
  2
AcDbPolyline
  3
"AutoCAD"
 90
        0
280
     0
281
     1
  0
CLASS
  1
HATCH
  2
AcDbHatch
  3
"ACAD_SEDONA"
 90
        0
280
     0
281
     1
  0
CLASS
  1
XRECORD
  2
AcDbXrecord
  3
"<Built In>"
 90
        0
280
     0
281
     0
  0
CLASS
  1
LONG_TRANSACTION
  2
AcDbLongTransaction
  3
AutoCAD 2000
 90
        0
280
     0
281
     0
  0
CLASS
  1
LWPOLYLINE
  2
AcDbPolyline
  3
"AutoCAD"
 90
        0
280
     0
281
     1
  0
CLASS
  1
HATCH
  2
AcDbHatch
  3
"ACAD_SEDONA"
 90
        0
280
     0
281
     1
  0
CLASS
  1
XRECORD
  2
AcDbXrecord
  3
"<Built In>"
 90
        0
280
     0
281
     0
  0
CLASS
  1
LONG_TRANSACTION
  2
AcDbLongTransaction
  3
AutoCAD 2000
 90
        0
280
     0
281
     0
  0
CLASS
  1
LWPOLYLINE
  2
AcDbPolyline
  3
"AutoCAD"
 90
        0
280
     0
281
     1
  0
CLASS
  1
HATCH
  2
AcDbHatch
  3
"ACAD_SEDONA"
 90
        0
280
     0
281
     1
  0
CLASS
  1
XRECORD
  2
AcDbXrecord
  3
"<Built In>"
 90
        0
280
     0
281
     0
  0
CLASS
  1
LONG_TRANSACTION
  2
AcDbLongTransaction
  3
AutoCAD 2000
 90
        0
280
     0
281
     0
  0
CLASS
  1
LWPOLYLINE
  2
AcDbPolyline
  3
"AutoCAD"
 90
        0
280
     0
281
     1
  0
CLASS
  1
HATCH
  2
AcDbHatch
  3
"ACAD_SEDONA"
 90
        0
280
     0
281
     1
  0
CLASS
  1
XRECORD
  2
AcDbXrecord
  3
"<Built In>"
 90
        0
280
     0
281
     0
  0
CLASS
  1
LONG_TRANSACTION
  2
AcDbLongTransaction
  3
AutoCAD 2000
 90
        0
280
     0
281
     0
  0
CLASS
  1
LWPOLYLINE
  2
AcDbPolyline
  3
"AutoCAD"
 90
        0
280
     0
281
     1
  0
CLASS
  1
HATCH
  2
AcDbHatch
  3
"ACAD_SEDONA"
 90
        0
280
     0
281
     1
  0
CLASS
  1
XRECORD
  2
AcDbXrecord
  3
"<Built In>"
 90
        0
280
     0
281
     0
  0
CLASS
  1
LONG_TRANSACTION
  2
AcDbLongTransaction
  3
AutoCAD 2000
 90
        0
280
     0
281
     0
  0
CLASS
  1
LWPOLYLINE
  2
AcDbPolyline
  3
"AutoCAD"
 90
        0
280
     0
281
     1
  0
CLASS
  1
HATCH
  2
AcDbHatch
  3
"ACAD_SEDONA"
 90
        0
280
     0
281
     1
  0
CLASS
  1
XRECORD
  2
AcDbXrecord
  3
"<Built In>"
 90
        0
280
     0
281
     0
  0
CLASS
  1
LONG_TRANSACTION
  2
AcDbLongTransaction
  3
AutoCAD 2000
 90
        0
280
     0
281
     0
  0
CLASS
  1
LWPOLYLINE
  2
AcDbPolyline
  3
"AutoCAD"
 90
        0
280
     0
281
     1
  0
CLASS
  1
HATCH
  2
AcDbHatch
  3
"ACAD_SEDONA"
 90
        0
280
     0
281
     1
  0
CLASS
  1
XRECORD
  2
AcDbXrecord
  3
"<Built In>"
 90
        0
280
     0
281
     0
  0
CLASS
  1
LONG_TRANSACTION
  2
AcDbLongTransaction
  3
AutoCAD 2000
 90
        0
280
     0
281
     0
  0
CLASS
  1
LWPOLYLINE
  2
AcDbPolyline
  3
"AutoCAD"
 90
        0
280
     0
281
     1
  0
CLASS
  1
HATCH
  2
AcDbHatch
  3
"ACAD_SEDONA"
 90
        0
280
     0
281
     1
  0
CLASS
  1
XRECORD
  2
AcDbXrecord
  3
"<Built In>"
 90
        0
280
     0
281
     0
  0
ENDSEC
  0
SECTION
  2
TABLES
  0
TABLE
  2
VPORT
  5
458C7
100
AcDbSymbolTable
 70
     1
  0
VPORT
  5
45F68
102
{ACAD_XDICTIONARY
360
45F6D
102
}
100
AcDbSymbolTableRecord
100
AcDbViewportTableRecord
  2
*ACTIVE
 70
     0
 10
0.0
 20
0.0
 11
1.0
 21
1.0
 12
1.115795
 22
0.259783
 13
0.0
 23
0.0
 14
0.25
 24
0.25
 15
0.25
 25
0.25
 16
0.0
 26
0.0
 36
1.0
 17
0.0
 27
0.0
 37
0.0
 40
4.052199
 41
1.960674
 42
50.0
 43
0.0
 44
0.0
 50
0.0
 51
0.0
 71
     0
 72
 20000
 73
     1
 74
     1
 75
     0
 76
     0
 77
     0
 78
     0
  0
ENDTAB
  0
TABLE
  2
LTYPE
  5
458C4
100
AcDbSymbolTable
 70
     1
  0
LTYPE
  5
458D0
100
AcDbSymbolTableRecord
100
AcDbLinetypeTableRecord
  2
BYBLOCK
 70
     0
  3

 72
    65
 73
     0
 40
0.0
  0
LTYPE
  5
458D1
100
AcDbSymbolTableRecord
100
AcDbLinetypeTableRecord
  2
BYLAYER
 70
     0
  3

 72
    65
 73
     0
 40
0.0
  0
LTYPE
  5
458D2
100
AcDbSymbolTableRecord
100
AcDbLinetypeTableRecord
  2
CONTINUOUS
 70
     0
  3
Solid line
 72
    65
 73
     0
 40
0.0
  0
ENDTAB
  0
TABLE
  2
LAYER
  5
458C1
100
AcDbSymbolTable
 70
     7
  0
LAYER
  5
458CD
100
AcDbSymbolTableRecord
100
AcDbLayerTableRecord
  2
0
 70
     0
 62
     7
  6
CONTINUOUS
  0
LAYER
  5
458EA
100
AcDbSymbolTableRecord
100
AcDbLayerTableRecord
  2
DIMS-MTG-HOLES
 70
     0
 62
     1
  6
CONTINUOUS
  0
LAYER
  5
458EB
100
AcDbSymbolTableRecord
100
AcDbLayerTableRecord
  2
ATTRIBUTES
 70
     0
 62
     7
  6
CONTINUOUS
  0
LAYER
  5
45BC0
100
AcDbSymbolTableRecord
100
AcDbLayerTableRecord
  2
SNAP_POINTS
 70
     0
 62
    -1
  6
CONTINUOUS
  0
LAYER
  5
45BC1
100
AcDbSymbolTableRecord
100
AcDbLayerTableRecord
  2
AREA1
 70
     0
 62
    -7
  6
CONTINUOUS
  0
LAYER
  5
45BC2
100
AcDbSymbolTableRecord
100
AcDbLayerTableRecord
  2
SCALE
 70
     0
 62
    -7
  6
CONTINUOUS
  0
LAYER
  5
45BC4
102
{ACAD_XDICTIONARY
360
45F6B
102
}
100
AcDbSymbolTableRecord
100
AcDbLayerTableRecord
  2
DEFPOINTS
 70
     0
 62
    -7
  6
CONTINUOUS
  0
ENDTAB
  0
TABLE
  2
STYLE
  5
458C2
100
AcDbSymbolTable
 70
     1
  0
STYLE
  5
458CE
100
AcDbSymbolTableRecord
100
AcDbTextStyleTableRecord
  2
STANDARD
 70
     0
 40
0.0
 41
1.0
 50
0.0
 71
     0
 42
0.217585
  3
txt
  4

  0
ENDTAB
  0
TABLE
  2
VIEW
  5
458C5
100
AcDbSymbolTable
 70
     0
  0
ENDTAB
  0
TABLE
  2
UCS
  5
458C6
100
AcDbSymbolTable
 70
     0
  0
ENDTAB
  0
TABLE
  2
APPID
  5
458C8
100
AcDbSymbolTable
 70
     1
  0
APPID
  5
458CF
100
AcDbSymbolTableRecord
100
AcDbRegAppTableRecord
  2
ACAD
 70
     0
  0
ENDTAB
  0
TABLE
  2
DIMSTYLE
  5
458C9
100
AcDbSymbolTable
 70
     2
  0
DIMSTYLE
105
458F1
102
{ACAD_XDICTIONARY
360
45F92
102
}
100
AcDbSymbolTableRecord
100
AcDbDimStyleTableRecord
  2
ABECAD
 70
     0
  3

  4

  5

  6

  7

 40
1.0
 41
0.18
 42
0.0625
 43
0.375
 44
0.18
 45
0.0
 46
0.0
 47
0.0
 48
0.0
140
0.18
141
0.09
142
0.0
143
25.4
144
1.0
145
0.0
146
1.5
147
0.09
 71
     0
 72
     0
 73
     0
 74
     1
 75
     0
 76
     0
 77
     0
 78
     4
170
     1
171
     1
172
     0
173
     0
174
     0
175
     0
176
     0
177
     0
178
     0
270
     7
271
     6
272
     6
273
     2
274
     1
340
458CE
275
     0
280
     0
281
     0
282
     0
283
     1
284
     4
285
     4
286
     4
287
     3
288
     0
  0
DIMSTYLE
105
458F6
102
{ACAD_XDICTIONARY
360
45F94
102
}
102
{ACAD_REACTORS
330
45DDB
330
45DE9
102
}
100
AcDbSymbolTableRecord
100
AcDbDimStyleTableRecord
  2
ABECAD_3D
 70
     0
  3

  4

  5

  6

  7

 40
1.0
 41
0.18
 42
0.0625
 43
0.375
 44
0.18
 45
0.0
 46
0.0
 47
0.0
 48
0.0
140
0.09
141
0.09
142
0.0
143
25.4
144
1.0
145
0.0
146
1.5
147
0.09
 71
     0
 72
     0
 73
     0
 74
     1
 75
     0
 76
     0
 77
     0
 78
     4
170
     1
171
     1
172
     0
173
     0
174
     0
175
     0
176
     0
177
     0
178
     0
270
     7
271
     6
272
     6
273
     2
274
     1
340
458CE
275
     0
280
     0
281
     0
282
     0
283
     1
284
     4
285
     4
286
     4
287
     3
288
     0
  0
ENDTAB
  0
TABLE
  2
BLOCK_RECORD
  5
458C0
100
AcDbSymbolTable
 70
     3
  0
BLOCK_RECORD
  5
458D6
102
{ACAD_XDICTIONARY
360
45990
102
}
100
AcDbSymbolTableRecord
100
AcDbBlockTableRecord
  2
*MODEL_SPACE
  0
BLOCK_RECORD
  5
458D3
102
{ACAD_XDICTIONARY
360
4598E
102
}
100
AcDbSymbolTableRecord
100
AcDbBlockTableRecord
  2
*PAPER_SPACE
  0
BLOCK_RECORD
  5
45C6A
102
{ACAD_XDICTIONARY
360
45F69
102
}
100
AcDbSymbolTableRecord
100
AcDbBlockTableRecord
  2
SCALEINCH
  0
BLOCK_RECORD
  5
45DDC
100
AcDbSymbolTableRecord
100
AcDbBlockTableRecord
  2
*D1
  0
BLOCK_RECORD
  5
45DEA
100
AcDbSymbolTableRecord
100
AcDbBlockTableRecord
  2
*D2
  0
ENDTAB
  0
ENDSEC
  0
SECTION
  2
BLOCKS
  0
BLOCK
  5
458DF
100
AcDbEntity
  8
0
100
AcDbBlockBegin
  2
*MODEL_SPACE
 70
     0
 10
0.0
 20
0.0
 30
0.0
  3
*MODEL_SPACE
  1

  0
ENDBLK
  5
458E0
100
AcDbEntity
  8
0
100
AcDbBlockEnd
  0
BLOCK
  5
458DD
100
AcDbEntity
 67
     1
  8
0
100
AcDbBlockBegin
  2
*PAPER_SPACE
 70
     0
 10
0.0
 20
0.0
 30
0.0
  3
*PAPER_SPACE
  1

  0
ENDBLK
  5
458DE
100
AcDbEntity
 67
     1
  8
0
100
AcDbBlockEnd
  0
BLOCK
  5
45C76
100
AcDbEntity
  8
0
100
AcDbBlockBegin
  2
SCALEINCH
 70
     0
 10
0.0
 20
0.0
 30
0.0
  3
SCALEINCH
  1

  0
LINE
  5
45C6B
100
AcDbEntity
  8
SCALE
100
AcDbLine
 10
0.060623
 20
-2.404403
 30
0.0
 11
1.060623
 21
-2.404403
 31
0.0
  0
LINE
  5
45C6C
100
AcDbEntity
  8
SCALE
100
AcDbLine
 10
1.060623
 20
-2.404403
 30
0.0
 11
1.060623
 21
-2.504403
 31
0.0
  0
LINE
  5
45C6D
100
AcDbEntity
  8
SCALE
100
AcDbLine
 10
1.060623
 20
-2.504403
 30
0.0
 11
1.060623
 21
-2.304403
 31
0.0
  0
LINE
  5
45C6E
100
AcDbEntity
  8
SCALE
100
AcDbLine
 10
0.060623
 20
-2.504403
 30
0.0
 11
0.060623
 21
-2.304403
 31
0.0
  0
LINE
  5
45C6F
100
AcDbEntity
  8
SCALE
100
AcDbLine
 10
0.063666
 20
-2.798543
 30
0.0
 11
0.063666
 21
-2.598543
 31
0.0
  0
LINE
  5
45C70
100
AcDbEntity
  8
SCALE
100
AcDbLine
 10
0.457366
 20
-2.798543
 30
0.0
 11
0.457366
 21
-2.598543
 31
0.0
  0
LINE
  5
45C71
100
AcDbEntity
  8
SCALE
100
AcDbLine
 10
0.063666
 20
-2.698543
 30
0.0
 11
0.457366
 21
-2.698543
 31
0.0
  0
TEXT
  5
45C72
100
AcDbEntity
  8
SCALE
100
AcDbText
 10
0.089542
 20
-2.656527
 30
0.0
 40
0.0625
  1
[10 mm]
100
AcDbText
  0
TEXT
  5
45C73
100
AcDbEntity
  8
SCALE
100
AcDbText
 10
0.359753
 20
-2.335354
 30
0.0
 40
0.0625
  1
1 Inch
100
AcDbText
  0
TEXT
  5
45C74
100
AcDbEntity
  8
SCALE
100
AcDbText
 10
0.052989
 20
-2.167919
 30
0.0
 40
0.0625
  1
SCALE:
100
AcDbText
  0
LWPOLYLINE
  5
45C75
100
AcDbEntity
  8
SCALE
100
AcDbPolyline
 90
        4
 70
     1
 43
0.0
 10
-0.00654
 20
-2.062718
 10
1.129089
 20
-2.062718
 10
1.129089
 20
-2.904327
 10
-0.00654
 20
-2.904327
  0
ENDBLK
  5
45C77
100
AcDbEntity
  8
0
100
AcDbBlockEnd
  0
BLOCK
  5
45DE7
100
AcDbEntity
  8
0
100
AcDbBlockBegin
  2
*D1
 70
     1
 10
0.0
 20
0.0
 30
0.0
  3
*D1
  1

  0
LINE
  5
45DDD
100
AcDbEntity
  8
AREA1
 62
     0
100
AcDbLine
 10
-1.7325
 20
1.795
 30
0.0
 11
-1.7325
 21
2.252371
 31
0.0
1001
ACAD
1000
RTLwPs
1070
   158
  0
LINE
  5
45DDE
100
AcDbEntity
  8
AREA1
 62
     0
100
AcDbLine
 10
1.7325
 20
1.795
 30
0.0
 11
1.7325
 21
2.252371
 31
0.0
1001
ACAD
1000
RTLwPs
1070
   158
  0
LINE
  5
45DDF
100
AcDbEntity
  8
AREA1
 62
     0
100
AcDbLine
 10
-1.5525
 20
2.072371
 30
0.0
 11
-0.6225
 21
2.072371
 31
0.0
1001
ACAD
1000
RTLwPs
1070
   158
  0
LINE
  5
45DE0
100
AcDbEntity
  8
AREA1
 62
     0
100
AcDbLine
 10
1.5525
 20
2.072371
 30
0.0
 11
0.6225
 21
2.072371
 31
0.0
1001
ACAD
1000
RTLwPs
1070
   158
  0
SOLID
  5
45DE1
100
AcDbEntity
  8
AREA1
 62
     0
100
AcDbTrace
 10
-1.5525
 20
2.102371
 30
0.0
 11
-1.5525
 21
2.042371
 31
0.0
 12
-1.7325
 22
2.072371
 32
0.0
 13
-1.7325
 23
2.072371
 33
0.0
  0
SOLID
  5
45DE2
100
AcDbEntity
  8
AREA1
 62
     0
100
AcDbTrace
 10
1.5525
 20
2.102371
 30
0.0
 11
1.5525
 21
2.042371
 31
0.0
 12
1.7325
 22
2.072371
 32
0.0
 13
1.7325
 23
2.072371
 33
0.0
  0
MTEXT
  5
45DE3
100
AcDbEntity
  8
AREA1
 62
     0
100
AcDbMText
 10
0.0
 20
2.072371
 30
0.0
 40
0.09
 41
0.0
 71
     5
 72
     1
  1
\A1;3 15/32 [88.0]
1001
ACAD
1000
MTEXTBEGIN
1070
    73
1070
     1
1070
    44
1040
1.0
1070
    74
1070
     0
1000
MTEXTEND
1000
MTEXTBEGIN
1070
    73
1070
     1
1070
    44
1040
1.0
1070
    74
1070
     0
1000
MTEXTEND
1000
MTEXTBEGIN
1070
    73
1070
     1
1070
    44
1040
1.0
1070
    74
1070
     0
1000
MTEXTEND
  0
POINT
  5
45DE4
100
AcDbEntity
  8
DEFPOINTS
 62
     0
100
AcDbPoint
 10
-1.7325
 20
1.7325
 30
0.0
  0
POINT
  5
45DE5
100
AcDbEntity
  8
DEFPOINTS
 62
     0
100
AcDbPoint
 10
1.7325
 20
1.7325
 30
0.0
  0
POINT
  5
45DE6
100
AcDbEntity
  8
DEFPOINTS
 62
     0
100
AcDbPoint
 10
1.7325
 20
2.072371
 30
0.0
  0
ENDBLK
  5
45DE8
100
AcDbEntity
  8
0
100
AcDbBlockEnd
  0
BLOCK
  5
45DF5
100
AcDbEntity
  8
0
100
AcDbBlockBegin
  2
*D2
 70
     1
 10
0.0
 20
0.0
 30
0.0
  3
*D2
  1

  0
LINE
  5
45DEB
100
AcDbEntity
  8
AREA1
 62
     0
100
AcDbLine
 10
1.795
 20
1.7325
 30
0.0
 11
2.387669
 21
1.7325
 31
0.0
1001
ACAD
1000
RTLwPs
1070
   158
  0
LINE
  5
45DEC
100
AcDbEntity
  8
AREA1
 62
     0
100
AcDbLine
 10
1.795
 20
-1.7325
 30
0.0
 11
2.387669
 21
-1.7325
 31
0.0
1001
ACAD
1000
RTLwPs
1070
   158
  0
LINE
  5
45DED
100
AcDbEntity
  8
AREA1
 62
     0
100
AcDbLine
 10
2.207669
 20
1.5525
 30
0.0
 11
2.207669
 21
0.6225
 31
0.0
1001
ACAD
1000
RTLwPs
1070
   158
  0
LINE
  5
45DEE
100
AcDbEntity
  8
AREA1
 62
     0
100
AcDbLine
 10
2.207669
 20
-1.5525
 30
0.0
 11
2.207669
 21
-0.6225
 31
0.0
1001
ACAD
1000
RTLwPs
1070
   158
  0
SOLID
  5
45DEF
100
AcDbEntity
  8
AREA1
 62
     0
100
AcDbTrace
 10
2.177669
 20
1.5525
 30
0.0
 11
2.237669
 21
1.5525
 31
0.0
 12
2.207669
 22
1.7325
 32
0.0
 13
2.207669
 23
1.7325
 33
0.0
  0
SOLID
  5
45DF0
100
AcDbEntity
  8
AREA1
 62
     0
100
AcDbTrace
 10
2.177669
 20
-1.5525
 30
0.0
 11
2.237669
 21
-1.5525
 31
0.0
 12
2.207669
 22
-1.7325
 32
0.0
 13
2.207669
 23
-1.7325
 33
0.0
  0
MTEXT
  5
45DF1
100
AcDbEntity
  8
AREA1
 62
     0
100
AcDbMText
 10
2.207669
 20
0.0
 30
0.0
 40
0.09
 41
0.0
 71
     5
 72
     1
  1
\A1;3 15/32 [88.0]
 11
0.0
 21
1.0
 31
0.0
1001
ACAD
1000
MTEXTBEGIN
1070
    73
1070
     1
1070
    44
1040
1.0
1070
    74
1070
     0
1000
MTEXTEND
1000
MTEXTBEGIN
1070
    73
1070
     1
1070
    44
1040
1.0
1070
    74
1070
     0
1000
MTEXTEND
1000
MTEXTBEGIN
1070
    73
1070
     1
1070
    44
1040
1.0
1070
    74
1070
     0
1000
MTEXTEND
  0
POINT
  5
45DF2
100
AcDbEntity
  8
DEFPOINTS
 62
     0
100
AcDbPoint
 10
1.7325
 20
1.7325
 30
0.0
  0
POINT
  5
45DF3
100
AcDbEntity
  8
DEFPOINTS
 62
     0
100
AcDbPoint
 10
1.7325
 20
-1.7325
 30
0.0
  0
POINT
  5
45DF4
100
AcDbEntity
  8
DEFPOINTS
 62
     0
100
AcDbPoint
 10
2.207669
 20
-1.7325
 30
0.0
  0
ENDBLK
  5
45DF6
100
AcDbEntity
  8
0
100
AcDbBlockEnd
  0
ENDSEC
  0
SECTION
  2
ENTITIES
  0
POINT
  5
45901
100
AcDbEntity
  8
SNAP_POINTS
100
AcDbPoint
 10
0.0
 20
0.0
 30
0.0
  0
TEXT
  5
45935
100
AcDbEntity
  8
0
100
AcDbText
 10
0.790937
 20
-0.022102
 30
0.0
 40
0.108793
  1

100
AcDbText
  0
TEXT
  5
45936
100
AcDbEntity
  8
0
100
AcDbText
 10
-0.84256
 20
-0.022102
 30
0.0
 40
0.108793
  1

100
AcDbText
  0
TEXT
  5
45937
100
AcDbEntity
  8
0
100
AcDbText
 10
-0.76697
 20
0.405209
 30
0.0
 40
0.108793
  1

100
AcDbText
  0
TEXT
  5
45938
100
AcDbEntity
  8
0
100
AcDbText
 10
-0.05531
 20
0.766213
 30
0.0
 40
0.108793
  1

100
AcDbText
  0
TEXT
  5
4593A
100
AcDbEntity
  8
0
100
AcDbText
 10
0.357673
 20
0.707274
 30
0.0
 40
0.108793
  1

100
AcDbText
  0
TEXT
  5
4593B
100
AcDbEntity
  8
0
100
AcDbText
 10
0.652662
 20
0.405209
 30
0.0
 40
0.108793
  1

100
AcDbText
  0
TEXT
  5
459C7
100
AcDbEntity
  8
0
100
AcDbText
 10
0.158556
 20
0.707274
 30
0.0
 40
0.108793
  1

100
AcDbText
  0
TEXT
  5
45A7E
100
AcDbEntity
  8
0
100
AcDbText
 10
-0.39086
 20
-0.766213
 30
0.0
 40
0.108793
  1

100
AcDbText
  0
TEXT
  5
45A7F
100
AcDbEntity
  8
0
100
AcDbText
 10
0.39086
 20
-0.758846
 30
0.0
 40
0.108793
  1

100
AcDbText
  0
TEXT
  5
45A82
100
AcDbEntity
  8
0
100
AcDbText
 10
0.763282
 20
-0.047888
 30
0.0
 40
0.108793
  1

100
AcDbText
  0
INSERT
  5
45D56
100
AcDbEntity
  8
SCALE
100
AcDbBlockReference
  2
SCALEINCH
 10
2.834528
 20
1.183519
 30
0.0
  0
DIMENSION
  5
45DDB
100
AcDbEntity
  8
AREA1
100
AcDbDimension
  2
*D1
 10
1.7325
 20
2.072371
 30
0.0
 11
0.0
 21
2.072371
 31
0.0
 70
    32
  3
ABECAD_3D
100
AcDbAlignedDimension
 13
-1.7325
 23
1.7325
 33
0.0
 14
1.7325
 24
1.7325
 34
0.0
100
AcDbRotatedDimension
  0
DIMENSION
  5
45DE9
100
AcDbEntity
  8
AREA1
100
AcDbDimension
  2
*D2
 10
2.207669
 20
-1.7325
 30
0.0
 11
2.207669
 21
0.0
 31
0.0
 70
    32
  3
ABECAD_3D
100
AcDbAlignedDimension
 13
1.7325
 23
1.7325
 33
0.0
 14
1.7325
 24
-1.7325
 34
0.0
 50
90.0
100
AcDbRotatedDimension
  0
ATTDEF
  5
45EE3
100
AcDbEntity
  8
ATTRIBUTES
100
AcDbText
 10
-1.591129
 20
0.234493
 30
0.0
 40
0.11
  1
ALLEN-BRADLEY
100
AcDbAttributeDefinition
  3
MANUFACTURER NAME?
  2
AC_VND_LABEL
 70
     1
  0
ATTDEF
  5
45EE4
100
AcDbEntity
  8
ATTRIBUTES
100
AcDbText
 10
-1.591129
 20
0.005326
 30
0.0
 40
0.11
  1
194L-A/I8-175
100
AcDbAttributeDefinition
  3
CATALOG NUMBER?
  2
AC_PART_NO
 70
     1
  0
ATTDEF
  5
45EE5
100
AcDbEntity
  8
ATTRIBUTES
100
AcDbText
 10
-1.591129
 20
-0.223841
 30
0.0
 40
0.11
  1
Legend Plate, 88mm x 88mm, 0 - 1 (90 degrees)
100
AcDbAttributeDefinition
  3
PART DESCRIPTION?
  2
AC_DESCRIPTION
 70
     1
  0
ATTDEF
  5
45EE6
100
AcDbEntity
  8
ATTRIBUTES
100
AcDbText
 10
-1.591129
 20
-0.453007
 30
0.0
 40
0.11
  1

100
AcDbAttributeDefinition
  3
DEVICE ID?
  2
DEVICE_ID
 70
     1
  0
ATTDEF
  5
45EE7
100
AcDbEntity
  8
ATTRIBUTES
100
AcDbText
 10
-1.591129
 20
-0.682174
 30
0.0
 40
0.11
  1

100
AcDbAttributeDefinition
  3
CUSTOMER PART NUMBER?
  2
AC_CPART_NO
 70
     1
  0
ATTDEF
  5
45EE8
100
AcDbEntity
  8
ATTRIBUTES
100
AcDbText
 10
-1.591129
 20
-0.911341
 30
0.0
 40
0.11
  1

100
AcDbAttributeDefinition
  3
CUSTOMER NOTE?
  2
AC_NOTE
 70
     1
  0
ATTDEF
  5
45EE9
100
AcDbEntity
  8
ATTRIBUTES
100
AcDbText
 10
-1.591129
 20
-1.140507
 30
0.0
 40
0.11
  1

100
AcDbAttributeDefinition
  3
FASTENER DATA?
  2
FASTENER
 70
     1
  0
ATTDEF
  5
45EEA
100
AcDbEntity
  8
ATTRIBUTES
100
AcDbText
 10
-1.591129
 20
-1.369674
 30
0.0
 40
0.11
  1
INCH
100
AcDbAttributeDefinition
  3
UNIT OF SCALE?
  2
AC_SCALE_UNIT
 70
     1
  0
ATTDEF
  5
45EEB
100
AcDbEntity
  8
ATTRIBUTES
100
AcDbText
 10
-1.591129
 20
-1.598841
 30
0.0
 40
0.11
  1
0
100
AcDbAttributeDefinition
  3
VIEW CODE?
  2
AC_VIEW_CODE
 70
     1
  0
3DSOLID
  5
45EED
100
AcDbEntity
  8
0
100
AcDbModelerGeometry
 70
     1
  1
noi nli n o         
  1
=0;& {n {m {rn {rn |
  1
-:9@)+r3(;r>++-6= {rn {rn {rn {o {l {k |
  1
3*2/ {j {rn {i {o |
  1
-:961:2:1+ {rn o o o o oqooimhimffmkjijjjlih lo o k m o o o o o o o o o o o o o o o o o |
  1
):-+:'@+:2/3>+: {rn l o n g |
  1
-:9@)+r3(;r>++-6= {rn {rn {rn {m {l {k |
  1
,7:33 {h {rn {rn {g {m |
  1
-:9@)+r3(;r>++-6= {rn {rn {rn {i {l {k |
  1
9><: {f {no {nn {i {rn {nm -:):-,:; ,6183: |
  1
92:,7r3(;r>++-6= {rn {nl {rn {g |
  1
9><: {nk {nj {ni {i {rn {nh 90-(>-; ,6183: |
  1
300/ {rn {ng {nf {g |
  1
<01:r,*-9><: {rn o o o o o n oqgomogllllllllllmi o o n V V o n o V V V V |
  1
-:9@)+r3(;r>++-6= {rn {rn {f {g {l {k |
  1
92:,7r3(;r>++-6= {rn {mo {rn {no |
  1
9><: {mn {mm {ml {i {rn {mk -:):-,:; ,6183: |
  1
300/ {rn {mj {mi {no |
  1
/3>1:r,*-9><: {rn o o oqnkiiiiiiiiiiiiiik o o n nqglllllllllllllll o o o V V V V |
  1
300/ {rn {rn {mh {g |
  1
<0:;8: {rn {nf {nf {mi {mg n {nn {rn |
  1
-:9@)+r3(;r>++-6= {rn {rn {nk {no {l {k |
  1
92:,7r3(;r>++-6= {rn {mf {rn {nj |
  1
9><: {lo {ln {lm {i {rn {ll -:):-,:; ,6183: |
  1
300/ {rn {lk {lj {nj |
  1
/3>1:r,*-9><: {rn o o o o o n nqglllllllllllllll o o o V V V V |
  1
300/ {rn {rn {li {no |
  1
<0:;8: {rn {mi {mi {nf {mg o {ni {rn |
  1
<0:;8: {rn {mh {mh {lj {lh n {ng {rn |
  1
:;8: {lg {lf {lf {mi {ko o |
  1
-:9@)+r3(;r>++-6= {rn {rn {mn {nj {l {k |
  1
92:,7r3(;r>++-6= {rn {kn {rn {mm |
  1
9><: {km {kl {kk {i {rn {kj -:):-,:; ,6183: |
  1
300/ {rn {rn {ki {mm |
  1
/3>1:r,*-9><: {rn o rnqhlmkfffffffffffh oqohllllllllllllllm o n o o o nqglllllllllllllll o V V V V |
  1
300/ {rn {rn {kh {nj |
  1
<0:;8: {rn {lj {lj {mh {lh o {ml {rn |
  1
<0:;8: {rn {kg {kf {jo {jn o {mj {rn |
  1
:;8: {jm {jl {jl {lj {jk o |
  1
/+36,+r3(;r>++-6= {rn {rn {rn {mg |
  1
):-+:' {rn {mg {jj |
  1
:336/,:r<*-): {rn o o oqnkiiiiiiiiiiiiiik o o rn oqgomogllllllllllmi o o n V V |
  1
-:9@)+r3(;r>++-6= {rn {rn {lo {mm {l {k |
  1
92:,7r3(;r>++-6= {rn {ji {rn {ln |
  1
9><: {jh {jg {jf {i {rn {io -:):-,:; ,6183: |
  1
300/ {rn {rn {in {ln |
  1
/3>1:r,*-9><: {rn rnqhlmkfffffffffffh o oqohllllllllllllllm n o o o o rnqglllllllllllllll o V V V V |
  1
<0:;8: {rn {im {il {ik {ij o {lm {rn |
  1
<0:;8: {rn {ii {ih {ig {if o {lk {rn |
  1
<0:;8: {rn {ho {li {hn {hm o {mj {rn |
  1
<0:;8: {rn {li {ho {il {hl o {mj {rn |
  1
<0:;8: {rn {hk {hj {li {jn n {hi {rn |
  1
:;8: {hh {hg {hf {jo {go o |
  1
/+36,+r3(;r>++-6= {rn {rn {rn {lh |
  1
):-+:' {rn {lh {gn |
  1
:336/,:r<*-): {rn o o o o o n oqgomogllllllllllmi o o n V V |
  1
/061+ {rn roqgomogllllllllllmi rjqioofmnmmjnnmfiij:ronj oqnkiiiiiiiiiiiiiik |
  1
-:9@)+r3(;r>++-6= {rn {rn {km {ln {l {k |
  1
92:,7r3(;r>++-6= {rn {gm {rn {kl |
  1
9><: {gl {rn {hi {i {rn {gk -:):-,:; ,6183: |
  1
300/ {rn {rn {gj {kl |
  1
/3>1:r,*-9><: {rn o nqhlmkfffffffffffh oqohllllllllllllllm o rn o o o rnqglllllllllllllll o V V V V |
  1
<0:;8: {rn {gi {gh {gg {gf o {kk {rn |
  1
<0:;8: {rn {fo {ki {ii {fn n {lm {rn |
  1
<0:;8: {rn {ki {fo {kf {hl n {lm {rn |
  1
<0:;8: {rn {gh {gi {ki {ij n {kk {rn |
  1
:;8: {fm {fl {fk {ik {fj o |
  1
<0:;8: {rn {fi {kh {im {fn o {lk {rn |
  1
<0:;8: {rn {kh {fi {fh {fg o {lk {rn |
  1
<0:;8: {rn {hj {hk {kh {if n {hi {rn |
  1
:;8: {ff {noo {non {ig {nom o |
  1
<0:;8: {rn {kf {kg {gh {nol o {mj {rn |
  1
<0:;8: {rn {gj {gg {kg {hm n {jf {rn |
  1
:;8: {nok {hf {noj {hn {noi o |
  1
:;8: {noh {fl {hg {il {nog o |
  1
<0:;8: {rn {ig {jo {fo {nof o {hi {rn |
  1
<0:;8: {rn {jo {ig {gj {nno n {hi {rn |
  1
300/ {rn {rn {hk {jg |
  1
/+36,+r3(;r>++-6= {rn {rn {rn {jn |
  1
):-+:' {rn {jn {nnn |
  1
):-+:' {rn {jn {nnm |
  1
,+->687+r<*-): {rn nqhlmkfffffffffffh o oqnkiiiiiiiiiiiiiik o nqglllllllllllllll o V V |
  1
/061+ {rn oqgomogllllllllllmi o o |
  1
-:9@)+r3(;r>++-6= {rn {rn {jh {kl {l {k |
  1
92:,7r3(;r>++-6= {rn {nnl {rn {jg |
  1
/3>1:r,*-9><: {rn nqhlmkfffffffffffh o oqohllllllllllllllm rn o o o o nqglllllllllllllll o V V V V |
  1
<0:;8: {rn {fh {hn {hj {nno o {jf {rn |
  1
<0:;8: {rn {ik {in {fi {nnk n {kk {rn |
  1
<0:;8: {rn {in {ik {ho {nol n {kk {rn |
  1
<0:;8: {rn {hn {fh {in {gf n {jf {rn |
  1
:;8: {nnj {noj {nni {gg {nnh o |
  1
<0:;8: {rn {il {im {hk {nof n {lm {rn |
  1
:;8: {nng {non {fk {im {nnf o |
  1
/+36,+r3(;r>++-6= {rn {rn {rn {ij |
  1
):-+:' {rn {nol {nmo |
  1
):-+:' {rn {nnk {nmn |
  1
,+->687+r<*-): {rn rnqhlmkfffffffffffh rnqhlmkfffffffffffh oqohllllllllllllllm o o rnqglllllllllllllll V V |
  1
<0:;8: {rn {ih {ii {gi {nnk o {lk {rn |
  1
<0:;8: {rn {gg {gj {ih {fg n {jf {rn |
  1
:;8: {nmm {nni {noo {fh {nml o |
  1
/+36,+r3(;r>++-6= {rn {rn {rn {if |
  1
):-+:' {rn {if {nmk |
  1
):-+:' {rn {nof {nmj |
  1
,+->687+r<*-): {rn nqhlmkfffffffffffh o o o rnqglllllllllllllll o V V |
  1
:;8: {nmi {noj {fl {gh {nmh o |
  1
/+36,+r3(;r>++-6= {rn {rn {rn {hm |
  1
):-+:' {rn {hm {nmg |
  1
,+->687+r<*-): {rn o nqhlmkfffffffffffh oqnkiiiiiiiiiiiiiik rnqglllllllllllllll o o V V |
  1
/+36,+r3(;r>++-6= {rn {rn {rn {hl |
  1
,+->687+r<*-): {rn o rnqhlmkfffffffffffh oqnkiiiiiiiiiiiiiik nqglllllllllllllll o o V V |
  1
:;8: {nmf {hg {non {hk {nlo o |
  1
:;8: {nln {hf {noo {hj {nlm o |
  1
/061+ {rn nqhlmkfffffffffffh rnqhlmkfffffffffffh oqnkiiiiiiiiiiiiiik |
  1
/061+ {rn nqhlmkfffffffffffh nqhlmkfffffffffffh oqnkiiiiiiiiiiiiiik |
  1
-:9@)+r3(;r>++-6= {rn {rn {gl {jg {l {k |
  1
:;8: {nll {fk {nni {gi {nlk o |
  1
/+36,+r3(;r>++-6= {rn {rn {rn {gf |
  1
):-+:' {rn {fg {nlj |
  1
,+->687+r<*-): {rn rnqhlmkfffffffffffh nqhlmkfffffffffffh oqohllllllllllllllm o o rnqglllllllllllllll V V |
  1
/+36,+r3(;r>++-6= {rn {rn {rn {fn |
  1
,+->687+r<*-): {rn o rnqhlmkfffffffffffh o rnqglllllllllllllll o o V V |
  1
/061+ {rn rnqhlmkfffffffffffh rnqhlmkfffffffffffh oqnkiiiiiiiiiiiiiik |
  1
/061+ {rn rnqhlmkfffffffffffh rnqhlmkfffffffffffh o |
  1
/+36,+r3(;r>++-6= {rn {rn {rn {fg |
  1
,+->687+r<*-): {rn o nqhlmkfffffffffffh o nqglllllllllllllll o o V V |
  1
/061+ {rn nqhlmkfffffffffffh nqhlmkfffffffffffh o |
  1
/061+ {rn nqhlmkfffffffffffh rnqhlmkfffffffffffh o |
  1
/+36,+r3(;r>++-6= {rn {rn {rn {nol |
  1
,+->687+r<*-): {rn rnqhlmkfffffffffffh o oqnkiiiiiiiiiiiiiik o rnqglllllllllllllll o V V |
  1
/061+ {rn rnqhlmkfffffffffffh nqhlmkfffffffffffh oqnkiiiiiiiiiiiiiik |
  1
/+36,+r3(;r>++-6= {rn {rn {rn {nof |
  1
,+->687+r<*-): {rn nqhlmkfffffffffffh rnqhlmkfffffffffffh oqohllllllllllllllm o o rnqglllllllllllllll V V |
  1
/+36,+r3(;r>++-6= {rn {rn {rn {nno |
  1
,+->687+r<*-): {rn nqhlmkfffffffffffh nqhlmkfffffffffffh oqohllllllllllllllm o o rnqglllllllllllllll V V |
  1
/+36,+r3(;r>++-6= {rn {rn {rn {nnk |
  1
,+->687+r<*-): {rn rnqhlmkfffffffffffh o o o nqglllllllllllllll o V V |
  1
/061+ {rn rnqhlmkfffffffffffh nqhlmkfffffffffffh o |
  0
TEXT
  5
45EEE
100
AcDbEntity
  8
0
100
AcDbText
 10
0.790937
 20
-0.022102
 30
0.0
 40
0.108793
  1

100
AcDbText
  0
TEXT
  5
45EEF
100
AcDbEntity
  8
0
100
AcDbText
 10
-0.84256
 20
-0.022102
 30
0.0
 40
0.108793
  1

100
AcDbText
  0
TEXT
  5
45EF0
100
AcDbEntity
  8
0
100
AcDbText
 10
-0.76697
 20
0.405209
 30
0.0
 40
0.108793
  1

100
AcDbText
  0
TEXT
  5
45EF1
100
AcDbEntity
  8
0
100
AcDbText
 10
-0.05531
 20
0.766213
 30
0.0
 40
0.108793
  1

100
AcDbText
  0
TEXT
  5
45EF2
100
AcDbEntity
  8
0
100
AcDbText
 10
0.357673
 20
0.707274
 30
0.0
 40
0.108793
  1

100
AcDbText
  0
TEXT
  5
45EF3
100
AcDbEntity
  8
0
100
AcDbText
 10
0.652662
 20
0.405209
 30
0.0
 40
0.108793
  1

100
AcDbText
  0
TEXT
  5
45EF4
100
AcDbEntity
  8
0
100
AcDbText
 10
0.158556
 20
0.707274
 30
0.0
 40
0.108793
  1

100
AcDbText
  0
TEXT
  5
45EF5
100
AcDbEntity
  8
0
100
AcDbText
 10
-0.704285
 20
-0.383107
 30
0.0
 40
0.108793
  1

100
AcDbText
  0
TEXT
  5
45EF6
100
AcDbEntity
  8
0
100
AcDbText
 10
-0.029499
 20
-0.828837
 30
0.0
 40
0.108793
  1

100
AcDbText
  0
TEXT
  5
45EF7
100
AcDbEntity
  8
0
100
AcDbText
 10
-0.094642
 20
1.343943
 30
0.0
 40
0.199453
  1
1
100
AcDbText
  0
TEXT
  5
45EF8
100
AcDbEntity
  8
0
100
AcDbText
 10
0.619476
 20
0.383107
 30
0.0
 40
0.108793
  1

100
AcDbText
  0
TEXT
  5
45EF9
100
AcDbEntity
  8
0
100
AcDbText
 10
0.656349
 20
-0.379423
 30
0.0
 40
0.108793
  1

100
AcDbText
  0
TEXT
  5
45EFA
100
AcDbEntity
  8
0
100
AcDbText
 10
-0.040561
 20
-0.839888
 30
0.0
 40
0.108793
  1

100
AcDbText
  0
TEXT
  5
45EFB
100
AcDbEntity
  8
0
100
AcDbText
 10
0.569362
 20
-0.051572
 30
0.0
 40
0.108793
  1

100
AcDbText
  0
TEXT
  5
45EFC
100
AcDbEntity
  8
0
100
AcDbText
 10
-1.462385
 20
-0.094549
 30
0.0
 40
0.199453
  1
0
100
AcDbText
  0
TEXT
  5
45EFD
100
AcDbEntity
  8
0
100
AcDbText
 10
0.378303
 20
0.581857
 30
0.0
 40
0.108793
  1

100
AcDbText
  0
TEXT
  5
45EFE
100
AcDbEntity
  8
0
100
AcDbText
 10
-0.730708
 20
0.578344
 30
0.0
 40
0.108793
  1

100
AcDbText
  0
TEXT
  5
45EFF
100
AcDbEntity
  8
0
100
AcDbText
 10
-0.737058
 20
-0.607813
 30
0.0
 40
0.108793
  1

100
AcDbText
  0
TEXT
  5
45F00
100
AcDbEntity
  8
0
100
AcDbText
 10
0.393052
 20
-0.607813
 30
0.0
 40
0.108793
  1

100
AcDbText
  0
TEXT
  5
45F01
100
AcDbEntity
  8
0
100
AcDbText
 10
-0.019974
 20
-0.844297
 30
0.0
 40
0.108793
  1

100
AcDbText
  0
ENDSEC
  0
SECTION
  2
OBJECTS
  0
DICTIONARY
  5
458CB
100
AcDbDictionary
  3
ACAD_GROUP
350
458CC
  3
ACAD_LAYOUT
350
458FB
  3
ACAD_MLINESTYLE
350
458D9
  3
ACAD_PLOTSETTINGS
350
458FC
  3
ACAD_PLOTSTYLENAME
350
458F9
  3
ACDBHEADERROUNDTRIPXREC
350
45F6F
  3
ACDBVARIABLEDICTIONARY
350
458E1
  0
DICTIONARY
  5
45F6D
100
AcDbDictionary
280
     1
  3
ACAD_XREC_ROUNDTRIP
360
45F6E
  0
DICTIONARY
  5
45F6B
100
AcDbDictionary
280
     1
  3
ACAD_XREC_ROUNDTRIP
360
45F6C
  0
DICTIONARY
  5
45F92
100
AcDbDictionary
280
     1
  3
ACAD_XREC_ROUNDTRIP
360
45F93
  0
DICTIONARY
  5
45F94
100
AcDbDictionary
280
     1
  3
ACAD_XREC_ROUNDTRIP
360
45F95
  0
DICTIONARY
  5
45990
100
AcDbDictionary
280
     1
  3
ACAD_LAYOUTSELFREF
360
45F91
  0
DICTIONARY
  5
4598E
100
AcDbDictionary
280
     1
  3
ACAD_LAYOUTSELFREF
360
45F90
  0
DICTIONARY
  5
45F69
100
AcDbDictionary
280
     1
  3
ACAD_XREC_ROUNDTRIP
360
45F6A
  0
DICTIONARY
  5
458CC
102
{ACAD_REACTORS
330
458CB
102
}
100
AcDbDictionary
  0
DICTIONARY
  5
458FB
102
{ACAD_XDICTIONARY
360
45F96
102
}
102
{ACAD_REACTORS
330
458CB
102
}
100
AcDbDictionary
  3
LAYOUT1
350
458FE
  3
MODEL
350
458FD
  0
DICTIONARY
  5
458D9
102
{ACAD_REACTORS
330
458CB
102
}
100
AcDbDictionary
  3
STANDARD
350
458DA
  0
DICTIONARY
  5
458FC
102
{ACAD_REACTORS
330
458CB
102
}
100
AcDbDictionary
  0
ACAD_PROXY_OBJECT
  5
458F9
102
{ACAD_REACTORS
330
458CB
102
}
100
AcDbProxyObject
 90
      499
 91
      501
 93
       86
310
405010041939BDC9B585B0
350
458FA
340
458FA
 94
        0
  0
DICTIONARY
  5
45F6F
102
{ACAD_REACTORS
330
458CB
102
}
100
AcDbDictionary
  3
CEPSNTYPE
350
45F79
  3
DIMSTYLEDATA
350
45F7D
  3
FINGERPRINTGUID
350
45F7A
  3
HYPERLINKBASE
350
45F72
  3
INSUNITS
350
45F78
  3
LAYOUTDICT
350
45F74
  3
LWETCUNION
350
45F77
  3
PLOTSETDICT
350
45F75
  3
PLOTSTYLNAMDICT
350
45F76
  3
PSVPSCALE
350
45F7C
  3
PUCSBASE
350
45F80
  3
PUCSORGBACK
350
45F86
  3
PUCSORGBOTTOM
350
45F82
  3
PUCSORGFRONT
350
45F85
  3
PUCSORGLEFT
350
45F83
  3
PUCSORGRIGHT
350
45F84
  3
PUCSORGTOP
350
45F81
  3
PUCSORTHOREF
350
45F7E
  3
PUCSORTHOVIEW
350
45F7F
  3
STYLESHEET
350
45F73
  3
TSTACKALIGN
350
45F70
  3
TSTACKSIZE
350
45F71
  3
UCSBASE
350
45F89
  3
UCSORGBACK
350
45F8F
  3
UCSORGBOTTOM
350
45F8B
  3
UCSORGFRONT
350
45F8E
  3
UCSORGLEFT
350
45F8C
  3
UCSORGRIGHT
350
45F8D
  3
UCSORGTOP
350
45F8A
  3
UCSORTHOREF
350
45F87
  3
UCSORTHOVIEW
350
45F88
  3
VERSIONGUID
350
45F7B
  0
DICTIONARY
  5
458E1
102
{ACAD_REACTORS
330
458CB
102
}
100
AcDbDictionary
  3
DIMADEC
350
458E2
  0
XRECORD
  5
45F6E
102
{ACAD_REACTORS
330
45F6D
102
}
100
AcDbXrecord
102
EXTNAMES
  1
*ACTIVE
  2
*Active
102
UCS
 74
     0
 71
     1
 10
0.0
 20
0.0
 30
0.0
 10
1.0
 20
0.0
 30
0.0
 10
0.0
 20
1.0
 30
0.0
146
0.0
 79
     1
102
VIEW
281
     0
  0
XRECORD
  5
45F6C
102
{ACAD_REACTORS
330
45F6B
102
}
100
AcDbXrecord
102
EXTNAMES
  1
DEFPOINTS
  2
Defpoints
102
PLOTBIT
280
     0
  0
XRECORD
  5
45F93
102
{ACAD_REACTORS
330
45F92
102
}
100
AcDbXrecord
102
ACADR14ROUNDTRIP
1000
DSTYLE
1002
{
1070
   276
 70
     2
1070
   277
 70
     5
1002
}
  0
XRECORD
  5
45F95
102
{ACAD_REACTORS
330
45F94
102
}
100
AcDbXrecord
102
ACADR14ROUNDTRIP
1000
DSTYLE
1002
{
1070
   276
 70
     2
1070
   277
 70
     5
1002
}
  0
XRECORD
  5
45F91
102
{ACAD_REACTORS
330
45990
102
}
100
AcDbXrecord
340
458D6
  0
XRECORD
  5
45F90
102
{ACAD_REACTORS
330
4598E
102
}
100
AcDbXrecord
340
458D3
  0
XRECORD
  5
45F6A
102
{ACAD_REACTORS
330
45F69
102
}
100
AcDbXrecord
102
EXTNAMES
  1
SCALEINCH
  2
scaleinch
  0
DICTIONARY
  5
45F96
100
AcDbDictionary
280
     1
  3
ACAD_XREC_ROUNDTRIP
360
45F97
  0
ACAD_PROXY_OBJECT
  5
458FE
102
{ACAD_REACTORS
330
458FB
102
}
100
AcDbProxyObject
 90
      499
 91
      503
 93
     1348
310
91D4850204C617365724A65742035303030205365726965732050434C20362C00AAAAAA416AA547D11959985D5B1D08148C4D081C195B88185CDCDA59DB9B595B9D1CCB98DD1891069074C61796F75743140501A800000000000000000000000000000000000000000000A1000000000000008902A6A6A10232D5E076BC551
310
0408CB5781DAF154410232D5E076BC5510408CB5781DAF15C410232D5E076BC5710408CB5781DAF15C4D
330
458D3
330
0
340
0
340
0
 94
        0
  0
ACAD_PROXY_OBJECT
  5
458FD
102
{ACAD_REACTORS
330
458FB
102
}
100
AcDbProxyObject
 90
      499
 91
      503
 93
     1532
310
90B6E6F6E655F6465766963652C0B80000006066661940000000181999865000000000068661940000000001A1986500000000C0CCFC6A4000000018199D9C5011C4C65747465725F28382E35305F785F31312E30305F496E6368657329A901AAA547D11959985D5B1D08148C4D081C195B88185CDCDA59DB9B595B9D1CCB9
310
8DD18A42E18441CF4283C4016BB6791F391CE101054D6F64656C901A800000000000000000000000000000000000000000000A1000000000000008902A6A6AAAA0
330
458D6
330
0
340
0
340
0
 94
        0
  0
MLINESTYLE
  5
458DA
102
{ACAD_REACTORS
330
458D9
102
}
100
AcDbMlineStyle
  2
STANDARD
 70
     0
  3

 62
   256
 51
90.0
 52
90.0
 71
     2
 49
0.5
 62
   256
  6
BYLAYER
 49
-0.5
 62
   256
  6
BYLAYER
  0
ACAD_PROXY_OBJECT
  5
458FA
102
{ACAD_REACTORS
330
458F9
102
}
100
AcDbProxyObject
 90
      499
 91
      502
 93
        0
 94
        0
  0
XRECORD
  5
45F79
102
{ACAD_REACTORS
330
45F6F
102
}
100
AcDbXrecord
 90
        0
  0
XRECORD
  5
45F7D
102
{ACAD_REACTORS
330
45F6F
102
}
100
AcDbXrecord
1000
DSTYLE
1002
{
1070
   276
 70
     2
1070
   277
 70
     5
1002
}
  0
XRECORD
  5
45F7A
102
{ACAD_REACTORS
330
45F6F
102
}
100
AcDbXrecord
  1
{63D389F6-1A84-11D4-A150-00A0CC3303EC}
  0
XRECORD
  5
45F72
102
{ACAD_REACTORS
330
45F6F
102
}
100
AcDbXrecord
  1

  0
XRECORD
  5
45F78
102
{ACAD_REACTORS
330
45F6F
102
}
100
AcDbXrecord
 90
        0
  0
XRECORD
  5
45F74
102
{ACAD_REACTORS
330
45F6F
102
}
100
AcDbXrecord
340
458FB
  0
XRECORD
  5
45F77
102
{ACAD_REACTORS
330
45F6F
102
}
100
AcDbXrecord
 90
    14877
  0
XRECORD
  5
45F75
102
{ACAD_REACTORS
330
45F6F
102
}
100
AcDbXrecord
340
458FC
  0
XRECORD
  5
45F76
102
{ACAD_REACTORS
330
45F6F
102
}
100
AcDbXrecord
340
458F9
  0
XRECORD
  5
45F7C
102
{ACAD_REACTORS
330
45F6F
102
}
100
AcDbXrecord
 40
0.0
  0
XRECORD
  5
45F80
102
{ACAD_REACTORS
330
45F6F
102
}
100
AcDbXrecord
340
0
  0
XRECORD
  5
45F86
102
{ACAD_REACTORS
330
45F6F
102
}
100
AcDbXrecord
 10
0.0
 20
0.0
 30
0.0
  0
XRECORD
  5
45F82
102
{ACAD_REACTORS
330
45F6F
102
}
100
AcDbXrecord
 10
0.0
 20
0.0
 30
0.0
  0
XRECORD
  5
45F85
102
{ACAD_REACTORS
330
45F6F
102
}
100
AcDbXrecord
 10
0.0
 20
0.0
 30
0.0
  0
XRECORD
  5
45F83
102
{ACAD_REACTORS
330
45F6F
102
}
100
AcDbXrecord
 10
0.0
 20
0.0
 30
0.0
  0
XRECORD
  5
45F84
102
{ACAD_REACTORS
330
45F6F
102
}
100
AcDbXrecord
 10
0.0
 20
0.0
 30
0.0
  0
XRECORD
  5
45F81
102
{ACAD_REACTORS
330
45F6F
102
}
100
AcDbXrecord
 10
0.0
 20
0.0
 30
0.0
  0
XRECORD
  5
45F7E
102
{ACAD_REACTORS
330
45F6F
102
}
100
AcDbXrecord
340
0
  0
XRECORD
  5
45F7F
102
{ACAD_REACTORS
330
45F6F
102
}
100
AcDbXrecord
 70
     0
  0
XRECORD
  5
45F73
102
{ACAD_REACTORS
330
45F6F
102
}
100
AcDbXrecord
  1

  0
XRECORD
  5
45F70
102
{ACAD_REACTORS
330
45F6F
102
}
100
AcDbXrecord
 90
        1
  0
XRECORD
  5
45F71
102
{ACAD_REACTORS
330
45F6F
102
}
100
AcDbXrecord
 90
       70
  0
XRECORD
  5
45F89
102
{ACAD_REACTORS
330
45F6F
102
}
100
AcDbXrecord
340
0
  0
XRECORD
  5
45F8F
102
{ACAD_REACTORS
330
45F6F
102
}
100
AcDbXrecord
 10
0.0
 20
0.0
 30
0.0
  0
XRECORD
  5
45F8B
102
{ACAD_REACTORS
330
45F6F
102
}
100
AcDbXrecord
 10
0.0
 20
0.0
 30
0.0
  0
XRECORD
  5
45F8E
102
{ACAD_REACTORS
330
45F6F
102
}
100
AcDbXrecord
 10
0.0
 20
0.0
 30
0.0
  0
XRECORD
  5
45F8C
102
{ACAD_REACTORS
330
45F6F
102
}
100
AcDbXrecord
 10
0.0
 20
0.0
 30
0.0
  0
XRECORD
  5
45F8D
102
{ACAD_REACTORS
330
45F6F
102
}
100
AcDbXrecord
 10
0.0
 20
0.0
 30
0.0
  0
XRECORD
  5
45F8A
102
{ACAD_REACTORS
330
45F6F
102
}
100
AcDbXrecord
 10
0.0
 20
0.0
 30
0.0
  0
XRECORD
  5
45F87
102
{ACAD_REACTORS
330
45F6F
102
}
100
AcDbXrecord
340
0
  0
XRECORD
  5
45F88
102
{ACAD_REACTORS
330
45F6F
102
}
100
AcDbXrecord
 70
     1
  0
XRECORD
  5
45F7B
102
{ACAD_REACTORS
330
45F6F
102
}
100
AcDbXrecord
  1
{0A3D2BBC-ADAD-4CDC-8502-B99059988CD0}
  0
DICTIONARYVAR
  5
458E2
102
{ACAD_REACTORS
330
458E1
102
}
100
DictionaryVariables
280
     0
  1
0
  0
XRECORD
  5
45F97
102
{ACAD_REACTORS
330
45F96
102
}
100
AcDbXrecord
102
EXTNAMES
  1
LAYOUT1
  2
Layout1
  1
MODEL
  2
Model
  0
ENDSEC
  0
EOF
