  0
SECTION
  2
HEADER
  9
$ACADVER
  1
AC1014
  9
$ACADMAINTVER
 70
     8
  9
$DWGCODEPAGE
  3
ANSI_1252
  9
$INSBASE
 10
0.0
 20
0.0
 30
0.0
  9
$EXTMIN
 10
-1.0775
 20
-1.0775
 30
-2.215
  9
$EXTMAX
 10
2.90291
 20
1.420116
 30
0.815
  9
$LIMMIN
 10
0.0
 20
0.0
  9
$LIMMAX
 10
12.0
 20
9.0
  9
$ORTHOMODE
 70
     0
  9
$REGENMODE
 70
     1
  9
$FILLMODE
 70
     1
  9
$QTEXTMODE
 70
     0
  9
$MIRRTEXT
 70
     1
  9
$DRAGMODE
 70
     2
  9
$LTSCALE
 40
1.0
  9
$OSMODE
 70
    37
  9
$ATTMODE
 70
     1
  9
$TEXTSIZE
 40
0.12
  9
$TRACEWID
 40
0.05
  9
$TEXTSTYLE
  7
STANDARD
  9
$CLAYER
  8
0
  9
$CELTYPE
  6
BYLAYER
  9
$CECOLOR
 62
   256
  9
$CELTSCALE
 40
1.0
  9
$DELOBJ
 70
     1
  9
$DISPSILH
 70
     0
  9
$DIMSCALE
 40
1.0
  9
$DIMASZ
 40
0.09
  9
$DIMEXO
 40
0.0625
  9
$DIMDLI
 40
0.375
  9
$DIMRND
 40
0.0
  9
$DIMDLE
 40
0.0
  9
$DIMEXE
 40
0.18
  9
$DIMTP
 40
0.0
  9
$DIMTM
 40
0.0
  9
$DIMTXT
 40
0.09
  9
$DIMCEN
 40
0.09
  9
$DIMTSZ
 40
0.0
  9
$DIMTOL
 70
     0
  9
$DIMLIM
 70
     0
  9
$DIMTIH
 70
     0
  9
$DIMTOH
 70
     1
  9
$DIMSE1
 70
     0
  9
$DIMSE2
 70
     0
  9
$DIMTAD
 70
     0
  9
$DIMZIN
 70
     4
  9
$DIMBLK
  1

  9
$DIMASO
 70
     1
  9
$DIMSHO
 70
     1
  9
$DIMPOST
  1

  9
$DIMAPOST
  1

  9
$DIMALT
 70
     1
  9
$DIMALTD
 70
     2
  9
$DIMALTF
 40
25.4
  9
$DIMLFAC
 40
1.0
  9
$DIMTOFL
 70
     0
  9
$DIMTVP
 40
0.0
  9
$DIMTIX
 70
     0
  9
$DIMSOXD
 70
     0
  9
$DIMSAH
 70
     0
  9
$DIMBLK1
  1

  9
$DIMBLK2
  1

  9
$DIMSTYLE
  2
ABECAD_3D
  9
$DIMCLRD
 70
     0
  9
$DIMCLRE
 70
     0
  9
$DIMCLRT
 70
     0
  9
$DIMTFAC
 40
1.5
  9
$DIMGAP
 40
0.09
  9
$DIMJUST
 70
     0
  9
$DIMSD1
 70
     0
  9
$DIMSD2
 70
     0
  9
$DIMTOLJ
 70
     1
  9
$DIMTZIN
 70
     4
  9
$DIMALTZ
 70
     4
  9
$DIMALTTZ
 70
     4
  9
$DIMFIT
 70
     5
  9
$DIMUPT
 70
     1
  9
$DIMUNIT
 70
     7
  9
$DIMDEC
 70
     6
  9
$DIMTDEC
 70
     6
  9
$DIMALTU
 70
     2
  9
$DIMALTTD
 70
     2
  9
$DIMTXSTY
  7
STANDARD
  9
$DIMAUNIT
 70
     0
  9
$LUNITS
 70
     2
  9
$LUPREC
 70
     4
  9
$SKETCHINC
 40
0.1
  9
$FILLETRAD
 40
0.0
  9
$AUNITS
 70
     0
  9
$AUPREC
 70
     0
  9
$MENU
  1
ACAD
  9
$ELEVATION
 40
0.0
  9
$PELEVATION
 40
0.0
  9
$THICKNESS
 40
0.0
  9
$LIMCHECK
 70
     0
  9
$BLIPMODE
 70
     0
  9
$CHAMFERA
 40
0.0
  9
$CHAMFERB
 40
0.0
  9
$CHAMFERC
 40
0.0
  9
$CHAMFERD
 40
0.0
  9
$SKPOLY
 70
     0
  9
$TDCREATE
 40
2451726.480055787
  9
$TDUPDATE
 40
2452010.485948842
  9
$TDINDWG
 40
0.0088931713
  9
$TDUSRTIMER
 40
0.0088931713
  9
$USRTIMER
 70
     1
  9
$ANGBASE
 50
0.0
  9
$ANGDIR
 70
     0
  9
$PDMODE
 70
     3
  9
$PDSIZE
 40
0.09
  9
$PLINEWID
 40
0.0
  9
$COORDS
 70
     1
  9
$SPLFRAME
 70
     1
  9
$SPLINETYPE
 70
     6
  9
$SPLINESEGS
 70
     8
  9
$ATTDIA
 70
     0
  9
$ATTREQ
 70
     1
  9
$HANDLING
 70
     1
  9
$HANDSEED
  5
45DE9
  9
$SURFTAB1
 70
     6
  9
$SURFTAB2
 70
     6
  9
$SURFTYPE
 70
     6
  9
$SURFU
 70
     6
  9
$SURFV
 70
     6
  9
$UCSNAME
  2

  9
$UCSORG
 10
0.0
 20
0.0
 30
0.0
  9
$UCSXDIR
 10
1.0
 20
0.0
 30
0.0
  9
$UCSYDIR
 10
0.0
 20
1.0
 30
0.0
  9
$PUCSNAME
  2

  9
$PUCSORG
 10
0.0
 20
0.0
 30
0.0
  9
$PUCSXDIR
 10
1.0
 20
0.0
 30
0.0
  9
$PUCSYDIR
 10
0.0
 20
1.0
 30
0.0
  9
$USERI1
 70
     0
  9
$USERI2
 70
     0
  9
$USERI3
 70
     0
  9
$USERI4
 70
     0
  9
$USERI5
 70
     0
  9
$USERR1
 40
0.0
  9
$USERR2
 40
0.0
  9
$USERR3
 40
0.0
  9
$USERR4
 40
0.0
  9
$USERR5
 40
0.0
  9
$WORLDVIEW
 70
     1
  9
$SHADEDGE
 70
     3
  9
$SHADEDIF
 70
    70
  9
$TILEMODE
 70
     1
  9
$MAXACTVP
 70
    16
  9
$PINSBASE
 10
0.0
 20
0.0
 30
0.0
  9
$PLIMCHECK
 70
     0
  9
$PEXTMIN
 10
1.000000E+20
 20
1.000000E+20
 30
1.000000E+20
  9
$PEXTMAX
 10
-1.000000E+20
 20
-1.000000E+20
 30
-1.000000E+20
  9
$PLIMMIN
 10
0.0
 20
0.0
  9
$PLIMMAX
 10
12.0
 20
9.0
  9
$UNITMODE
 70
     0
  9
$VISRETAIN
 70
     0
  9
$PLINEGEN
 70
     0
  9
$PSLTSCALE
 70
     1
  9
$TREEDEPTH
 70
  3020
  9
$PICKSTYLE
 70
     1
  9
$CMLSTYLE
  2
STANDARD
  9
$CMLJUST
 70
     0
  9
$CMLSCALE
 40
1.0
  9
$PROXYGRAPHICS
 70
     1
  9
$MEASUREMENT
 70
     0
  0
ENDSEC
  0
SECTION
  2
CLASSES
  0
CLASS
  1
DICTIONARYVAR
  2
AcDbDictionaryVar
  3
"AutoCAD"
 90
        0
280
     0
281
     0
  0
CLASS
  1
ACDBDICTIONARYWDFLT
  2
AcDbDictionaryWithDefault
  3
AutoCAD 2000
 90
        0
280
     0
281
     0
  0
CLASS
  1
ACDBPLACEHOLDER
  2
AcDbPlaceHolder
  3
AutoCAD 2000
 90
        0
280
     0
281
     0
  0
CLASS
  1
LAYOUT
  2
AcDbLayout
  3
AutoCAD 2000
 90
        0
280
     0
281
     0
  0
CLASS
  1
LONG_TRANSACTION
  2
AcDbLongTransaction
  3
AutoCAD 2000
 90
        0
280
     0
281
     0
  0
CLASS
  1
LWPOLYLINE
  2
AcDbPolyline
  3
"AutoCAD"
 90
        0
280
     0
281
     1
  0
CLASS
  1
HATCH
  2
AcDbHatch
  3
"ACAD_SEDONA"
 90
        0
280
     0
281
     1
  0
CLASS
  1
XRECORD
  2
AcDbXrecord
  3
"<Built In>"
 90
        0
280
     0
281
     0
  0
CLASS
  1
LONG_TRANSACTION
  2
AcDbLongTransaction
  3
AutoCAD 2000
 90
        0
280
     0
281
     0
  0
CLASS
  1
LWPOLYLINE
  2
AcDbPolyline
  3
"AutoCAD"
 90
        0
280
     0
281
     1
  0
CLASS
  1
HATCH
  2
AcDbHatch
  3
"ACAD_SEDONA"
 90
        0
280
     0
281
     1
  0
CLASS
  1
XRECORD
  2
AcDbXrecord
  3
"<Built In>"
 90
        0
280
     0
281
     0
  0
CLASS
  1
LONG_TRANSACTION
  2
AcDbLongTransaction
  3
AutoCAD 2000
 90
        0
280
     0
281
     0
  0
CLASS
  1
LWPOLYLINE
  2
AcDbPolyline
  3
"AutoCAD"
 90
        0
280
     0
281
     1
  0
CLASS
  1
HATCH
  2
AcDbHatch
  3
"ACAD_SEDONA"
 90
        0
280
     0
281
     1
  0
CLASS
  1
XRECORD
  2
AcDbXrecord
  3
"<Built In>"
 90
        0
280
     0
281
     0
  0
CLASS
  1
LONG_TRANSACTION
  2
AcDbLongTransaction
  3
AutoCAD 2000
 90
        0
280
     0
281
     0
  0
CLASS
  1
LWPOLYLINE
  2
AcDbPolyline
  3
"AutoCAD"
 90
        0
280
     0
281
     1
  0
CLASS
  1
HATCH
  2
AcDbHatch
  3
"ACAD_SEDONA"
 90
        0
280
     0
281
     1
  0
CLASS
  1
XRECORD
  2
AcDbXrecord
  3
"<Built In>"
 90
        0
280
     0
281
     0
  0
CLASS
  1
LONG_TRANSACTION
  2
AcDbLongTransaction
  3
AutoCAD 2000
 90
        0
280
     0
281
     0
  0
CLASS
  1
LWPOLYLINE
  2
AcDbPolyline
  3
"AutoCAD"
 90
        0
280
     0
281
     1
  0
CLASS
  1
HATCH
  2
AcDbHatch
  3
"ACAD_SEDONA"
 90
        0
280
     0
281
     1
  0
CLASS
  1
XRECORD
  2
AcDbXrecord
  3
"<Built In>"
 90
        0
280
     0
281
     0
  0
CLASS
  1
LONG_TRANSACTION
  2
AcDbLongTransaction
  3
AutoCAD 2000
 90
        0
280
     0
281
     0
  0
CLASS
  1
LWPOLYLINE
  2
AcDbPolyline
  3
"AutoCAD"
 90
        0
280
     0
281
     1
  0
CLASS
  1
HATCH
  2
AcDbHatch
  3
"ACAD_SEDONA"
 90
        0
280
     0
281
     1
  0
CLASS
  1
XRECORD
  2
AcDbXrecord
  3
"<Built In>"
 90
        0
280
     0
281
     0
  0
CLASS
  1
LONG_TRANSACTION
  2
AcDbLongTransaction
  3
AutoCAD 2000
 90
        0
280
     0
281
     0
  0
CLASS
  1
LWPOLYLINE
  2
AcDbPolyline
  3
"AutoCAD"
 90
        0
280
     0
281
     1
  0
CLASS
  1
HATCH
  2
AcDbHatch
  3
"ACAD_SEDONA"
 90
        0
280
     0
281
     1
  0
CLASS
  1
XRECORD
  2
AcDbXrecord
  3
"<Built In>"
 90
        0
280
     0
281
     0
  0
CLASS
  1
LONG_TRANSACTION
  2
AcDbLongTransaction
  3
AutoCAD 2000
 90
        0
280
     0
281
     0
  0
CLASS
  1
LWPOLYLINE
  2
AcDbPolyline
  3
"AutoCAD"
 90
        0
280
     0
281
     1
  0
CLASS
  1
HATCH
  2
AcDbHatch
  3
"ACAD_SEDONA"
 90
        0
280
     0
281
     1
  0
CLASS
  1
XRECORD
  2
AcDbXrecord
  3
"<Built In>"
 90
        0
280
     0
281
     0
  0
ENDSEC
  0
SECTION
  2
TABLES
  0
TABLE
  2
VPORT
  5
458C7
100
AcDbSymbolTable
 70
     1
  0
VPORT
  5
45DB8
102
{ACAD_XDICTIONARY
360
45DBB
102
}
100
AcDbSymbolTableRecord
100
AcDbViewportTableRecord
  2
*ACTIVE
 70
     0
 10
0.0
 20
0.0
 11
1.0
 21
1.0
 12
0.91258
 22
0.171193
 13
0.0
 23
0.0
 14
0.25
 24
0.25
 15
0.25
 25
0.25
 16
0.0
 26
0.0
 36
1.0
 17
0.0
 27
0.0
 37
0.0
 40
2.539984
 41
1.960674
 42
50.0
 43
0.0
 44
0.0
 50
0.0
 51
0.0
 71
     0
 72
 20000
 73
     1
 74
     1
 75
     0
 76
     0
 77
     0
 78
     0
  0
ENDTAB
  0
TABLE
  2
LTYPE
  5
458C4
100
AcDbSymbolTable
 70
     1
  0
LTYPE
  5
458D0
100
AcDbSymbolTableRecord
100
AcDbLinetypeTableRecord
  2
BYBLOCK
 70
     0
  3

 72
    65
 73
     0
 40
0.0
  0
LTYPE
  5
458D1
100
AcDbSymbolTableRecord
100
AcDbLinetypeTableRecord
  2
BYLAYER
 70
     0
  3

 72
    65
 73
     0
 40
0.0
  0
LTYPE
  5
458D2
100
AcDbSymbolTableRecord
100
AcDbLinetypeTableRecord
  2
CONTINUOUS
 70
     0
  3
Solid line
 72
    65
 73
     0
 40
0.0
  0
ENDTAB
  0
TABLE
  2
LAYER
  5
458C1
100
AcDbSymbolTable
 70
     7
  0
LAYER
  5
458CD
100
AcDbSymbolTableRecord
100
AcDbLayerTableRecord
  2
0
 70
     0
 62
     7
  6
CONTINUOUS
  0
LAYER
  5
458EA
100
AcDbSymbolTableRecord
100
AcDbLayerTableRecord
  2
DIMS-MTG-HOLES
 70
     0
 62
     1
  6
CONTINUOUS
  0
LAYER
  5
458EB
100
AcDbSymbolTableRecord
100
AcDbLayerTableRecord
  2
ATTRIBUTES
 70
     0
 62
     7
  6
CONTINUOUS
  0
LAYER
  5
4593B
102
{ACAD_XDICTIONARY
360
45DE4
102
}
100
AcDbSymbolTableRecord
100
AcDbLayerTableRecord
  2
AREA1
 70
     0
 62
    -7
  6
CONTINUOUS
  0
LAYER
  5
45940
102
{ACAD_XDICTIONARY
360
45DB9
102
}
100
AcDbSymbolTableRecord
100
AcDbLayerTableRecord
  2
DEFPOINTS
 70
     0
 62
    -7
  6
CONTINUOUS
  0
LAYER
  5
45954
100
AcDbSymbolTableRecord
100
AcDbLayerTableRecord
  2
SCALE
 70
     0
 62
    -7
  6
CONTINUOUS
  0
LAYER
  5
459D2
100
AcDbSymbolTableRecord
100
AcDbLayerTableRecord
  2
SNAP_POINTS
 70
     0
 62
    -1
  6
CONTINUOUS
  0
ENDTAB
  0
TABLE
  2
STYLE
  5
458C2
100
AcDbSymbolTable
 70
     1
  0
STYLE
  5
458CE
100
AcDbSymbolTableRecord
100
AcDbTextStyleTableRecord
  2
STANDARD
 70
     0
 40
0.0
 41
1.0
 50
0.0
 71
     0
 42
0.12
  3
txt
  4

  0
ENDTAB
  0
TABLE
  2
VIEW
  5
458C5
100
AcDbSymbolTable
 70
     0
  0
ENDTAB
  0
TABLE
  2
UCS
  5
458C6
100
AcDbSymbolTable
 70
     0
  0
ENDTAB
  0
TABLE
  2
APPID
  5
458C8
100
AcDbSymbolTable
 70
     1
  0
APPID
  5
458CF
100
AcDbSymbolTableRecord
100
AcDbRegAppTableRecord
  2
ACAD
 70
     0
  0
ENDTAB
  0
TABLE
  2
DIMSTYLE
  5
458C9
100
AcDbSymbolTable
 70
     1
  0
DIMSTYLE
105
458F6
102
{ACAD_XDICTIONARY
360
45DE0
102
}
102
{ACAD_REACTORS
330
45D3A
330
45D48
102
}
100
AcDbSymbolTableRecord
100
AcDbDimStyleTableRecord
  2
ABECAD_3D
 70
     0
  3

  4

  5

  6

  7

 40
1.0
 41
0.09
 42
0.0625
 43
0.375
 44
0.18
 45
0.0
 46
0.0
 47
0.0
 48
0.0
140
0.09
141
0.09
142
0.0
143
25.4
144
1.0
145
0.0
146
1.5
147
0.09
 71
     0
 72
     0
 73
     0
 74
     1
 75
     0
 76
     0
 77
     0
 78
     4
170
     1
171
     2
172
     0
173
     0
174
     0
175
     0
176
     0
177
     0
178
     0
270
     7
271
     6
272
     6
273
     2
274
     2
340
458CE
275
     0
280
     0
281
     0
282
     0
283
     1
284
     4
285
     4
286
     4
287
     5
288
     1
  0
ENDTAB
  0
TABLE
  2
BLOCK_RECORD
  5
458C0
100
AcDbSymbolTable
 70
     2
  0
BLOCK_RECORD
  5
458D6
102
{ACAD_XDICTIONARY
360
4592C
102
}
100
AcDbSymbolTableRecord
100
AcDbBlockTableRecord
  2
*MODEL_SPACE
  0
BLOCK_RECORD
  5
458D3
102
{ACAD_XDICTIONARY
360
4592A
102
}
100
AcDbSymbolTableRecord
100
AcDbBlockTableRecord
  2
*PAPER_SPACE
  0
BLOCK_RECORD
  5
45D3B
100
AcDbSymbolTableRecord
100
AcDbBlockTableRecord
  2
*D0
  0
BLOCK_RECORD
  5
45D49
100
AcDbSymbolTableRecord
100
AcDbBlockTableRecord
  2
*D1
  0
ENDTAB
  0
ENDSEC
  0
SECTION
  2
BLOCKS
  0
BLOCK
  5
458DF
100
AcDbEntity
  8
0
100
AcDbBlockBegin
  2
*MODEL_SPACE
 70
     0
 10
0.0
 20
0.0
 30
0.0
  3
*MODEL_SPACE
  1

  0
ENDBLK
  5
458E0
100
AcDbEntity
  8
0
100
AcDbBlockEnd
  0
BLOCK
  5
458DD
100
AcDbEntity
 67
     1
  8
0
100
AcDbBlockBegin
  2
*PAPER_SPACE
 70
     0
 10
0.0
 20
0.0
 30
0.0
  3
*PAPER_SPACE
  1

  0
ENDBLK
  5
458DE
100
AcDbEntity
 67
     1
  8
0
100
AcDbBlockEnd
  0
BLOCK
  5
45D46
100
AcDbEntity
  8
0
100
AcDbBlockBegin
  2
*D0
 70
     1
 10
0.0
 20
0.0
 30
0.0
  3
*D0
  1

  0
LINE
  5
45D3C
100
AcDbEntity
  8
AREA1
 62
     0
100
AcDbLine
 10
-1.0775
 20
1.14
 30
0.0
 11
-1.0775
 21
1.420116
 31
0.0
1001
ACAD
1000
RTLwPs
1070
   158
  0
LINE
  5
45D3D
100
AcDbEntity
  8
AREA1
 62
     0
100
AcDbLine
 10
1.0775
 20
1.14
 30
0.0
 11
1.0775
 21
1.420116
 31
0.0
1001
ACAD
1000
RTLwPs
1070
   158
  0
LINE
  5
45D3E
100
AcDbEntity
  8
AREA1
 62
     0
100
AcDbLine
 10
-0.9875
 20
1.240116
 30
0.0
 11
-0.641972
 21
1.240116
 31
0.0
1001
ACAD
1000
RTLwPs
1070
   158
  0
LINE
  5
45D3F
100
AcDbEntity
  8
AREA1
 62
     0
100
AcDbLine
 10
0.9875
 20
1.240116
 30
0.0
 11
0.648028
 21
1.240116
 31
0.0
1001
ACAD
1000
RTLwPs
1070
   158
  0
MTEXT
  5
45D40
100
AcDbEntity
  8
AREA1
 62
     0
100
AcDbMText
 10
0.003028
 20
1.240116
 30
0.0
 40
0.09
 41
0.0
 71
     5
 72
     1
  1
\A1;2 5/32 [54.74]
1001
ACAD
1000
MTEXTBEGIN
1070
    73
1070
     1
1070
    44
1040
1.0
1070
    74
1070
     0
1000
MTEXTEND
1000
MTEXTBEGIN
1070
    73
1070
     1
1070
    44
1040
1.0
1070
    74
1070
     0
1000
MTEXTEND
1000
MTEXTBEGIN
1070
    73
1070
     1
1070
    44
1040
1.0
1070
    74
1070
     0
1000
MTEXTEND
  0
SOLID
  5
45D41
100
AcDbEntity
  8
AREA1
 62
     0
100
AcDbTrace
 10
-0.9875
 20
1.255116
 30
0.0
 11
-0.9875
 21
1.225116
 31
0.0
 12
-1.0775
 22
1.240116
 32
0.0
 13
-1.0775
 23
1.240116
 33
0.0
  0
SOLID
  5
45D42
100
AcDbEntity
  8
AREA1
 62
     0
100
AcDbTrace
 10
0.9875
 20
1.255116
 30
0.0
 11
0.9875
 21
1.225116
 31
0.0
 12
1.0775
 22
1.240116
 32
0.0
 13
1.0775
 23
1.240116
 33
0.0
  0
POINT
  5
45D43
100
AcDbEntity
  8
DEFPOINTS
 62
     0
100
AcDbPoint
 10
-1.0775
 20
1.0775
 30
-0.19
  0
POINT
  5
45D44
100
AcDbEntity
  8
DEFPOINTS
 62
     0
100
AcDbPoint
 10
1.0775
 20
1.0775
 30
-0.19
  0
POINT
  5
45D45
100
AcDbEntity
  8
DEFPOINTS
 62
     0
100
AcDbPoint
 10
1.0775
 20
1.240116
 30
0.0
  0
ENDBLK
  5
45D47
100
AcDbEntity
  8
0
100
AcDbBlockEnd
  0
BLOCK
  5
45D54
100
AcDbEntity
  8
0
100
AcDbBlockBegin
  2
*D1
 70
     1
 10
0.0
 20
0.0
 30
0.0
  3
*D1
  1

  0
LINE
  5
45D4A
100
AcDbEntity
  8
AREA1
 62
     0
100
AcDbLine
 10
1.14
 20
1.0775
 30
0.0
 11
1.479782
 21
1.0775
 31
0.0
1001
ACAD
1000
RTLwPs
1070
   158
  0
LINE
  5
45D4B
100
AcDbEntity
  8
AREA1
 62
     0
100
AcDbLine
 10
1.14
 20
-1.0775
 30
0.0
 11
1.479782
 21
-1.0775
 31
0.0
1001
ACAD
1000
RTLwPs
1070
   158
  0
LINE
  5
45D4C
100
AcDbEntity
  8
AREA1
 62
     0
100
AcDbLine
 10
1.299782
 20
0.9875
 30
0.0
 11
1.299782
 21
0.589389
 31
0.0
1001
ACAD
1000
RTLwPs
1070
   158
  0
LINE
  5
45D4D
100
AcDbEntity
  8
AREA1
 62
     0
100
AcDbLine
 10
1.299782
 20
-0.9875
 30
0.0
 11
1.299782
 21
-0.700611
 31
0.0
1001
ACAD
1000
RTLwPs
1070
   158
  0
MTEXT
  5
45D4E
100
AcDbEntity
  8
AREA1
 62
     0
100
AcDbMText
 10
1.299782
 20
-0.055611
 30
0.0
 40
0.09
 41
0.0
 71
     5
 72
     1
  1
\A1;2 5/32 [54.74]
 11
0.0
 21
1.0
 31
0.0
1001
ACAD
1000
MTEXTBEGIN
1070
    73
1070
     1
1070
    44
1040
1.0
1070
    74
1070
     0
1000
MTEXTEND
1000
MTEXTBEGIN
1070
    73
1070
     1
1070
    44
1040
1.0
1070
    74
1070
     0
1000
MTEXTEND
1000
MTEXTBEGIN
1070
    73
1070
     1
1070
    44
1040
1.0
1070
    74
1070
     0
1000
MTEXTEND
  0
SOLID
  5
45D4F
100
AcDbEntity
  8
AREA1
 62
     0
100
AcDbTrace
 10
1.284782
 20
0.9875
 30
0.0
 11
1.314782
 21
0.9875
 31
0.0
 12
1.299782
 22
1.0775
 32
0.0
 13
1.299782
 23
1.0775
 33
0.0
  0
SOLID
  5
45D50
100
AcDbEntity
  8
AREA1
 62
     0
100
AcDbTrace
 10
1.284782
 20
-0.9875
 30
0.0
 11
1.314782
 21
-0.9875
 31
0.0
 12
1.299782
 22
-1.0775
 32
0.0
 13
1.299782
 23
-1.0775
 33
0.0
  0
POINT
  5
45D51
100
AcDbEntity
  8
DEFPOINTS
 62
     0
100
AcDbPoint
 10
1.0775
 20
1.0775
 30
0.0
  0
POINT
  5
45D52
100
AcDbEntity
  8
DEFPOINTS
 62
     0
100
AcDbPoint
 10
1.0775
 20
-1.0775
 30
0.0
  0
POINT
  5
45D53
100
AcDbEntity
  8
DEFPOINTS
 62
     0
100
AcDbPoint
 10
1.299782
 20
-1.0775
 30
0.0
  0
ENDBLK
  5
45D55
100
AcDbEntity
  8
0
100
AcDbBlockEnd
  0
ENDSEC
  0
SECTION
  2
ENTITIES
  0
LINE
  5
45955
100
AcDbEntity
  8
SCALE
100
AcDbLine
 10
1.825279
 20
-0.611753
 30
0.0
 11
2.825279
 21
-0.611753
 31
0.0
  0
LINE
  5
45956
100
AcDbEntity
  8
SCALE
100
AcDbLine
 10
2.825279
 20
-0.611753
 30
0.0
 11
2.825279
 21
-0.711753
 31
0.0
  0
LINE
  5
45957
100
AcDbEntity
  8
SCALE
100
AcDbLine
 10
2.825279
 20
-0.711753
 30
0.0
 11
2.825279
 21
-0.511753
 31
0.0
  0
LINE
  5
45958
100
AcDbEntity
  8
SCALE
100
AcDbLine
 10
1.825279
 20
-0.711753
 30
0.0
 11
1.825279
 21
-0.511753
 31
0.0
  0
LINE
  5
45959
100
AcDbEntity
  8
SCALE
100
AcDbLine
 10
1.825279
 20
-1.011753
 30
0.0
 11
1.825279
 21
-0.811753
 31
0.0
  0
LINE
  5
4595A
100
AcDbEntity
  8
SCALE
100
AcDbLine
 10
2.218979
 20
-1.011753
 30
0.0
 11
2.218979
 21
-0.811753
 31
0.0
  0
LINE
  5
4595B
100
AcDbEntity
  8
SCALE
100
AcDbLine
 10
1.825279
 20
-0.911753
 30
0.0
 11
2.218979
 21
-0.911753
 31
0.0
  0
TEXT
  5
4595C
100
AcDbEntity
  8
SCALE
100
AcDbText
 10
1.884702
 20
-0.866013
 30
0.0
 40
0.0625
  1
[10mm]
100
AcDbText
  0
TEXT
  5
4595D
100
AcDbEntity
  8
SCALE
100
AcDbText
 10
2.188562
 20
-0.542704
 30
0.0
 40
0.0625
  1
1 Inch
100
AcDbText
  0
TEXT
  5
4595E
100
AcDbEntity
  8
SCALE
100
AcDbText
 10
1.82681
 20
-0.336876
 30
0.0
 40
0.0625
  1
SCALE:
100
AcDbText
  0
LWPOLYLINE
  5
4595F
100
AcDbEntity
  8
SCALE
100
AcDbPolyline
 90
        4
 70
     1
 43
0.0
 10
1.767281
 20
-0.231674
 10
2.90291
 20
-0.231674
 10
2.90291
 20
-1.073284
 10
1.767281
 20
-1.073284
  0
ARC
  5
45C40
100
AcDbEntity
  8
0
100
AcDbCircle
 39
0.485
 10
0.0
 20
0.0
 30
-0.675
 40
0.65
100
AcDbArc
 50
31.538873
 51
148.461127
  0
ARC
  5
45C41
100
AcDbEntity
  8
0
100
AcDbCircle
 39
0.485
 10
0.0
 20
0.0
 30
-0.675
 40
0.65
100
AcDbArc
 50
211.538873
 51
328.461127
  0
CIRCLE
  5
45C42
100
AcDbEntity
  8
0
100
AcDbCircle
 39
0.815
 10
0.0
 20
0.0
 30
0.0
 40
0.1725
  0
CIRCLE
  5
45C43
100
AcDbEntity
  8
0
100
AcDbCircle
 10
0.0
 20
0.0
 30
0.0
 40
0.3335
  0
POLYLINE
  5
45C44
100
AcDbEntity
  8
0
100
AcDbPolygonMesh
 66
     1
 10
0.0
 20
0.0
 30
0.0
 70
    16
 71
     6
 72
     3
  0
VERTEX
  5
45C45
100
AcDbEntity
  8
0
100
AcDbVertex
100
AcDbPolygonMeshVertex
 10
0.9825
 20
0.34
 30
-0.19
 70
    64
  0
VERTEX
  5
45C46
100
AcDbEntity
  8
0
100
AcDbVertex
100
AcDbPolygonMeshVertex
 10
0.9825
 20
0.34
 30
-0.675
 70
    64
  0
VERTEX
  5
45C47
100
AcDbEntity
  8
0
100
AcDbVertex
100
AcDbPolygonMeshVertex
 10
0.9825
 20
0.34
 30
-0.675
 70
    64
  0
VERTEX
  5
45C48
100
AcDbEntity
  8
0
100
AcDbVertex
100
AcDbPolygonMeshVertex
 10
0.9825
 20
-0.34
 30
-0.19
 70
    64
  0
VERTEX
  5
45C49
100
AcDbEntity
  8
0
100
AcDbVertex
100
AcDbPolygonMeshVertex
 10
0.9825
 20
-0.34
 30
-0.675
 70
    64
  0
VERTEX
  5
45C4A
100
AcDbEntity
  8
0
100
AcDbVertex
100
AcDbPolygonMeshVertex
 10
0.9825
 20
-0.34
 30
-0.675
 70
    64
  0
VERTEX
  5
45C4B
100
AcDbEntity
  8
0
100
AcDbVertex
100
AcDbPolygonMeshVertex
 10
-0.9825
 20
-0.34
 30
-0.19
 70
    64
  0
VERTEX
  5
45C4C
100
AcDbEntity
  8
0
100
AcDbVertex
100
AcDbPolygonMeshVertex
 10
-0.9825
 20
-0.34
 30
-0.675
 70
    64
  0
VERTEX
  5
45C4D
100
AcDbEntity
  8
0
100
AcDbVertex
100
AcDbPolygonMeshVertex
 10
0.9825
 20
-0.34
 30
-0.675
 70
    64
  0
VERTEX
  5
45C4E
100
AcDbEntity
  8
0
100
AcDbVertex
100
AcDbPolygonMeshVertex
 10
-0.9825
 20
0.34
 30
-0.19
 70
    64
  0
VERTEX
  5
45C4F
100
AcDbEntity
  8
0
100
AcDbVertex
100
AcDbPolygonMeshVertex
 10
-0.9825
 20
0.34
 30
-0.675
 70
    64
  0
VERTEX
  5
45C50
100
AcDbEntity
  8
0
100
AcDbVertex
100
AcDbPolygonMeshVertex
 10
0.9825
 20
0.34
 30
-0.675
 70
    64
  0
VERTEX
  5
45C51
100
AcDbEntity
  8
0
100
AcDbVertex
100
AcDbPolygonMeshVertex
 10
-0.9825
 20
0.34
 30
-0.19
 70
    64
  0
VERTEX
  5
45C52
100
AcDbEntity
  8
0
100
AcDbVertex
100
AcDbPolygonMeshVertex
 10
-0.9825
 20
0.34
 30
-0.19
 70
    64
  0
VERTEX
  5
45C53
100
AcDbEntity
  8
0
100
AcDbVertex
100
AcDbPolygonMeshVertex
 10
0.9825
 20
0.34
 30
-0.19
 70
    64
  0
VERTEX
  5
45C54
100
AcDbEntity
  8
0
100
AcDbVertex
100
AcDbPolygonMeshVertex
 10
-0.9825
 20
-0.34
 30
-0.19
 70
    64
  0
VERTEX
  5
45C55
100
AcDbEntity
  8
0
100
AcDbVertex
100
AcDbPolygonMeshVertex
 10
-0.9825
 20
-0.34
 30
-0.19
 70
    64
  0
VERTEX
  5
45C56
100
AcDbEntity
  8
0
100
AcDbVertex
100
AcDbPolygonMeshVertex
 10
0.9825
 20
-0.34
 30
-0.19
 70
    64
  0
SEQEND
  5
45C57
100
AcDbEntity
  8
0
  0
POLYLINE
  5
45C58
100
AcDbEntity
  8
0
100
AcDbPolygonMesh
 66
     1
 10
0.0
 20
0.0
 30
0.0
 70
    16
 71
     6
 72
     3
  0
VERTEX
  5
45C59
100
AcDbEntity
  8
0
100
AcDbVertex
100
AcDbPolygonMeshVertex
 10
0.8125
 20
-1.0775
 30
-0.425
 70
    64
  0
VERTEX
  5
45C5A
100
AcDbEntity
  8
0
100
AcDbVertex
100
AcDbPolygonMeshVertex
 10
0.8125
 20
-1.0775
 30
-0.425
 70
    64
  0
VERTEX
  5
45C5B
100
AcDbEntity
  8
0
100
AcDbVertex
100
AcDbPolygonMeshVertex
 10
0.8125
 20
-1.0775
 30
-0.425
 70
    64
  0
VERTEX
  5
45C5C
100
AcDbEntity
  8
0
100
AcDbVertex
100
AcDbPolygonMeshVertex
 10
1.0775
 20
-0.8125
 30
-0.425
 70
    64
  0
VERTEX
  5
45C5D
100
AcDbEntity
  8
0
100
AcDbVertex
100
AcDbPolygonMeshVertex
 10
1.0775
 20
-1.0775
 30
-0.425
 70
    64
  0
VERTEX
  5
45C5E
100
AcDbEntity
  8
0
100
AcDbVertex
100
AcDbPolygonMeshVertex
 10
1.0775
 20
-1.0775
 30
-0.425
 70
    64
  0
VERTEX
  5
45C5F
100
AcDbEntity
  8
0
100
AcDbVertex
100
AcDbPolygonMeshVertex
 10
1.0775
 20
-0.8125
 30
-0.19
 70
    64
  0
VERTEX
  5
45C60
100
AcDbEntity
  8
0
100
AcDbVertex
100
AcDbPolygonMeshVertex
 10
1.0775
 20
-1.0775
 30
-0.19
 70
    64
  0
VERTEX
  5
45C61
100
AcDbEntity
  8
0
100
AcDbVertex
100
AcDbPolygonMeshVertex
 10
1.0775
 20
-1.0775
 30
-0.425
 70
    64
  0
VERTEX
  5
45C62
100
AcDbEntity
  8
0
100
AcDbVertex
100
AcDbPolygonMeshVertex
 10
0.8125
 20
-1.0775
 30
-0.19
 70
    64
  0
VERTEX
  5
45C63
100
AcDbEntity
  8
0
100
AcDbVertex
100
AcDbPolygonMeshVertex
 10
0.8125
 20
-1.0775
 30
-0.19
 70
    64
  0
VERTEX
  5
45C64
100
AcDbEntity
  8
0
100
AcDbVertex
100
AcDbPolygonMeshVertex
 10
0.8125
 20
-1.0775
 30
-0.425
 70
    64
  0
VERTEX
  5
45C65
100
AcDbEntity
  8
0
100
AcDbVertex
100
AcDbPolygonMeshVertex
 10
0.8125
 20
-1.0775
 30
-0.19
 70
    64
  0
VERTEX
  5
45C66
100
AcDbEntity
  8
0
100
AcDbVertex
100
AcDbPolygonMeshVertex
 10
0.8125
 20
-1.0775
 30
-0.19
 70
    64
  0
VERTEX
  5
45C67
100
AcDbEntity
  8
0
100
AcDbVertex
100
AcDbPolygonMeshVertex
 10
0.8125
 20
-1.0775
 30
-0.425
 70
    64
  0
VERTEX
  5
45C68
100
AcDbEntity
  8
0
100
AcDbVertex
100
AcDbPolygonMeshVertex
 10
1.0775
 20
-0.8125
 30
-0.19
 70
    64
  0
VERTEX
  5
45C69
100
AcDbEntity
  8
0
100
AcDbVertex
100
AcDbPolygonMeshVertex
 10
1.0775
 20
-0.8125
 30
-0.19
 70
    64
  0
VERTEX
  5
45C6A
100
AcDbEntity
  8
0
100
AcDbVertex
100
AcDbPolygonMeshVertex
 10
1.0775
 20
-0.8125
 30
-0.425
 70
    64
  0
SEQEND
  5
45C6B
100
AcDbEntity
  8
0
  0
POLYLINE
  5
45C6C
100
AcDbEntity
  8
0
100
AcDbPolygonMesh
 66
     1
 10
0.0
 20
0.0
 30
0.0
 70
    16
 71
     6
 72
     3
  0
VERTEX
  5
45C6D
100
AcDbEntity
  8
0
100
AcDbVertex
100
AcDbPolygonMeshVertex
 10
0.34
 20
-0.605
 30
-0.19
 70
    64
  0
VERTEX
  5
45C6E
100
AcDbEntity
  8
0
100
AcDbVertex
100
AcDbPolygonMeshVertex
 10
0.34
 20
-0.605
 30
-0.425
 70
    64
  0
VERTEX
  5
45C6F
100
AcDbEntity
  8
0
100
AcDbVertex
100
AcDbPolygonMeshVertex
 10
0.34
 20
-0.605
 30
-0.425
 70
    64
  0
VERTEX
  5
45C70
100
AcDbEntity
  8
0
100
AcDbVertex
100
AcDbPolygonMeshVertex
 10
0.605
 20
-0.34
 30
-0.19
 70
    64
  0
VERTEX
  5
45C71
100
AcDbEntity
  8
0
100
AcDbVertex
100
AcDbPolygonMeshVertex
 10
0.605
 20
-0.34
 30
-0.425
 70
    64
  0
VERTEX
  5
45C72
100
AcDbEntity
  8
0
100
AcDbVertex
100
AcDbPolygonMeshVertex
 10
0.605
 20
-0.34
 30
-0.425
 70
    64
  0
VERTEX
  5
45C73
100
AcDbEntity
  8
0
100
AcDbVertex
100
AcDbPolygonMeshVertex
 10
1.0775
 20
-0.8125
 30
-0.19
 70
    64
  0
VERTEX
  5
45C74
100
AcDbEntity
  8
0
100
AcDbVertex
100
AcDbPolygonMeshVertex
 10
1.0775
 20
-0.8125
 30
-0.425
 70
    64
  0
VERTEX
  5
45C75
100
AcDbEntity
  8
0
100
AcDbVertex
100
AcDbPolygonMeshVertex
 10
0.605
 20
-0.34
 30
-0.425
 70
    64
  0
VERTEX
  5
45C76
100
AcDbEntity
  8
0
100
AcDbVertex
100
AcDbPolygonMeshVertex
 10
0.8125
 20
-1.0775
 30
-0.19
 70
    64
  0
VERTEX
  5
45C77
100
AcDbEntity
  8
0
100
AcDbVertex
100
AcDbPolygonMeshVertex
 10
0.8125
 20
-1.0775
 30
-0.425
 70
    64
  0
VERTEX
  5
45C78
100
AcDbEntity
  8
0
100
AcDbVertex
100
AcDbPolygonMeshVertex
 10
0.34
 20
-0.605
 30
-0.425
 70
    64
  0
VERTEX
  5
45C79
100
AcDbEntity
  8
0
100
AcDbVertex
100
AcDbPolygonMeshVertex
 10
0.8125
 20
-1.0775
 30
-0.19
 70
    64
  0
VERTEX
  5
45C7A
100
AcDbEntity
  8
0
100
AcDbVertex
100
AcDbPolygonMeshVertex
 10
0.8125
 20
-1.0775
 30
-0.19
 70
    64
  0
VERTEX
  5
45C7B
100
AcDbEntity
  8
0
100
AcDbVertex
100
AcDbPolygonMeshVertex
 10
0.34
 20
-0.605
 30
-0.19
 70
    64
  0
VERTEX
  5
45C7C
100
AcDbEntity
  8
0
100
AcDbVertex
100
AcDbPolygonMeshVertex
 10
1.0775
 20
-0.8125
 30
-0.19
 70
    64
  0
VERTEX
  5
45C7D
100
AcDbEntity
  8
0
100
AcDbVertex
100
AcDbPolygonMeshVertex
 10
1.0775
 20
-0.8125
 30
-0.19
 70
    64
  0
VERTEX
  5
45C7E
100
AcDbEntity
  8
0
100
AcDbVertex
100
AcDbPolygonMeshVertex
 10
0.605
 20
-0.34
 30
-0.19
 70
    64
  0
SEQEND
  5
45C7F
100
AcDbEntity
  8
0
  0
POLYLINE
  5
45C80
100
AcDbEntity
  8
0
100
AcDbPolygonMesh
 66
     1
 10
0.0
 20
0.0
 30
0.0
 70
    16
 71
     6
 72
     3
  0
VERTEX
  5
45C81
100
AcDbEntity
  8
0
100
AcDbVertex
100
AcDbPolygonMeshVertex
 10
1.0775
 20
0.8125
 30
-0.425
 70
    64
  0
VERTEX
  5
45C82
100
AcDbEntity
  8
0
100
AcDbVertex
100
AcDbPolygonMeshVertex
 10
1.0775
 20
0.8125
 30
-0.425
 70
    64
  0
VERTEX
  5
45C83
100
AcDbEntity
  8
0
100
AcDbVertex
100
AcDbPolygonMeshVertex
 10
1.0775
 20
0.8125
 30
-0.425
 70
    64
  0
VERTEX
  5
45C84
100
AcDbEntity
  8
0
100
AcDbVertex
100
AcDbPolygonMeshVertex
 10
0.8125
 20
1.0775
 30
-0.425
 70
    64
  0
VERTEX
  5
45C85
100
AcDbEntity
  8
0
100
AcDbVertex
100
AcDbPolygonMeshVertex
 10
1.0775
 20
1.0775
 30
-0.425
 70
    64
  0
VERTEX
  5
45C86
100
AcDbEntity
  8
0
100
AcDbVertex
100
AcDbPolygonMeshVertex
 10
1.0775
 20
1.0775
 30
-0.425
 70
    64
  0
VERTEX
  5
45C87
100
AcDbEntity
  8
0
100
AcDbVertex
100
AcDbPolygonMeshVertex
 10
0.8125
 20
1.0775
 30
-0.19
 70
    64
  0
VERTEX
  5
45C88
100
AcDbEntity
  8
0
100
AcDbVertex
100
AcDbPolygonMeshVertex
 10
1.0775
 20
1.0775
 30
-0.19
 70
    64
  0
VERTEX
  5
45C89
100
AcDbEntity
  8
0
100
AcDbVertex
100
AcDbPolygonMeshVertex
 10
1.0775
 20
1.0775
 30
-0.425
 70
    64
  0
VERTEX
  5
45C8A
100
AcDbEntity
  8
0
100
AcDbVertex
100
AcDbPolygonMeshVertex
 10
1.0775
 20
0.8125
 30
-0.19
 70
    64
  0
VERTEX
  5
45C8B
100
AcDbEntity
  8
0
100
AcDbVertex
100
AcDbPolygonMeshVertex
 10
1.0775
 20
0.8125
 30
-0.19
 70
    64
  0
VERTEX
  5
45C8C
100
AcDbEntity
  8
0
100
AcDbVertex
100
AcDbPolygonMeshVertex
 10
1.0775
 20
0.8125
 30
-0.425
 70
    64
  0
VERTEX
  5
45C8D
100
AcDbEntity
  8
0
100
AcDbVertex
100
AcDbPolygonMeshVertex
 10
1.0775
 20
0.8125
 30
-0.19
 70
    64
  0
VERTEX
  5
45C8E
100
AcDbEntity
  8
0
100
AcDbVertex
100
AcDbPolygonMeshVertex
 10
1.0775
 20
0.8125
 30
-0.19
 70
    64
  0
VERTEX
  5
45C8F
100
AcDbEntity
  8
0
100
AcDbVertex
100
AcDbPolygonMeshVertex
 10
1.0775
 20
0.8125
 30
-0.425
 70
    64
  0
VERTEX
  5
45C90
100
AcDbEntity
  8
0
100
AcDbVertex
100
AcDbPolygonMeshVertex
 10
0.8125
 20
1.0775
 30
-0.19
 70
    64
  0
VERTEX
  5
45C91
100
AcDbEntity
  8
0
100
AcDbVertex
100
AcDbPolygonMeshVertex
 10
0.8125
 20
1.0775
 30
-0.19
 70
    64
  0
VERTEX
  5
45C92
100
AcDbEntity
  8
0
100
AcDbVertex
100
AcDbPolygonMeshVertex
 10
0.8125
 20
1.0775
 30
-0.425
 70
    64
  0
SEQEND
  5
45C93
100
AcDbEntity
  8
0
  0
POLYLINE
  5
45C94
100
AcDbEntity
  8
0
100
AcDbPolygonMesh
 66
     1
 10
0.0
 20
0.0
 30
0.0
 70
    16
 71
     6
 72
     3
  0
VERTEX
  5
45C95
100
AcDbEntity
  8
0
100
AcDbVertex
100
AcDbPolygonMeshVertex
 10
-1.0775
 20
-0.8125
 30
-0.425
 70
    64
  0
VERTEX
  5
45C96
100
AcDbEntity
  8
0
100
AcDbVertex
100
AcDbPolygonMeshVertex
 10
-1.0775
 20
-0.8125
 30
-0.425
 70
    64
  0
VERTEX
  5
45C97
100
AcDbEntity
  8
0
100
AcDbVertex
100
AcDbPolygonMeshVertex
 10
-1.0775
 20
-0.8125
 30
-0.425
 70
    64
  0
VERTEX
  5
45C98
100
AcDbEntity
  8
0
100
AcDbVertex
100
AcDbPolygonMeshVertex
 10
-0.8125
 20
-1.0775
 30
-0.425
 70
    64
  0
VERTEX
  5
45C99
100
AcDbEntity
  8
0
100
AcDbVertex
100
AcDbPolygonMeshVertex
 10
-1.0775
 20
-1.0775
 30
-0.425
 70
    64
  0
VERTEX
  5
45C9A
100
AcDbEntity
  8
0
100
AcDbVertex
100
AcDbPolygonMeshVertex
 10
-1.0775
 20
-1.0775
 30
-0.425
 70
    64
  0
VERTEX
  5
45C9B
100
AcDbEntity
  8
0
100
AcDbVertex
100
AcDbPolygonMeshVertex
 10
-0.8125
 20
-1.0775
 30
-0.19
 70
    64
  0
VERTEX
  5
45C9C
100
AcDbEntity
  8
0
100
AcDbVertex
100
AcDbPolygonMeshVertex
 10
-1.0775
 20
-1.0775
 30
-0.19
 70
    64
  0
VERTEX
  5
45C9D
100
AcDbEntity
  8
0
100
AcDbVertex
100
AcDbPolygonMeshVertex
 10
-1.0775
 20
-1.0775
 30
-0.425
 70
    64
  0
VERTEX
  5
45C9E
100
AcDbEntity
  8
0
100
AcDbVertex
100
AcDbPolygonMeshVertex
 10
-1.0775
 20
-0.8125
 30
-0.19
 70
    64
  0
VERTEX
  5
45C9F
100
AcDbEntity
  8
0
100
AcDbVertex
100
AcDbPolygonMeshVertex
 10
-1.0775
 20
-0.8125
 30
-0.19
 70
    64
  0
VERTEX
  5
45CA0
100
AcDbEntity
  8
0
100
AcDbVertex
100
AcDbPolygonMeshVertex
 10
-1.0775
 20
-0.8125
 30
-0.425
 70
    64
  0
VERTEX
  5
45CA1
100
AcDbEntity
  8
0
100
AcDbVertex
100
AcDbPolygonMeshVertex
 10
-1.0775
 20
-0.8125
 30
-0.19
 70
    64
  0
VERTEX
  5
45CA2
100
AcDbEntity
  8
0
100
AcDbVertex
100
AcDbPolygonMeshVertex
 10
-1.0775
 20
-0.8125
 30
-0.19
 70
    64
  0
VERTEX
  5
45CA3
100
AcDbEntity
  8
0
100
AcDbVertex
100
AcDbPolygonMeshVertex
 10
-1.0775
 20
-0.8125
 30
-0.425
 70
    64
  0
VERTEX
  5
45CA4
100
AcDbEntity
  8
0
100
AcDbVertex
100
AcDbPolygonMeshVertex
 10
-0.8125
 20
-1.0775
 30
-0.19
 70
    64
  0
VERTEX
  5
45CA5
100
AcDbEntity
  8
0
100
AcDbVertex
100
AcDbPolygonMeshVertex
 10
-0.8125
 20
-1.0775
 30
-0.19
 70
    64
  0
VERTEX
  5
45CA6
100
AcDbEntity
  8
0
100
AcDbVertex
100
AcDbPolygonMeshVertex
 10
-0.8125
 20
-1.0775
 30
-0.425
 70
    64
  0
SEQEND
  5
45CA7
100
AcDbEntity
  8
0
  0
POLYLINE
  5
45CA8
100
AcDbEntity
  8
0
100
AcDbPolygonMesh
 66
     1
 10
0.0
 20
0.0
 30
0.0
 70
    16
 71
     6
 72
     3
  0
VERTEX
  5
45CA9
100
AcDbEntity
  8
0
100
AcDbVertex
100
AcDbPolygonMeshVertex
 10
-0.8125
 20
1.0775
 30
-0.425
 70
    64
  0
VERTEX
  5
45CAA
100
AcDbEntity
  8
0
100
AcDbVertex
100
AcDbPolygonMeshVertex
 10
-0.8125
 20
1.0775
 30
-0.425
 70
    64
  0
VERTEX
  5
45CAB
100
AcDbEntity
  8
0
100
AcDbVertex
100
AcDbPolygonMeshVertex
 10
-0.8125
 20
1.0775
 30
-0.425
 70
    64
  0
VERTEX
  5
45CAC
100
AcDbEntity
  8
0
100
AcDbVertex
100
AcDbPolygonMeshVertex
 10
-1.0775
 20
0.8125
 30
-0.425
 70
    64
  0
VERTEX
  5
45CAD
100
AcDbEntity
  8
0
100
AcDbVertex
100
AcDbPolygonMeshVertex
 10
-1.0775
 20
1.0775
 30
-0.425
 70
    64
  0
VERTEX
  5
45CAE
100
AcDbEntity
  8
0
100
AcDbVertex
100
AcDbPolygonMeshVertex
 10
-1.0775
 20
1.0775
 30
-0.425
 70
    64
  0
VERTEX
  5
45CAF
100
AcDbEntity
  8
0
100
AcDbVertex
100
AcDbPolygonMeshVertex
 10
-1.0775
 20
0.8125
 30
-0.19
 70
    64
  0
VERTEX
  5
45CB0
100
AcDbEntity
  8
0
100
AcDbVertex
100
AcDbPolygonMeshVertex
 10
-1.0775
 20
1.0775
 30
-0.19
 70
    64
  0
VERTEX
  5
45CB1
100
AcDbEntity
  8
0
100
AcDbVertex
100
AcDbPolygonMeshVertex
 10
-1.0775
 20
1.0775
 30
-0.425
 70
    64
  0
VERTEX
  5
45CB2
100
AcDbEntity
  8
0
100
AcDbVertex
100
AcDbPolygonMeshVertex
 10
-0.8125
 20
1.0775
 30
-0.19
 70
    64
  0
VERTEX
  5
45CB3
100
AcDbEntity
  8
0
100
AcDbVertex
100
AcDbPolygonMeshVertex
 10
-0.8125
 20
1.0775
 30
-0.19
 70
    64
  0
VERTEX
  5
45CB4
100
AcDbEntity
  8
0
100
AcDbVertex
100
AcDbPolygonMeshVertex
 10
-0.8125
 20
1.0775
 30
-0.425
 70
    64
  0
VERTEX
  5
45CB5
100
AcDbEntity
  8
0
100
AcDbVertex
100
AcDbPolygonMeshVertex
 10
-0.8125
 20
1.0775
 30
-0.19
 70
    64
  0
VERTEX
  5
45CB6
100
AcDbEntity
  8
0
100
AcDbVertex
100
AcDbPolygonMeshVertex
 10
-0.8125
 20
1.0775
 30
-0.19
 70
    64
  0
VERTEX
  5
45CB7
100
AcDbEntity
  8
0
100
AcDbVertex
100
AcDbPolygonMeshVertex
 10
-0.8125
 20
1.0775
 30
-0.425
 70
    64
  0
VERTEX
  5
45CB8
100
AcDbEntity
  8
0
100
AcDbVertex
100
AcDbPolygonMeshVertex
 10
-1.0775
 20
0.8125
 30
-0.19
 70
    64
  0
VERTEX
  5
45CB9
100
AcDbEntity
  8
0
100
AcDbVertex
100
AcDbPolygonMeshVertex
 10
-1.0775
 20
0.8125
 30
-0.19
 70
    64
  0
VERTEX
  5
45CBA
100
AcDbEntity
  8
0
100
AcDbVertex
100
AcDbPolygonMeshVertex
 10
-1.0775
 20
0.8125
 30
-0.425
 70
    64
  0
SEQEND
  5
45CBB
100
AcDbEntity
  8
0
  0
POLYLINE
  5
45CBC
100
AcDbEntity
  8
0
100
AcDbPolygonMesh
 66
     1
 10
0.0
 20
0.0
 30
0.0
 70
    16
 71
     6
 72
     3
  0
VERTEX
  5
45CBD
100
AcDbEntity
  8
0
100
AcDbVertex
100
AcDbPolygonMeshVertex
 10
-1.0775
 20
0.8125
 30
-0.19
 70
    64
  0
VERTEX
  5
45CBE
100
AcDbEntity
  8
0
100
AcDbVertex
100
AcDbPolygonMeshVertex
 10
-1.0775
 20
0.8125
 30
-0.425
 70
    64
  0
VERTEX
  5
45CBF
100
AcDbEntity
  8
0
100
AcDbVertex
100
AcDbPolygonMeshVertex
 10
-1.0775
 20
0.8125
 30
-0.425
 70
    64
  0
VERTEX
  5
45CC0
100
AcDbEntity
  8
0
100
AcDbVertex
100
AcDbPolygonMeshVertex
 10
-0.8125
 20
1.0775
 30
-0.19
 70
    64
  0
VERTEX
  5
45CC1
100
AcDbEntity
  8
0
100
AcDbVertex
100
AcDbPolygonMeshVertex
 10
-0.8125
 20
1.0775
 30
-0.425
 70
    64
  0
VERTEX
  5
45CC2
100
AcDbEntity
  8
0
100
AcDbVertex
100
AcDbPolygonMeshVertex
 10
-0.8125
 20
1.0775
 30
-0.425
 70
    64
  0
VERTEX
  5
45CC3
100
AcDbEntity
  8
0
100
AcDbVertex
100
AcDbPolygonMeshVertex
 10
-0.34
 20
0.605
 30
-0.19
 70
    64
  0
VERTEX
  5
45CC4
100
AcDbEntity
  8
0
100
AcDbVertex
100
AcDbPolygonMeshVertex
 10
-0.34
 20
0.605
 30
-0.425
 70
    64
  0
VERTEX
  5
45CC5
100
AcDbEntity
  8
0
100
AcDbVertex
100
AcDbPolygonMeshVertex
 10
-0.8125
 20
1.0775
 30
-0.425
 70
    64
  0
VERTEX
  5
45CC6
100
AcDbEntity
  8
0
100
AcDbVertex
100
AcDbPolygonMeshVertex
 10
-0.605
 20
0.34
 30
-0.19
 70
    64
  0
VERTEX
  5
45CC7
100
AcDbEntity
  8
0
100
AcDbVertex
100
AcDbPolygonMeshVertex
 10
-0.605
 20
0.34
 30
-0.425
 70
    64
  0
VERTEX
  5
45CC8
100
AcDbEntity
  8
0
100
AcDbVertex
100
AcDbPolygonMeshVertex
 10
-1.0775
 20
0.8125
 30
-0.425
 70
    64
  0
VERTEX
  5
45CC9
100
AcDbEntity
  8
0
100
AcDbVertex
100
AcDbPolygonMeshVertex
 10
-0.605
 20
0.34
 30
-0.19
 70
    64
  0
VERTEX
  5
45CCA
100
AcDbEntity
  8
0
100
AcDbVertex
100
AcDbPolygonMeshVertex
 10
-0.605
 20
0.34
 30
-0.19
 70
    64
  0
VERTEX
  5
45CCB
100
AcDbEntity
  8
0
100
AcDbVertex
100
AcDbPolygonMeshVertex
 10
-1.0775
 20
0.8125
 30
-0.19
 70
    64
  0
VERTEX
  5
45CCC
100
AcDbEntity
  8
0
100
AcDbVertex
100
AcDbPolygonMeshVertex
 10
-0.34
 20
0.605
 30
-0.19
 70
    64
  0
VERTEX
  5
45CCD
100
AcDbEntity
  8
0
100
AcDbVertex
100
AcDbPolygonMeshVertex
 10
-0.34
 20
0.605
 30
-0.19
 70
    64
  0
VERTEX
  5
45CCE
100
AcDbEntity
  8
0
100
AcDbVertex
100
AcDbPolygonMeshVertex
 10
-0.8125
 20
1.0775
 30
-0.19
 70
    64
  0
SEQEND
  5
45CCF
100
AcDbEntity
  8
0
  0
POLYLINE
  5
45CD0
100
AcDbEntity
  8
0
100
AcDbPolygonMesh
 66
     1
 10
0.0
 20
0.0
 30
0.0
 70
    16
 71
     6
 72
     3
  0
VERTEX
  5
45CD1
100
AcDbEntity
  8
0
100
AcDbVertex
100
AcDbPolygonMeshVertex
 10
-0.8125
 20
-1.0775
 30
-0.19
 70
    64
  0
VERTEX
  5
45CD2
100
AcDbEntity
  8
0
100
AcDbVertex
100
AcDbPolygonMeshVertex
 10
-0.8125
 20
-1.0775
 30
-0.425
 70
    64
  0
VERTEX
  5
45CD3
100
AcDbEntity
  8
0
100
AcDbVertex
100
AcDbPolygonMeshVertex
 10
-0.8125
 20
-1.0775
 30
-0.425
 70
    64
  0
VERTEX
  5
45CD4
100
AcDbEntity
  8
0
100
AcDbVertex
100
AcDbPolygonMeshVertex
 10
-1.0775
 20
-0.8125
 30
-0.19
 70
    64
  0
VERTEX
  5
45CD5
100
AcDbEntity
  8
0
100
AcDbVertex
100
AcDbPolygonMeshVertex
 10
-1.0775
 20
-0.8125
 30
-0.425
 70
    64
  0
VERTEX
  5
45CD6
100
AcDbEntity
  8
0
100
AcDbVertex
100
AcDbPolygonMeshVertex
 10
-1.0775
 20
-0.8125
 30
-0.425
 70
    64
  0
VERTEX
  5
45CD7
100
AcDbEntity
  8
0
100
AcDbVertex
100
AcDbPolygonMeshVertex
 10
-0.605
 20
-0.34
 30
-0.19
 70
    64
  0
VERTEX
  5
45CD8
100
AcDbEntity
  8
0
100
AcDbVertex
100
AcDbPolygonMeshVertex
 10
-0.605
 20
-0.34
 30
-0.425
 70
    64
  0
VERTEX
  5
45CD9
100
AcDbEntity
  8
0
100
AcDbVertex
100
AcDbPolygonMeshVertex
 10
-1.0775
 20
-0.8125
 30
-0.425
 70
    64
  0
VERTEX
  5
45CDA
100
AcDbEntity
  8
0
100
AcDbVertex
100
AcDbPolygonMeshVertex
 10
-0.34
 20
-0.605
 30
-0.19
 70
    64
  0
VERTEX
  5
45CDB
100
AcDbEntity
  8
0
100
AcDbVertex
100
AcDbPolygonMeshVertex
 10
-0.34
 20
-0.605
 30
-0.425
 70
    64
  0
VERTEX
  5
45CDC
100
AcDbEntity
  8
0
100
AcDbVertex
100
AcDbPolygonMeshVertex
 10
-0.8125
 20
-1.0775
 30
-0.425
 70
    64
  0
VERTEX
  5
45CDD
100
AcDbEntity
  8
0
100
AcDbVertex
100
AcDbPolygonMeshVertex
 10
-0.34
 20
-0.605
 30
-0.19
 70
    64
  0
VERTEX
  5
45CDE
100
AcDbEntity
  8
0
100
AcDbVertex
100
AcDbPolygonMeshVertex
 10
-0.34
 20
-0.605
 30
-0.19
 70
    64
  0
VERTEX
  5
45CDF
100
AcDbEntity
  8
0
100
AcDbVertex
100
AcDbPolygonMeshVertex
 10
-0.8125
 20
-1.0775
 30
-0.19
 70
    64
  0
VERTEX
  5
45CE0
100
AcDbEntity
  8
0
100
AcDbVertex
100
AcDbPolygonMeshVertex
 10
-0.605
 20
-0.34
 30
-0.19
 70
    64
  0
VERTEX
  5
45CE1
100
AcDbEntity
  8
0
100
AcDbVertex
100
AcDbPolygonMeshVertex
 10
-0.605
 20
-0.34
 30
-0.19
 70
    64
  0
VERTEX
  5
45CE2
100
AcDbEntity
  8
0
100
AcDbVertex
100
AcDbPolygonMeshVertex
 10
-1.0775
 20
-0.8125
 30
-0.19
 70
    64
  0
SEQEND
  5
45CE3
100
AcDbEntity
  8
0
  0
POLYLINE
  5
45CE4
100
AcDbEntity
  8
0
100
AcDbPolygonMesh
 66
     1
 10
0.0
 20
0.0
 30
0.0
 70
    16
 71
     6
 72
     3
  0
VERTEX
  5
45CE5
100
AcDbEntity
  8
0
100
AcDbVertex
100
AcDbPolygonMeshVertex
 10
0.605
 20
0.34
 30
-0.19
 70
    64
  0
VERTEX
  5
45CE6
100
AcDbEntity
  8
0
100
AcDbVertex
100
AcDbPolygonMeshVertex
 10
0.605
 20
0.34
 30
-0.425
 70
    64
  0
VERTEX
  5
45CE7
100
AcDbEntity
  8
0
100
AcDbVertex
100
AcDbPolygonMeshVertex
 10
0.605
 20
0.34
 30
-0.425
 70
    64
  0
VERTEX
  5
45CE8
100
AcDbEntity
  8
0
100
AcDbVertex
100
AcDbPolygonMeshVertex
 10
0.34
 20
0.605
 30
-0.19
 70
    64
  0
VERTEX
  5
45CE9
100
AcDbEntity
  8
0
100
AcDbVertex
100
AcDbPolygonMeshVertex
 10
0.34
 20
0.605
 30
-0.425
 70
    64
  0
VERTEX
  5
45CEA
100
AcDbEntity
  8
0
100
AcDbVertex
100
AcDbPolygonMeshVertex
 10
0.34
 20
0.605
 30
-0.425
 70
    64
  0
VERTEX
  5
45CEB
100
AcDbEntity
  8
0
100
AcDbVertex
100
AcDbPolygonMeshVertex
 10
0.8125
 20
1.0775
 30
-0.19
 70
    64
  0
VERTEX
  5
45CEC
100
AcDbEntity
  8
0
100
AcDbVertex
100
AcDbPolygonMeshVertex
 10
0.8125
 20
1.0775
 30
-0.425
 70
    64
  0
VERTEX
  5
45CED
100
AcDbEntity
  8
0
100
AcDbVertex
100
AcDbPolygonMeshVertex
 10
0.34
 20
0.605
 30
-0.425
 70
    64
  0
VERTEX
  5
45CEE
100
AcDbEntity
  8
0
100
AcDbVertex
100
AcDbPolygonMeshVertex
 10
1.0775
 20
0.8125
 30
-0.19
 70
    64
  0
VERTEX
  5
45CEF
100
AcDbEntity
  8
0
100
AcDbVertex
100
AcDbPolygonMeshVertex
 10
1.0775
 20
0.8125
 30
-0.425
 70
    64
  0
VERTEX
  5
45CF0
100
AcDbEntity
  8
0
100
AcDbVertex
100
AcDbPolygonMeshVertex
 10
0.605
 20
0.34
 30
-0.425
 70
    64
  0
VERTEX
  5
45CF1
100
AcDbEntity
  8
0
100
AcDbVertex
100
AcDbPolygonMeshVertex
 10
1.0775
 20
0.8125
 30
-0.19
 70
    64
  0
VERTEX
  5
45CF2
100
AcDbEntity
  8
0
100
AcDbVertex
100
AcDbPolygonMeshVertex
 10
1.0775
 20
0.8125
 30
-0.19
 70
    64
  0
VERTEX
  5
45CF3
100
AcDbEntity
  8
0
100
AcDbVertex
100
AcDbPolygonMeshVertex
 10
0.605
 20
0.34
 30
-0.19
 70
    64
  0
VERTEX
  5
45CF4
100
AcDbEntity
  8
0
100
AcDbVertex
100
AcDbPolygonMeshVertex
 10
0.8125
 20
1.0775
 30
-0.19
 70
    64
  0
VERTEX
  5
45CF5
100
AcDbEntity
  8
0
100
AcDbVertex
100
AcDbPolygonMeshVertex
 10
0.8125
 20
1.0775
 30
-0.19
 70
    64
  0
VERTEX
  5
45CF6
100
AcDbEntity
  8
0
100
AcDbVertex
100
AcDbPolygonMeshVertex
 10
0.34
 20
0.605
 30
-0.19
 70
    64
  0
SEQEND
  5
45CF7
100
AcDbEntity
  8
0
  0
LWPOLYLINE
  5
45CF8
100
AcDbEntity
  8
0
100
AcDbPolyline
 90
        8
 70
     1
 43
0.0
 38
-0.97
 10
0.86
 20
-1.8
 10
0.86
 20
-1.575
 10
0.8375
 20
-1.575
 10
0.8375
 20
-1.075
 10
0.5025
 20
-1.075
 10
0.5025
 20
-1.575
 10
0.48
 20
-1.575
 10
0.48
 20
-1.8
210
0.0
220
-1.0
230
0.0
  0
LWPOLYLINE
  5
45CF9
100
AcDbEntity
  8
0
100
AcDbPolyline
 90
        8
 70
     1
 43
0.0
 38
-0.97
 10
-0.37
 20
-1.075
 10
-0.37
 20
-1.575
 10
-0.3925
 20
-1.575
 10
-0.3925
 20
-1.8
 10
-0.0125
 20
-1.8
 10
-0.0125
 20
-1.575
 10
-0.035
 20
-1.575
 10
-0.035
 20
-1.075
210
0.0
220
-1.0
230
0.0
  0
LWPOLYLINE
  5
45CFA
100
AcDbEntity
  8
0
100
AcDbPolyline
 90
        8
 70
     1
 43
0.0
 38
0.97
 10
-0.37
 20
-1.075
 10
-0.37
 20
-1.575
 10
-0.3925
 20
-1.575
 10
-0.3925
 20
-1.8
 10
-0.0125
 20
-1.8
 10
-0.0125
 20
-1.575
 10
-0.035
 20
-1.575
 10
-0.035
 20
-1.075
210
0.0
220
-1.0
230
0.0
  0
LWPOLYLINE
  5
45CFB
100
AcDbEntity
  8
0
100
AcDbPolyline
 90
        8
 70
     1
 43
0.0
 38
0.97
 10
0.86
 20
-1.8
 10
0.86
 20
-1.575
 10
0.8375
 20
-1.575
 10
0.8375
 20
-1.075
 10
0.5025
 20
-1.075
 10
0.5025
 20
-1.575
 10
0.48
 20
-1.575
 10
0.48
 20
-1.8
210
0.0
220
-1.0
230
0.0
  0
LWPOLYLINE
  5
45CFC
100
AcDbEntity
  8
0
100
AcDbPolyline
 90
        4
 70
     1
 43
0.0
 38
0.97
 10
0.055
 20
-1.575
 10
0.055
 20
-2.075
 10
0.39
 20
-2.075
 10
0.39
 20
-1.575
210
0.0
220
-1.0
230
0.0
  0
LWPOLYLINE
  5
45CFD
100
AcDbEntity
  8
0
100
AcDbPolyline
 90
        4
 70
     1
 43
0.0
 38
0.97
 10
-0.4825
 20
-2.075
 10
-0.4825
 20
-1.575
 10
-0.8175
 20
-1.575
 10
-0.8175
 20
-2.075
210
0.0
220
-1.0
230
0.0
  0
LWPOLYLINE
  5
45CFE
100
AcDbEntity
  8
0
100
AcDbPolyline
 90
        4
 70
     1
 43
0.0
 38
-0.97
 10
0.055
 20
-1.575
 10
0.055
 20
-2.075
 10
0.39
 20
-2.075
 10
0.39
 20
-1.575
210
0.0
220
-1.0
230
0.0
  0
LWPOLYLINE
  5
45CFF
100
AcDbEntity
  8
0
100
AcDbPolyline
 90
        4
 70
     1
 43
0.0
 38
-0.97
 10
-0.4825
 20
-2.075
 10
-0.4825
 20
-1.575
 10
-0.8175
 20
-1.575
 10
-0.8175
 20
-2.075
210
0.0
220
-1.0
230
0.0
  0
POLYLINE
  5
45D00
100
AcDbEntity
  8
0
100
AcDbPolygonMesh
 66
     1
 10
0.0
 20
0.0
 30
0.0
 70
    16
 71
     6
 72
     3
  0
VERTEX
  5
45D01
100
AcDbEntity
  8
0
100
AcDbVertex
100
AcDbPolygonMeshVertex
 10
1.0775
 20
-1.0775
 30
0.0
 70
    64
  0
VERTEX
  5
45D02
100
AcDbEntity
  8
0
100
AcDbVertex
100
AcDbPolygonMeshVertex
 10
1.0775
 20
-1.0775
 30
-0.19
 70
    64
  0
VERTEX
  5
45D03
100
AcDbEntity
  8
0
100
AcDbVertex
100
AcDbPolygonMeshVertex
 10
1.0775
 20
-1.0775
 30
-0.19
 70
    64
  0
VERTEX
  5
45D04
100
AcDbEntity
  8
0
100
AcDbVertex
100
AcDbPolygonMeshVertex
 10
-1.0775
 20
-1.0775
 30
0.0
 70
    64
  0
VERTEX
  5
45D05
100
AcDbEntity
  8
0
100
AcDbVertex
100
AcDbPolygonMeshVertex
 10
-1.0775
 20
-1.0775
 30
-0.19
 70
    64
  0
VERTEX
  5
45D06
100
AcDbEntity
  8
0
100
AcDbVertex
100
AcDbPolygonMeshVertex
 10
-1.0775
 20
-1.0775
 30
-0.19
 70
    64
  0
VERTEX
  5
45D07
100
AcDbEntity
  8
0
100
AcDbVertex
100
AcDbPolygonMeshVertex
 10
-1.0775
 20
1.0775
 30
0.0
 70
    64
  0
VERTEX
  5
45D08
100
AcDbEntity
  8
0
100
AcDbVertex
100
AcDbPolygonMeshVertex
 10
-1.0775
 20
1.0775
 30
-0.19
 70
    64
  0
VERTEX
  5
45D09
100
AcDbEntity
  8
0
100
AcDbVertex
100
AcDbPolygonMeshVertex
 10
-1.0775
 20
-1.0775
 30
-0.19
 70
    64
  0
VERTEX
  5
45D0A
100
AcDbEntity
  8
0
100
AcDbVertex
100
AcDbPolygonMeshVertex
 10
1.0775
 20
1.0775
 30
0.0
 70
    64
  0
VERTEX
  5
45D0B
100
AcDbEntity
  8
0
100
AcDbVertex
100
AcDbPolygonMeshVertex
 10
1.0775
 20
1.0775
 30
-0.19
 70
    64
  0
VERTEX
  5
45D0C
100
AcDbEntity
  8
0
100
AcDbVertex
100
AcDbPolygonMeshVertex
 10
1.0775
 20
-1.0775
 30
-0.19
 70
    64
  0
VERTEX
  5
45D0D
100
AcDbEntity
  8
0
100
AcDbVertex
100
AcDbPolygonMeshVertex
 10
1.0775
 20
1.0775
 30
0.0
 70
    64
  0
VERTEX
  5
45D0E
100
AcDbEntity
  8
0
100
AcDbVertex
100
AcDbPolygonMeshVertex
 10
1.0775
 20
1.0775
 30
0.0
 70
    64
  0
VERTEX
  5
45D0F
100
AcDbEntity
  8
0
100
AcDbVertex
100
AcDbPolygonMeshVertex
 10
1.0775
 20
-1.0775
 30
0.0
 70
    64
  0
VERTEX
  5
45D10
100
AcDbEntity
  8
0
100
AcDbVertex
100
AcDbPolygonMeshVertex
 10
-1.0775
 20
1.0775
 30
0.0
 70
    64
  0
VERTEX
  5
45D11
100
AcDbEntity
  8
0
100
AcDbVertex
100
AcDbPolygonMeshVertex
 10
-1.0775
 20
1.0775
 30
0.0
 70
    64
  0
VERTEX
  5
45D12
100
AcDbEntity
  8
0
100
AcDbVertex
100
AcDbPolygonMeshVertex
 10
-1.0775
 20
-1.0775
 30
0.0
 70
    64
  0
SEQEND
  5
45D13
100
AcDbEntity
  8
0
  0
POLYLINE
  5
45D14
100
AcDbEntity
  8
0
100
AcDbPolygonMesh
 66
     1
 10
0.0
 20
0.0
 30
0.0
 70
    16
 71
     6
 72
     3
  0
VERTEX
  5
45D15
100
AcDbEntity
  8
0
100
AcDbVertex
100
AcDbPolygonMeshVertex
 10
0.9825
 20
-0.97
 30
-0.675
 70
    64
  0
VERTEX
  5
45D16
100
AcDbEntity
  8
0
100
AcDbVertex
100
AcDbPolygonMeshVertex
 10
0.9825
 20
-0.97
 30
-2.215
 70
    64
  0
VERTEX
  5
45D17
100
AcDbEntity
  8
0
100
AcDbVertex
100
AcDbPolygonMeshVertex
 10
0.9825
 20
-0.97
 30
-2.215
 70
    64
  0
VERTEX
  5
45D18
100
AcDbEntity
  8
0
100
AcDbVertex
100
AcDbPolygonMeshVertex
 10
-0.9825
 20
-0.97
 30
-0.675
 70
    64
  0
VERTEX
  5
45D19
100
AcDbEntity
  8
0
100
AcDbVertex
100
AcDbPolygonMeshVertex
 10
-0.9825
 20
-0.97
 30
-2.215
 70
    64
  0
VERTEX
  5
45D1A
100
AcDbEntity
  8
0
100
AcDbVertex
100
AcDbPolygonMeshVertex
 10
-0.9825
 20
-0.97
 30
-2.215
 70
    64
  0
VERTEX
  5
45D1B
100
AcDbEntity
  8
0
100
AcDbVertex
100
AcDbPolygonMeshVertex
 10
-0.9825
 20
0.97
 30
-0.675
 70
    64
  0
VERTEX
  5
45D1C
100
AcDbEntity
  8
0
100
AcDbVertex
100
AcDbPolygonMeshVertex
 10
-0.9825
 20
0.97
 30
-2.215
 70
    64
  0
VERTEX
  5
45D1D
100
AcDbEntity
  8
0
100
AcDbVertex
100
AcDbPolygonMeshVertex
 10
-0.9825
 20
-0.97
 30
-2.215
 70
    64
  0
VERTEX
  5
45D1E
100
AcDbEntity
  8
0
100
AcDbVertex
100
AcDbPolygonMeshVertex
 10
0.9825
 20
0.97
 30
-0.675
 70
    64
  0
VERTEX
  5
45D1F
100
AcDbEntity
  8
0
100
AcDbVertex
100
AcDbPolygonMeshVertex
 10
0.9825
 20
0.97
 30
-2.215
 70
    64
  0
VERTEX
  5
45D20
100
AcDbEntity
  8
0
100
AcDbVertex
100
AcDbPolygonMeshVertex
 10
0.9825
 20
-0.97
 30
-2.215
 70
    64
  0
VERTEX
  5
45D21
100
AcDbEntity
  8
0
100
AcDbVertex
100
AcDbPolygonMeshVertex
 10
0.9825
 20
0.97
 30
-0.675
 70
    64
  0
VERTEX
  5
45D22
100
AcDbEntity
  8
0
100
AcDbVertex
100
AcDbPolygonMeshVertex
 10
0.9825
 20
0.97
 30
-0.675
 70
    64
  0
VERTEX
  5
45D23
100
AcDbEntity
  8
0
100
AcDbVertex
100
AcDbPolygonMeshVertex
 10
0.9825
 20
-0.97
 30
-0.675
 70
    64
  0
VERTEX
  5
45D24
100
AcDbEntity
  8
0
100
AcDbVertex
100
AcDbPolygonMeshVertex
 10
-0.9825
 20
0.97
 30
-0.675
 70
    64
  0
VERTEX
  5
45D25
100
AcDbEntity
  8
0
100
AcDbVertex
100
AcDbPolygonMeshVertex
 10
-0.9825
 20
0.97
 30
-0.675
 70
    64
  0
VERTEX
  5
45D26
100
AcDbEntity
  8
0
100
AcDbVertex
100
AcDbPolygonMeshVertex
 10
-0.9825
 20
-0.97
 30
-0.675
 70
    64
  0
SEQEND
  5
45D27
100
AcDbEntity
  8
0
  0
POINT
  5
45D28
100
AcDbEntity
  8
SNAP_POINTS
100
AcDbPoint
 10
0.0
 20
0.0
 30
0.0
  0
ATTDEF
  5
45D29
100
AcDbEntity
  8
ATTRIBUTES
100
AcDbText
 10
-0.9151
 20
-0.109635
 30
-2.215
 40
0.051578
  1
ALLEN-BRADLEY
100
AcDbAttributeDefinition
  3
MANUFACTURER NAME?
  2
AC_VND_LABEL
 70
     1
  0
ATTDEF
  5
45D2A
100
AcDbEntity
  8
ATTRIBUTES
100
AcDbText
 10
-0.9151
 20
-0.21709
 30
-2.215
 40
0.051578
  1
194L-E20/E25 W/ 2 CARRIERS
100
AcDbAttributeDefinition
  3
CATALOG NUMBER?
  2
AC_PART_NO
 70
     1
  0
ATTDEF
  5
45D2B
100
AcDbEntity
  8
ATTRIBUTES
100
AcDbText
 10
-0.9151
 20
-0.324544
 30
-2.215
 40
0.051578
  1
CONTROL & LOAD SWITCH BODY, 20A/25A W/ 2 CARRIERS
100
AcDbAttributeDefinition
  3
PART DESCRIPTION?
  2
AC_DESCRIPTION
 70
     1
  0
ATTDEF
  5
45D2C
100
AcDbEntity
  8
ATTRIBUTES
100
AcDbText
 10
-0.9151
 20
-0.431999
 30
-2.215
 40
0.051578
  1

100
AcDbAttributeDefinition
  3
DEVICE ID?
  2
DEVICE_ID
 70
     1
  0
ATTDEF
  5
45D2D
100
AcDbEntity
  8
ATTRIBUTES
100
AcDbText
 10
-0.9151
 20
-0.539454
 30
-2.215
 40
0.051578
  1

100
AcDbAttributeDefinition
  3
CUSTOMER PART NUMBER?
  2
AC_CPART_NO
 70
     1
  0
ATTDEF
  5
45D2E
100
AcDbEntity
  8
ATTRIBUTES
100
AcDbText
 10
-0.9151
 20
-0.646909
 30
-2.215
 40
0.051578
  1

100
AcDbAttributeDefinition
  3
CUSTOMER NOTE?
  2
AC_NOTE
 70
     1
  0
ATTDEF
  5
45D2F
100
AcDbEntity
  8
ATTRIBUTES
100
AcDbText
 10
-0.9151
 20
-0.754364
 30
-2.215
 40
0.051578
  1

100
AcDbAttributeDefinition
  3
FASTENER DATA?
  2
FASTENER
 70
     1
  0
ATTDEF
  5
45D30
100
AcDbEntity
  8
ATTRIBUTES
100
AcDbText
 10
-0.9151
 20
-0.861819
 30
-2.215
 40
0.051578
  1

100
AcDbAttributeDefinition
  3
UNIT OF SCALE?
  2
AC_SCALE_UNIT
 70
     1
  0
ATTDEF
  5
45D31
100
AcDbEntity
  8
ATTRIBUTES
100
AcDbText
 10
-0.9151
 20
-0.969274
 30
-2.215
 40
0.051578
  1

100
AcDbAttributeDefinition
  3
VIEW CODE?
  2
AC_VIEW_CODE
 70
     1
  0
TEXT
  5
45D32
100
AcDbEntity
  8
0
100
AcDbText
 10
0.5525
 20
-1.075
 30
0.97
 40
0.2
  1
1
210
0.0
220
-1.0
230
0.0
100
AcDbText
  0
TEXT
  5
45D33
100
AcDbEntity
  8
0
100
AcDbText
 10
-0.1725
 20
-1.075
 30
0.97
 40
0.2
  1
3
210
0.0
220
-1.0
230
0.0
100
AcDbText
  0
TEXT
  5
45D34
100
AcDbEntity
  8
0
100
AcDbText
 10
0.105
 20
-1.575
 30
0.97
 40
0.2
  1
5
210
0.0
220
-1.0
230
0.0
100
AcDbText
  0
TEXT
  5
45D35
100
AcDbEntity
  8
0
100
AcDbText
 10
-0.62
 20
-1.575
 30
0.97
 40
0.2
  1
7
210
0.0
220
-1.0
230
0.0
100
AcDbText
  0
TEXT
  5
45D36
100
AcDbEntity
  8
0
100
AcDbText
 10
-0.7925
 20
-1.075
 30
0.97
 40
0.2
  1
2
210
0.0
220
1.0
230
0.0
100
AcDbText
  0
TEXT
  5
45D37
100
AcDbEntity
  8
0
100
AcDbText
 10
-0.0675
 20
-1.075
 30
0.97
 40
0.2
  1
4
210
0.0
220
1.0
230
0.0
100
AcDbText
  0
TEXT
  5
45D38
100
AcDbEntity
  8
0
100
AcDbText
 10
-0.1375
 20
-1.575
 30
0.97
 40
0.2
  1
6
210
0.0
220
1.0
230
0.0
100
AcDbText
  0
TEXT
  5
45D39
100
AcDbEntity
  8
0
100
AcDbText
 10
0.5875
 20
-1.575
 30
0.97
 40
0.2
  1
8
210
0.0
220
1.0
230
0.0
100
AcDbText
  0
DIMENSION
  5
45D3A
100
AcDbEntity
  8
AREA1
100
AcDbDimension
  2
*D0
 10
1.0775
 20
1.240116
 30
0.0
 11
0.003028
 21
1.240116
 31
0.0
 70
   160
  3
ABECAD_3D
100
AcDbAlignedDimension
 13
-1.0775
 23
1.0775
 33
-0.19
 14
1.0775
 24
1.0775
 34
-0.19
100
AcDbRotatedDimension
  0
DIMENSION
  5
45D48
100
AcDbEntity
  8
AREA1
100
AcDbDimension
  2
*D1
 10
1.299782
 20
-1.0775
 30
0.0
 11
1.299782
 21
-0.055611
 31
0.0
 70
   160
  3
ABECAD_3D
100
AcDbAlignedDimension
 13
1.0775
 23
1.0775
 33
0.0
 14
1.0775
 24
-1.0775
 34
0.0
 50
90.0
100
AcDbRotatedDimension
  0
ENDSEC
  0
SECTION
  2
OBJECTS
  0
DICTIONARY
  5
458CB
100
AcDbDictionary
  3
ACAD_GROUP
350
458CC
  3
ACAD_LAYOUT
350
458FB
  3
ACAD_MLINESTYLE
350
458D9
  3
ACAD_PLOTSETTINGS
350
458FC
  3
ACAD_PLOTSTYLENAME
350
458F9
  3
ACDBHEADERROUNDTRIPXREC
350
45DBD
  3
ACDBVARIABLEDICTIONARY
350
458E1
  3
DWGPROPS
350
45901
  0
DICTIONARY
  5
45DBB
100
AcDbDictionary
280
     1
  3
ACAD_XREC_ROUNDTRIP
360
45DBC
  0
DICTIONARY
  5
45DE4
100
AcDbDictionary
280
     1
  3
ACAD_XREC_ROUNDTRIP
360
45DE5
  0
DICTIONARY
  5
45DB9
100
AcDbDictionary
280
     1
  3
ACAD_XREC_ROUNDTRIP
360
45DBA
  0
DICTIONARY
  5
45DE0
100
AcDbDictionary
280
     1
  3
ACAD_XREC_ROUNDTRIP
360
45DE1
  0
DICTIONARY
  5
4592C
100
AcDbDictionary
280
     1
  3
ACAD_LAYOUTSELFREF
360
45DDF
  0
DICTIONARY
  5
4592A
100
AcDbDictionary
280
     1
  3
ACAD_LAYOUTSELFREF
360
45DDE
  0
DICTIONARY
  5
458CC
102
{ACAD_REACTORS
330
458CB
102
}
100
AcDbDictionary
  0
DICTIONARY
  5
458FB
102
{ACAD_XDICTIONARY
360
45DE2
102
}
102
{ACAD_REACTORS
330
458CB
102
}
100
AcDbDictionary
  3
LAYOUT1
350
458FE
  3
MODEL
350
458FD
  0
DICTIONARY
  5
458D9
102
{ACAD_REACTORS
330
458CB
102
}
100
AcDbDictionary
  3
STANDARD
350
458DA
  0
DICTIONARY
  5
458FC
102
{ACAD_REACTORS
330
458CB
102
}
100
AcDbDictionary
  0
ACAD_PROXY_OBJECT
  5
458F9
102
{ACAD_REACTORS
330
458CB
102
}
100
AcDbProxyObject
 90
      499
 91
      501
 93
       86
310
405010041939BDC9B585B1
350
458FA
340
458FA
 94
        0
  0
DICTIONARY
  5
45DBD
102
{ACAD_REACTORS
330
458CB
102
}
100
AcDbDictionary
  3
CEPSNTYPE
350
45DC7
  3
DIMSTYLEDATA
350
45DCB
  3
FINGERPRINTGUID
350
45DC8
  3
HYPERLINKBASE
350
45DC0
  3
INSUNITS
350
45DC6
  3
LAYOUTDICT
350
45DC2
  3
LWETCUNION
350
45DC5
  3
PLOTSETDICT
350
45DC3
  3
PLOTSTYLNAMDICT
350
45DC4
  3
PSVPSCALE
350
45DCA
  3
PUCSBASE
350
45DCE
  3
PUCSORGBACK
350
45DD4
  3
PUCSORGBOTTOM
350
45DD0
  3
PUCSORGFRONT
350
45DD3
  3
PUCSORGLEFT
350
45DD1
  3
PUCSORGRIGHT
350
45DD2
  3
PUCSORGTOP
350
45DCF
  3
PUCSORTHOREF
350
45DCC
  3
PUCSORTHOVIEW
350
45DCD
  3
STYLESHEET
350
45DC1
  3
TSTACKALIGN
350
45DBE
  3
TSTACKSIZE
350
45DBF
  3
UCSBASE
350
45DD7
  3
UCSORGBACK
350
45DDD
  3
UCSORGBOTTOM
350
45DD9
  3
UCSORGFRONT
350
45DDC
  3
UCSORGLEFT
350
45DDA
  3
UCSORGRIGHT
350
45DDB
  3
UCSORGTOP
350
45DD8
  3
UCSORTHOREF
350
45DD5
  3
UCSORTHOVIEW
350
45DD6
  3
VERSIONGUID
350
45DC9
  0
DICTIONARY
  5
458E1
102
{ACAD_REACTORS
330
458CB
102
}
100
AcDbDictionary
  3
DIMADEC
350
458E2
  0
XRECORD
  5
45901
102
{ACAD_REACTORS
330
458CB
102
}
100
AcDbXrecord
  1
DWGPROPS COOKIE
  2

  3

  4

  6

  7

  8
colin
  9

300
=
301
=
302
=
303
=
304
=
305
=
306
=
307
=
308
=
309
=
 40
0.000599
 41
2451670.444777
 42
2451670.445376
  1

 90
        0
  0
XRECORD
  5
45DBC
102
{ACAD_REACTORS
330
45DBB
102
}
100
AcDbXrecord
102
EXTNAMES
  1
*ACTIVE
  2
*Active
102
UCS
 74
     0
 71
     1
 10
0.0
 20
0.0
 30
0.0
 10
1.0
 20
0.0
 30
0.0
 10
0.0
 20
1.0
 30
0.0
146
0.0
 79
     1
102
VIEW
281
     0
  0
XRECORD
  5
45DE5
102
{ACAD_REACTORS
330
45DE4
102
}
100
AcDbXrecord
102
PLOTBIT
280
     0
  0
XRECORD
  5
45DBA
102
{ACAD_REACTORS
330
45DB9
102
}
100
AcDbXrecord
102
EXTNAMES
  1
DEFPOINTS
  2
Defpoints
102
PLOTBIT
280
     0
  0
XRECORD
  5
45DE1
102
{ACAD_REACTORS
330
45DE0
102
}
100
AcDbXrecord
102
ACADR14ROUNDTRIP
1000
DSTYLE
1002
{
1070
   276
 70
     2
1070
   277
 70
     5
1070
   279
 70
     2
1070
   289
 70
     2
1002
}
  0
XRECORD
  5
45DDF
102
{ACAD_REACTORS
330
4592C
102
}
100
AcDbXrecord
340
458D6
  0
XRECORD
  5
45DDE
102
{ACAD_REACTORS
330
4592A
102
}
100
AcDbXrecord
340
458D3
  0
DICTIONARY
  5
45DE2
100
AcDbDictionary
280
     1
  3
ACAD_XREC_ROUNDTRIP
360
45DE3
  0
ACAD_PROXY_OBJECT
  5
458FE
102
{ACAD_REACTORS
330
458FB
102
}
100
AcDbProxyObject
 90
      499
 91
      503
 93
     1348
310
91D4850204C617365724A65742035303030205365726965732050434C20362C00AAAAAA416AA547D11959985D5B1D08148C4D081C195B88185CDCDA59DB9B595B9D1CCB98DD1891069074C61796F75743140501A800000000000000000000000000000000000000000000A1000000000000008902A6A6A10232D5E076BC551
310
0408CB5781DAF154410232D5E076BC5510408CB5781DAF15C410232D5E076BC5710408CB5781DAF15C40
330
458D3
330
0
340
0
340
0
 94
        0
  0
ACAD_PROXY_OBJECT
  5
458FD
102
{ACAD_REACTORS
330
458FB
102
}
100
AcDbProxyObject
 90
      499
 91
      503
 93
      924
310
91D4850204C617365724A65742035303030205365726965732050434C20362C01AAAAAAAAA547D11959985D5B1D08148C4D081C195B88185CDCDA59DB9B595B9D1CCB98DD18A69054D6F64656C901A800000000000000000000000000000000000000000000A1000000000000008902A6A6AAAA0
330
458D6
330
0
340
0
340
0
 94
        0
  0
MLINESTYLE
  5
458DA
102
{ACAD_REACTORS
330
458D9
102
}
100
AcDbMlineStyle
  2
STANDARD
 70
     0
  3

 62
   256
 51
90.0
 52
90.0
 71
     2
 49
0.5
 62
   256
  6
BYLAYER
 49
-0.5
 62
   256
  6
BYLAYER
  0
ACAD_PROXY_OBJECT
  5
458FA
102
{ACAD_REACTORS
330
458F9
102
}
100
AcDbProxyObject
 90
      499
 91
      502
 93
        0
 94
        0
  0
XRECORD
  5
45DC7
102
{ACAD_REACTORS
330
45DBD
102
}
100
AcDbXrecord
 90
        0
  0
XRECORD
  5
45DCB
102
{ACAD_REACTORS
330
45DBD
102
}
100
AcDbXrecord
1000
DSTYLE
1002
{
1070
   276
 70
     2
1070
   277
 70
     5
1070
   279
 70
     2
1070
   289
 70
     2
1002
}
  0
XRECORD
  5
45DC8
102
{ACAD_REACTORS
330
45DBD
102
}
100
AcDbXrecord
  1
{6E0CF4B8-225E-11D4-A150-00A0CC3303EC}
  0
XRECORD
  5
45DC0
102
{ACAD_REACTORS
330
45DBD
102
}
100
AcDbXrecord
  1

  0
XRECORD
  5
45DC6
102
{ACAD_REACTORS
330
45DBD
102
}
100
AcDbXrecord
 90
        0
  0
XRECORD
  5
45DC2
102
{ACAD_REACTORS
330
45DBD
102
}
100
AcDbXrecord
340
458FB
  0
XRECORD
  5
45DC5
102
{ACAD_REACTORS
330
45DBD
102
}
100
AcDbXrecord
 90
    14877
  0
XRECORD
  5
45DC3
102
{ACAD_REACTORS
330
45DBD
102
}
100
AcDbXrecord
340
458FC
  0
XRECORD
  5
45DC4
102
{ACAD_REACTORS
330
45DBD
102
}
100
AcDbXrecord
340
458F9
  0
XRECORD
  5
45DCA
102
{ACAD_REACTORS
330
45DBD
102
}
100
AcDbXrecord
 40
0.0
  0
XRECORD
  5
45DCE
102
{ACAD_REACTORS
330
45DBD
102
}
100
AcDbXrecord
340
0
  0
XRECORD
  5
45DD4
102
{ACAD_REACTORS
330
45DBD
102
}
100
AcDbXrecord
 10
0.0
 20
0.0
 30
0.0
  0
XRECORD
  5
45DD0
102
{ACAD_REACTORS
330
45DBD
102
}
100
AcDbXrecord
 10
0.0
 20
0.0
 30
0.0
  0
XRECORD
  5
45DD3
102
{ACAD_REACTORS
330
45DBD
102
}
100
AcDbXrecord
 10
0.0
 20
0.0
 30
0.0
  0
XRECORD
  5
45DD1
102
{ACAD_REACTORS
330
45DBD
102
}
100
AcDbXrecord
 10
0.0
 20
0.0
 30
0.0
  0
XRECORD
  5
45DD2
102
{ACAD_REACTORS
330
45DBD
102
}
100
AcDbXrecord
 10
0.0
 20
0.0
 30
0.0
  0
XRECORD
  5
45DCF
102
{ACAD_REACTORS
330
45DBD
102
}
100
AcDbXrecord
 10
0.0
 20
0.0
 30
0.0
  0
XRECORD
  5
45DCC
102
{ACAD_REACTORS
330
45DBD
102
}
100
AcDbXrecord
340
0
  0
XRECORD
  5
45DCD
102
{ACAD_REACTORS
330
45DBD
102
}
100
AcDbXrecord
 70
     0
  0
XRECORD
  5
45DC1
102
{ACAD_REACTORS
330
45DBD
102
}
100
AcDbXrecord
  1

  0
XRECORD
  5
45DBE
102
{ACAD_REACTORS
330
45DBD
102
}
100
AcDbXrecord
 90
        1
  0
XRECORD
  5
45DBF
102
{ACAD_REACTORS
330
45DBD
102
}
100
AcDbXrecord
 90
       70
  0
XRECORD
  5
45DD7
102
{ACAD_REACTORS
330
45DBD
102
}
100
AcDbXrecord
340
0
  0
XRECORD
  5
45DDD
102
{ACAD_REACTORS
330
45DBD
102
}
100
AcDbXrecord
 10
0.0
 20
0.0
 30
0.0
  0
XRECORD
  5
45DD9
102
{ACAD_REACTORS
330
45DBD
102
}
100
AcDbXrecord
 10
0.0
 20
0.0
 30
0.0
  0
XRECORD
  5
45DDC
102
{ACAD_REACTORS
330
45DBD
102
}
100
AcDbXrecord
 10
0.0
 20
0.0
 30
0.0
  0
XRECORD
  5
45DDA
102
{ACAD_REACTORS
330
45DBD
102
}
100
AcDbXrecord
 10
0.0
 20
0.0
 30
0.0
  0
XRECORD
  5
45DDB
102
{ACAD_REACTORS
330
45DBD
102
}
100
AcDbXrecord
 10
0.0
 20
0.0
 30
0.0
  0
XRECORD
  5
45DD8
102
{ACAD_REACTORS
330
45DBD
102
}
100
AcDbXrecord
 10
0.0
 20
0.0
 30
0.0
  0
XRECORD
  5
45DD5
102
{ACAD_REACTORS
330
45DBD
102
}
100
AcDbXrecord
340
0
  0
XRECORD
  5
45DD6
102
{ACAD_REACTORS
330
45DBD
102
}
100
AcDbXrecord
 70
     1
  0
XRECORD
  5
45DC9
102
{ACAD_REACTORS
330
45DBD
102
}
100
AcDbXrecord
  1
{9840C2DB-F179-484C-92E0-4BA78CB15EF4}
  0
DICTIONARYVAR
  5
458E2
102
{ACAD_REACTORS
330
458E1
102
}
100
DictionaryVariables
280
     0
  1
0
  0
XRECORD
  5
45DE3
102
{ACAD_REACTORS
330
45DE2
102
}
100
AcDbXrecord
102
EXTNAMES
  1
LAYOUT1
  2
Layout1
  1
MODEL
  2
Model
  0
ENDSEC
  0
EOF
