  0
SECTION
  2
HEADER
  9
$ACADVER
  1
AC1014
  9
$ACADMAINTVER
 70
     8
  9
$DWGCODEPAGE
  3
ANSI_1252
  9
$INSBASE
 10
0.0
 20
0.0
 30
0.0
  9
$EXTMIN
 10
-2.6625
 20
-2.693364
 30
0.0
  9
$EXTMAX
 10
4.883627
 20
3.174136
 30
2.685
  9
$LIMMIN
 10
0.0
 20
0.0
  9
$LIMMAX
 10
12.0
 20
9.0
  9
$ORTHOMODE
 70
     0
  9
$REGENMODE
 70
     1
  9
$FILLMODE
 70
     1
  9
$QTEXTMODE
 70
     0
  9
$MIRRTEXT
 70
     1
  9
$DRAGMODE
 70
     2
  9
$LTSCALE
 40
1.0
  9
$OSMODE
 70
    37
  9
$ATTMODE
 70
     0
  9
$TEXTSIZE
 40
0.2
  9
$TRACEWID
 40
0.05
  9
$TEXTSTYLE
  7
STANDARD
  9
$CLAYER
  8
0
  9
$CELTYPE
  6
BYLAYER
  9
$CECOLOR
 62
   256
  9
$CELTSCALE
 40
1.0
  9
$DELOBJ
 70
     1
  9
$DISPSILH
 70
     0
  9
$DIMSCALE
 40
0.0
  9
$DIMASZ
 40
0.18
  9
$DIMEXO
 40
0.0625
  9
$DIMDLI
 40
0.375
  9
$DIMRND
 40
0.0
  9
$DIMDLE
 40
0.0
  9
$DIMEXE
 40
0.18
  9
$DIMTP
 40
0.0
  9
$DIMTM
 40
0.0
  9
$DIMTXT
 40
0.09
  9
$DIMCEN
 40
0.09
  9
$DIMTSZ
 40
0.0
  9
$DIMTOL
 70
     0
  9
$DIMLIM
 70
     0
  9
$DIMTIH
 70
     0
  9
$DIMTOH
 70
     1
  9
$DIMSE1
 70
     0
  9
$DIMSE2
 70
     0
  9
$DIMTAD
 70
     0
  9
$DIMZIN
 70
     4
  9
$DIMBLK
  1

  9
$DIMASO
 70
     1
  9
$DIMSHO
 70
     1
  9
$DIMPOST
  1

  9
$DIMAPOST
  1

  9
$DIMALT
 70
     1
  9
$DIMALTD
 70
     2
  9
$DIMALTF
 40
25.4
  9
$DIMLFAC
 40
1.0
  9
$DIMTOFL
 70
     0
  9
$DIMTVP
 40
0.0
  9
$DIMTIX
 70
     0
  9
$DIMSOXD
 70
     0
  9
$DIMSAH
 70
     0
  9
$DIMBLK1
  1

  9
$DIMBLK2
  1

  9
$DIMSTYLE
  2
ABECAD_3V
  9
$DIMCLRD
 70
     0
  9
$DIMCLRE
 70
     0
  9
$DIMCLRT
 70
     0
  9
$DIMTFAC
 40
1.5
  9
$DIMGAP
 40
0.09
  9
$DIMJUST
 70
     0
  9
$DIMSD1
 70
     0
  9
$DIMSD2
 70
     0
  9
$DIMTOLJ
 70
     1
  9
$DIMTZIN
 70
     4
  9
$DIMALTZ
 70
     4
  9
$DIMALTTZ
 70
     4
  9
$DIMFIT
 70
     5
  9
$DIMUPT
 70
     1
  9
$DIMUNIT
 70
     7
  9
$DIMDEC
 70
     6
  9
$DIMTDEC
 70
     6
  9
$DIMALTU
 70
     2
  9
$DIMALTTD
 70
     2
  9
$DIMTXSTY
  7
STANDARD
  9
$DIMAUNIT
 70
     0
  9
$LUNITS
 70
     2
  9
$LUPREC
 70
     6
  9
$SKETCHINC
 40
0.1
  9
$FILLETRAD
 40
0.0
  9
$AUNITS
 70
     0
  9
$AUPREC
 70
     0
  9
$MENU
  1
acad
  9
$ELEVATION
 40
0.0
  9
$PELEVATION
 40
0.0
  9
$THICKNESS
 40
0.0
  9
$LIMCHECK
 70
     0
  9
$BLIPMODE
 70
     0
  9
$CHAMFERA
 40
0.0
  9
$CHAMFERB
 40
0.0
  9
$CHAMFERC
 40
0.0
  9
$CHAMFERD
 40
0.0
  9
$SKPOLY
 70
     0
  9
$TDCREATE
 40
2451726.480029051
  9
$TDUPDATE
 40
2452010.730820486
  9
$TDINDWG
 40
0.1362680556
  9
$TDUSRTIMER
 40
0.1362680556
  9
$USRTIMER
 70
     1
  9
$ANGBASE
 50
0.0
  9
$ANGDIR
 70
     0
  9
$PDMODE
 70
     3
  9
$PDSIZE
 40
0.18
  9
$PLINEWID
 40
0.0
  9
$COORDS
 70
     1
  9
$SPLFRAME
 70
     0
  9
$SPLINETYPE
 70
     6
  9
$SPLINESEGS
 70
     8
  9
$ATTDIA
 70
     0
  9
$ATTREQ
 70
     1
  9
$HANDLING
 70
     1
  9
$HANDSEED
  5
3A97
  9
$SURFTAB1
 70
     6
  9
$SURFTAB2
 70
     6
  9
$SURFTYPE
 70
     6
  9
$SURFU
 70
     6
  9
$SURFV
 70
     6
  9
$UCSNAME
  2

  9
$UCSORG
 10
0.0
 20
0.0
 30
0.0
  9
$UCSXDIR
 10
1.0
 20
0.0
 30
0.0
  9
$UCSYDIR
 10
0.0
 20
1.0
 30
0.0
  9
$PUCSNAME
  2

  9
$PUCSORG
 10
0.0
 20
0.0
 30
0.0
  9
$PUCSXDIR
 10
1.0
 20
0.0
 30
0.0
  9
$PUCSYDIR
 10
0.0
 20
1.0
 30
0.0
  9
$USERI1
 70
     0
  9
$USERI2
 70
     0
  9
$USERI3
 70
     0
  9
$USERI4
 70
     0
  9
$USERI5
 70
     0
  9
$USERR1
 40
0.0
  9
$USERR2
 40
0.0
  9
$USERR3
 40
0.0
  9
$USERR4
 40
0.0
  9
$USERR5
 40
0.0
  9
$WORLDVIEW
 70
     1
  9
$SHADEDGE
 70
     3
  9
$SHADEDIF
 70
    70
  9
$TILEMODE
 70
     0
  9
$MAXACTVP
 70
    16
  9
$PINSBASE
 10
0.0
 20
0.0
 30
0.0
  9
$PLIMCHECK
 70
     0
  9
$PEXTMIN
 10
0.0
 20
0.0
 30
0.0
  9
$PEXTMAX
 10
10.0
 20
7.5
 30
0.0
  9
$PLIMMIN
 10
-0.187029
 20
-0.186938
  9
$PLIMMAX
 10
10.187518
 20
7.829757
  9
$UNITMODE
 70
     0
  9
$VISRETAIN
 70
     0
  9
$PLINEGEN
 70
     0
  9
$PSLTSCALE
 70
     1
  9
$TREEDEPTH
 70
  3020
  9
$PICKSTYLE
 70
     1
  9
$CMLSTYLE
  2
STANDARD
  9
$CMLJUST
 70
     0
  9
$CMLSCALE
 40
1.0
  9
$PROXYGRAPHICS
 70
     1
  9
$MEASUREMENT
 70
     0
  0
ENDSEC
  0
SECTION
  2
CLASSES
  0
CLASS
  1
DICTIONARYVAR
  2
AcDbDictionaryVar
  3
"AutoCAD"
 90
        0
280
     0
281
     0
  0
CLASS
  1
ACDBDICTIONARYWDFLT
  2
AcDbDictionaryWithDefault
  3
AutoCAD 2000
 90
        0
280
     0
281
     0
  0
CLASS
  1
ACDBPLACEHOLDER
  2
AcDbPlaceHolder
  3
AutoCAD 2000
 90
        0
280
     0
281
     0
  0
CLASS
  1
LAYOUT
  2
AcDbLayout
  3
AutoCAD 2000
 90
        0
280
     0
281
     0
  0
CLASS
  1
LONG_TRANSACTION
  2
AcDbLongTransaction
  3
AutoCAD 2000
 90
        0
280
     0
281
     0
  0
CLASS
  1
LWPOLYLINE
  2
AcDbPolyline
  3
"AutoCAD"
 90
        0
280
     0
281
     1
  0
CLASS
  1
HATCH
  2
AcDbHatch
  3
"ACAD_SEDONA"
 90
        0
280
     0
281
     1
  0
CLASS
  1
XRECORD
  2
AcDbXrecord
  3
"<Built In>"
 90
        0
280
     0
281
     0
  0
CLASS
  1
LONG_TRANSACTION
  2
AcDbLongTransaction
  3
AutoCAD 2000
 90
        0
280
     0
281
     0
  0
CLASS
  1
LWPOLYLINE
  2
AcDbPolyline
  3
"AutoCAD"
 90
        0
280
     0
281
     1
  0
CLASS
  1
HATCH
  2
AcDbHatch
  3
"ACAD_SEDONA"
 90
        0
280
     0
281
     1
  0
CLASS
  1
XRECORD
  2
AcDbXrecord
  3
"<Built In>"
 90
        0
280
     0
281
     0
  0
CLASS
  1
LONG_TRANSACTION
  2
AcDbLongTransaction
  3
AutoCAD 2000
 90
        0
280
     0
281
     0
  0
CLASS
  1
LWPOLYLINE
  2
AcDbPolyline
  3
"AutoCAD"
 90
        0
280
     0
281
     1
  0
CLASS
  1
HATCH
  2
AcDbHatch
  3
"ACAD_SEDONA"
 90
        0
280
     0
281
     1
  0
CLASS
  1
XRECORD
  2
AcDbXrecord
  3
"<Built In>"
 90
        0
280
     0
281
     0
  0
CLASS
  1
LONG_TRANSACTION
  2
AcDbLongTransaction
  3
AutoCAD 2000
 90
        0
280
     0
281
     0
  0
CLASS
  1
LWPOLYLINE
  2
AcDbPolyline
  3
"AutoCAD"
 90
        0
280
     0
281
     1
  0
CLASS
  1
HATCH
  2
AcDbHatch
  3
"ACAD_SEDONA"
 90
        0
280
     0
281
     1
  0
CLASS
  1
XRECORD
  2
AcDbXrecord
  3
"<Built In>"
 90
        0
280
     0
281
     0
  0
CLASS
  1
LONG_TRANSACTION
  2
AcDbLongTransaction
  3
AutoCAD 2000
 90
        0
280
     0
281
     0
  0
CLASS
  1
LWPOLYLINE
  2
AcDbPolyline
  3
"AutoCAD"
 90
        0
280
     0
281
     1
  0
CLASS
  1
HATCH
  2
AcDbHatch
  3
"ACAD_SEDONA"
 90
        0
280
     0
281
     1
  0
CLASS
  1
XRECORD
  2
AcDbXrecord
  3
"<Built In>"
 90
        0
280
     0
281
     0
  0
CLASS
  1
LONG_TRANSACTION
  2
AcDbLongTransaction
  3
AutoCAD 2000
 90
        0
280
     0
281
     0
  0
CLASS
  1
LWPOLYLINE
  2
AcDbPolyline
  3
"AutoCAD"
 90
        0
280
     0
281
     1
  0
CLASS
  1
HATCH
  2
AcDbHatch
  3
"ACAD_SEDONA"
 90
        0
280
     0
281
     1
  0
CLASS
  1
XRECORD
  2
AcDbXrecord
  3
"<Built In>"
 90
        0
280
     0
281
     0
  0
ENDSEC
  0
SECTION
  2
TABLES
  0
TABLE
  2
VPORT
  5
469
100
AcDbSymbolTable
 70
     1
  0
VPORT
  5
39AD
102
{ACAD_XDICTIONARY
360
3A5F
102
}
100
AcDbSymbolTableRecord
100
AcDbViewportTableRecord
  2
*ACTIVE
 70
     0
 10
0.0
 20
0.0
 11
1.0
 21
1.0
 12
1.110564
 22
1.476042
 13
0.0
 23
0.0
 14
1.0
 24
1.0
 15
0.0
 25
0.0
 16
0.0
 26
-1.0
 36
0.0
 17
0.0
 27
0.0
 37
0.0
 40
4.155677
 41
1.826316
 42
50.0
 43
0.0
 44
0.0
 50
0.0
 51
0.0
 71
     0
 72
   100
 73
     1
 74
     1
 75
     0
 76
     0
 77
     0
 78
     0
  0
ENDTAB
  0
TABLE
  2
LTYPE
  5
466
100
AcDbSymbolTable
 70
     1
  0
LTYPE
  5
472
100
AcDbSymbolTableRecord
100
AcDbLinetypeTableRecord
  2
BYBLOCK
 70
     0
  3

 72
    65
 73
     0
 40
0.0
  0
LTYPE
  5
473
100
AcDbSymbolTableRecord
100
AcDbLinetypeTableRecord
  2
BYLAYER
 70
     0
  3

 72
    65
 73
     0
 40
0.0
  0
LTYPE
  5
474
100
AcDbSymbolTableRecord
100
AcDbLinetypeTableRecord
  2
CONTINUOUS
 70
     0
  3
Solid line
 72
    65
 73
     0
 40
0.0
  0
ENDTAB
  0
TABLE
  2
LAYER
  5
463
100
AcDbSymbolTable
 70
     8
  0
LAYER
  5
46F
100
AcDbSymbolTableRecord
100
AcDbLayerTableRecord
  2
0
 70
     0
 62
     7
  6
CONTINUOUS
  0
LAYER
  5
485
100
AcDbSymbolTableRecord
100
AcDbLayerTableRecord
  2
AREA1
 70
     0
 62
     7
  6
CONTINUOUS
  0
LAYER
  5
486
100
AcDbSymbolTableRecord
100
AcDbLayerTableRecord
  2
AREA2
 70
     0
 62
     7
  6
CONTINUOUS
  0
LAYER
  5
494
102
{ACAD_XDICTIONARY
360
3A8C
102
}
100
AcDbSymbolTableRecord
100
AcDbLayerTableRecord
  2
DEFPOINTS
 70
     0
 62
    -7
  6
CONTINUOUS
  0
LAYER
  5
495
100
AcDbSymbolTableRecord
100
AcDbLayerTableRecord
  2
DIMS-MTG-HOLES
 70
     0
 62
    -1
  6
CONTINUOUS
  0
LAYER
  5
4E6
100
AcDbSymbolTableRecord
100
AcDbLayerTableRecord
  2
SCALE
 70
     0
 62
    -7
  6
CONTINUOUS
  0
LAYER
  5
4ED
100
AcDbSymbolTableRecord
100
AcDbLayerTableRecord
  2
SNAP_POINTS
 70
     0
 62
    -1
  6
CONTINUOUS
  0
LAYER
  5
4F1
100
AcDbSymbolTableRecord
100
AcDbLayerTableRecord
  2
ATTRIBUTES
 70
     0
 62
    -7
  6
CONTINUOUS
  0
ENDTAB
  0
TABLE
  2
STYLE
  5
464
100
AcDbSymbolTable
 70
     1
  0
STYLE
  5
470
100
AcDbSymbolTableRecord
100
AcDbTextStyleTableRecord
  2
STANDARD
 70
     0
 40
0.0
 41
1.0
 50
0.0
 71
     0
 42
0.2
  3
txt
  4

  0
ENDTAB
  0
TABLE
  2
VIEW
  5
467
100
AcDbSymbolTable
 70
     0
  0
ENDTAB
  0
TABLE
  2
UCS
  5
468
100
AcDbSymbolTable
 70
     0
  0
ENDTAB
  0
TABLE
  2
APPID
  5
46A
100
AcDbSymbolTable
 70
     2
  0
APPID
  5
471
100
AcDbSymbolTableRecord
100
AcDbRegAppTableRecord
  2
ACAD
 70
     0
  0
APPID
  5
47E
100
AcDbSymbolTableRecord
100
AcDbRegAppTableRecord
  2
AVE_RENDER
 70
     0
  0
ENDTAB
  0
TABLE
  2
DIMSTYLE
  5
46B
100
AcDbSymbolTable
 70
     2
  0
DIMSTYLE
105
49A
102
{ACAD_XDICTIONARY
360
3A8E
102
}
102
{ACAD_REACTORS
330
399F
102
}
100
AcDbSymbolTableRecord
100
AcDbDimStyleTableRecord
  2
ABECAD_3V
 70
     0
  3

  4

  5

  6

  7

 40
0.0
 41
0.18
 42
0.0625
 43
0.375
 44
0.18
 45
0.0
 46
0.0
 47
0.0
 48
0.0
140
0.09
141
0.09
142
0.0
143
25.4
144
1.0
145
0.0
146
1.5
147
0.09
 71
     0
 72
     0
 73
     0
 74
     1
 75
     0
 76
     0
 77
     0
 78
     4
170
     1
171
     2
172
     0
173
     0
174
     0
175
     0
176
     0
177
     0
178
     0
270
     7
271
     6
272
     6
273
     2
274
     2
340
470
275
     0
280
     0
281
     0
282
     0
283
     1
284
     4
285
     4
286
     4
287
     5
288
     1
  0
DIMSTYLE
105
545
102
{ACAD_XDICTIONARY
360
3A92
102
}
100
AcDbSymbolTableRecord
100
AcDbDimStyleTableRecord
  2
ABECAD_3D
 70
     0
  3

  4

  5

  6

  7

 40
1.0
 41
0.09
 42
0.0625
 43
0.375
 44
0.18
 45
0.0
 46
0.0
 47
0.0
 48
0.0
140
0.09
141
0.09
142
0.0
143
25.4
144
1.0
145
0.0
146
1.5
147
0.09
 71
     0
 72
     0
 73
     0
 74
     1
 75
     0
 76
     0
 77
     0
 78
     4
170
     1
171
     2
172
     0
173
     0
174
     0
175
     0
176
     0
177
     0
178
     0
270
     7
271
     6
272
     6
273
     2
274
     2
340
470
275
     0
280
     0
281
     0
282
     0
283
     1
284
     4
285
     4
286
     4
287
     5
288
     1
  0
ENDTAB
  0
TABLE
  2
BLOCK_RECORD
  5
462
100
AcDbSymbolTable
 70
     4
  0
BLOCK_RECORD
  5
478
102
{ACAD_XDICTIONARY
360
4D2
102
}
100
AcDbSymbolTableRecord
100
AcDbBlockTableRecord
  2
*MODEL_SPACE
  0
BLOCK_RECORD
  5
475
102
{ACAD_XDICTIONARY
360
4D0
102
}
100
AcDbSymbolTableRecord
100
AcDbBlockTableRecord
  2
*PAPER_SPACE
  0
BLOCK_RECORD
  5
3166
100
AcDbSymbolTableRecord
100
AcDbBlockTableRecord
  2
*D0
  0
BLOCK_RECORD
  5
3173
100
AcDbSymbolTableRecord
100
AcDbBlockTableRecord
  2
*D1
  0
BLOCK_RECORD
  5
3180
102
{ACAD_XDICTIONARY
360
3A5D
102
}
100
AcDbSymbolTableRecord
100
AcDbBlockTableRecord
  2
ABDSB500
  0
BLOCK_RECORD
  5
39A0
100
AcDbSymbolTableRecord
100
AcDbBlockTableRecord
  2
*D3
  0
ENDTAB
  0
ENDSEC
  0
SECTION
  2
BLOCKS
  0
BLOCK
  5
48B
100
AcDbEntity
  8
0
100
AcDbBlockBegin
  2
*MODEL_SPACE
 70
     0
 10
0.0
 20
0.0
 30
0.0
  3
*MODEL_SPACE
  1

  0
ENDBLK
  5
48C
100
AcDbEntity
  8
0
100
AcDbBlockEnd
  0
BLOCK
  5
489
100
AcDbEntity
 67
     1
  8
0
100
AcDbBlockBegin
  2
*PAPER_SPACE
 70
     0
 10
0.0
 20
0.0
 30
0.0
  3
*PAPER_SPACE
  1

  0
ENDBLK
  5
48A
100
AcDbEntity
 67
     1
  8
0
100
AcDbBlockEnd
  0
BLOCK
  5
3171
100
AcDbEntity
  8
0
100
AcDbBlockBegin
  2
*D0
 70
     1
 10
0.0
 20
0.0
 30
0.0
  3
*D0
  1

  0
LINE
  5
3167
100
AcDbEntity
  8
AREA1
 62
     0
100
AcDbLine
 10
-2.6625
 20
2.725
 30
0.0
 11
-2.6625
 21
3.174136
 31
0.0
1001
ACAD
1000
RTLwPs
1070
   158
  0
LINE
  5
3168
100
AcDbEntity
  8
AREA1
 62
     0
100
AcDbLine
 10
2.6625
 20
2.725
 30
0.0
 11
2.6625
 21
3.174136
 31
0.0
1001
ACAD
1000
RTLwPs
1070
   158
  0
LINE
  5
3169
100
AcDbEntity
  8
AREA1
 62
     0
100
AcDbLine
 10
-2.5725
 20
2.994136
 30
0.0
 11
-0.795633
 21
2.994136
 31
0.0
1001
ACAD
1000
RTLwPs
1070
   158
  0
LINE
  5
316A
100
AcDbEntity
  8
AREA1
 62
     0
100
AcDbLine
 10
2.5725
 20
2.994136
 30
0.0
 11
0.614367
 21
2.994136
 31
0.0
1001
ACAD
1000
RTLwPs
1070
   158
  0
MTEXT
  5
316B
100
AcDbEntity
  8
AREA1
 62
     0
100
AcDbMText
 10
-0.090633
 20
2.994136
 30
0.0
 40
0.09
 41
0.0
 71
     5
 72
     1
  1
\A1;5 21/64 [135.26]
1001
ACAD
1000
MTEXTBEGIN
1070
    73
1070
     1
1070
    44
1040
1.0
1070
    74
1070
     0
1000
MTEXTEND
1000
MTEXTBEGIN
1070
    73
1070
     1
1070
    44
1040
1.0
1070
    74
1070
     0
1000
MTEXTEND
1000
MTEXTBEGIN
1070
    73
1070
     1
1070
    44
1040
1.0
1070
    74
1070
     0
1000
MTEXTEND
1000
MTEXTBEGIN
1070
    73
1070
     1
1070
    44
1040
1.0
1070
    74
1070
     0
1000
MTEXTEND
1000
MTEXTBEGIN
1070
    73
1070
     1
1070
    44
1040
1.0
1070
    74
1070
     0
1000
MTEXTEND
  0
SOLID
  5
316C
100
AcDbEntity
  8
AREA1
 62
     0
100
AcDbTrace
 10
-2.5725
 20
3.009136
 30
0.0
 11
-2.5725
 21
2.979136
 31
0.0
 12
-2.6625
 22
2.994136
 32
0.0
 13
-2.6625
 23
2.994136
 33
0.0
  0
SOLID
  5
316D
100
AcDbEntity
  8
AREA1
 62
     0
100
AcDbTrace
 10
2.5725
 20
3.009136
 30
0.0
 11
2.5725
 21
2.979136
 31
0.0
 12
2.6625
 22
2.994136
 32
0.0
 13
2.6625
 23
2.994136
 33
0.0
  0
POINT
  5
316E
100
AcDbEntity
  8
DEFPOINTS
 62
     0
100
AcDbPoint
 10
-2.6625
 20
2.6625
 30
0.0
  0
POINT
  5
316F
100
AcDbEntity
  8
DEFPOINTS
 62
     0
100
AcDbPoint
 10
2.6625
 20
2.6625
 30
0.0
  0
POINT
  5
3170
100
AcDbEntity
  8
DEFPOINTS
 62
     0
100
AcDbPoint
 10
2.6625
 20
2.994136
 30
0.0
  0
ENDBLK
  5
3172
100
AcDbEntity
  8
0
100
AcDbBlockEnd
  0
BLOCK
  5
317E
100
AcDbEntity
  8
0
100
AcDbBlockBegin
  2
*D1
 70
     1
 10
0.0
 20
0.0
 30
0.0
  3
*D1
  1

  0
LINE
  5
3174
100
AcDbEntity
  8
AREA1
 62
     0
100
AcDbLine
 10
2.725
 20
2.6625
 30
0.0
 11
3.280605
 21
2.6625
 31
0.0
1001
ACAD
1000
RTLwPs
1070
   158
  0
LINE
  5
3175
100
AcDbEntity
  8
AREA1
 62
     0
100
AcDbLine
 10
2.725
 20
-2.6625
 30
0.0
 11
3.280605
 21
-2.6625
 31
0.0
1001
ACAD
1000
RTLwPs
1070
   158
  0
LINE
  5
3176
100
AcDbEntity
  8
AREA1
 62
     0
100
AcDbLine
 10
3.100605
 20
2.5725
 30
0.0
 11
3.100605
 21
0.701511
 31
0.0
1001
ACAD
1000
RTLwPs
1070
   158
  0
LINE
  5
3177
100
AcDbEntity
  8
AREA1
 62
     0
100
AcDbLine
 10
3.100605
 20
-2.5725
 30
0.0
 11
3.100605
 21
-0.708489
 31
0.0
1001
ACAD
1000
RTLwPs
1070
   158
  0
MTEXT
  5
3178
100
AcDbEntity
  8
AREA1
 62
     0
100
AcDbMText
 10
3.100605
 20
-0.003489
 30
0.0
 40
0.09
 41
0.0
 71
     5
 72
     1
  1
\A1;5 21/64 [135.26]
 11
0.0
 21
1.0
 31
0.0
1001
ACAD
1000
MTEXTBEGIN
1070
    73
1070
     1
1070
    44
1040
1.0
1070
    74
1070
     0
1000
MTEXTEND
1000
MTEXTBEGIN
1070
    73
1070
     1
1070
    44
1040
1.0
1070
    74
1070
     0
1000
MTEXTEND
1000
MTEXTBEGIN
1070
    73
1070
     1
1070
    44
1040
1.0
1070
    74
1070
     0
1000
MTEXTEND
1000
MTEXTBEGIN
1070
    73
1070
     1
1070
    44
1040
1.0
1070
    74
1070
     0
1000
MTEXTEND
1000
MTEXTBEGIN
1070
    73
1070
     1
1070
    44
1040
1.0
1070
    74
1070
     0
1000
MTEXTEND
  0
SOLID
  5
3179
100
AcDbEntity
  8
AREA1
 62
     0
100
AcDbTrace
 10
3.085605
 20
2.5725
 30
0.0
 11
3.115605
 21
2.5725
 31
0.0
 12
3.100605
 22
2.6625
 32
0.0
 13
3.100605
 23
2.6625
 33
0.0
  0
SOLID
  5
317A
100
AcDbEntity
  8
AREA1
 62
     0
100
AcDbTrace
 10
3.085605
 20
-2.5725
 30
0.0
 11
3.115605
 21
-2.5725
 31
0.0
 12
3.100605
 22
-2.6625
 32
0.0
 13
3.100605
 23
-2.6625
 33
0.0
  0
POINT
  5
317B
100
AcDbEntity
  8
DEFPOINTS
 62
     0
100
AcDbPoint
 10
2.6625
 20
2.6625
 30
0.0
  0
POINT
  5
317C
100
AcDbEntity
  8
DEFPOINTS
 62
     0
100
AcDbPoint
 10
2.6625
 20
-2.6625
 30
0.0
  0
POINT
  5
317D
100
AcDbEntity
  8
DEFPOINTS
 62
     0
100
AcDbPoint
 10
3.100605
 20
-2.6625
 30
0.0
  0
ENDBLK
  5
317F
100
AcDbEntity
  8
0
100
AcDbBlockEnd
  0
BLOCK
  5
3992
100
AcDbEntity
  8
0
100
AcDbBlockBegin
  2
ABDSB500
 70
     2
 10
0.0
 20
0.0
 30
0.0
  3
ABDSB500
  1

  0
LINE
  5
3181
100
AcDbEntity
  8
SCALE
100
AcDbLine
 10
3.805997
 20
-2.231833
 30
0.0
 11
4.805997
 21
-2.231833
 31
0.0
  0
LINE
  5
3182
100
AcDbEntity
  8
SCALE
100
AcDbLine
 10
4.805997
 20
-2.231833
 30
0.0
 11
4.805997
 21
-2.331833
 31
0.0
  0
LINE
  5
3183
100
AcDbEntity
  8
SCALE
100
AcDbLine
 10
4.805997
 20
-2.331833
 30
0.0
 11
4.805997
 21
-2.131833
 31
0.0
  0
LINE
  5
3184
100
AcDbEntity
  8
SCALE
100
AcDbLine
 10
3.805997
 20
-2.331833
 30
0.0
 11
3.805997
 21
-2.131833
 31
0.0
  0
LINE
  5
3185
100
AcDbEntity
  8
SCALE
100
AcDbLine
 10
3.805997
 20
-2.631833
 30
0.0
 11
3.805997
 21
-2.431833
 31
0.0
  0
LINE
  5
3186
100
AcDbEntity
  8
SCALE
100
AcDbLine
 10
4.199697
 20
-2.631833
 30
0.0
 11
4.199697
 21
-2.431833
 31
0.0
  0
LINE
  5
3187
100
AcDbEntity
  8
SCALE
100
AcDbLine
 10
3.805997
 20
-2.531833
 30
0.0
 11
4.199697
 21
-2.531833
 31
0.0
  0
TEXT
  5
3188
100
AcDbEntity
  8
SCALE
100
AcDbText
 10
3.865419
 20
-2.486093
 30
0.0
 40
0.0625
  1
[10mm]
100
AcDbText
  0
TEXT
  5
3189
100
AcDbEntity
  8
SCALE
100
AcDbText
 10
4.16928
 20
-2.162784
 30
0.0
 40
0.0625
  1
1 Inch
100
AcDbText
  0
TEXT
  5
318A
100
AcDbEntity
  8
SCALE
100
AcDbText
 10
3.807528
 20
-1.956956
 30
0.0
 40
0.0625
  1
SCALE:
100
AcDbText
  0
LWPOLYLINE
  5
318B
100
AcDbEntity
  8
SCALE
100
AcDbPolyline
 90
        4
 70
     1
 43
0.0
 10
3.747999
 20
-1.851754
 10
4.883627
 20
-1.851754
 10
4.883627
 20
-2.693364
 10
3.747999
 20
-2.693364
  0
ATTDEF
  5
318C
100
AcDbEntity
  8
ATTRIBUTES
100
AcDbText
 10
-2.5511
 20
-1.05572
 30
0.0
 40
0.09
  1
ALLEN-BRADLEY
100
AcDbAttributeDefinition
  3
MANUFACTURER NAME?
  2
AC_VND_LABEL
 70
     1
  0
ATTDEF
  5
318D
100
AcDbEntity
  8
ATTRIBUTES
100
AcDbText
 10
-2.5511
 20
-1.24322
 30
0.0
 40
0.09
  1
194L-HE13G/N-***
100
AcDbAttributeDefinition
  3
CATALOG NUMBER?
  2
AC_PART_NO
 70
     1
  0
ATTDEF
  5
318E
100
AcDbEntity
  8
ATTRIBUTES
100
AcDbText
 10
-2.5511
 20
-1.43072
 30
0.0
 40
0.09
  1
Control and Load Switch Actuator, Type G/N
100
AcDbAttributeDefinition
  3
PART DESCRIPTION?
  2
AC_DESCRIPTION
 70
     1
  0
ATTDEF
  5
318F
100
AcDbEntity
  8
ATTRIBUTES
100
AcDbText
 10
-2.5511
 20
-1.61822
 30
0.0
 40
0.09
  1

100
AcDbAttributeDefinition
  3
DEVICE ID?
  2
DEVICE_ID
 70
     1
  0
ATTDEF
  5
3190
100
AcDbEntity
  8
ATTRIBUTES
100
AcDbText
 10
-2.5511
 20
-1.80572
 30
0.0
 40
0.09
  1

100
AcDbAttributeDefinition
  3
CUSTOMER PART NUMBER?
  2
AC_CPART_NO
 70
     1
  0
ATTDEF
  5
3191
100
AcDbEntity
  8
ATTRIBUTES
100
AcDbText
 10
-2.5511
 20
-1.99322
 30
0.0
 40
0.09
  1

100
AcDbAttributeDefinition
  3
CUSTOMER NOTE?
  2
AC_NOTE
 70
     1
  0
ATTDEF
  5
3192
100
AcDbEntity
  8
ATTRIBUTES
100
AcDbText
 10
-2.5511
 20
-2.18072
 30
0.0
 40
0.09
  1

100
AcDbAttributeDefinition
  3
FASTENER DATA?
  2
FASTENER
 70
     1
  0
ATTDEF
  5
3193
100
AcDbEntity
  8
ATTRIBUTES
100
AcDbText
 10
-2.5511
 20
-2.36822
 30
0.0
 40
0.09
  1
INCH
100
AcDbAttributeDefinition
  3
UNIT OF SCALE?
  2
AC_SCALE_UNIT
 70
     1
  0
ATTDEF
  5
3194
100
AcDbEntity
  8
ATTRIBUTES
100
AcDbText
 10
-2.5511
 20
-2.55572
 30
0.0
 40
0.09
  1
0
100
AcDbAttributeDefinition
  3
VIEW CODE?
  2
AC_VIEW_CODE
 70
     1
  0
POLYLINE
  5
3195
100
AcDbEntity
  8
0
100
AcDbPolygonMesh
 66
     1
 10
0.0
 20
0.0
 30
0.0
 70
    16
 71
     6
 72
     3
  0
VERTEX
  5
3196
100
AcDbEntity
  8
0
100
AcDbVertex
100
AcDbPolygonMeshVertex
 10
2.6625
 20
-2.6625
 30
0.705
 70
    64
  0
VERTEX
  5
3197
100
AcDbEntity
  8
0
100
AcDbVertex
100
AcDbPolygonMeshVertex
 10
2.6625
 20
-2.6625
 30
0.0
 70
    64
  0
VERTEX
  5
3198
100
AcDbEntity
  8
0
100
AcDbVertex
100
AcDbPolygonMeshVertex
 10
2.6625
 20
-2.6625
 30
0.0
 70
    64
  0
VERTEX
  5
3199
100
AcDbEntity
  8
0
100
AcDbVertex
100
AcDbPolygonMeshVertex
 10
-2.6625
 20
-2.6625
 30
0.705
 70
    64
  0
VERTEX
  5
319A
100
AcDbEntity
  8
0
100
AcDbVertex
100
AcDbPolygonMeshVertex
 10
-2.6625
 20
-2.6625
 30
0.0
 70
    64
  0
VERTEX
  5
319B
100
AcDbEntity
  8
0
100
AcDbVertex
100
AcDbPolygonMeshVertex
 10
-2.6625
 20
-2.6625
 30
0.0
 70
    64
  0
VERTEX
  5
319C
100
AcDbEntity
  8
0
100
AcDbVertex
100
AcDbPolygonMeshVertex
 10
-2.6625
 20
2.6625
 30
0.705
 70
    64
  0
VERTEX
  5
319D
100
AcDbEntity
  8
0
100
AcDbVertex
100
AcDbPolygonMeshVertex
 10
-2.6625
 20
2.6625
 30
0.0
 70
    64
  0
VERTEX
  5
319E
100
AcDbEntity
  8
0
100
AcDbVertex
100
AcDbPolygonMeshVertex
 10
-2.6625
 20
-2.6625
 30
0.0
 70
    64
  0
VERTEX
  5
319F
100
AcDbEntity
  8
0
100
AcDbVertex
100
AcDbPolygonMeshVertex
 10
2.6625
 20
2.6625
 30
0.705
 70
    64
  0
VERTEX
  5
31A0
100
AcDbEntity
  8
0
100
AcDbVertex
100
AcDbPolygonMeshVertex
 10
2.6625
 20
2.6625
 30
0.0
 70
    64
  0
VERTEX
  5
31A1
100
AcDbEntity
  8
0
100
AcDbVertex
100
AcDbPolygonMeshVertex
 10
2.6625
 20
-2.6625
 30
0.0
 70
    64
  0
VERTEX
  5
31A2
100
AcDbEntity
  8
0
100
AcDbVertex
100
AcDbPolygonMeshVertex
 10
2.6625
 20
2.6625
 30
0.705
 70
    64
  0
VERTEX
  5
31A3
100
AcDbEntity
  8
0
100
AcDbVertex
100
AcDbPolygonMeshVertex
 10
2.6625
 20
2.6625
 30
0.705
 70
    64
  0
VERTEX
  5
31A4
100
AcDbEntity
  8
0
100
AcDbVertex
100
AcDbPolygonMeshVertex
 10
2.6625
 20
-2.6625
 30
0.705
 70
    64
  0
VERTEX
  5
31A5
100
AcDbEntity
  8
0
100
AcDbVertex
100
AcDbPolygonMeshVertex
 10
-2.6625
 20
2.6625
 30
0.705
 70
    64
  0
VERTEX
  5
31A6
100
AcDbEntity
  8
0
100
AcDbVertex
100
AcDbPolygonMeshVertex
 10
-2.6625
 20
2.6625
 30
0.705
 70
    64
  0
VERTEX
  5
31A7
100
AcDbEntity
  8
0
100
AcDbVertex
100
AcDbPolygonMeshVertex
 10
-2.6625
 20
-2.6625
 30
0.705
 70
    64
  0
SEQEND
  5
31A8
100
AcDbEntity
  8
0
  0
CIRCLE
  5
31A9
100
AcDbEntity
  8
0
100
AcDbCircle
 10
0.0
 20
0.0
 30
0.705
 40
2.58
  0
CIRCLE
  5
31AA
100
AcDbEntity
  8
0
100
AcDbCircle
 10
0.0
 20
0.0
 30
0.705
 40
2.34
  0
POLYLINE
  5
31AB
100
AcDbEntity
  8
0
100
AcDbPolygonMesh
 66
     1
 10
0.0
 20
0.0
 30
0.0
 70
    16
 71
     6
 72
     3
  0
VERTEX
  5
31AC
100
AcDbEntity
  8
0
100
AcDbVertex
100
AcDbPolygonMeshVertex
 10
2.58
 20
-0.15
 30
2.01
 70
    64
  0
VERTEX
  5
31AD
100
AcDbEntity
  8
0
100
AcDbVertex
100
AcDbPolygonMeshVertex
 10
2.58
 20
-0.15
 30
0.705
 70
    64
  0
VERTEX
  5
31AE
100
AcDbEntity
  8
0
100
AcDbVertex
100
AcDbPolygonMeshVertex
 10
2.58
 20
-0.15
 30
0.705
 70
    64
  0
VERTEX
  5
31AF
100
AcDbEntity
  8
0
100
AcDbVertex
100
AcDbPolygonMeshVertex
 10
2.34
 20
-0.15
 30
2.01
 70
    64
  0
VERTEX
  5
31B0
100
AcDbEntity
  8
0
100
AcDbVertex
100
AcDbPolygonMeshVertex
 10
2.34
 20
-0.15
 30
0.705
 70
    64
  0
VERTEX
  5
31B1
100
AcDbEntity
  8
0
100
AcDbVertex
100
AcDbPolygonMeshVertex
 10
2.34
 20
-0.15
 30
0.705
 70
    64
  0
VERTEX
  5
31B2
100
AcDbEntity
  8
0
100
AcDbVertex
100
AcDbPolygonMeshVertex
 10
2.34
 20
0.15
 30
2.01
 70
    64
  0
VERTEX
  5
31B3
100
AcDbEntity
  8
0
100
AcDbVertex
100
AcDbPolygonMeshVertex
 10
2.34
 20
0.15
 30
0.705
 70
    64
  0
VERTEX
  5
31B4
100
AcDbEntity
  8
0
100
AcDbVertex
100
AcDbPolygonMeshVertex
 10
2.34
 20
-0.15
 30
0.705
 70
    64
  0
VERTEX
  5
31B5
100
AcDbEntity
  8
0
100
AcDbVertex
100
AcDbPolygonMeshVertex
 10
2.58
 20
0.15
 30
2.01
 70
    64
  0
VERTEX
  5
31B6
100
AcDbEntity
  8
0
100
AcDbVertex
100
AcDbPolygonMeshVertex
 10
2.58
 20
0.15
 30
0.705
 70
    64
  0
VERTEX
  5
31B7
100
AcDbEntity
  8
0
100
AcDbVertex
100
AcDbPolygonMeshVertex
 10
2.58
 20
-0.15
 30
0.705
 70
    64
  0
VERTEX
  5
31B8
100
AcDbEntity
  8
0
100
AcDbVertex
100
AcDbPolygonMeshVertex
 10
2.58
 20
0.15
 30
2.01
 70
    64
  0
VERTEX
  5
31B9
100
AcDbEntity
  8
0
100
AcDbVertex
100
AcDbPolygonMeshVertex
 10
2.58
 20
0.15
 30
2.01
 70
    64
  0
VERTEX
  5
31BA
100
AcDbEntity
  8
0
100
AcDbVertex
100
AcDbPolygonMeshVertex
 10
2.58
 20
-0.15
 30
2.01
 70
    64
  0
VERTEX
  5
31BB
100
AcDbEntity
  8
0
100
AcDbVertex
100
AcDbPolygonMeshVertex
 10
2.34
 20
0.15
 30
2.01
 70
    64
  0
VERTEX
  5
31BC
100
AcDbEntity
  8
0
100
AcDbVertex
100
AcDbPolygonMeshVertex
 10
2.34
 20
0.15
 30
2.01
 70
    64
  0
VERTEX
  5
31BD
100
AcDbEntity
  8
0
100
AcDbVertex
100
AcDbPolygonMeshVertex
 10
2.34
 20
-0.15
 30
2.01
 70
    64
  0
SEQEND
  5
31BE
100
AcDbEntity
  8
0
  0
POLYLINE
  5
31BF
100
AcDbEntity
  8
0
100
AcDbPolygonMesh
 66
     1
 10
0.0
 20
0.0
 30
0.0
 70
    16
 71
     6
 72
     3
  0
VERTEX
  5
31C0
100
AcDbEntity
  8
0
100
AcDbVertex
100
AcDbPolygonMeshVertex
 10
2.584328
 20
0.012296
 30
2.01
 70
    64
  0
VERTEX
  5
31C1
100
AcDbEntity
  8
0
100
AcDbVertex
100
AcDbPolygonMeshVertex
 10
2.584328
 20
0.012296
 30
0.705
 70
    64
  0
VERTEX
  5
31C2
100
AcDbEntity
  8
0
100
AcDbVertex
100
AcDbPolygonMeshVertex
 10
2.584328
 20
0.012296
 30
0.705
 70
    64
  0
VERTEX
  5
31C3
100
AcDbEntity
  8
0
100
AcDbVertex
100
AcDbPolygonMeshVertex
 10
2.344801
 20
-0.002774
 30
2.01
 70
    64
  0
VERTEX
  5
31C4
100
AcDbEntity
  8
0
100
AcDbVertex
100
AcDbPolygonMeshVertex
 10
2.344801
 20
-0.002774
 30
0.705
 70
    64
  0
VERTEX
  5
31C5
100
AcDbEntity
  8
0
100
AcDbVertex
100
AcDbPolygonMeshVertex
 10
2.344801
 20
-0.002774
 30
0.705
 70
    64
  0
VERTEX
  5
31C6
100
AcDbEntity
  8
0
100
AcDbVertex
100
AcDbPolygonMeshVertex
 10
2.325964
 20
0.296634
 30
2.01
 70
    64
  0
VERTEX
  5
31C7
100
AcDbEntity
  8
0
100
AcDbVertex
100
AcDbPolygonMeshVertex
 10
2.325964
 20
0.296634
 30
0.705
 70
    64
  0
VERTEX
  5
31C8
100
AcDbEntity
  8
0
100
AcDbVertex
100
AcDbPolygonMeshVertex
 10
2.344801
 20
-0.002774
 30
0.705
 70
    64
  0
VERTEX
  5
31C9
100
AcDbEntity
  8
0
100
AcDbVertex
100
AcDbPolygonMeshVertex
 10
2.56549
 20
0.311704
 30
2.01
 70
    64
  0
VERTEX
  5
31CA
100
AcDbEntity
  8
0
100
AcDbVertex
100
AcDbPolygonMeshVertex
 10
2.56549
 20
0.311704
 30
0.705
 70
    64
  0
VERTEX
  5
31CB
100
AcDbEntity
  8
0
100
AcDbVertex
100
AcDbPolygonMeshVertex
 10
2.584328
 20
0.012296
 30
0.705
 70
    64
  0
VERTEX
  5
31CC
100
AcDbEntity
  8
0
100
AcDbVertex
100
AcDbPolygonMeshVertex
 10
2.56549
 20
0.311704
 30
2.01
 70
    64
  0
VERTEX
  5
31CD
100
AcDbEntity
  8
0
100
AcDbVertex
100
AcDbPolygonMeshVertex
 10
2.56549
 20
0.311704
 30
2.01
 70
    64
  0
VERTEX
  5
31CE
100
AcDbEntity
  8
0
100
AcDbVertex
100
AcDbPolygonMeshVertex
 10
2.584328
 20
0.012296
 30
2.01
 70
    64
  0
VERTEX
  5
31CF
100
AcDbEntity
  8
0
100
AcDbVertex
100
AcDbPolygonMeshVertex
 10
2.325964
 20
0.296634
 30
2.01
 70
    64
  0
VERTEX
  5
31D0
100
AcDbEntity
  8
0
100
AcDbVertex
100
AcDbPolygonMeshVertex
 10
2.325964
 20
0.296634
 30
2.01
 70
    64
  0
VERTEX
  5
31D1
100
AcDbEntity
  8
0
100
AcDbVertex
100
AcDbPolygonMeshVertex
 10
2.344801
 20
-0.002774
 30
2.01
 70
    64
  0
SEQEND
  5
31D2
100
AcDbEntity
  8
0
  0
POLYLINE
  5
31D3
100
AcDbEntity
  8
0
100
AcDbPolygonMesh
 66
     1
 10
0.0
 20
0.0
 30
0.0
 70
    16
 71
     6
 72
     3
  0
VERTEX
  5
31D4
100
AcDbEntity
  8
0
100
AcDbVertex
100
AcDbPolygonMeshVertex
 10
2.578456
 20
0.174543
 30
2.01
 70
    64
  0
VERTEX
  5
31D5
100
AcDbEntity
  8
0
100
AcDbVertex
100
AcDbPolygonMeshVertex
 10
2.578456
 20
0.174543
 30
0.705
 70
    64
  0
VERTEX
  5
31D6
100
AcDbEntity
  8
0
100
AcDbVertex
100
AcDbPolygonMeshVertex
 10
2.578456
 20
0.174543
 30
0.705
 70
    64
  0
VERTEX
  5
31D7
100
AcDbEntity
  8
0
100
AcDbVertex
100
AcDbPolygonMeshVertex
 10
2.340348
 20
0.144463
 30
2.01
 70
    64
  0
VERTEX
  5
31D8
100
AcDbEntity
  8
0
100
AcDbVertex
100
AcDbPolygonMeshVertex
 10
2.340348
 20
0.144463
 30
0.705
 70
    64
  0
VERTEX
  5
31D9
100
AcDbEntity
  8
0
100
AcDbVertex
100
AcDbPolygonMeshVertex
 10
2.340348
 20
0.144463
 30
0.705
 70
    64
  0
VERTEX
  5
31DA
100
AcDbEntity
  8
0
100
AcDbVertex
100
AcDbPolygonMeshVertex
 10
2.302748
 20
0.442097
 30
2.01
 70
    64
  0
VERTEX
  5
31DB
100
AcDbEntity
  8
0
100
AcDbVertex
100
AcDbPolygonMeshVertex
 10
2.302748
 20
0.442097
 30
0.705
 70
    64
  0
VERTEX
  5
31DC
100
AcDbEntity
  8
0
100
AcDbVertex
100
AcDbPolygonMeshVertex
 10
2.340348
 20
0.144463
 30
0.705
 70
    64
  0
VERTEX
  5
31DD
100
AcDbEntity
  8
0
100
AcDbVertex
100
AcDbPolygonMeshVertex
 10
2.540856
 20
0.472177
 30
2.01
 70
    64
  0
VERTEX
  5
31DE
100
AcDbEntity
  8
0
100
AcDbVertex
100
AcDbPolygonMeshVertex
 10
2.540856
 20
0.472177
 30
0.705
 70
    64
  0
VERTEX
  5
31DF
100
AcDbEntity
  8
0
100
AcDbVertex
100
AcDbPolygonMeshVertex
 10
2.578456
 20
0.174543
 30
0.705
 70
    64
  0
VERTEX
  5
31E0
100
AcDbEntity
  8
0
100
AcDbVertex
100
AcDbPolygonMeshVertex
 10
2.540856
 20
0.472177
 30
2.01
 70
    64
  0
VERTEX
  5
31E1
100
AcDbEntity
  8
0
100
AcDbVertex
100
AcDbPolygonMeshVertex
 10
2.540856
 20
0.472177
 30
2.01
 70
    64
  0
VERTEX
  5
31E2
100
AcDbEntity
  8
0
100
AcDbVertex
100
AcDbPolygonMeshVertex
 10
2.578456
 20
0.174543
 30
2.01
 70
    64
  0
VERTEX
  5
31E3
100
AcDbEntity
  8
0
100
AcDbVertex
100
AcDbPolygonMeshVertex
 10
2.302748
 20
0.442097
 30
2.01
 70
    64
  0
VERTEX
  5
31E4
100
AcDbEntity
  8
0
100
AcDbVertex
100
AcDbPolygonMeshVertex
 10
2.302748
 20
0.442097
 30
2.01
 70
    64
  0
VERTEX
  5
31E5
100
AcDbEntity
  8
0
100
AcDbVertex
100
AcDbPolygonMeshVertex
 10
2.340348
 20
0.144463
 30
2.01
 70
    64
  0
SEQEND
  5
31E6
100
AcDbEntity
  8
0
  0
POLYLINE
  5
31E7
100
AcDbEntity
  8
0
100
AcDbPolygonMesh
 66
     1
 10
0.0
 20
0.0
 30
0.0
 70
    16
 71
     6
 72
     3
  0
VERTEX
  5
31E8
100
AcDbEntity
  8
0
100
AcDbVertex
100
AcDbPolygonMeshVertex
 10
2.562408
 20
0.336101
 30
2.01
 70
    64
  0
VERTEX
  5
31E9
100
AcDbEntity
  8
0
100
AcDbVertex
100
AcDbPolygonMeshVertex
 10
2.562408
 20
0.336101
 30
0.705
 70
    64
  0
VERTEX
  5
31EA
100
AcDbEntity
  8
0
100
AcDbVertex
100
AcDbPolygonMeshVertex
 10
2.562408
 20
0.336101
 30
0.705
 70
    64
  0
VERTEX
  5
31EB
100
AcDbEntity
  8
0
100
AcDbVertex
100
AcDbPolygonMeshVertex
 10
2.326659
 20
0.291129
 30
2.01
 70
    64
  0
VERTEX
  5
31EC
100
AcDbEntity
  8
0
100
AcDbVertex
100
AcDbPolygonMeshVertex
 10
2.326659
 20
0.291129
 30
0.705
 70
    64
  0
VERTEX
  5
31ED
100
AcDbEntity
  8
0
100
AcDbVertex
100
AcDbPolygonMeshVertex
 10
2.326659
 20
0.291129
 30
0.705
 70
    64
  0
VERTEX
  5
31EE
100
AcDbEntity
  8
0
100
AcDbVertex
100
AcDbPolygonMeshVertex
 10
2.270445
 20
0.585815
 30
2.01
 70
    64
  0
VERTEX
  5
31EF
100
AcDbEntity
  8
0
100
AcDbVertex
100
AcDbPolygonMeshVertex
 10
2.270445
 20
0.585815
 30
0.705
 70
    64
  0
VERTEX
  5
31F0
100
AcDbEntity
  8
0
100
AcDbVertex
100
AcDbPolygonMeshVertex
 10
2.326659
 20
0.291129
 30
0.705
 70
    64
  0
VERTEX
  5
31F1
100
AcDbEntity
  8
0
100
AcDbVertex
100
AcDbPolygonMeshVertex
 10
2.506194
 20
0.630787
 30
2.01
 70
    64
  0
VERTEX
  5
31F2
100
AcDbEntity
  8
0
100
AcDbVertex
100
AcDbPolygonMeshVertex
 10
2.506194
 20
0.630787
 30
0.705
 70
    64
  0
VERTEX
  5
31F3
100
AcDbEntity
  8
0
100
AcDbVertex
100
AcDbPolygonMeshVertex
 10
2.562408
 20
0.336101
 30
0.705
 70
    64
  0
VERTEX
  5
31F4
100
AcDbEntity
  8
0
100
AcDbVertex
100
AcDbPolygonMeshVertex
 10
2.506194
 20
0.630787
 30
2.01
 70
    64
  0
VERTEX
  5
31F5
100
AcDbEntity
  8
0
100
AcDbVertex
100
AcDbPolygonMeshVertex
 10
2.506194
 20
0.630787
 30
2.01
 70
    64
  0
VERTEX
  5
31F6
100
AcDbEntity
  8
0
100
AcDbVertex
100
AcDbPolygonMeshVertex
 10
2.562408
 20
0.336101
 30
2.01
 70
    64
  0
VERTEX
  5
31F7
100
AcDbEntity
  8
0
100
AcDbVertex
100
AcDbPolygonMeshVertex
 10
2.270445
 20
0.585815
 30
2.01
 70
    64
  0
VERTEX
  5
31F8
100
AcDbEntity
  8
0
100
AcDbVertex
100
AcDbPolygonMeshVertex
 10
2.270445
 20
0.585815
 30
2.01
 70
    64
  0
VERTEX
  5
31F9
100
AcDbEntity
  8
0
100
AcDbVertex
100
AcDbPolygonMeshVertex
 10
2.326659
 20
0.291129
 30
2.01
 70
    64
  0
SEQEND
  5
31FA
100
AcDbEntity
  8
0
  0
POLYLINE
  5
31FB
100
AcDbEntity
  8
0
100
AcDbPolygonMesh
 66
     1
 10
0.0
 20
0.0
 30
0.0
 70
    16
 71
     6
 72
     3
  0
VERTEX
  5
31FC
100
AcDbEntity
  8
0
100
AcDbVertex
100
AcDbPolygonMeshVertex
 10
2.536248
 20
0.496332
 30
2.01
 70
    64
  0
VERTEX
  5
31FD
100
AcDbEntity
  8
0
100
AcDbVertex
100
AcDbPolygonMeshVertex
 10
2.536248
 20
0.496332
 30
0.705
 70
    64
  0
VERTEX
  5
31FE
100
AcDbEntity
  8
0
100
AcDbVertex
100
AcDbPolygonMeshVertex
 10
2.536248
 20
0.496332
 30
0.705
 70
    64
  0
VERTEX
  5
31FF
100
AcDbEntity
  8
0
100
AcDbVertex
100
AcDbPolygonMeshVertex
 10
2.303788
 20
0.436647
 30
2.01
 70
    64
  0
VERTEX
  5
3200
100
AcDbEntity
  8
0
100
AcDbVertex
100
AcDbPolygonMeshVertex
 10
2.303788
 20
0.436647
 30
0.705
 70
    64
  0
VERTEX
  5
3201
100
AcDbEntity
  8
0
100
AcDbVertex
100
AcDbPolygonMeshVertex
 10
2.303788
 20
0.436647
 30
0.705
 70
    64
  0
VERTEX
  5
3202
100
AcDbEntity
  8
0
100
AcDbVertex
100
AcDbPolygonMeshVertex
 10
2.229181
 20
0.727222
 30
2.01
 70
    64
  0
VERTEX
  5
3203
100
AcDbEntity
  8
0
100
AcDbVertex
100
AcDbPolygonMeshVertex
 10
2.229181
 20
0.727222
 30
0.705
 70
    64
  0
VERTEX
  5
3204
100
AcDbEntity
  8
0
100
AcDbVertex
100
AcDbPolygonMeshVertex
 10
2.303788
 20
0.436647
 30
0.705
 70
    64
  0
VERTEX
  5
3205
100
AcDbEntity
  8
0
100
AcDbVertex
100
AcDbPolygonMeshVertex
 10
2.461641
 20
0.786907
 30
2.01
 70
    64
  0
VERTEX
  5
3206
100
AcDbEntity
  8
0
100
AcDbVertex
100
AcDbPolygonMeshVertex
 10
2.461641
 20
0.786907
 30
0.705
 70
    64
  0
VERTEX
  5
3207
100
AcDbEntity
  8
0
100
AcDbVertex
100
AcDbPolygonMeshVertex
 10
2.536248
 20
0.496332
 30
0.705
 70
    64
  0
VERTEX
  5
3208
100
AcDbEntity
  8
0
100
AcDbVertex
100
AcDbPolygonMeshVertex
 10
2.461641
 20
0.786907
 30
2.01
 70
    64
  0
VERTEX
  5
3209
100
AcDbEntity
  8
0
100
AcDbVertex
100
AcDbPolygonMeshVertex
 10
2.461641
 20
0.786907
 30
2.01
 70
    64
  0
VERTEX
  5
320A
100
AcDbEntity
  8
0
100
AcDbVertex
100
AcDbPolygonMeshVertex
 10
2.536248
 20
0.496332
 30
2.01
 70
    64
  0
VERTEX
  5
320B
100
AcDbEntity
  8
0
100
AcDbVertex
100
AcDbPolygonMeshVertex
 10
2.229181
 20
0.727222
 30
2.01
 70
    64
  0
VERTEX
  5
320C
100
AcDbEntity
  8
0
100
AcDbVertex
100
AcDbPolygonMeshVertex
 10
2.229181
 20
0.727222
 30
2.01
 70
    64
  0
VERTEX
  5
320D
100
AcDbEntity
  8
0
100
AcDbVertex
100
AcDbPolygonMeshVertex
 10
2.303788
 20
0.436647
 30
2.01
 70
    64
  0
SEQEND
  5
320E
100
AcDbEntity
  8
0
  0
POLYLINE
  5
320F
100
AcDbEntity
  8
0
100
AcDbPolygonMesh
 66
     1
 10
0.0
 20
0.0
 30
0.0
 70
    16
 71
     6
 72
     3
  0
VERTEX
  5
3210
100
AcDbEntity
  8
0
100
AcDbVertex
100
AcDbPolygonMeshVertex
 10
2.500078
 20
0.654605
 30
2.01
 70
    64
  0
VERTEX
  5
3211
100
AcDbEntity
  8
0
100
AcDbVertex
100
AcDbPolygonMeshVertex
 10
2.500078
 20
0.654605
 30
0.705
 70
    64
  0
VERTEX
  5
3212
100
AcDbEntity
  8
0
100
AcDbVertex
100
AcDbPolygonMeshVertex
 10
2.500078
 20
0.654605
 30
0.705
 70
    64
  0
VERTEX
  5
3213
100
AcDbEntity
  8
0
100
AcDbVertex
100
AcDbPolygonMeshVertex
 10
2.271825
 20
0.580441
 30
2.01
 70
    64
  0
VERTEX
  5
3214
100
AcDbEntity
  8
0
100
AcDbVertex
100
AcDbPolygonMeshVertex
 10
2.271825
 20
0.580441
 30
0.705
 70
    64
  0
VERTEX
  5
3215
100
AcDbEntity
  8
0
100
AcDbVertex
100
AcDbPolygonMeshVertex
 10
2.271825
 20
0.580441
 30
0.705
 70
    64
  0
VERTEX
  5
3216
100
AcDbEntity
  8
0
100
AcDbVertex
100
AcDbPolygonMeshVertex
 10
2.17912
 20
0.865758
 30
2.01
 70
    64
  0
VERTEX
  5
3217
100
AcDbEntity
  8
0
100
AcDbVertex
100
AcDbPolygonMeshVertex
 10
2.17912
 20
0.865758
 30
0.705
 70
    64
  0
VERTEX
  5
3218
100
AcDbEntity
  8
0
100
AcDbVertex
100
AcDbPolygonMeshVertex
 10
2.271825
 20
0.580441
 30
0.705
 70
    64
  0
VERTEX
  5
3219
100
AcDbEntity
  8
0
100
AcDbVertex
100
AcDbPolygonMeshVertex
 10
2.407373
 20
0.939922
 30
2.01
 70
    64
  0
VERTEX
  5
321A
100
AcDbEntity
  8
0
100
AcDbVertex
100
AcDbPolygonMeshVertex
 10
2.407373
 20
0.939922
 30
0.705
 70
    64
  0
VERTEX
  5
321B
100
AcDbEntity
  8
0
100
AcDbVertex
100
AcDbPolygonMeshVertex
 10
2.500078
 20
0.654605
 30
0.705
 70
    64
  0
VERTEX
  5
321C
100
AcDbEntity
  8
0
100
AcDbVertex
100
AcDbPolygonMeshVertex
 10
2.407373
 20
0.939922
 30
2.01
 70
    64
  0
VERTEX
  5
321D
100
AcDbEntity
  8
0
100
AcDbVertex
100
AcDbPolygonMeshVertex
 10
2.407373
 20
0.939922
 30
2.01
 70
    64
  0
VERTEX
  5
321E
100
AcDbEntity
  8
0
100
AcDbVertex
100
AcDbPolygonMeshVertex
 10
2.500078
 20
0.654605
 30
2.01
 70
    64
  0
VERTEX
  5
321F
100
AcDbEntity
  8
0
100
AcDbVertex
100
AcDbPolygonMeshVertex
 10
2.17912
 20
0.865758
 30
2.01
 70
    64
  0
VERTEX
  5
3220
100
AcDbEntity
  8
0
100
AcDbVertex
100
AcDbPolygonMeshVertex
 10
2.17912
 20
0.865758
 30
2.01
 70
    64
  0
VERTEX
  5
3221
100
AcDbEntity
  8
0
100
AcDbVertex
100
AcDbPolygonMeshVertex
 10
2.271825
 20
0.580441
 30
2.01
 70
    64
  0
SEQEND
  5
3222
100
AcDbEntity
  8
0
  0
POLYLINE
  5
3223
100
AcDbEntity
  8
0
100
AcDbPolygonMesh
 66
     1
 10
0.0
 20
0.0
 30
0.0
 70
    16
 71
     6
 72
     3
  0
VERTEX
  5
3224
100
AcDbEntity
  8
0
100
AcDbVertex
100
AcDbPolygonMeshVertex
 10
2.454042
 20
0.810295
 30
2.01
 70
    64
  0
VERTEX
  5
3225
100
AcDbEntity
  8
0
100
AcDbVertex
100
AcDbPolygonMeshVertex
 10
2.454042
 20
0.810295
 30
0.705
 70
    64
  0
VERTEX
  5
3226
100
AcDbEntity
  8
0
100
AcDbVertex
100
AcDbPolygonMeshVertex
 10
2.454042
 20
0.810295
 30
0.705
 70
    64
  0
VERTEX
  5
3227
100
AcDbEntity
  8
0
100
AcDbVertex
100
AcDbPolygonMeshVertex
 10
2.230896
 20
0.721945
 30
2.01
 70
    64
  0
VERTEX
  5
3228
100
AcDbEntity
  8
0
100
AcDbVertex
100
AcDbPolygonMeshVertex
 10
2.230896
 20
0.721945
 30
0.705
 70
    64
  0
VERTEX
  5
3229
100
AcDbEntity
  8
0
100
AcDbVertex
100
AcDbPolygonMeshVertex
 10
2.230896
 20
0.721945
 30
0.705
 70
    64
  0
VERTEX
  5
322A
100
AcDbEntity
  8
0
100
AcDbVertex
100
AcDbPolygonMeshVertex
 10
2.120458
 20
1.000878
 30
2.01
 70
    64
  0
VERTEX
  5
322B
100
AcDbEntity
  8
0
100
AcDbVertex
100
AcDbPolygonMeshVertex
 10
2.120458
 20
1.000878
 30
0.705
 70
    64
  0
VERTEX
  5
322C
100
AcDbEntity
  8
0
100
AcDbVertex
100
AcDbPolygonMeshVertex
 10
2.230896
 20
0.721945
 30
0.705
 70
    64
  0
VERTEX
  5
322D
100
AcDbEntity
  8
0
100
AcDbVertex
100
AcDbPolygonMeshVertex
 10
2.343605
 20
1.089228
 30
2.01
 70
    64
  0
VERTEX
  5
322E
100
AcDbEntity
  8
0
100
AcDbVertex
100
AcDbPolygonMeshVertex
 10
2.343605
 20
1.089228
 30
0.705
 70
    64
  0
VERTEX
  5
322F
100
AcDbEntity
  8
0
100
AcDbVertex
100
AcDbPolygonMeshVertex
 10
2.454042
 20
0.810295
 30
0.705
 70
    64
  0
VERTEX
  5
3230
100
AcDbEntity
  8
0
100
AcDbVertex
100
AcDbPolygonMeshVertex
 10
2.343605
 20
1.089228
 30
2.01
 70
    64
  0
VERTEX
  5
3231
100
AcDbEntity
  8
0
100
AcDbVertex
100
AcDbPolygonMeshVertex
 10
2.343605
 20
1.089228
 30
2.01
 70
    64
  0
VERTEX
  5
3232
100
AcDbEntity
  8
0
100
AcDbVertex
100
AcDbPolygonMeshVertex
 10
2.454042
 20
0.810295
 30
2.01
 70
    64
  0
VERTEX
  5
3233
100
AcDbEntity
  8
0
100
AcDbVertex
100
AcDbPolygonMeshVertex
 10
2.120458
 20
1.000878
 30
2.01
 70
    64
  0
VERTEX
  5
3234
100
AcDbEntity
  8
0
100
AcDbVertex
100
AcDbPolygonMeshVertex
 10
2.120458
 20
1.000878
 30
2.01
 70
    64
  0
VERTEX
  5
3235
100
AcDbEntity
  8
0
100
AcDbVertex
100
AcDbPolygonMeshVertex
 10
2.230896
 20
0.721945
 30
2.01
 70
    64
  0
SEQEND
  5
3236
100
AcDbEntity
  8
0
  0
POLYLINE
  5
3237
100
AcDbEntity
  8
0
100
AcDbPolygonMesh
 66
     1
 10
0.0
 20
0.0
 30
0.0
 70
    16
 71
     6
 72
     3
  0
VERTEX
  5
3238
100
AcDbEntity
  8
0
100
AcDbVertex
100
AcDbPolygonMeshVertex
 10
2.398321
 20
0.962787
 30
2.01
 70
    64
  0
VERTEX
  5
3239
100
AcDbEntity
  8
0
100
AcDbVertex
100
AcDbPolygonMeshVertex
 10
2.398321
 20
0.962787
 30
0.705
 70
    64
  0
VERTEX
  5
323A
100
AcDbEntity
  8
0
100
AcDbVertex
100
AcDbPolygonMeshVertex
 10
2.398321
 20
0.962787
 30
0.705
 70
    64
  0
VERTEX
  5
323B
100
AcDbEntity
  8
0
100
AcDbVertex
100
AcDbPolygonMeshVertex
 10
2.181162
 20
0.860599
 30
2.01
 70
    64
  0
VERTEX
  5
323C
100
AcDbEntity
  8
0
100
AcDbVertex
100
AcDbPolygonMeshVertex
 10
2.181162
 20
0.860599
 30
0.705
 70
    64
  0
VERTEX
  5
323D
100
AcDbEntity
  8
0
100
AcDbVertex
100
AcDbPolygonMeshVertex
 10
2.181162
 20
0.860599
 30
0.705
 70
    64
  0
VERTEX
  5
323E
100
AcDbEntity
  8
0
100
AcDbVertex
100
AcDbPolygonMeshVertex
 10
2.053428
 20
1.132048
 30
2.01
 70
    64
  0
VERTEX
  5
323F
100
AcDbEntity
  8
0
100
AcDbVertex
100
AcDbPolygonMeshVertex
 10
2.053428
 20
1.132048
 30
0.705
 70
    64
  0
VERTEX
  5
3240
100
AcDbEntity
  8
0
100
AcDbVertex
100
AcDbPolygonMeshVertex
 10
2.181162
 20
0.860599
 30
0.705
 70
    64
  0
VERTEX
  5
3241
100
AcDbEntity
  8
0
100
AcDbVertex
100
AcDbPolygonMeshVertex
 10
2.270587
 20
1.234235
 30
2.01
 70
    64
  0
VERTEX
  5
3242
100
AcDbEntity
  8
0
100
AcDbVertex
100
AcDbPolygonMeshVertex
 10
2.270587
 20
1.234235
 30
0.705
 70
    64
  0
VERTEX
  5
3243
100
AcDbEntity
  8
0
100
AcDbVertex
100
AcDbPolygonMeshVertex
 10
2.398321
 20
0.962787
 30
0.705
 70
    64
  0
VERTEX
  5
3244
100
AcDbEntity
  8
0
100
AcDbVertex
100
AcDbPolygonMeshVertex
 10
2.270587
 20
1.234235
 30
2.01
 70
    64
  0
VERTEX
  5
3245
100
AcDbEntity
  8
0
100
AcDbVertex
100
AcDbPolygonMeshVertex
 10
2.270587
 20
1.234235
 30
2.01
 70
    64
  0
VERTEX
  5
3246
100
AcDbEntity
  8
0
100
AcDbVertex
100
AcDbPolygonMeshVertex
 10
2.398321
 20
0.962787
 30
2.01
 70
    64
  0
VERTEX
  5
3247
100
AcDbEntity
  8
0
100
AcDbVertex
100
AcDbPolygonMeshVertex
 10
2.053428
 20
1.132048
 30
2.01
 70
    64
  0
VERTEX
  5
3248
100
AcDbEntity
  8
0
100
AcDbVertex
100
AcDbPolygonMeshVertex
 10
2.053428
 20
1.132048
 30
2.01
 70
    64
  0
VERTEX
  5
3249
100
AcDbEntity
  8
0
100
AcDbVertex
100
AcDbPolygonMeshVertex
 10
2.181162
 20
0.860599
 30
2.01
 70
    64
  0
SEQEND
  5
324A
100
AcDbEntity
  8
0
  0
POLYLINE
  5
324B
100
AcDbEntity
  8
0
100
AcDbPolygonMesh
 66
     1
 10
0.0
 20
0.0
 30
0.0
 70
    16
 71
     6
 72
     3
  0
VERTEX
  5
324C
100
AcDbEntity
  8
0
100
AcDbVertex
100
AcDbPolygonMeshVertex
 10
2.333134
 20
1.111478
 30
2.01
 70
    64
  0
VERTEX
  5
324D
100
AcDbEntity
  8
0
100
AcDbVertex
100
AcDbPolygonMeshVertex
 10
2.333134
 20
1.111478
 30
0.705
 70
    64
  0
VERTEX
  5
324E
100
AcDbEntity
  8
0
100
AcDbVertex
100
AcDbPolygonMeshVertex
 10
2.333134
 20
1.111478
 30
0.705
 70
    64
  0
VERTEX
  5
324F
100
AcDbEntity
  8
0
100
AcDbVertex
100
AcDbPolygonMeshVertex
 10
2.122821
 20
0.995858
 30
2.01
 70
    64
  0
VERTEX
  5
3250
100
AcDbEntity
  8
0
100
AcDbVertex
100
AcDbPolygonMeshVertex
 10
2.122821
 20
0.995858
 30
0.705
 70
    64
  0
VERTEX
  5
3251
100
AcDbEntity
  8
0
100
AcDbVertex
100
AcDbPolygonMeshVertex
 10
2.122821
 20
0.995858
 30
0.705
 70
    64
  0
VERTEX
  5
3252
100
AcDbEntity
  8
0
100
AcDbVertex
100
AcDbPolygonMeshVertex
 10
1.978295
 20
1.25875
 30
2.01
 70
    64
  0
VERTEX
  5
3253
100
AcDbEntity
  8
0
100
AcDbVertex
100
AcDbPolygonMeshVertex
 10
1.978295
 20
1.25875
 30
0.705
 70
    64
  0
VERTEX
  5
3254
100
AcDbEntity
  8
0
100
AcDbVertex
100
AcDbPolygonMeshVertex
 10
2.122821
 20
0.995858
 30
0.705
 70
    64
  0
VERTEX
  5
3255
100
AcDbEntity
  8
0
100
AcDbVertex
100
AcDbPolygonMeshVertex
 10
2.188608
 20
1.37437
 30
2.01
 70
    64
  0
VERTEX
  5
3256
100
AcDbEntity
  8
0
100
AcDbVertex
100
AcDbPolygonMeshVertex
 10
2.188608
 20
1.37437
 30
0.705
 70
    64
  0
VERTEX
  5
3257
100
AcDbEntity
  8
0
100
AcDbVertex
100
AcDbPolygonMeshVertex
 10
2.333134
 20
1.111478
 30
0.705
 70
    64
  0
VERTEX
  5
3258
100
AcDbEntity
  8
0
100
AcDbVertex
100
AcDbPolygonMeshVertex
 10
2.188608
 20
1.37437
 30
2.01
 70
    64
  0
VERTEX
  5
3259
100
AcDbEntity
  8
0
100
AcDbVertex
100
AcDbPolygonMeshVertex
 10
2.188608
 20
1.37437
 30
2.01
 70
    64
  0
VERTEX
  5
325A
100
AcDbEntity
  8
0
100
AcDbVertex
100
AcDbPolygonMeshVertex
 10
2.333134
 20
1.111478
 30
2.01
 70
    64
  0
VERTEX
  5
325B
100
AcDbEntity
  8
0
100
AcDbVertex
100
AcDbPolygonMeshVertex
 10
1.978295
 20
1.25875
 30
2.01
 70
    64
  0
VERTEX
  5
325C
100
AcDbEntity
  8
0
100
AcDbVertex
100
AcDbPolygonMeshVertex
 10
1.978295
 20
1.25875
 30
2.01
 70
    64
  0
VERTEX
  5
325D
100
AcDbEntity
  8
0
100
AcDbVertex
100
AcDbPolygonMeshVertex
 10
2.122821
 20
0.995858
 30
2.01
 70
    64
  0
SEQEND
  5
325E
100
AcDbEntity
  8
0
  0
POLYLINE
  5
325F
100
AcDbEntity
  8
0
100
AcDbPolygonMesh
 66
     1
 10
0.0
 20
0.0
 30
0.0
 70
    16
 71
     6
 72
     3
  0
VERTEX
  5
3260
100
AcDbEntity
  8
0
100
AcDbVertex
100
AcDbPolygonMeshVertex
 10
2.25874
 20
1.255784
 30
2.01
 70
    64
  0
VERTEX
  5
3261
100
AcDbEntity
  8
0
100
AcDbVertex
100
AcDbPolygonMeshVertex
 10
2.25874
 20
1.255784
 30
0.705
 70
    64
  0
VERTEX
  5
3262
100
AcDbEntity
  8
0
100
AcDbVertex
100
AcDbPolygonMeshVertex
 10
2.25874
 20
1.255784
 30
0.705
 70
    64
  0
VERTEX
  5
3263
100
AcDbEntity
  8
0
100
AcDbVertex
100
AcDbPolygonMeshVertex
 10
2.056101
 20
1.127186
 30
2.01
 70
    64
  0
VERTEX
  5
3264
100
AcDbEntity
  8
0
100
AcDbVertex
100
AcDbPolygonMeshVertex
 10
2.056101
 20
1.127186
 30
0.705
 70
    64
  0
VERTEX
  5
3265
100
AcDbEntity
  8
0
100
AcDbVertex
100
AcDbPolygonMeshVertex
 10
2.056101
 20
1.127186
 30
0.705
 70
    64
  0
VERTEX
  5
3266
100
AcDbEntity
  8
0
100
AcDbVertex
100
AcDbPolygonMeshVertex
 10
1.895353
 20
1.380484
 30
2.01
 70
    64
  0
VERTEX
  5
3267
100
AcDbEntity
  8
0
100
AcDbVertex
100
AcDbPolygonMeshVertex
 10
1.895353
 20
1.380484
 30
0.705
 70
    64
  0
VERTEX
  5
3268
100
AcDbEntity
  8
0
100
AcDbVertex
100
AcDbPolygonMeshVertex
 10
2.056101
 20
1.127186
 30
0.705
 70
    64
  0
VERTEX
  5
3269
100
AcDbEntity
  8
0
100
AcDbVertex
100
AcDbPolygonMeshVertex
 10
2.097992
 20
1.509082
 30
2.01
 70
    64
  0
VERTEX
  5
326A
100
AcDbEntity
  8
0
100
AcDbVertex
100
AcDbPolygonMeshVertex
 10
2.097992
 20
1.509082
 30
0.705
 70
    64
  0
VERTEX
  5
326B
100
AcDbEntity
  8
0
100
AcDbVertex
100
AcDbPolygonMeshVertex
 10
2.25874
 20
1.255784
 30
0.705
 70
    64
  0
VERTEX
  5
326C
100
AcDbEntity
  8
0
100
AcDbVertex
100
AcDbPolygonMeshVertex
 10
2.097992
 20
1.509082
 30
2.01
 70
    64
  0
VERTEX
  5
326D
100
AcDbEntity
  8
0
100
AcDbVertex
100
AcDbPolygonMeshVertex
 10
2.097992
 20
1.509082
 30
2.01
 70
    64
  0
VERTEX
  5
326E
100
AcDbEntity
  8
0
100
AcDbVertex
100
AcDbPolygonMeshVertex
 10
2.25874
 20
1.255784
 30
2.01
 70
    64
  0
VERTEX
  5
326F
100
AcDbEntity
  8
0
100
AcDbVertex
100
AcDbPolygonMeshVertex
 10
1.895353
 20
1.380484
 30
2.01
 70
    64
  0
VERTEX
  5
3270
100
AcDbEntity
  8
0
100
AcDbVertex
100
AcDbPolygonMeshVertex
 10
1.895353
 20
1.380484
 30
2.01
 70
    64
  0
VERTEX
  5
3271
100
AcDbEntity
  8
0
100
AcDbVertex
100
AcDbPolygonMeshVertex
 10
2.056101
 20
1.127186
 30
2.01
 70
    64
  0
SEQEND
  5
3272
100
AcDbEntity
  8
0
  0
POLYLINE
  5
3273
100
AcDbEntity
  8
0
100
AcDbPolygonMesh
 66
     1
 10
0.0
 20
0.0
 30
0.0
 70
    16
 71
     6
 72
     3
  0
VERTEX
  5
3274
100
AcDbEntity
  8
0
100
AcDbVertex
100
AcDbPolygonMeshVertex
 10
2.175432
 20
1.395133
 30
2.01
 70
    64
  0
VERTEX
  5
3275
100
AcDbEntity
  8
0
100
AcDbVertex
100
AcDbPolygonMeshVertex
 10
2.175432
 20
1.395133
 30
0.705
 70
    64
  0
VERTEX
  5
3276
100
AcDbEntity
  8
0
100
AcDbVertex
100
AcDbPolygonMeshVertex
 10
2.175432
 20
1.395133
 30
0.705
 70
    64
  0
VERTEX
  5
3277
100
AcDbEntity
  8
0
100
AcDbVertex
100
AcDbPolygonMeshVertex
 10
1.981268
 20
1.254065
 30
2.01
 70
    64
  0
VERTEX
  5
3278
100
AcDbEntity
  8
0
100
AcDbVertex
100
AcDbPolygonMeshVertex
 10
1.981268
 20
1.254065
 30
0.705
 70
    64
  0
VERTEX
  5
3279
100
AcDbEntity
  8
0
100
AcDbVertex
100
AcDbPolygonMeshVertex
 10
1.981268
 20
1.254065
 30
0.705
 70
    64
  0
VERTEX
  5
327A
100
AcDbEntity
  8
0
100
AcDbVertex
100
AcDbPolygonMeshVertex
 10
1.804932
 20
1.49677
 30
2.01
 70
    64
  0
VERTEX
  5
327B
100
AcDbEntity
  8
0
100
AcDbVertex
100
AcDbPolygonMeshVertex
 10
1.804932
 20
1.49677
 30
0.705
 70
    64
  0
VERTEX
  5
327C
100
AcDbEntity
  8
0
100
AcDbVertex
100
AcDbPolygonMeshVertex
 10
1.981268
 20
1.254065
 30
0.705
 70
    64
  0
VERTEX
  5
327D
100
AcDbEntity
  8
0
100
AcDbVertex
100
AcDbPolygonMeshVertex
 10
1.999096
 20
1.637839
 30
2.01
 70
    64
  0
VERTEX
  5
327E
100
AcDbEntity
  8
0
100
AcDbVertex
100
AcDbPolygonMeshVertex
 10
1.999096
 20
1.637839
 30
0.705
 70
    64
  0
VERTEX
  5
327F
100
AcDbEntity
  8
0
100
AcDbVertex
100
AcDbPolygonMeshVertex
 10
2.175432
 20
1.395133
 30
0.705
 70
    64
  0
VERTEX
  5
3280
100
AcDbEntity
  8
0
100
AcDbVertex
100
AcDbPolygonMeshVertex
 10
1.999096
 20
1.637839
 30
2.01
 70
    64
  0
VERTEX
  5
3281
100
AcDbEntity
  8
0
100
AcDbVertex
100
AcDbPolygonMeshVertex
 10
1.999096
 20
1.637839
 30
2.01
 70
    64
  0
VERTEX
  5
3282
100
AcDbEntity
  8
0
100
AcDbVertex
100
AcDbPolygonMeshVertex
 10
2.175432
 20
1.395133
 30
2.01
 70
    64
  0
VERTEX
  5
3283
100
AcDbEntity
  8
0
100
AcDbVertex
100
AcDbPolygonMeshVertex
 10
1.804932
 20
1.49677
 30
2.01
 70
    64
  0
VERTEX
  5
3284
100
AcDbEntity
  8
0
100
AcDbVertex
100
AcDbPolygonMeshVertex
 10
1.804932
 20
1.49677
 30
2.01
 70
    64
  0
VERTEX
  5
3285
100
AcDbEntity
  8
0
100
AcDbVertex
100
AcDbPolygonMeshVertex
 10
1.981268
 20
1.254065
 30
2.01
 70
    64
  0
SEQEND
  5
3286
100
AcDbEntity
  8
0
  0
POLYLINE
  5
3287
100
AcDbEntity
  8
0
100
AcDbPolygonMesh
 66
     1
 10
0.0
 20
0.0
 30
0.0
 70
    16
 71
     6
 72
     3
  0
VERTEX
  5
3288
100
AcDbEntity
  8
0
100
AcDbVertex
100
AcDbPolygonMeshVertex
 10
2.083538
 20
1.528977
 30
2.01
 70
    64
  0
VERTEX
  5
3289
100
AcDbEntity
  8
0
100
AcDbVertex
100
AcDbPolygonMeshVertex
 10
2.083538
 20
1.528977
 30
0.705
 70
    64
  0
VERTEX
  5
328A
100
AcDbEntity
  8
0
100
AcDbVertex
100
AcDbPolygonMeshVertex
 10
2.083538
 20
1.528977
 30
0.705
 70
    64
  0
VERTEX
  5
328B
100
AcDbEntity
  8
0
100
AcDbVertex
100
AcDbPolygonMeshVertex
 10
1.898615
 20
1.375995
 30
2.01
 70
    64
  0
VERTEX
  5
328C
100
AcDbEntity
  8
0
100
AcDbVertex
100
AcDbPolygonMeshVertex
 10
1.898615
 20
1.375995
 30
0.705
 70
    64
  0
VERTEX
  5
328D
100
AcDbEntity
  8
0
100
AcDbVertex
100
AcDbPolygonMeshVertex
 10
1.898615
 20
1.375995
 30
0.705
 70
    64
  0
VERTEX
  5
328E
100
AcDbEntity
  8
0
100
AcDbVertex
100
AcDbPolygonMeshVertex
 10
1.707387
 20
1.607149
 30
2.01
 70
    64
  0
VERTEX
  5
328F
100
AcDbEntity
  8
0
100
AcDbVertex
100
AcDbPolygonMeshVertex
 10
1.707387
 20
1.607149
 30
0.705
 70
    64
  0
VERTEX
  5
3290
100
AcDbEntity
  8
0
100
AcDbVertex
100
AcDbPolygonMeshVertex
 10
1.898615
 20
1.375995
 30
0.705
 70
    64
  0
VERTEX
  5
3291
100
AcDbEntity
  8
0
100
AcDbVertex
100
AcDbPolygonMeshVertex
 10
1.892311
 20
1.760131
 30
2.01
 70
    64
  0
VERTEX
  5
3292
100
AcDbEntity
  8
0
100
AcDbVertex
100
AcDbPolygonMeshVertex
 10
1.892311
 20
1.760131
 30
0.705
 70
    64
  0
VERTEX
  5
3293
100
AcDbEntity
  8
0
100
AcDbVertex
100
AcDbPolygonMeshVertex
 10
2.083538
 20
1.528977
 30
0.705
 70
    64
  0
VERTEX
  5
3294
100
AcDbEntity
  8
0
100
AcDbVertex
100
AcDbPolygonMeshVertex
 10
1.892311
 20
1.760131
 30
2.01
 70
    64
  0
VERTEX
  5
3295
100
AcDbEntity
  8
0
100
AcDbVertex
100
AcDbPolygonMeshVertex
 10
1.892311
 20
1.760131
 30
2.01
 70
    64
  0
VERTEX
  5
3296
100
AcDbEntity
  8
0
100
AcDbVertex
100
AcDbPolygonMeshVertex
 10
2.083538
 20
1.528977
 30
2.01
 70
    64
  0
VERTEX
  5
3297
100
AcDbEntity
  8
0
100
AcDbVertex
100
AcDbPolygonMeshVertex
 10
1.707387
 20
1.607149
 30
2.01
 70
    64
  0
VERTEX
  5
3298
100
AcDbEntity
  8
0
100
AcDbVertex
100
AcDbPolygonMeshVertex
 10
1.707387
 20
1.607149
 30
2.01
 70
    64
  0
VERTEX
  5
3299
100
AcDbEntity
  8
0
100
AcDbVertex
100
AcDbPolygonMeshVertex
 10
1.898615
 20
1.375995
 30
2.01
 70
    64
  0
SEQEND
  5
329A
100
AcDbEntity
  8
0
  0
POLYLINE
  5
329B
100
AcDbEntity
  8
0
100
AcDbPolygonMesh
 66
     1
 10
0.0
 20
0.0
 30
0.0
 70
    16
 71
     6
 72
     3
  0
VERTEX
  5
329C
100
AcDbEntity
  8
0
100
AcDbVertex
100
AcDbPolygonMeshVertex
 10
1.983421
 20
1.656786
 30
2.01
 70
    64
  0
VERTEX
  5
329D
100
AcDbEntity
  8
0
100
AcDbVertex
100
AcDbPolygonMeshVertex
 10
1.983421
 20
1.656786
 30
0.705
 70
    64
  0
VERTEX
  5
329E
100
AcDbEntity
  8
0
100
AcDbVertex
100
AcDbPolygonMeshVertex
 10
1.983421
 20
1.656786
 30
0.705
 70
    64
  0
VERTEX
  5
329F
100
AcDbEntity
  8
0
100
AcDbVertex
100
AcDbPolygonMeshVertex
 10
1.808469
 20
1.492495
 30
2.01
 70
    64
  0
VERTEX
  5
32A0
100
AcDbEntity
  8
0
100
AcDbVertex
100
AcDbPolygonMeshVertex
 10
1.808469
 20
1.492495
 30
0.705
 70
    64
  0
VERTEX
  5
32A1
100
AcDbEntity
  8
0
100
AcDbVertex
100
AcDbPolygonMeshVertex
 10
1.808469
 20
1.492495
 30
0.705
 70
    64
  0
VERTEX
  5
32A2
100
AcDbEntity
  8
0
100
AcDbVertex
100
AcDbPolygonMeshVertex
 10
1.603105
 20
1.711186
 30
2.01
 70
    64
  0
VERTEX
  5
32A3
100
AcDbEntity
  8
0
100
AcDbVertex
100
AcDbPolygonMeshVertex
 10
1.603105
 20
1.711186
 30
0.705
 70
    64
  0
VERTEX
  5
32A4
100
AcDbEntity
  8
0
100
AcDbVertex
100
AcDbPolygonMeshVertex
 10
1.808469
 20
1.492495
 30
0.705
 70
    64
  0
VERTEX
  5
32A5
100
AcDbEntity
  8
0
100
AcDbVertex
100
AcDbPolygonMeshVertex
 10
1.778057
 20
1.875477
 30
2.01
 70
    64
  0
VERTEX
  5
32A6
100
AcDbEntity
  8
0
100
AcDbVertex
100
AcDbPolygonMeshVertex
 10
1.778057
 20
1.875477
 30
0.705
 70
    64
  0
VERTEX
  5
32A7
100
AcDbEntity
  8
0
100
AcDbVertex
100
AcDbPolygonMeshVertex
 10
1.983421
 20
1.656786
 30
0.705
 70
    64
  0
VERTEX
  5
32A8
100
AcDbEntity
  8
0
100
AcDbVertex
100
AcDbPolygonMeshVertex
 10
1.778057
 20
1.875477
 30
2.01
 70
    64
  0
VERTEX
  5
32A9
100
AcDbEntity
  8
0
100
AcDbVertex
100
AcDbPolygonMeshVertex
 10
1.778057
 20
1.875477
 30
2.01
 70
    64
  0
VERTEX
  5
32AA
100
AcDbEntity
  8
0
100
AcDbVertex
100
AcDbPolygonMeshVertex
 10
1.983421
 20
1.656786
 30
2.01
 70
    64
  0
VERTEX
  5
32AB
100
AcDbEntity
  8
0
100
AcDbVertex
100
AcDbPolygonMeshVertex
 10
1.603105
 20
1.711186
 30
2.01
 70
    64
  0
VERTEX
  5
32AC
100
AcDbEntity
  8
0
100
AcDbVertex
100
AcDbPolygonMeshVertex
 10
1.603105
 20
1.711186
 30
2.01
 70
    64
  0
VERTEX
  5
32AD
100
AcDbEntity
  8
0
100
AcDbVertex
100
AcDbPolygonMeshVertex
 10
1.808469
 20
1.492495
 30
2.01
 70
    64
  0
SEQEND
  5
32AE
100
AcDbEntity
  8
0
  0
POLYLINE
  5
32AF
100
AcDbEntity
  8
0
100
AcDbPolygonMesh
 66
     1
 10
0.0
 20
0.0
 30
0.0
 70
    16
 71
     6
 72
     3
  0
VERTEX
  5
32B0
100
AcDbEntity
  8
0
100
AcDbVertex
100
AcDbPolygonMeshVertex
 10
1.875477
 20
1.778057
 30
2.01
 70
    64
  0
VERTEX
  5
32B1
100
AcDbEntity
  8
0
100
AcDbVertex
100
AcDbPolygonMeshVertex
 10
1.875477
 20
1.778057
 30
0.705
 70
    64
  0
VERTEX
  5
32B2
100
AcDbEntity
  8
0
100
AcDbVertex
100
AcDbPolygonMeshVertex
 10
1.875477
 20
1.778057
 30
0.705
 70
    64
  0
VERTEX
  5
32B3
100
AcDbEntity
  8
0
100
AcDbVertex
100
AcDbPolygonMeshVertex
 10
1.711186
 20
1.603105
 30
2.01
 70
    64
  0
VERTEX
  5
32B4
100
AcDbEntity
  8
0
100
AcDbVertex
100
AcDbPolygonMeshVertex
 10
1.711186
 20
1.603105
 30
0.705
 70
    64
  0
VERTEX
  5
32B5
100
AcDbEntity
  8
0
100
AcDbVertex
100
AcDbPolygonMeshVertex
 10
1.711186
 20
1.603105
 30
0.705
 70
    64
  0
VERTEX
  5
32B6
100
AcDbEntity
  8
0
100
AcDbVertex
100
AcDbPolygonMeshVertex
 10
1.492495
 20
1.808469
 30
2.01
 70
    64
  0
VERTEX
  5
32B7
100
AcDbEntity
  8
0
100
AcDbVertex
100
AcDbPolygonMeshVertex
 10
1.492495
 20
1.808469
 30
0.705
 70
    64
  0
VERTEX
  5
32B8
100
AcDbEntity
  8
0
100
AcDbVertex
100
AcDbPolygonMeshVertex
 10
1.711186
 20
1.603105
 30
0.705
 70
    64
  0
VERTEX
  5
32B9
100
AcDbEntity
  8
0
100
AcDbVertex
100
AcDbPolygonMeshVertex
 10
1.656786
 20
1.983421
 30
2.01
 70
    64
  0
VERTEX
  5
32BA
100
AcDbEntity
  8
0
100
AcDbVertex
100
AcDbPolygonMeshVertex
 10
1.656786
 20
1.983421
 30
0.705
 70
    64
  0
VERTEX
  5
32BB
100
AcDbEntity
  8
0
100
AcDbVertex
100
AcDbPolygonMeshVertex
 10
1.875477
 20
1.778057
 30
0.705
 70
    64
  0
VERTEX
  5
32BC
100
AcDbEntity
  8
0
100
AcDbVertex
100
AcDbPolygonMeshVertex
 10
1.656786
 20
1.983421
 30
2.01
 70
    64
  0
VERTEX
  5
32BD
100
AcDbEntity
  8
0
100
AcDbVertex
100
AcDbPolygonMeshVertex
 10
1.656786
 20
1.983421
 30
2.01
 70
    64
  0
VERTEX
  5
32BE
100
AcDbEntity
  8
0
100
AcDbVertex
100
AcDbPolygonMeshVertex
 10
1.875477
 20
1.778057
 30
2.01
 70
    64
  0
VERTEX
  5
32BF
100
AcDbEntity
  8
0
100
AcDbVertex
100
AcDbPolygonMeshVertex
 10
1.492495
 20
1.808469
 30
2.01
 70
    64
  0
VERTEX
  5
32C0
100
AcDbEntity
  8
0
100
AcDbVertex
100
AcDbPolygonMeshVertex
 10
1.492495
 20
1.808469
 30
2.01
 70
    64
  0
VERTEX
  5
32C1
100
AcDbEntity
  8
0
100
AcDbVertex
100
AcDbPolygonMeshVertex
 10
1.711186
 20
1.603105
 30
2.01
 70
    64
  0
SEQEND
  5
32C2
100
AcDbEntity
  8
0
  0
POLYLINE
  5
32C3
100
AcDbEntity
  8
0
100
AcDbPolygonMesh
 66
     1
 10
0.0
 20
0.0
 30
0.0
 70
    16
 71
     6
 72
     3
  0
VERTEX
  5
32C4
100
AcDbEntity
  8
0
100
AcDbVertex
100
AcDbPolygonMeshVertex
 10
1.760131
 20
1.892311
 30
2.01
 70
    64
  0
VERTEX
  5
32C5
100
AcDbEntity
  8
0
100
AcDbVertex
100
AcDbPolygonMeshVertex
 10
1.760131
 20
1.892311
 30
0.705
 70
    64
  0
VERTEX
  5
32C6
100
AcDbEntity
  8
0
100
AcDbVertex
100
AcDbPolygonMeshVertex
 10
1.760131
 20
1.892311
 30
0.705
 70
    64
  0
VERTEX
  5
32C7
100
AcDbEntity
  8
0
100
AcDbVertex
100
AcDbPolygonMeshVertex
 10
1.607149
 20
1.707387
 30
2.01
 70
    64
  0
VERTEX
  5
32C8
100
AcDbEntity
  8
0
100
AcDbVertex
100
AcDbPolygonMeshVertex
 10
1.607149
 20
1.707387
 30
0.705
 70
    64
  0
VERTEX
  5
32C9
100
AcDbEntity
  8
0
100
AcDbVertex
100
AcDbPolygonMeshVertex
 10
1.607149
 20
1.707387
 30
0.705
 70
    64
  0
VERTEX
  5
32CA
100
AcDbEntity
  8
0
100
AcDbVertex
100
AcDbPolygonMeshVertex
 10
1.375995
 20
1.898615
 30
2.01
 70
    64
  0
VERTEX
  5
32CB
100
AcDbEntity
  8
0
100
AcDbVertex
100
AcDbPolygonMeshVertex
 10
1.375995
 20
1.898615
 30
0.705
 70
    64
  0
VERTEX
  5
32CC
100
AcDbEntity
  8
0
100
AcDbVertex
100
AcDbPolygonMeshVertex
 10
1.607149
 20
1.707387
 30
0.705
 70
    64
  0
VERTEX
  5
32CD
100
AcDbEntity
  8
0
100
AcDbVertex
100
AcDbPolygonMeshVertex
 10
1.528977
 20
2.083538
 30
2.01
 70
    64
  0
VERTEX
  5
32CE
100
AcDbEntity
  8
0
100
AcDbVertex
100
AcDbPolygonMeshVertex
 10
1.528977
 20
2.083538
 30
0.705
 70
    64
  0
VERTEX
  5
32CF
100
AcDbEntity
  8
0
100
AcDbVertex
100
AcDbPolygonMeshVertex
 10
1.760131
 20
1.892311
 30
0.705
 70
    64
  0
VERTEX
  5
32D0
100
AcDbEntity
  8
0
100
AcDbVertex
100
AcDbPolygonMeshVertex
 10
1.528977
 20
2.083538
 30
2.01
 70
    64
  0
VERTEX
  5
32D1
100
AcDbEntity
  8
0
100
AcDbVertex
100
AcDbPolygonMeshVertex
 10
1.528977
 20
2.083538
 30
2.01
 70
    64
  0
VERTEX
  5
32D2
100
AcDbEntity
  8
0
100
AcDbVertex
100
AcDbPolygonMeshVertex
 10
1.760131
 20
1.892311
 30
2.01
 70
    64
  0
VERTEX
  5
32D3
100
AcDbEntity
  8
0
100
AcDbVertex
100
AcDbPolygonMeshVertex
 10
1.375995
 20
1.898615
 30
2.01
 70
    64
  0
VERTEX
  5
32D4
100
AcDbEntity
  8
0
100
AcDbVertex
100
AcDbPolygonMeshVertex
 10
1.375995
 20
1.898615
 30
2.01
 70
    64
  0
VERTEX
  5
32D5
100
AcDbEntity
  8
0
100
AcDbVertex
100
AcDbPolygonMeshVertex
 10
1.607149
 20
1.707387
 30
2.01
 70
    64
  0
SEQEND
  5
32D6
100
AcDbEntity
  8
0
  0
POLYLINE
  5
32D7
100
AcDbEntity
  8
0
100
AcDbPolygonMesh
 66
     1
 10
0.0
 20
0.0
 30
0.0
 70
    16
 71
     6
 72
     3
  0
VERTEX
  5
32D8
100
AcDbEntity
  8
0
100
AcDbVertex
100
AcDbPolygonMeshVertex
 10
1.637839
 20
1.999096
 30
2.01
 70
    64
  0
VERTEX
  5
32D9
100
AcDbEntity
  8
0
100
AcDbVertex
100
AcDbPolygonMeshVertex
 10
1.637839
 20
1.999096
 30
0.705
 70
    64
  0
VERTEX
  5
32DA
100
AcDbEntity
  8
0
100
AcDbVertex
100
AcDbPolygonMeshVertex
 10
1.637839
 20
1.999096
 30
0.705
 70
    64
  0
VERTEX
  5
32DB
100
AcDbEntity
  8
0
100
AcDbVertex
100
AcDbPolygonMeshVertex
 10
1.49677
 20
1.804932
 30
2.01
 70
    64
  0
VERTEX
  5
32DC
100
AcDbEntity
  8
0
100
AcDbVertex
100
AcDbPolygonMeshVertex
 10
1.49677
 20
1.804932
 30
0.705
 70
    64
  0
VERTEX
  5
32DD
100
AcDbEntity
  8
0
100
AcDbVertex
100
AcDbPolygonMeshVertex
 10
1.49677
 20
1.804932
 30
0.705
 70
    64
  0
VERTEX
  5
32DE
100
AcDbEntity
  8
0
100
AcDbVertex
100
AcDbPolygonMeshVertex
 10
1.254065
 20
1.981268
 30
2.01
 70
    64
  0
VERTEX
  5
32DF
100
AcDbEntity
  8
0
100
AcDbVertex
100
AcDbPolygonMeshVertex
 10
1.254065
 20
1.981268
 30
0.705
 70
    64
  0
VERTEX
  5
32E0
100
AcDbEntity
  8
0
100
AcDbVertex
100
AcDbPolygonMeshVertex
 10
1.49677
 20
1.804932
 30
0.705
 70
    64
  0
VERTEX
  5
32E1
100
AcDbEntity
  8
0
100
AcDbVertex
100
AcDbPolygonMeshVertex
 10
1.395133
 20
2.175432
 30
2.01
 70
    64
  0
VERTEX
  5
32E2
100
AcDbEntity
  8
0
100
AcDbVertex
100
AcDbPolygonMeshVertex
 10
1.395133
 20
2.175432
 30
0.705
 70
    64
  0
VERTEX
  5
32E3
100
AcDbEntity
  8
0
100
AcDbVertex
100
AcDbPolygonMeshVertex
 10
1.637839
 20
1.999096
 30
0.705
 70
    64
  0
VERTEX
  5
32E4
100
AcDbEntity
  8
0
100
AcDbVertex
100
AcDbPolygonMeshVertex
 10
1.395133
 20
2.175432
 30
2.01
 70
    64
  0
VERTEX
  5
32E5
100
AcDbEntity
  8
0
100
AcDbVertex
100
AcDbPolygonMeshVertex
 10
1.395133
 20
2.175432
 30
2.01
 70
    64
  0
VERTEX
  5
32E6
100
AcDbEntity
  8
0
100
AcDbVertex
100
AcDbPolygonMeshVertex
 10
1.637839
 20
1.999096
 30
2.01
 70
    64
  0
VERTEX
  5
32E7
100
AcDbEntity
  8
0
100
AcDbVertex
100
AcDbPolygonMeshVertex
 10
1.254065
 20
1.981268
 30
2.01
 70
    64
  0
VERTEX
  5
32E8
100
AcDbEntity
  8
0
100
AcDbVertex
100
AcDbPolygonMeshVertex
 10
1.254065
 20
1.981268
 30
2.01
 70
    64
  0
VERTEX
  5
32E9
100
AcDbEntity
  8
0
100
AcDbVertex
100
AcDbPolygonMeshVertex
 10
1.49677
 20
1.804932
 30
2.01
 70
    64
  0
SEQEND
  5
32EA
100
AcDbEntity
  8
0
  0
POLYLINE
  5
32EB
100
AcDbEntity
  8
0
100
AcDbPolygonMesh
 66
     1
 10
0.0
 20
0.0
 30
0.0
 70
    16
 71
     6
 72
     3
  0
VERTEX
  5
32EC
100
AcDbEntity
  8
0
100
AcDbVertex
100
AcDbPolygonMeshVertex
 10
1.509082
 20
2.097992
 30
2.01
 70
    64
  0
VERTEX
  5
32ED
100
AcDbEntity
  8
0
100
AcDbVertex
100
AcDbPolygonMeshVertex
 10
1.509082
 20
2.097992
 30
0.705
 70
    64
  0
VERTEX
  5
32EE
100
AcDbEntity
  8
0
100
AcDbVertex
100
AcDbPolygonMeshVertex
 10
1.509082
 20
2.097992
 30
0.705
 70
    64
  0
VERTEX
  5
32EF
100
AcDbEntity
  8
0
100
AcDbVertex
100
AcDbPolygonMeshVertex
 10
1.380484
 20
1.895353
 30
2.01
 70
    64
  0
VERTEX
  5
32F0
100
AcDbEntity
  8
0
100
AcDbVertex
100
AcDbPolygonMeshVertex
 10
1.380484
 20
1.895353
 30
0.705
 70
    64
  0
VERTEX
  5
32F1
100
AcDbEntity
  8
0
100
AcDbVertex
100
AcDbPolygonMeshVertex
 10
1.380484
 20
1.895353
 30
0.705
 70
    64
  0
VERTEX
  5
32F2
100
AcDbEntity
  8
0
100
AcDbVertex
100
AcDbPolygonMeshVertex
 10
1.127186
 20
2.056101
 30
2.01
 70
    64
  0
VERTEX
  5
32F3
100
AcDbEntity
  8
0
100
AcDbVertex
100
AcDbPolygonMeshVertex
 10
1.127186
 20
2.056101
 30
0.705
 70
    64
  0
VERTEX
  5
32F4
100
AcDbEntity
  8
0
100
AcDbVertex
100
AcDbPolygonMeshVertex
 10
1.380484
 20
1.895353
 30
0.705
 70
    64
  0
VERTEX
  5
32F5
100
AcDbEntity
  8
0
100
AcDbVertex
100
AcDbPolygonMeshVertex
 10
1.255784
 20
2.25874
 30
2.01
 70
    64
  0
VERTEX
  5
32F6
100
AcDbEntity
  8
0
100
AcDbVertex
100
AcDbPolygonMeshVertex
 10
1.255784
 20
2.25874
 30
0.705
 70
    64
  0
VERTEX
  5
32F7
100
AcDbEntity
  8
0
100
AcDbVertex
100
AcDbPolygonMeshVertex
 10
1.509082
 20
2.097992
 30
0.705
 70
    64
  0
VERTEX
  5
32F8
100
AcDbEntity
  8
0
100
AcDbVertex
100
AcDbPolygonMeshVertex
 10
1.255784
 20
2.25874
 30
2.01
 70
    64
  0
VERTEX
  5
32F9
100
AcDbEntity
  8
0
100
AcDbVertex
100
AcDbPolygonMeshVertex
 10
1.255784
 20
2.25874
 30
2.01
 70
    64
  0
VERTEX
  5
32FA
100
AcDbEntity
  8
0
100
AcDbVertex
100
AcDbPolygonMeshVertex
 10
1.509082
 20
2.097992
 30
2.01
 70
    64
  0
VERTEX
  5
32FB
100
AcDbEntity
  8
0
100
AcDbVertex
100
AcDbPolygonMeshVertex
 10
1.127186
 20
2.056101
 30
2.01
 70
    64
  0
VERTEX
  5
32FC
100
AcDbEntity
  8
0
100
AcDbVertex
100
AcDbPolygonMeshVertex
 10
1.127186
 20
2.056101
 30
2.01
 70
    64
  0
VERTEX
  5
32FD
100
AcDbEntity
  8
0
100
AcDbVertex
100
AcDbPolygonMeshVertex
 10
1.380484
 20
1.895353
 30
2.01
 70
    64
  0
SEQEND
  5
32FE
100
AcDbEntity
  8
0
  0
POLYLINE
  5
32FF
100
AcDbEntity
  8
0
100
AcDbPolygonMesh
 66
     1
 10
0.0
 20
0.0
 30
0.0
 70
    16
 71
     6
 72
     3
  0
VERTEX
  5
3300
100
AcDbEntity
  8
0
100
AcDbVertex
100
AcDbPolygonMeshVertex
 10
1.37437
 20
2.188608
 30
2.01
 70
    64
  0
VERTEX
  5
3301
100
AcDbEntity
  8
0
100
AcDbVertex
100
AcDbPolygonMeshVertex
 10
1.37437
 20
2.188608
 30
0.705
 70
    64
  0
VERTEX
  5
3302
100
AcDbEntity
  8
0
100
AcDbVertex
100
AcDbPolygonMeshVertex
 10
1.37437
 20
2.188608
 30
0.705
 70
    64
  0
VERTEX
  5
3303
100
AcDbEntity
  8
0
100
AcDbVertex
100
AcDbPolygonMeshVertex
 10
1.25875
 20
1.978295
 30
2.01
 70
    64
  0
VERTEX
  5
3304
100
AcDbEntity
  8
0
100
AcDbVertex
100
AcDbPolygonMeshVertex
 10
1.25875
 20
1.978295
 30
0.705
 70
    64
  0
VERTEX
  5
3305
100
AcDbEntity
  8
0
100
AcDbVertex
100
AcDbPolygonMeshVertex
 10
1.25875
 20
1.978295
 30
0.705
 70
    64
  0
VERTEX
  5
3306
100
AcDbEntity
  8
0
100
AcDbVertex
100
AcDbPolygonMeshVertex
 10
0.995858
 20
2.122821
 30
2.01
 70
    64
  0
VERTEX
  5
3307
100
AcDbEntity
  8
0
100
AcDbVertex
100
AcDbPolygonMeshVertex
 10
0.995858
 20
2.122821
 30
0.705
 70
    64
  0
VERTEX
  5
3308
100
AcDbEntity
  8
0
100
AcDbVertex
100
AcDbPolygonMeshVertex
 10
1.25875
 20
1.978295
 30
0.705
 70
    64
  0
VERTEX
  5
3309
100
AcDbEntity
  8
0
100
AcDbVertex
100
AcDbPolygonMeshVertex
 10
1.111478
 20
2.333134
 30
2.01
 70
    64
  0
VERTEX
  5
330A
100
AcDbEntity
  8
0
100
AcDbVertex
100
AcDbPolygonMeshVertex
 10
1.111478
 20
2.333134
 30
0.705
 70
    64
  0
VERTEX
  5
330B
100
AcDbEntity
  8
0
100
AcDbVertex
100
AcDbPolygonMeshVertex
 10
1.37437
 20
2.188608
 30
0.705
 70
    64
  0
VERTEX
  5
330C
100
AcDbEntity
  8
0
100
AcDbVertex
100
AcDbPolygonMeshVertex
 10
1.111478
 20
2.333134
 30
2.01
 70
    64
  0
VERTEX
  5
330D
100
AcDbEntity
  8
0
100
AcDbVertex
100
AcDbPolygonMeshVertex
 10
1.111478
 20
2.333134
 30
2.01
 70
    64
  0
VERTEX
  5
330E
100
AcDbEntity
  8
0
100
AcDbVertex
100
AcDbPolygonMeshVertex
 10
1.37437
 20
2.188608
 30
2.01
 70
    64
  0
VERTEX
  5
330F
100
AcDbEntity
  8
0
100
AcDbVertex
100
AcDbPolygonMeshVertex
 10
0.995858
 20
2.122821
 30
2.01
 70
    64
  0
VERTEX
  5
3310
100
AcDbEntity
  8
0
100
AcDbVertex
100
AcDbPolygonMeshVertex
 10
0.995858
 20
2.122821
 30
2.01
 70
    64
  0
VERTEX
  5
3311
100
AcDbEntity
  8
0
100
AcDbVertex
100
AcDbPolygonMeshVertex
 10
1.25875
 20
1.978295
 30
2.01
 70
    64
  0
SEQEND
  5
3312
100
AcDbEntity
  8
0
  0
POLYLINE
  5
3313
100
AcDbEntity
  8
0
100
AcDbPolygonMesh
 66
     1
 10
0.0
 20
0.0
 30
0.0
 70
    16
 71
     6
 72
     3
  0
VERTEX
  5
3314
100
AcDbEntity
  8
0
100
AcDbVertex
100
AcDbPolygonMeshVertex
 10
1.234235
 20
2.270587
 30
2.01
 70
    64
  0
VERTEX
  5
3315
100
AcDbEntity
  8
0
100
AcDbVertex
100
AcDbPolygonMeshVertex
 10
1.234235
 20
2.270587
 30
0.705
 70
    64
  0
VERTEX
  5
3316
100
AcDbEntity
  8
0
100
AcDbVertex
100
AcDbPolygonMeshVertex
 10
1.234235
 20
2.270587
 30
0.705
 70
    64
  0
VERTEX
  5
3317
100
AcDbEntity
  8
0
100
AcDbVertex
100
AcDbPolygonMeshVertex
 10
1.132048
 20
2.053428
 30
2.01
 70
    64
  0
VERTEX
  5
3318
100
AcDbEntity
  8
0
100
AcDbVertex
100
AcDbPolygonMeshVertex
 10
1.132048
 20
2.053428
 30
0.705
 70
    64
  0
VERTEX
  5
3319
100
AcDbEntity
  8
0
100
AcDbVertex
100
AcDbPolygonMeshVertex
 10
1.132048
 20
2.053428
 30
0.705
 70
    64
  0
VERTEX
  5
331A
100
AcDbEntity
  8
0
100
AcDbVertex
100
AcDbPolygonMeshVertex
 10
0.860599
 20
2.181162
 30
2.01
 70
    64
  0
VERTEX
  5
331B
100
AcDbEntity
  8
0
100
AcDbVertex
100
AcDbPolygonMeshVertex
 10
0.860599
 20
2.181162
 30
0.705
 70
    64
  0
VERTEX
  5
331C
100
AcDbEntity
  8
0
100
AcDbVertex
100
AcDbPolygonMeshVertex
 10
1.132048
 20
2.053428
 30
0.705
 70
    64
  0
VERTEX
  5
331D
100
AcDbEntity
  8
0
100
AcDbVertex
100
AcDbPolygonMeshVertex
 10
0.962787
 20
2.398321
 30
2.01
 70
    64
  0
VERTEX
  5
331E
100
AcDbEntity
  8
0
100
AcDbVertex
100
AcDbPolygonMeshVertex
 10
0.962787
 20
2.398321
 30
0.705
 70
    64
  0
VERTEX
  5
331F
100
AcDbEntity
  8
0
100
AcDbVertex
100
AcDbPolygonMeshVertex
 10
1.234235
 20
2.270587
 30
0.705
 70
    64
  0
VERTEX
  5
3320
100
AcDbEntity
  8
0
100
AcDbVertex
100
AcDbPolygonMeshVertex
 10
0.962787
 20
2.398321
 30
2.01
 70
    64
  0
VERTEX
  5
3321
100
AcDbEntity
  8
0
100
AcDbVertex
100
AcDbPolygonMeshVertex
 10
0.962787
 20
2.398321
 30
2.01
 70
    64
  0
VERTEX
  5
3322
100
AcDbEntity
  8
0
100
AcDbVertex
100
AcDbPolygonMeshVertex
 10
1.234235
 20
2.270587
 30
2.01
 70
    64
  0
VERTEX
  5
3323
100
AcDbEntity
  8
0
100
AcDbVertex
100
AcDbPolygonMeshVertex
 10
0.860599
 20
2.181162
 30
2.01
 70
    64
  0
VERTEX
  5
3324
100
AcDbEntity
  8
0
100
AcDbVertex
100
AcDbPolygonMeshVertex
 10
0.860599
 20
2.181162
 30
2.01
 70
    64
  0
VERTEX
  5
3325
100
AcDbEntity
  8
0
100
AcDbVertex
100
AcDbPolygonMeshVertex
 10
1.132048
 20
2.053428
 30
2.01
 70
    64
  0
SEQEND
  5
3326
100
AcDbEntity
  8
0
  0
POLYLINE
  5
3327
100
AcDbEntity
  8
0
100
AcDbPolygonMesh
 66
     1
 10
0.0
 20
0.0
 30
0.0
 70
    16
 71
     6
 72
     3
  0
VERTEX
  5
3328
100
AcDbEntity
  8
0
100
AcDbVertex
100
AcDbPolygonMeshVertex
 10
1.089228
 20
2.343605
 30
2.01
 70
    64
  0
VERTEX
  5
3329
100
AcDbEntity
  8
0
100
AcDbVertex
100
AcDbPolygonMeshVertex
 10
1.089228
 20
2.343605
 30
0.705
 70
    64
  0
VERTEX
  5
332A
100
AcDbEntity
  8
0
100
AcDbVertex
100
AcDbPolygonMeshVertex
 10
1.089228
 20
2.343605
 30
0.705
 70
    64
  0
VERTEX
  5
332B
100
AcDbEntity
  8
0
100
AcDbVertex
100
AcDbPolygonMeshVertex
 10
1.000878
 20
2.120458
 30
2.01
 70
    64
  0
VERTEX
  5
332C
100
AcDbEntity
  8
0
100
AcDbVertex
100
AcDbPolygonMeshVertex
 10
1.000878
 20
2.120458
 30
0.705
 70
    64
  0
VERTEX
  5
332D
100
AcDbEntity
  8
0
100
AcDbVertex
100
AcDbPolygonMeshVertex
 10
1.000878
 20
2.120458
 30
0.705
 70
    64
  0
VERTEX
  5
332E
100
AcDbEntity
  8
0
100
AcDbVertex
100
AcDbPolygonMeshVertex
 10
0.721945
 20
2.230896
 30
2.01
 70
    64
  0
VERTEX
  5
332F
100
AcDbEntity
  8
0
100
AcDbVertex
100
AcDbPolygonMeshVertex
 10
0.721945
 20
2.230896
 30
0.705
 70
    64
  0
VERTEX
  5
3330
100
AcDbEntity
  8
0
100
AcDbVertex
100
AcDbPolygonMeshVertex
 10
1.000878
 20
2.120458
 30
0.705
 70
    64
  0
VERTEX
  5
3331
100
AcDbEntity
  8
0
100
AcDbVertex
100
AcDbPolygonMeshVertex
 10
0.810295
 20
2.454042
 30
2.01
 70
    64
  0
VERTEX
  5
3332
100
AcDbEntity
  8
0
100
AcDbVertex
100
AcDbPolygonMeshVertex
 10
0.810295
 20
2.454042
 30
0.705
 70
    64
  0
VERTEX
  5
3333
100
AcDbEntity
  8
0
100
AcDbVertex
100
AcDbPolygonMeshVertex
 10
1.089228
 20
2.343605
 30
0.705
 70
    64
  0
VERTEX
  5
3334
100
AcDbEntity
  8
0
100
AcDbVertex
100
AcDbPolygonMeshVertex
 10
0.810295
 20
2.454042
 30
2.01
 70
    64
  0
VERTEX
  5
3335
100
AcDbEntity
  8
0
100
AcDbVertex
100
AcDbPolygonMeshVertex
 10
0.810295
 20
2.454042
 30
2.01
 70
    64
  0
VERTEX
  5
3336
100
AcDbEntity
  8
0
100
AcDbVertex
100
AcDbPolygonMeshVertex
 10
1.089228
 20
2.343605
 30
2.01
 70
    64
  0
VERTEX
  5
3337
100
AcDbEntity
  8
0
100
AcDbVertex
100
AcDbPolygonMeshVertex
 10
0.721945
 20
2.230896
 30
2.01
 70
    64
  0
VERTEX
  5
3338
100
AcDbEntity
  8
0
100
AcDbVertex
100
AcDbPolygonMeshVertex
 10
0.721945
 20
2.230896
 30
2.01
 70
    64
  0
VERTEX
  5
3339
100
AcDbEntity
  8
0
100
AcDbVertex
100
AcDbPolygonMeshVertex
 10
1.000878
 20
2.120458
 30
2.01
 70
    64
  0
SEQEND
  5
333A
100
AcDbEntity
  8
0
  0
POLYLINE
  5
333B
100
AcDbEntity
  8
0
100
AcDbPolygonMesh
 66
     1
 10
0.0
 20
0.0
 30
0.0
 70
    16
 71
     6
 72
     3
  0
VERTEX
  5
333C
100
AcDbEntity
  8
0
100
AcDbVertex
100
AcDbPolygonMeshVertex
 10
0.939922
 20
2.407373
 30
2.01
 70
    64
  0
VERTEX
  5
333D
100
AcDbEntity
  8
0
100
AcDbVertex
100
AcDbPolygonMeshVertex
 10
0.939922
 20
2.407373
 30
0.705
 70
    64
  0
VERTEX
  5
333E
100
AcDbEntity
  8
0
100
AcDbVertex
100
AcDbPolygonMeshVertex
 10
0.939922
 20
2.407373
 30
0.705
 70
    64
  0
VERTEX
  5
333F
100
AcDbEntity
  8
0
100
AcDbVertex
100
AcDbPolygonMeshVertex
 10
0.865758
 20
2.17912
 30
2.01
 70
    64
  0
VERTEX
  5
3340
100
AcDbEntity
  8
0
100
AcDbVertex
100
AcDbPolygonMeshVertex
 10
0.865758
 20
2.17912
 30
0.705
 70
    64
  0
VERTEX
  5
3341
100
AcDbEntity
  8
0
100
AcDbVertex
100
AcDbPolygonMeshVertex
 10
0.865758
 20
2.17912
 30
0.705
 70
    64
  0
VERTEX
  5
3342
100
AcDbEntity
  8
0
100
AcDbVertex
100
AcDbPolygonMeshVertex
 10
0.580441
 20
2.271825
 30
2.01
 70
    64
  0
VERTEX
  5
3343
100
AcDbEntity
  8
0
100
AcDbVertex
100
AcDbPolygonMeshVertex
 10
0.580441
 20
2.271825
 30
0.705
 70
    64
  0
VERTEX
  5
3344
100
AcDbEntity
  8
0
100
AcDbVertex
100
AcDbPolygonMeshVertex
 10
0.865758
 20
2.17912
 30
0.705
 70
    64
  0
VERTEX
  5
3345
100
AcDbEntity
  8
0
100
AcDbVertex
100
AcDbPolygonMeshVertex
 10
0.654605
 20
2.500078
 30
2.01
 70
    64
  0
VERTEX
  5
3346
100
AcDbEntity
  8
0
100
AcDbVertex
100
AcDbPolygonMeshVertex
 10
0.654605
 20
2.500078
 30
0.705
 70
    64
  0
VERTEX
  5
3347
100
AcDbEntity
  8
0
100
AcDbVertex
100
AcDbPolygonMeshVertex
 10
0.939922
 20
2.407373
 30
0.705
 70
    64
  0
VERTEX
  5
3348
100
AcDbEntity
  8
0
100
AcDbVertex
100
AcDbPolygonMeshVertex
 10
0.654605
 20
2.500078
 30
2.01
 70
    64
  0
VERTEX
  5
3349
100
AcDbEntity
  8
0
100
AcDbVertex
100
AcDbPolygonMeshVertex
 10
0.654605
 20
2.500078
 30
2.01
 70
    64
  0
VERTEX
  5
334A
100
AcDbEntity
  8
0
100
AcDbVertex
100
AcDbPolygonMeshVertex
 10
0.939922
 20
2.407373
 30
2.01
 70
    64
  0
VERTEX
  5
334B
100
AcDbEntity
  8
0
100
AcDbVertex
100
AcDbPolygonMeshVertex
 10
0.580441
 20
2.271825
 30
2.01
 70
    64
  0
VERTEX
  5
334C
100
AcDbEntity
  8
0
100
AcDbVertex
100
AcDbPolygonMeshVertex
 10
0.580441
 20
2.271825
 30
2.01
 70
    64
  0
VERTEX
  5
334D
100
AcDbEntity
  8
0
100
AcDbVertex
100
AcDbPolygonMeshVertex
 10
0.865758
 20
2.17912
 30
2.01
 70
    64
  0
SEQEND
  5
334E
100
AcDbEntity
  8
0
  0
POLYLINE
  5
334F
100
AcDbEntity
  8
0
100
AcDbPolygonMesh
 66
     1
 10
0.0
 20
0.0
 30
0.0
 70
    16
 71
     6
 72
     3
  0
VERTEX
  5
3350
100
AcDbEntity
  8
0
100
AcDbVertex
100
AcDbPolygonMeshVertex
 10
0.786907
 20
2.461641
 30
2.01
 70
    64
  0
VERTEX
  5
3351
100
AcDbEntity
  8
0
100
AcDbVertex
100
AcDbPolygonMeshVertex
 10
0.786907
 20
2.461641
 30
0.705
 70
    64
  0
VERTEX
  5
3352
100
AcDbEntity
  8
0
100
AcDbVertex
100
AcDbPolygonMeshVertex
 10
0.786907
 20
2.461641
 30
0.705
 70
    64
  0
VERTEX
  5
3353
100
AcDbEntity
  8
0
100
AcDbVertex
100
AcDbPolygonMeshVertex
 10
0.727222
 20
2.229181
 30
2.01
 70
    64
  0
VERTEX
  5
3354
100
AcDbEntity
  8
0
100
AcDbVertex
100
AcDbPolygonMeshVertex
 10
0.727222
 20
2.229181
 30
0.705
 70
    64
  0
VERTEX
  5
3355
100
AcDbEntity
  8
0
100
AcDbVertex
100
AcDbPolygonMeshVertex
 10
0.727222
 20
2.229181
 30
0.705
 70
    64
  0
VERTEX
  5
3356
100
AcDbEntity
  8
0
100
AcDbVertex
100
AcDbPolygonMeshVertex
 10
0.436647
 20
2.303788
 30
2.01
 70
    64
  0
VERTEX
  5
3357
100
AcDbEntity
  8
0
100
AcDbVertex
100
AcDbPolygonMeshVertex
 10
0.436647
 20
2.303788
 30
0.705
 70
    64
  0
VERTEX
  5
3358
100
AcDbEntity
  8
0
100
AcDbVertex
100
AcDbPolygonMeshVertex
 10
0.727222
 20
2.229181
 30
0.705
 70
    64
  0
VERTEX
  5
3359
100
AcDbEntity
  8
0
100
AcDbVertex
100
AcDbPolygonMeshVertex
 10
0.496332
 20
2.536248
 30
2.01
 70
    64
  0
VERTEX
  5
335A
100
AcDbEntity
  8
0
100
AcDbVertex
100
AcDbPolygonMeshVertex
 10
0.496332
 20
2.536248
 30
0.705
 70
    64
  0
VERTEX
  5
335B
100
AcDbEntity
  8
0
100
AcDbVertex
100
AcDbPolygonMeshVertex
 10
0.786907
 20
2.461641
 30
0.705
 70
    64
  0
VERTEX
  5
335C
100
AcDbEntity
  8
0
100
AcDbVertex
100
AcDbPolygonMeshVertex
 10
0.496332
 20
2.536248
 30
2.01
 70
    64
  0
VERTEX
  5
335D
100
AcDbEntity
  8
0
100
AcDbVertex
100
AcDbPolygonMeshVertex
 10
0.496332
 20
2.536248
 30
2.01
 70
    64
  0
VERTEX
  5
335E
100
AcDbEntity
  8
0
100
AcDbVertex
100
AcDbPolygonMeshVertex
 10
0.786907
 20
2.461641
 30
2.01
 70
    64
  0
VERTEX
  5
335F
100
AcDbEntity
  8
0
100
AcDbVertex
100
AcDbPolygonMeshVertex
 10
0.436647
 20
2.303788
 30
2.01
 70
    64
  0
VERTEX
  5
3360
100
AcDbEntity
  8
0
100
AcDbVertex
100
AcDbPolygonMeshVertex
 10
0.436647
 20
2.303788
 30
2.01
 70
    64
  0
VERTEX
  5
3361
100
AcDbEntity
  8
0
100
AcDbVertex
100
AcDbPolygonMeshVertex
 10
0.727222
 20
2.229181
 30
2.01
 70
    64
  0
SEQEND
  5
3362
100
AcDbEntity
  8
0
  0
POLYLINE
  5
3363
100
AcDbEntity
  8
0
100
AcDbPolygonMesh
 66
     1
 10
0.0
 20
0.0
 30
0.0
 70
    16
 71
     6
 72
     3
  0
VERTEX
  5
3364
100
AcDbEntity
  8
0
100
AcDbVertex
100
AcDbPolygonMeshVertex
 10
0.630787
 20
2.506194
 30
2.01
 70
    64
  0
VERTEX
  5
3365
100
AcDbEntity
  8
0
100
AcDbVertex
100
AcDbPolygonMeshVertex
 10
0.630787
 20
2.506194
 30
0.705
 70
    64
  0
VERTEX
  5
3366
100
AcDbEntity
  8
0
100
AcDbVertex
100
AcDbPolygonMeshVertex
 10
0.630787
 20
2.506194
 30
0.705
 70
    64
  0
VERTEX
  5
3367
100
AcDbEntity
  8
0
100
AcDbVertex
100
AcDbPolygonMeshVertex
 10
0.585815
 20
2.270445
 30
2.01
 70
    64
  0
VERTEX
  5
3368
100
AcDbEntity
  8
0
100
AcDbVertex
100
AcDbPolygonMeshVertex
 10
0.585815
 20
2.270445
 30
0.705
 70
    64
  0
VERTEX
  5
3369
100
AcDbEntity
  8
0
100
AcDbVertex
100
AcDbPolygonMeshVertex
 10
0.585815
 20
2.270445
 30
0.705
 70
    64
  0
VERTEX
  5
336A
100
AcDbEntity
  8
0
100
AcDbVertex
100
AcDbPolygonMeshVertex
 10
0.291129
 20
2.326659
 30
2.01
 70
    64
  0
VERTEX
  5
336B
100
AcDbEntity
  8
0
100
AcDbVertex
100
AcDbPolygonMeshVertex
 10
0.291129
 20
2.326659
 30
0.705
 70
    64
  0
VERTEX
  5
336C
100
AcDbEntity
  8
0
100
AcDbVertex
100
AcDbPolygonMeshVertex
 10
0.585815
 20
2.270445
 30
0.705
 70
    64
  0
VERTEX
  5
336D
100
AcDbEntity
  8
0
100
AcDbVertex
100
AcDbPolygonMeshVertex
 10
0.336101
 20
2.562408
 30
2.01
 70
    64
  0
VERTEX
  5
336E
100
AcDbEntity
  8
0
100
AcDbVertex
100
AcDbPolygonMeshVertex
 10
0.336101
 20
2.562408
 30
0.705
 70
    64
  0
VERTEX
  5
336F
100
AcDbEntity
  8
0
100
AcDbVertex
100
AcDbPolygonMeshVertex
 10
0.630787
 20
2.506194
 30
0.705
 70
    64
  0
VERTEX
  5
3370
100
AcDbEntity
  8
0
100
AcDbVertex
100
AcDbPolygonMeshVertex
 10
0.336101
 20
2.562408
 30
2.01
 70
    64
  0
VERTEX
  5
3371
100
AcDbEntity
  8
0
100
AcDbVertex
100
AcDbPolygonMeshVertex
 10
0.336101
 20
2.562408
 30
2.01
 70
    64
  0
VERTEX
  5
3372
100
AcDbEntity
  8
0
100
AcDbVertex
100
AcDbPolygonMeshVertex
 10
0.630787
 20
2.506194
 30
2.01
 70
    64
  0
VERTEX
  5
3373
100
AcDbEntity
  8
0
100
AcDbVertex
100
AcDbPolygonMeshVertex
 10
0.291129
 20
2.326659
 30
2.01
 70
    64
  0
VERTEX
  5
3374
100
AcDbEntity
  8
0
100
AcDbVertex
100
AcDbPolygonMeshVertex
 10
0.291129
 20
2.326659
 30
2.01
 70
    64
  0
VERTEX
  5
3375
100
AcDbEntity
  8
0
100
AcDbVertex
100
AcDbPolygonMeshVertex
 10
0.585815
 20
2.270445
 30
2.01
 70
    64
  0
SEQEND
  5
3376
100
AcDbEntity
  8
0
  0
POLYLINE
  5
3377
100
AcDbEntity
  8
0
100
AcDbPolygonMesh
 66
     1
 10
0.0
 20
0.0
 30
0.0
 70
    16
 71
     6
 72
     3
  0
VERTEX
  5
3378
100
AcDbEntity
  8
0
100
AcDbVertex
100
AcDbPolygonMeshVertex
 10
0.472177
 20
2.540856
 30
2.01
 70
    64
  0
VERTEX
  5
3379
100
AcDbEntity
  8
0
100
AcDbVertex
100
AcDbPolygonMeshVertex
 10
0.472177
 20
2.540856
 30
0.705
 70
    64
  0
VERTEX
  5
337A
100
AcDbEntity
  8
0
100
AcDbVertex
100
AcDbPolygonMeshVertex
 10
0.472177
 20
2.540856
 30
0.705
 70
    64
  0
VERTEX
  5
337B
100
AcDbEntity
  8
0
100
AcDbVertex
100
AcDbPolygonMeshVertex
 10
0.442097
 20
2.302748
 30
2.01
 70
    64
  0
VERTEX
  5
337C
100
AcDbEntity
  8
0
100
AcDbVertex
100
AcDbPolygonMeshVertex
 10
0.442097
 20
2.302748
 30
0.705
 70
    64
  0
VERTEX
  5
337D
100
AcDbEntity
  8
0
100
AcDbVertex
100
AcDbPolygonMeshVertex
 10
0.442097
 20
2.302748
 30
0.705
 70
    64
  0
VERTEX
  5
337E
100
AcDbEntity
  8
0
100
AcDbVertex
100
AcDbPolygonMeshVertex
 10
0.144463
 20
2.340348
 30
2.01
 70
    64
  0
VERTEX
  5
337F
100
AcDbEntity
  8
0
100
AcDbVertex
100
AcDbPolygonMeshVertex
 10
0.144463
 20
2.340348
 30
0.705
 70
    64
  0
VERTEX
  5
3380
100
AcDbEntity
  8
0
100
AcDbVertex
100
AcDbPolygonMeshVertex
 10
0.442097
 20
2.302748
 30
0.705
 70
    64
  0
VERTEX
  5
3381
100
AcDbEntity
  8
0
100
AcDbVertex
100
AcDbPolygonMeshVertex
 10
0.174543
 20
2.578456
 30
2.01
 70
    64
  0
VERTEX
  5
3382
100
AcDbEntity
  8
0
100
AcDbVertex
100
AcDbPolygonMeshVertex
 10
0.174543
 20
2.578456
 30
0.705
 70
    64
  0
VERTEX
  5
3383
100
AcDbEntity
  8
0
100
AcDbVertex
100
AcDbPolygonMeshVertex
 10
0.472177
 20
2.540856
 30
0.705
 70
    64
  0
VERTEX
  5
3384
100
AcDbEntity
  8
0
100
AcDbVertex
100
AcDbPolygonMeshVertex
 10
0.174543
 20
2.578456
 30
2.01
 70
    64
  0
VERTEX
  5
3385
100
AcDbEntity
  8
0
100
AcDbVertex
100
AcDbPolygonMeshVertex
 10
0.174543
 20
2.578456
 30
2.01
 70
    64
  0
VERTEX
  5
3386
100
AcDbEntity
  8
0
100
AcDbVertex
100
AcDbPolygonMeshVertex
 10
0.472177
 20
2.540856
 30
2.01
 70
    64
  0
VERTEX
  5
3387
100
AcDbEntity
  8
0
100
AcDbVertex
100
AcDbPolygonMeshVertex
 10
0.144463
 20
2.340348
 30
2.01
 70
    64
  0
VERTEX
  5
3388
100
AcDbEntity
  8
0
100
AcDbVertex
100
AcDbPolygonMeshVertex
 10
0.144463
 20
2.340348
 30
2.01
 70
    64
  0
VERTEX
  5
3389
100
AcDbEntity
  8
0
100
AcDbVertex
100
AcDbPolygonMeshVertex
 10
0.442097
 20
2.302748
 30
2.01
 70
    64
  0
SEQEND
  5
338A
100
AcDbEntity
  8
0
  0
POLYLINE
  5
338B
100
AcDbEntity
  8
0
100
AcDbPolygonMesh
 66
     1
 10
0.0
 20
0.0
 30
0.0
 70
    16
 71
     6
 72
     3
  0
VERTEX
  5
338C
100
AcDbEntity
  8
0
100
AcDbVertex
100
AcDbPolygonMeshVertex
 10
0.311704
 20
2.56549
 30
2.01
 70
    64
  0
VERTEX
  5
338D
100
AcDbEntity
  8
0
100
AcDbVertex
100
AcDbPolygonMeshVertex
 10
0.311704
 20
2.56549
 30
0.705
 70
    64
  0
VERTEX
  5
338E
100
AcDbEntity
  8
0
100
AcDbVertex
100
AcDbPolygonMeshVertex
 10
0.311704
 20
2.56549
 30
0.705
 70
    64
  0
VERTEX
  5
338F
100
AcDbEntity
  8
0
100
AcDbVertex
100
AcDbPolygonMeshVertex
 10
0.296634
 20
2.325964
 30
2.01
 70
    64
  0
VERTEX
  5
3390
100
AcDbEntity
  8
0
100
AcDbVertex
100
AcDbPolygonMeshVertex
 10
0.296634
 20
2.325964
 30
0.705
 70
    64
  0
VERTEX
  5
3391
100
AcDbEntity
  8
0
100
AcDbVertex
100
AcDbPolygonMeshVertex
 10
0.296634
 20
2.325964
 30
0.705
 70
    64
  0
VERTEX
  5
3392
100
AcDbEntity
  8
0
100
AcDbVertex
100
AcDbPolygonMeshVertex
 10
-0.002774
 20
2.344801
 30
2.01
 70
    64
  0
VERTEX
  5
3393
100
AcDbEntity
  8
0
100
AcDbVertex
100
AcDbPolygonMeshVertex
 10
-0.002774
 20
2.344801
 30
0.705
 70
    64
  0
VERTEX
  5
3394
100
AcDbEntity
  8
0
100
AcDbVertex
100
AcDbPolygonMeshVertex
 10
0.296634
 20
2.325964
 30
0.705
 70
    64
  0
VERTEX
  5
3395
100
AcDbEntity
  8
0
100
AcDbVertex
100
AcDbPolygonMeshVertex
 10
0.012296
 20
2.584328
 30
2.01
 70
    64
  0
VERTEX
  5
3396
100
AcDbEntity
  8
0
100
AcDbVertex
100
AcDbPolygonMeshVertex
 10
0.012296
 20
2.584328
 30
0.705
 70
    64
  0
VERTEX
  5
3397
100
AcDbEntity
  8
0
100
AcDbVertex
100
AcDbPolygonMeshVertex
 10
0.311704
 20
2.56549
 30
0.705
 70
    64
  0
VERTEX
  5
3398
100
AcDbEntity
  8
0
100
AcDbVertex
100
AcDbPolygonMeshVertex
 10
0.012296
 20
2.584328
 30
2.01
 70
    64
  0
VERTEX
  5
3399
100
AcDbEntity
  8
0
100
AcDbVertex
100
AcDbPolygonMeshVertex
 10
0.012296
 20
2.584328
 30
2.01
 70
    64
  0
VERTEX
  5
339A
100
AcDbEntity
  8
0
100
AcDbVertex
100
AcDbPolygonMeshVertex
 10
0.311704
 20
2.56549
 30
2.01
 70
    64
  0
VERTEX
  5
339B
100
AcDbEntity
  8
0
100
AcDbVertex
100
AcDbPolygonMeshVertex
 10
-0.002774
 20
2.344801
 30
2.01
 70
    64
  0
VERTEX
  5
339C
100
AcDbEntity
  8
0
100
AcDbVertex
100
AcDbPolygonMeshVertex
 10
-0.002774
 20
2.344801
 30
2.01
 70
    64
  0
VERTEX
  5
339D
100
AcDbEntity
  8
0
100
AcDbVertex
100
AcDbPolygonMeshVertex
 10
0.296634
 20
2.325964
 30
2.01
 70
    64
  0
SEQEND
  5
339E
100
AcDbEntity
  8
0
  0
POLYLINE
  5
339F
100
AcDbEntity
  8
0
100
AcDbPolygonMesh
 66
     1
 10
0.0
 20
0.0
 30
0.0
 70
    16
 71
     6
 72
     3
  0
VERTEX
  5
33A0
100
AcDbEntity
  8
0
100
AcDbVertex
100
AcDbPolygonMeshVertex
 10
0.15
 20
2.58
 30
2.01
 70
    64
  0
VERTEX
  5
33A1
100
AcDbEntity
  8
0
100
AcDbVertex
100
AcDbPolygonMeshVertex
 10
0.15
 20
2.58
 30
0.705
 70
    64
  0
VERTEX
  5
33A2
100
AcDbEntity
  8
0
100
AcDbVertex
100
AcDbPolygonMeshVertex
 10
0.15
 20
2.58
 30
0.705
 70
    64
  0
VERTEX
  5
33A3
100
AcDbEntity
  8
0
100
AcDbVertex
100
AcDbPolygonMeshVertex
 10
0.15
 20
2.34
 30
2.01
 70
    64
  0
VERTEX
  5
33A4
100
AcDbEntity
  8
0
100
AcDbVertex
100
AcDbPolygonMeshVertex
 10
0.15
 20
2.34
 30
0.705
 70
    64
  0
VERTEX
  5
33A5
100
AcDbEntity
  8
0
100
AcDbVertex
100
AcDbPolygonMeshVertex
 10
0.15
 20
2.34
 30
0.705
 70
    64
  0
VERTEX
  5
33A6
100
AcDbEntity
  8
0
100
AcDbVertex
100
AcDbPolygonMeshVertex
 10
-0.15
 20
2.34
 30
2.01
 70
    64
  0
VERTEX
  5
33A7
100
AcDbEntity
  8
0
100
AcDbVertex
100
AcDbPolygonMeshVertex
 10
-0.15
 20
2.34
 30
0.705
 70
    64
  0
VERTEX
  5
33A8
100
AcDbEntity
  8
0
100
AcDbVertex
100
AcDbPolygonMeshVertex
 10
0.15
 20
2.34
 30
0.705
 70
    64
  0
VERTEX
  5
33A9
100
AcDbEntity
  8
0
100
AcDbVertex
100
AcDbPolygonMeshVertex
 10
-0.15
 20
2.58
 30
2.01
 70
    64
  0
VERTEX
  5
33AA
100
AcDbEntity
  8
0
100
AcDbVertex
100
AcDbPolygonMeshVertex
 10
-0.15
 20
2.58
 30
0.705
 70
    64
  0
VERTEX
  5
33AB
100
AcDbEntity
  8
0
100
AcDbVertex
100
AcDbPolygonMeshVertex
 10
0.15
 20
2.58
 30
0.705
 70
    64
  0
VERTEX
  5
33AC
100
AcDbEntity
  8
0
100
AcDbVertex
100
AcDbPolygonMeshVertex
 10
-0.15
 20
2.58
 30
2.01
 70
    64
  0
VERTEX
  5
33AD
100
AcDbEntity
  8
0
100
AcDbVertex
100
AcDbPolygonMeshVertex
 10
-0.15
 20
2.58
 30
2.01
 70
    64
  0
VERTEX
  5
33AE
100
AcDbEntity
  8
0
100
AcDbVertex
100
AcDbPolygonMeshVertex
 10
0.15
 20
2.58
 30
2.01
 70
    64
  0
VERTEX
  5
33AF
100
AcDbEntity
  8
0
100
AcDbVertex
100
AcDbPolygonMeshVertex
 10
-0.15
 20
2.34
 30
2.01
 70
    64
  0
VERTEX
  5
33B0
100
AcDbEntity
  8
0
100
AcDbVertex
100
AcDbPolygonMeshVertex
 10
-0.15
 20
2.34
 30
2.01
 70
    64
  0
VERTEX
  5
33B1
100
AcDbEntity
  8
0
100
AcDbVertex
100
AcDbPolygonMeshVertex
 10
0.15
 20
2.34
 30
2.01
 70
    64
  0
SEQEND
  5
33B2
100
AcDbEntity
  8
0
  0
POLYLINE
  5
33B3
100
AcDbEntity
  8
0
100
AcDbPolygonMesh
 66
     1
 10
0.0
 20
0.0
 30
0.0
 70
    16
 71
     6
 72
     3
  0
VERTEX
  5
33B4
100
AcDbEntity
  8
0
100
AcDbVertex
100
AcDbPolygonMeshVertex
 10
-0.012296
 20
2.584328
 30
2.01
 70
    64
  0
VERTEX
  5
33B5
100
AcDbEntity
  8
0
100
AcDbVertex
100
AcDbPolygonMeshVertex
 10
-0.012296
 20
2.584328
 30
0.705
 70
    64
  0
VERTEX
  5
33B6
100
AcDbEntity
  8
0
100
AcDbVertex
100
AcDbPolygonMeshVertex
 10
-0.012296
 20
2.584328
 30
0.705
 70
    64
  0
VERTEX
  5
33B7
100
AcDbEntity
  8
0
100
AcDbVertex
100
AcDbPolygonMeshVertex
 10
0.002774
 20
2.344801
 30
2.01
 70
    64
  0
VERTEX
  5
33B8
100
AcDbEntity
  8
0
100
AcDbVertex
100
AcDbPolygonMeshVertex
 10
0.002774
 20
2.344801
 30
0.705
 70
    64
  0
VERTEX
  5
33B9
100
AcDbEntity
  8
0
100
AcDbVertex
100
AcDbPolygonMeshVertex
 10
0.002774
 20
2.344801
 30
0.705
 70
    64
  0
VERTEX
  5
33BA
100
AcDbEntity
  8
0
100
AcDbVertex
100
AcDbPolygonMeshVertex
 10
-0.296634
 20
2.325964
 30
2.01
 70
    64
  0
VERTEX
  5
33BB
100
AcDbEntity
  8
0
100
AcDbVertex
100
AcDbPolygonMeshVertex
 10
-0.296634
 20
2.325964
 30
0.705
 70
    64
  0
VERTEX
  5
33BC
100
AcDbEntity
  8
0
100
AcDbVertex
100
AcDbPolygonMeshVertex
 10
0.002774
 20
2.344801
 30
0.705
 70
    64
  0
VERTEX
  5
33BD
100
AcDbEntity
  8
0
100
AcDbVertex
100
AcDbPolygonMeshVertex
 10
-0.311704
 20
2.56549
 30
2.01
 70
    64
  0
VERTEX
  5
33BE
100
AcDbEntity
  8
0
100
AcDbVertex
100
AcDbPolygonMeshVertex
 10
-0.311704
 20
2.56549
 30
0.705
 70
    64
  0
VERTEX
  5
33BF
100
AcDbEntity
  8
0
100
AcDbVertex
100
AcDbPolygonMeshVertex
 10
-0.012296
 20
2.584328
 30
0.705
 70
    64
  0
VERTEX
  5
33C0
100
AcDbEntity
  8
0
100
AcDbVertex
100
AcDbPolygonMeshVertex
 10
-0.311704
 20
2.56549
 30
2.01
 70
    64
  0
VERTEX
  5
33C1
100
AcDbEntity
  8
0
100
AcDbVertex
100
AcDbPolygonMeshVertex
 10
-0.311704
 20
2.56549
 30
2.01
 70
    64
  0
VERTEX
  5
33C2
100
AcDbEntity
  8
0
100
AcDbVertex
100
AcDbPolygonMeshVertex
 10
-0.012296
 20
2.584328
 30
2.01
 70
    64
  0
VERTEX
  5
33C3
100
AcDbEntity
  8
0
100
AcDbVertex
100
AcDbPolygonMeshVertex
 10
-0.296634
 20
2.325964
 30
2.01
 70
    64
  0
VERTEX
  5
33C4
100
AcDbEntity
  8
0
100
AcDbVertex
100
AcDbPolygonMeshVertex
 10
-0.296634
 20
2.325964
 30
2.01
 70
    64
  0
VERTEX
  5
33C5
100
AcDbEntity
  8
0
100
AcDbVertex
100
AcDbPolygonMeshVertex
 10
0.002774
 20
2.344801
 30
2.01
 70
    64
  0
SEQEND
  5
33C6
100
AcDbEntity
  8
0
  0
POLYLINE
  5
33C7
100
AcDbEntity
  8
0
100
AcDbPolygonMesh
 66
     1
 10
0.0
 20
0.0
 30
0.0
 70
    16
 71
     6
 72
     3
  0
VERTEX
  5
33C8
100
AcDbEntity
  8
0
100
AcDbVertex
100
AcDbPolygonMeshVertex
 10
-0.174543
 20
2.578456
 30
2.01
 70
    64
  0
VERTEX
  5
33C9
100
AcDbEntity
  8
0
100
AcDbVertex
100
AcDbPolygonMeshVertex
 10
-0.174543
 20
2.578456
 30
0.705
 70
    64
  0
VERTEX
  5
33CA
100
AcDbEntity
  8
0
100
AcDbVertex
100
AcDbPolygonMeshVertex
 10
-0.174543
 20
2.578456
 30
0.705
 70
    64
  0
VERTEX
  5
33CB
100
AcDbEntity
  8
0
100
AcDbVertex
100
AcDbPolygonMeshVertex
 10
-0.144463
 20
2.340348
 30
2.01
 70
    64
  0
VERTEX
  5
33CC
100
AcDbEntity
  8
0
100
AcDbVertex
100
AcDbPolygonMeshVertex
 10
-0.144463
 20
2.340348
 30
0.705
 70
    64
  0
VERTEX
  5
33CD
100
AcDbEntity
  8
0
100
AcDbVertex
100
AcDbPolygonMeshVertex
 10
-0.144463
 20
2.340348
 30
0.705
 70
    64
  0
VERTEX
  5
33CE
100
AcDbEntity
  8
0
100
AcDbVertex
100
AcDbPolygonMeshVertex
 10
-0.442097
 20
2.302748
 30
2.01
 70
    64
  0
VERTEX
  5
33CF
100
AcDbEntity
  8
0
100
AcDbVertex
100
AcDbPolygonMeshVertex
 10
-0.442097
 20
2.302748
 30
0.705
 70
    64
  0
VERTEX
  5
33D0
100
AcDbEntity
  8
0
100
AcDbVertex
100
AcDbPolygonMeshVertex
 10
-0.144463
 20
2.340348
 30
0.705
 70
    64
  0
VERTEX
  5
33D1
100
AcDbEntity
  8
0
100
AcDbVertex
100
AcDbPolygonMeshVertex
 10
-0.472177
 20
2.540856
 30
2.01
 70
    64
  0
VERTEX
  5
33D2
100
AcDbEntity
  8
0
100
AcDbVertex
100
AcDbPolygonMeshVertex
 10
-0.472177
 20
2.540856
 30
0.705
 70
    64
  0
VERTEX
  5
33D3
100
AcDbEntity
  8
0
100
AcDbVertex
100
AcDbPolygonMeshVertex
 10
-0.174543
 20
2.578456
 30
0.705
 70
    64
  0
VERTEX
  5
33D4
100
AcDbEntity
  8
0
100
AcDbVertex
100
AcDbPolygonMeshVertex
 10
-0.472177
 20
2.540856
 30
2.01
 70
    64
  0
VERTEX
  5
33D5
100
AcDbEntity
  8
0
100
AcDbVertex
100
AcDbPolygonMeshVertex
 10
-0.472177
 20
2.540856
 30
2.01
 70
    64
  0
VERTEX
  5
33D6
100
AcDbEntity
  8
0
100
AcDbVertex
100
AcDbPolygonMeshVertex
 10
-0.174543
 20
2.578456
 30
2.01
 70
    64
  0
VERTEX
  5
33D7
100
AcDbEntity
  8
0
100
AcDbVertex
100
AcDbPolygonMeshVertex
 10
-0.442097
 20
2.302748
 30
2.01
 70
    64
  0
VERTEX
  5
33D8
100
AcDbEntity
  8
0
100
AcDbVertex
100
AcDbPolygonMeshVertex
 10
-0.442097
 20
2.302748
 30
2.01
 70
    64
  0
VERTEX
  5
33D9
100
AcDbEntity
  8
0
100
AcDbVertex
100
AcDbPolygonMeshVertex
 10
-0.144463
 20
2.340348
 30
2.01
 70
    64
  0
SEQEND
  5
33DA
100
AcDbEntity
  8
0
  0
POLYLINE
  5
33DB
100
AcDbEntity
  8
0
100
AcDbPolygonMesh
 66
     1
 10
0.0
 20
0.0
 30
0.0
 70
    16
 71
     6
 72
     3
  0
VERTEX
  5
33DC
100
AcDbEntity
  8
0
100
AcDbVertex
100
AcDbPolygonMeshVertex
 10
-0.336101
 20
2.562408
 30
2.01
 70
    64
  0
VERTEX
  5
33DD
100
AcDbEntity
  8
0
100
AcDbVertex
100
AcDbPolygonMeshVertex
 10
-0.336101
 20
2.562408
 30
0.705
 70
    64
  0
VERTEX
  5
33DE
100
AcDbEntity
  8
0
100
AcDbVertex
100
AcDbPolygonMeshVertex
 10
-0.336101
 20
2.562408
 30
0.705
 70
    64
  0
VERTEX
  5
33DF
100
AcDbEntity
  8
0
100
AcDbVertex
100
AcDbPolygonMeshVertex
 10
-0.291129
 20
2.326659
 30
2.01
 70
    64
  0
VERTEX
  5
33E0
100
AcDbEntity
  8
0
100
AcDbVertex
100
AcDbPolygonMeshVertex
 10
-0.291129
 20
2.326659
 30
0.705
 70
    64
  0
VERTEX
  5
33E1
100
AcDbEntity
  8
0
100
AcDbVertex
100
AcDbPolygonMeshVertex
 10
-0.291129
 20
2.326659
 30
0.705
 70
    64
  0
VERTEX
  5
33E2
100
AcDbEntity
  8
0
100
AcDbVertex
100
AcDbPolygonMeshVertex
 10
-0.585815
 20
2.270445
 30
2.01
 70
    64
  0
VERTEX
  5
33E3
100
AcDbEntity
  8
0
100
AcDbVertex
100
AcDbPolygonMeshVertex
 10
-0.585815
 20
2.270445
 30
0.705
 70
    64
  0
VERTEX
  5
33E4
100
AcDbEntity
  8
0
100
AcDbVertex
100
AcDbPolygonMeshVertex
 10
-0.291129
 20
2.326659
 30
0.705
 70
    64
  0
VERTEX
  5
33E5
100
AcDbEntity
  8
0
100
AcDbVertex
100
AcDbPolygonMeshVertex
 10
-0.630787
 20
2.506194
 30
2.01
 70
    64
  0
VERTEX
  5
33E6
100
AcDbEntity
  8
0
100
AcDbVertex
100
AcDbPolygonMeshVertex
 10
-0.630787
 20
2.506194
 30
0.705
 70
    64
  0
VERTEX
  5
33E7
100
AcDbEntity
  8
0
100
AcDbVertex
100
AcDbPolygonMeshVertex
 10
-0.336101
 20
2.562408
 30
0.705
 70
    64
  0
VERTEX
  5
33E8
100
AcDbEntity
  8
0
100
AcDbVertex
100
AcDbPolygonMeshVertex
 10
-0.630787
 20
2.506194
 30
2.01
 70
    64
  0
VERTEX
  5
33E9
100
AcDbEntity
  8
0
100
AcDbVertex
100
AcDbPolygonMeshVertex
 10
-0.630787
 20
2.506194
 30
2.01
 70
    64
  0
VERTEX
  5
33EA
100
AcDbEntity
  8
0
100
AcDbVertex
100
AcDbPolygonMeshVertex
 10
-0.336101
 20
2.562408
 30
2.01
 70
    64
  0
VERTEX
  5
33EB
100
AcDbEntity
  8
0
100
AcDbVertex
100
AcDbPolygonMeshVertex
 10
-0.585815
 20
2.270445
 30
2.01
 70
    64
  0
VERTEX
  5
33EC
100
AcDbEntity
  8
0
100
AcDbVertex
100
AcDbPolygonMeshVertex
 10
-0.585815
 20
2.270445
 30
2.01
 70
    64
  0
VERTEX
  5
33ED
100
AcDbEntity
  8
0
100
AcDbVertex
100
AcDbPolygonMeshVertex
 10
-0.291129
 20
2.326659
 30
2.01
 70
    64
  0
SEQEND
  5
33EE
100
AcDbEntity
  8
0
  0
POLYLINE
  5
33EF
100
AcDbEntity
  8
0
100
AcDbPolygonMesh
 66
     1
 10
0.0
 20
0.0
 30
0.0
 70
    16
 71
     6
 72
     3
  0
VERTEX
  5
33F0
100
AcDbEntity
  8
0
100
AcDbVertex
100
AcDbPolygonMeshVertex
 10
-0.496332
 20
2.536248
 30
2.01
 70
    64
  0
VERTEX
  5
33F1
100
AcDbEntity
  8
0
100
AcDbVertex
100
AcDbPolygonMeshVertex
 10
-0.496332
 20
2.536248
 30
0.705
 70
    64
  0
VERTEX
  5
33F2
100
AcDbEntity
  8
0
100
AcDbVertex
100
AcDbPolygonMeshVertex
 10
-0.496332
 20
2.536248
 30
0.705
 70
    64
  0
VERTEX
  5
33F3
100
AcDbEntity
  8
0
100
AcDbVertex
100
AcDbPolygonMeshVertex
 10
-0.436647
 20
2.303788
 30
2.01
 70
    64
  0
VERTEX
  5
33F4
100
AcDbEntity
  8
0
100
AcDbVertex
100
AcDbPolygonMeshVertex
 10
-0.436647
 20
2.303788
 30
0.705
 70
    64
  0
VERTEX
  5
33F5
100
AcDbEntity
  8
0
100
AcDbVertex
100
AcDbPolygonMeshVertex
 10
-0.436647
 20
2.303788
 30
0.705
 70
    64
  0
VERTEX
  5
33F6
100
AcDbEntity
  8
0
100
AcDbVertex
100
AcDbPolygonMeshVertex
 10
-0.727222
 20
2.229181
 30
2.01
 70
    64
  0
VERTEX
  5
33F7
100
AcDbEntity
  8
0
100
AcDbVertex
100
AcDbPolygonMeshVertex
 10
-0.727222
 20
2.229181
 30
0.705
 70
    64
  0
VERTEX
  5
33F8
100
AcDbEntity
  8
0
100
AcDbVertex
100
AcDbPolygonMeshVertex
 10
-0.436647
 20
2.303788
 30
0.705
 70
    64
  0
VERTEX
  5
33F9
100
AcDbEntity
  8
0
100
AcDbVertex
100
AcDbPolygonMeshVertex
 10
-0.786907
 20
2.461641
 30
2.01
 70
    64
  0
VERTEX
  5
33FA
100
AcDbEntity
  8
0
100
AcDbVertex
100
AcDbPolygonMeshVertex
 10
-0.786907
 20
2.461641
 30
0.705
 70
    64
  0
VERTEX
  5
33FB
100
AcDbEntity
  8
0
100
AcDbVertex
100
AcDbPolygonMeshVertex
 10
-0.496332
 20
2.536248
 30
0.705
 70
    64
  0
VERTEX
  5
33FC
100
AcDbEntity
  8
0
100
AcDbVertex
100
AcDbPolygonMeshVertex
 10
-0.786907
 20
2.461641
 30
2.01
 70
    64
  0
VERTEX
  5
33FD
100
AcDbEntity
  8
0
100
AcDbVertex
100
AcDbPolygonMeshVertex
 10
-0.786907
 20
2.461641
 30
2.01
 70
    64
  0
VERTEX
  5
33FE
100
AcDbEntity
  8
0
100
AcDbVertex
100
AcDbPolygonMeshVertex
 10
-0.496332
 20
2.536248
 30
2.01
 70
    64
  0
VERTEX
  5
33FF
100
AcDbEntity
  8
0
100
AcDbVertex
100
AcDbPolygonMeshVertex
 10
-0.727222
 20
2.229181
 30
2.01
 70
    64
  0
VERTEX
  5
3400
100
AcDbEntity
  8
0
100
AcDbVertex
100
AcDbPolygonMeshVertex
 10
-0.727222
 20
2.229181
 30
2.01
 70
    64
  0
VERTEX
  5
3401
100
AcDbEntity
  8
0
100
AcDbVertex
100
AcDbPolygonMeshVertex
 10
-0.436647
 20
2.303788
 30
2.01
 70
    64
  0
SEQEND
  5
3402
100
AcDbEntity
  8
0
  0
POLYLINE
  5
3403
100
AcDbEntity
  8
0
100
AcDbPolygonMesh
 66
     1
 10
0.0
 20
0.0
 30
0.0
 70
    16
 71
     6
 72
     3
  0
VERTEX
  5
3404
100
AcDbEntity
  8
0
100
AcDbVertex
100
AcDbPolygonMeshVertex
 10
-0.654605
 20
2.500078
 30
2.01
 70
    64
  0
VERTEX
  5
3405
100
AcDbEntity
  8
0
100
AcDbVertex
100
AcDbPolygonMeshVertex
 10
-0.654605
 20
2.500078
 30
0.705
 70
    64
  0
VERTEX
  5
3406
100
AcDbEntity
  8
0
100
AcDbVertex
100
AcDbPolygonMeshVertex
 10
-0.654605
 20
2.500078
 30
0.705
 70
    64
  0
VERTEX
  5
3407
100
AcDbEntity
  8
0
100
AcDbVertex
100
AcDbPolygonMeshVertex
 10
-0.580441
 20
2.271825
 30
2.01
 70
    64
  0
VERTEX
  5
3408
100
AcDbEntity
  8
0
100
AcDbVertex
100
AcDbPolygonMeshVertex
 10
-0.580441
 20
2.271825
 30
0.705
 70
    64
  0
VERTEX
  5
3409
100
AcDbEntity
  8
0
100
AcDbVertex
100
AcDbPolygonMeshVertex
 10
-0.580441
 20
2.271825
 30
0.705
 70
    64
  0
VERTEX
  5
340A
100
AcDbEntity
  8
0
100
AcDbVertex
100
AcDbPolygonMeshVertex
 10
-0.865758
 20
2.17912
 30
2.01
 70
    64
  0
VERTEX
  5
340B
100
AcDbEntity
  8
0
100
AcDbVertex
100
AcDbPolygonMeshVertex
 10
-0.865758
 20
2.17912
 30
0.705
 70
    64
  0
VERTEX
  5
340C
100
AcDbEntity
  8
0
100
AcDbVertex
100
AcDbPolygonMeshVertex
 10
-0.580441
 20
2.271825
 30
0.705
 70
    64
  0
VERTEX
  5
340D
100
AcDbEntity
  8
0
100
AcDbVertex
100
AcDbPolygonMeshVertex
 10
-0.939922
 20
2.407373
 30
2.01
 70
    64
  0
VERTEX
  5
340E
100
AcDbEntity
  8
0
100
AcDbVertex
100
AcDbPolygonMeshVertex
 10
-0.939922
 20
2.407373
 30
0.705
 70
    64
  0
VERTEX
  5
340F
100
AcDbEntity
  8
0
100
AcDbVertex
100
AcDbPolygonMeshVertex
 10
-0.654605
 20
2.500078
 30
0.705
 70
    64
  0
VERTEX
  5
3410
100
AcDbEntity
  8
0
100
AcDbVertex
100
AcDbPolygonMeshVertex
 10
-0.939922
 20
2.407373
 30
2.01
 70
    64
  0
VERTEX
  5
3411
100
AcDbEntity
  8
0
100
AcDbVertex
100
AcDbPolygonMeshVertex
 10
-0.939922
 20
2.407373
 30
2.01
 70
    64
  0
VERTEX
  5
3412
100
AcDbEntity
  8
0
100
AcDbVertex
100
AcDbPolygonMeshVertex
 10
-0.654605
 20
2.500078
 30
2.01
 70
    64
  0
VERTEX
  5
3413
100
AcDbEntity
  8
0
100
AcDbVertex
100
AcDbPolygonMeshVertex
 10
-0.865758
 20
2.17912
 30
2.01
 70
    64
  0
VERTEX
  5
3414
100
AcDbEntity
  8
0
100
AcDbVertex
100
AcDbPolygonMeshVertex
 10
-0.865758
 20
2.17912
 30
2.01
 70
    64
  0
VERTEX
  5
3415
100
AcDbEntity
  8
0
100
AcDbVertex
100
AcDbPolygonMeshVertex
 10
-0.580441
 20
2.271825
 30
2.01
 70
    64
  0
SEQEND
  5
3416
100
AcDbEntity
  8
0
  0
POLYLINE
  5
3417
100
AcDbEntity
  8
0
100
AcDbPolygonMesh
 66
     1
 10
0.0
 20
0.0
 30
0.0
 70
    16
 71
     6
 72
     3
  0
VERTEX
  5
3418
100
AcDbEntity
  8
0
100
AcDbVertex
100
AcDbPolygonMeshVertex
 10
-0.810295
 20
2.454042
 30
2.01
 70
    64
  0
VERTEX
  5
3419
100
AcDbEntity
  8
0
100
AcDbVertex
100
AcDbPolygonMeshVertex
 10
-0.810295
 20
2.454042
 30
0.705
 70
    64
  0
VERTEX
  5
341A
100
AcDbEntity
  8
0
100
AcDbVertex
100
AcDbPolygonMeshVertex
 10
-0.810295
 20
2.454042
 30
0.705
 70
    64
  0
VERTEX
  5
341B
100
AcDbEntity
  8
0
100
AcDbVertex
100
AcDbPolygonMeshVertex
 10
-0.721945
 20
2.230896
 30
2.01
 70
    64
  0
VERTEX
  5
341C
100
AcDbEntity
  8
0
100
AcDbVertex
100
AcDbPolygonMeshVertex
 10
-0.721945
 20
2.230896
 30
0.705
 70
    64
  0
VERTEX
  5
341D
100
AcDbEntity
  8
0
100
AcDbVertex
100
AcDbPolygonMeshVertex
 10
-0.721945
 20
2.230896
 30
0.705
 70
    64
  0
VERTEX
  5
341E
100
AcDbEntity
  8
0
100
AcDbVertex
100
AcDbPolygonMeshVertex
 10
-1.000878
 20
2.120458
 30
2.01
 70
    64
  0
VERTEX
  5
341F
100
AcDbEntity
  8
0
100
AcDbVertex
100
AcDbPolygonMeshVertex
 10
-1.000878
 20
2.120458
 30
0.705
 70
    64
  0
VERTEX
  5
3420
100
AcDbEntity
  8
0
100
AcDbVertex
100
AcDbPolygonMeshVertex
 10
-0.721945
 20
2.230896
 30
0.705
 70
    64
  0
VERTEX
  5
3421
100
AcDbEntity
  8
0
100
AcDbVertex
100
AcDbPolygonMeshVertex
 10
-1.089228
 20
2.343605
 30
2.01
 70
    64
  0
VERTEX
  5
3422
100
AcDbEntity
  8
0
100
AcDbVertex
100
AcDbPolygonMeshVertex
 10
-1.089228
 20
2.343605
 30
0.705
 70
    64
  0
VERTEX
  5
3423
100
AcDbEntity
  8
0
100
AcDbVertex
100
AcDbPolygonMeshVertex
 10
-0.810295
 20
2.454042
 30
0.705
 70
    64
  0
VERTEX
  5
3424
100
AcDbEntity
  8
0
100
AcDbVertex
100
AcDbPolygonMeshVertex
 10
-1.089228
 20
2.343605
 30
2.01
 70
    64
  0
VERTEX
  5
3425
100
AcDbEntity
  8
0
100
AcDbVertex
100
AcDbPolygonMeshVertex
 10
-1.089228
 20
2.343605
 30
2.01
 70
    64
  0
VERTEX
  5
3426
100
AcDbEntity
  8
0
100
AcDbVertex
100
AcDbPolygonMeshVertex
 10
-0.810295
 20
2.454042
 30
2.01
 70
    64
  0
VERTEX
  5
3427
100
AcDbEntity
  8
0
100
AcDbVertex
100
AcDbPolygonMeshVertex
 10
-1.000878
 20
2.120458
 30
2.01
 70
    64
  0
VERTEX
  5
3428
100
AcDbEntity
  8
0
100
AcDbVertex
100
AcDbPolygonMeshVertex
 10
-1.000878
 20
2.120458
 30
2.01
 70
    64
  0
VERTEX
  5
3429
100
AcDbEntity
  8
0
100
AcDbVertex
100
AcDbPolygonMeshVertex
 10
-0.721945
 20
2.230896
 30
2.01
 70
    64
  0
SEQEND
  5
342A
100
AcDbEntity
  8
0
  0
POLYLINE
  5
342B
100
AcDbEntity
  8
0
100
AcDbPolygonMesh
 66
     1
 10
0.0
 20
0.0
 30
0.0
 70
    16
 71
     6
 72
     3
  0
VERTEX
  5
342C
100
AcDbEntity
  8
0
100
AcDbVertex
100
AcDbPolygonMeshVertex
 10
-0.962787
 20
2.398321
 30
2.01
 70
    64
  0
VERTEX
  5
342D
100
AcDbEntity
  8
0
100
AcDbVertex
100
AcDbPolygonMeshVertex
 10
-0.962787
 20
2.398321
 30
0.705
 70
    64
  0
VERTEX
  5
342E
100
AcDbEntity
  8
0
100
AcDbVertex
100
AcDbPolygonMeshVertex
 10
-0.962787
 20
2.398321
 30
0.705
 70
    64
  0
VERTEX
  5
342F
100
AcDbEntity
  8
0
100
AcDbVertex
100
AcDbPolygonMeshVertex
 10
-0.860599
 20
2.181162
 30
2.01
 70
    64
  0
VERTEX
  5
3430
100
AcDbEntity
  8
0
100
AcDbVertex
100
AcDbPolygonMeshVertex
 10
-0.860599
 20
2.181162
 30
0.705
 70
    64
  0
VERTEX
  5
3431
100
AcDbEntity
  8
0
100
AcDbVertex
100
AcDbPolygonMeshVertex
 10
-0.860599
 20
2.181162
 30
0.705
 70
    64
  0
VERTEX
  5
3432
100
AcDbEntity
  8
0
100
AcDbVertex
100
AcDbPolygonMeshVertex
 10
-1.132048
 20
2.053428
 30
2.01
 70
    64
  0
VERTEX
  5
3433
100
AcDbEntity
  8
0
100
AcDbVertex
100
AcDbPolygonMeshVertex
 10
-1.132048
 20
2.053428
 30
0.705
 70
    64
  0
VERTEX
  5
3434
100
AcDbEntity
  8
0
100
AcDbVertex
100
AcDbPolygonMeshVertex
 10
-0.860599
 20
2.181162
 30
0.705
 70
    64
  0
VERTEX
  5
3435
100
AcDbEntity
  8
0
100
AcDbVertex
100
AcDbPolygonMeshVertex
 10
-1.234235
 20
2.270587
 30
2.01
 70
    64
  0
VERTEX
  5
3436
100
AcDbEntity
  8
0
100
AcDbVertex
100
AcDbPolygonMeshVertex
 10
-1.234235
 20
2.270587
 30
0.705
 70
    64
  0
VERTEX
  5
3437
100
AcDbEntity
  8
0
100
AcDbVertex
100
AcDbPolygonMeshVertex
 10
-0.962787
 20
2.398321
 30
0.705
 70
    64
  0
VERTEX
  5
3438
100
AcDbEntity
  8
0
100
AcDbVertex
100
AcDbPolygonMeshVertex
 10
-1.234235
 20
2.270587
 30
2.01
 70
    64
  0
VERTEX
  5
3439
100
AcDbEntity
  8
0
100
AcDbVertex
100
AcDbPolygonMeshVertex
 10
-1.234235
 20
2.270587
 30
2.01
 70
    64
  0
VERTEX
  5
343A
100
AcDbEntity
  8
0
100
AcDbVertex
100
AcDbPolygonMeshVertex
 10
-0.962787
 20
2.398321
 30
2.01
 70
    64
  0
VERTEX
  5
343B
100
AcDbEntity
  8
0
100
AcDbVertex
100
AcDbPolygonMeshVertex
 10
-1.132048
 20
2.053428
 30
2.01
 70
    64
  0
VERTEX
  5
343C
100
AcDbEntity
  8
0
100
AcDbVertex
100
AcDbPolygonMeshVertex
 10
-1.132048
 20
2.053428
 30
2.01
 70
    64
  0
VERTEX
  5
343D
100
AcDbEntity
  8
0
100
AcDbVertex
100
AcDbPolygonMeshVertex
 10
-0.860599
 20
2.181162
 30
2.01
 70
    64
  0
SEQEND
  5
343E
100
AcDbEntity
  8
0
  0
POLYLINE
  5
343F
100
AcDbEntity
  8
0
100
AcDbPolygonMesh
 66
     1
 10
0.0
 20
0.0
 30
0.0
 70
    16
 71
     6
 72
     3
  0
VERTEX
  5
3440
100
AcDbEntity
  8
0
100
AcDbVertex
100
AcDbPolygonMeshVertex
 10
-1.111478
 20
2.333134
 30
2.01
 70
    64
  0
VERTEX
  5
3441
100
AcDbEntity
  8
0
100
AcDbVertex
100
AcDbPolygonMeshVertex
 10
-1.111478
 20
2.333134
 30
0.705
 70
    64
  0
VERTEX
  5
3442
100
AcDbEntity
  8
0
100
AcDbVertex
100
AcDbPolygonMeshVertex
 10
-1.111478
 20
2.333134
 30
0.705
 70
    64
  0
VERTEX
  5
3443
100
AcDbEntity
  8
0
100
AcDbVertex
100
AcDbPolygonMeshVertex
 10
-0.995858
 20
2.122821
 30
2.01
 70
    64
  0
VERTEX
  5
3444
100
AcDbEntity
  8
0
100
AcDbVertex
100
AcDbPolygonMeshVertex
 10
-0.995858
 20
2.122821
 30
0.705
 70
    64
  0
VERTEX
  5
3445
100
AcDbEntity
  8
0
100
AcDbVertex
100
AcDbPolygonMeshVertex
 10
-0.995858
 20
2.122821
 30
0.705
 70
    64
  0
VERTEX
  5
3446
100
AcDbEntity
  8
0
100
AcDbVertex
100
AcDbPolygonMeshVertex
 10
-1.25875
 20
1.978295
 30
2.01
 70
    64
  0
VERTEX
  5
3447
100
AcDbEntity
  8
0
100
AcDbVertex
100
AcDbPolygonMeshVertex
 10
-1.25875
 20
1.978295
 30
0.705
 70
    64
  0
VERTEX
  5
3448
100
AcDbEntity
  8
0
100
AcDbVertex
100
AcDbPolygonMeshVertex
 10
-0.995858
 20
2.122821
 30
0.705
 70
    64
  0
VERTEX
  5
3449
100
AcDbEntity
  8
0
100
AcDbVertex
100
AcDbPolygonMeshVertex
 10
-1.37437
 20
2.188608
 30
2.01
 70
    64
  0
VERTEX
  5
344A
100
AcDbEntity
  8
0
100
AcDbVertex
100
AcDbPolygonMeshVertex
 10
-1.37437
 20
2.188608
 30
0.705
 70
    64
  0
VERTEX
  5
344B
100
AcDbEntity
  8
0
100
AcDbVertex
100
AcDbPolygonMeshVertex
 10
-1.111478
 20
2.333134
 30
0.705
 70
    64
  0
VERTEX
  5
344C
100
AcDbEntity
  8
0
100
AcDbVertex
100
AcDbPolygonMeshVertex
 10
-1.37437
 20
2.188608
 30
2.01
 70
    64
  0
VERTEX
  5
344D
100
AcDbEntity
  8
0
100
AcDbVertex
100
AcDbPolygonMeshVertex
 10
-1.37437
 20
2.188608
 30
2.01
 70
    64
  0
VERTEX
  5
344E
100
AcDbEntity
  8
0
100
AcDbVertex
100
AcDbPolygonMeshVertex
 10
-1.111478
 20
2.333134
 30
2.01
 70
    64
  0
VERTEX
  5
344F
100
AcDbEntity
  8
0
100
AcDbVertex
100
AcDbPolygonMeshVertex
 10
-1.25875
 20
1.978295
 30
2.01
 70
    64
  0
VERTEX
  5
3450
100
AcDbEntity
  8
0
100
AcDbVertex
100
AcDbPolygonMeshVertex
 10
-1.25875
 20
1.978295
 30
2.01
 70
    64
  0
VERTEX
  5
3451
100
AcDbEntity
  8
0
100
AcDbVertex
100
AcDbPolygonMeshVertex
 10
-0.995858
 20
2.122821
 30
2.01
 70
    64
  0
SEQEND
  5
3452
100
AcDbEntity
  8
0
  0
POLYLINE
  5
3453
100
AcDbEntity
  8
0
100
AcDbPolygonMesh
 66
     1
 10
0.0
 20
0.0
 30
0.0
 70
    16
 71
     6
 72
     3
  0
VERTEX
  5
3454
100
AcDbEntity
  8
0
100
AcDbVertex
100
AcDbPolygonMeshVertex
 10
-1.255784
 20
2.25874
 30
2.01
 70
    64
  0
VERTEX
  5
3455
100
AcDbEntity
  8
0
100
AcDbVertex
100
AcDbPolygonMeshVertex
 10
-1.255784
 20
2.25874
 30
0.705
 70
    64
  0
VERTEX
  5
3456
100
AcDbEntity
  8
0
100
AcDbVertex
100
AcDbPolygonMeshVertex
 10
-1.255784
 20
2.25874
 30
0.705
 70
    64
  0
VERTEX
  5
3457
100
AcDbEntity
  8
0
100
AcDbVertex
100
AcDbPolygonMeshVertex
 10
-1.127186
 20
2.056101
 30
2.01
 70
    64
  0
VERTEX
  5
3458
100
AcDbEntity
  8
0
100
AcDbVertex
100
AcDbPolygonMeshVertex
 10
-1.127186
 20
2.056101
 30
0.705
 70
    64
  0
VERTEX
  5
3459
100
AcDbEntity
  8
0
100
AcDbVertex
100
AcDbPolygonMeshVertex
 10
-1.127186
 20
2.056101
 30
0.705
 70
    64
  0
VERTEX
  5
345A
100
AcDbEntity
  8
0
100
AcDbVertex
100
AcDbPolygonMeshVertex
 10
-1.380484
 20
1.895353
 30
2.01
 70
    64
  0
VERTEX
  5
345B
100
AcDbEntity
  8
0
100
AcDbVertex
100
AcDbPolygonMeshVertex
 10
-1.380484
 20
1.895353
 30
0.705
 70
    64
  0
VERTEX
  5
345C
100
AcDbEntity
  8
0
100
AcDbVertex
100
AcDbPolygonMeshVertex
 10
-1.127186
 20
2.056101
 30
0.705
 70
    64
  0
VERTEX
  5
345D
100
AcDbEntity
  8
0
100
AcDbVertex
100
AcDbPolygonMeshVertex
 10
-1.509082
 20
2.097992
 30
2.01
 70
    64
  0
VERTEX
  5
345E
100
AcDbEntity
  8
0
100
AcDbVertex
100
AcDbPolygonMeshVertex
 10
-1.509082
 20
2.097992
 30
0.705
 70
    64
  0
VERTEX
  5
345F
100
AcDbEntity
  8
0
100
AcDbVertex
100
AcDbPolygonMeshVertex
 10
-1.255784
 20
2.25874
 30
0.705
 70
    64
  0
VERTEX
  5
3460
100
AcDbEntity
  8
0
100
AcDbVertex
100
AcDbPolygonMeshVertex
 10
-1.509082
 20
2.097992
 30
2.01
 70
    64
  0
VERTEX
  5
3461
100
AcDbEntity
  8
0
100
AcDbVertex
100
AcDbPolygonMeshVertex
 10
-1.509082
 20
2.097992
 30
2.01
 70
    64
  0
VERTEX
  5
3462
100
AcDbEntity
  8
0
100
AcDbVertex
100
AcDbPolygonMeshVertex
 10
-1.255784
 20
2.25874
 30
2.01
 70
    64
  0
VERTEX
  5
3463
100
AcDbEntity
  8
0
100
AcDbVertex
100
AcDbPolygonMeshVertex
 10
-1.380484
 20
1.895353
 30
2.01
 70
    64
  0
VERTEX
  5
3464
100
AcDbEntity
  8
0
100
AcDbVertex
100
AcDbPolygonMeshVertex
 10
-1.380484
 20
1.895353
 30
2.01
 70
    64
  0
VERTEX
  5
3465
100
AcDbEntity
  8
0
100
AcDbVertex
100
AcDbPolygonMeshVertex
 10
-1.127186
 20
2.056101
 30
2.01
 70
    64
  0
SEQEND
  5
3466
100
AcDbEntity
  8
0
  0
POLYLINE
  5
3467
100
AcDbEntity
  8
0
100
AcDbPolygonMesh
 66
     1
 10
0.0
 20
0.0
 30
0.0
 70
    16
 71
     6
 72
     3
  0
VERTEX
  5
3468
100
AcDbEntity
  8
0
100
AcDbVertex
100
AcDbPolygonMeshVertex
 10
-1.395133
 20
2.175432
 30
2.01
 70
    64
  0
VERTEX
  5
3469
100
AcDbEntity
  8
0
100
AcDbVertex
100
AcDbPolygonMeshVertex
 10
-1.395133
 20
2.175432
 30
0.705
 70
    64
  0
VERTEX
  5
346A
100
AcDbEntity
  8
0
100
AcDbVertex
100
AcDbPolygonMeshVertex
 10
-1.395133
 20
2.175432
 30
0.705
 70
    64
  0
VERTEX
  5
346B
100
AcDbEntity
  8
0
100
AcDbVertex
100
AcDbPolygonMeshVertex
 10
-1.254065
 20
1.981268
 30
2.01
 70
    64
  0
VERTEX
  5
346C
100
AcDbEntity
  8
0
100
AcDbVertex
100
AcDbPolygonMeshVertex
 10
-1.254065
 20
1.981268
 30
0.705
 70
    64
  0
VERTEX
  5
346D
100
AcDbEntity
  8
0
100
AcDbVertex
100
AcDbPolygonMeshVertex
 10
-1.254065
 20
1.981268
 30
0.705
 70
    64
  0
VERTEX
  5
346E
100
AcDbEntity
  8
0
100
AcDbVertex
100
AcDbPolygonMeshVertex
 10
-1.49677
 20
1.804932
 30
2.01
 70
    64
  0
VERTEX
  5
346F
100
AcDbEntity
  8
0
100
AcDbVertex
100
AcDbPolygonMeshVertex
 10
-1.49677
 20
1.804932
 30
0.705
 70
    64
  0
VERTEX
  5
3470
100
AcDbEntity
  8
0
100
AcDbVertex
100
AcDbPolygonMeshVertex
 10
-1.254065
 20
1.981268
 30
0.705
 70
    64
  0
VERTEX
  5
3471
100
AcDbEntity
  8
0
100
AcDbVertex
100
AcDbPolygonMeshVertex
 10
-1.637839
 20
1.999096
 30
2.01
 70
    64
  0
VERTEX
  5
3472
100
AcDbEntity
  8
0
100
AcDbVertex
100
AcDbPolygonMeshVertex
 10
-1.637839
 20
1.999096
 30
0.705
 70
    64
  0
VERTEX
  5
3473
100
AcDbEntity
  8
0
100
AcDbVertex
100
AcDbPolygonMeshVertex
 10
-1.395133
 20
2.175432
 30
0.705
 70
    64
  0
VERTEX
  5
3474
100
AcDbEntity
  8
0
100
AcDbVertex
100
AcDbPolygonMeshVertex
 10
-1.637839
 20
1.999096
 30
2.01
 70
    64
  0
VERTEX
  5
3475
100
AcDbEntity
  8
0
100
AcDbVertex
100
AcDbPolygonMeshVertex
 10
-1.637839
 20
1.999096
 30
2.01
 70
    64
  0
VERTEX
  5
3476
100
AcDbEntity
  8
0
100
AcDbVertex
100
AcDbPolygonMeshVertex
 10
-1.395133
 20
2.175432
 30
2.01
 70
    64
  0
VERTEX
  5
3477
100
AcDbEntity
  8
0
100
AcDbVertex
100
AcDbPolygonMeshVertex
 10
-1.49677
 20
1.804932
 30
2.01
 70
    64
  0
VERTEX
  5
3478
100
AcDbEntity
  8
0
100
AcDbVertex
100
AcDbPolygonMeshVertex
 10
-1.49677
 20
1.804932
 30
2.01
 70
    64
  0
VERTEX
  5
3479
100
AcDbEntity
  8
0
100
AcDbVertex
100
AcDbPolygonMeshVertex
 10
-1.254065
 20
1.981268
 30
2.01
 70
    64
  0
SEQEND
  5
347A
100
AcDbEntity
  8
0
  0
POLYLINE
  5
347B
100
AcDbEntity
  8
0
100
AcDbPolygonMesh
 66
     1
 10
0.0
 20
0.0
 30
0.0
 70
    16
 71
     6
 72
     3
  0
VERTEX
  5
347C
100
AcDbEntity
  8
0
100
AcDbVertex
100
AcDbPolygonMeshVertex
 10
-1.528977
 20
2.083538
 30
2.01
 70
    64
  0
VERTEX
  5
347D
100
AcDbEntity
  8
0
100
AcDbVertex
100
AcDbPolygonMeshVertex
 10
-1.528977
 20
2.083538
 30
0.705
 70
    64
  0
VERTEX
  5
347E
100
AcDbEntity
  8
0
100
AcDbVertex
100
AcDbPolygonMeshVertex
 10
-1.528977
 20
2.083538
 30
0.705
 70
    64
  0
VERTEX
  5
347F
100
AcDbEntity
  8
0
100
AcDbVertex
100
AcDbPolygonMeshVertex
 10
-1.375995
 20
1.898615
 30
2.01
 70
    64
  0
VERTEX
  5
3480
100
AcDbEntity
  8
0
100
AcDbVertex
100
AcDbPolygonMeshVertex
 10
-1.375995
 20
1.898615
 30
0.705
 70
    64
  0
VERTEX
  5
3481
100
AcDbEntity
  8
0
100
AcDbVertex
100
AcDbPolygonMeshVertex
 10
-1.375995
 20
1.898615
 30
0.705
 70
    64
  0
VERTEX
  5
3482
100
AcDbEntity
  8
0
100
AcDbVertex
100
AcDbPolygonMeshVertex
 10
-1.607149
 20
1.707387
 30
2.01
 70
    64
  0
VERTEX
  5
3483
100
AcDbEntity
  8
0
100
AcDbVertex
100
AcDbPolygonMeshVertex
 10
-1.607149
 20
1.707387
 30
0.705
 70
    64
  0
VERTEX
  5
3484
100
AcDbEntity
  8
0
100
AcDbVertex
100
AcDbPolygonMeshVertex
 10
-1.375995
 20
1.898615
 30
0.705
 70
    64
  0
VERTEX
  5
3485
100
AcDbEntity
  8
0
100
AcDbVertex
100
AcDbPolygonMeshVertex
 10
-1.760131
 20
1.892311
 30
2.01
 70
    64
  0
VERTEX
  5
3486
100
AcDbEntity
  8
0
100
AcDbVertex
100
AcDbPolygonMeshVertex
 10
-1.760131
 20
1.892311
 30
0.705
 70
    64
  0
VERTEX
  5
3487
100
AcDbEntity
  8
0
100
AcDbVertex
100
AcDbPolygonMeshVertex
 10
-1.528977
 20
2.083538
 30
0.705
 70
    64
  0
VERTEX
  5
3488
100
AcDbEntity
  8
0
100
AcDbVertex
100
AcDbPolygonMeshVertex
 10
-1.760131
 20
1.892311
 30
2.01
 70
    64
  0
VERTEX
  5
3489
100
AcDbEntity
  8
0
100
AcDbVertex
100
AcDbPolygonMeshVertex
 10
-1.760131
 20
1.892311
 30
2.01
 70
    64
  0
VERTEX
  5
348A
100
AcDbEntity
  8
0
100
AcDbVertex
100
AcDbPolygonMeshVertex
 10
-1.528977
 20
2.083538
 30
2.01
 70
    64
  0
VERTEX
  5
348B
100
AcDbEntity
  8
0
100
AcDbVertex
100
AcDbPolygonMeshVertex
 10
-1.607149
 20
1.707387
 30
2.01
 70
    64
  0
VERTEX
  5
348C
100
AcDbEntity
  8
0
100
AcDbVertex
100
AcDbPolygonMeshVertex
 10
-1.607149
 20
1.707387
 30
2.01
 70
    64
  0
VERTEX
  5
348D
100
AcDbEntity
  8
0
100
AcDbVertex
100
AcDbPolygonMeshVertex
 10
-1.375995
 20
1.898615
 30
2.01
 70
    64
  0
SEQEND
  5
348E
100
AcDbEntity
  8
0
  0
POLYLINE
  5
348F
100
AcDbEntity
  8
0
100
AcDbPolygonMesh
 66
     1
 10
0.0
 20
0.0
 30
0.0
 70
    16
 71
     6
 72
     3
  0
VERTEX
  5
3490
100
AcDbEntity
  8
0
100
AcDbVertex
100
AcDbPolygonMeshVertex
 10
-1.656786
 20
1.983421
 30
2.01
 70
    64
  0
VERTEX
  5
3491
100
AcDbEntity
  8
0
100
AcDbVertex
100
AcDbPolygonMeshVertex
 10
-1.656786
 20
1.983421
 30
0.705
 70
    64
  0
VERTEX
  5
3492
100
AcDbEntity
  8
0
100
AcDbVertex
100
AcDbPolygonMeshVertex
 10
-1.656786
 20
1.983421
 30
0.705
 70
    64
  0
VERTEX
  5
3493
100
AcDbEntity
  8
0
100
AcDbVertex
100
AcDbPolygonMeshVertex
 10
-1.492495
 20
1.808469
 30
2.01
 70
    64
  0
VERTEX
  5
3494
100
AcDbEntity
  8
0
100
AcDbVertex
100
AcDbPolygonMeshVertex
 10
-1.492495
 20
1.808469
 30
0.705
 70
    64
  0
VERTEX
  5
3495
100
AcDbEntity
  8
0
100
AcDbVertex
100
AcDbPolygonMeshVertex
 10
-1.492495
 20
1.808469
 30
0.705
 70
    64
  0
VERTEX
  5
3496
100
AcDbEntity
  8
0
100
AcDbVertex
100
AcDbPolygonMeshVertex
 10
-1.711186
 20
1.603105
 30
2.01
 70
    64
  0
VERTEX
  5
3497
100
AcDbEntity
  8
0
100
AcDbVertex
100
AcDbPolygonMeshVertex
 10
-1.711186
 20
1.603105
 30
0.705
 70
    64
  0
VERTEX
  5
3498
100
AcDbEntity
  8
0
100
AcDbVertex
100
AcDbPolygonMeshVertex
 10
-1.492495
 20
1.808469
 30
0.705
 70
    64
  0
VERTEX
  5
3499
100
AcDbEntity
  8
0
100
AcDbVertex
100
AcDbPolygonMeshVertex
 10
-1.875477
 20
1.778057
 30
2.01
 70
    64
  0
VERTEX
  5
349A
100
AcDbEntity
  8
0
100
AcDbVertex
100
AcDbPolygonMeshVertex
 10
-1.875477
 20
1.778057
 30
0.705
 70
    64
  0
VERTEX
  5
349B
100
AcDbEntity
  8
0
100
AcDbVertex
100
AcDbPolygonMeshVertex
 10
-1.656786
 20
1.983421
 30
0.705
 70
    64
  0
VERTEX
  5
349C
100
AcDbEntity
  8
0
100
AcDbVertex
100
AcDbPolygonMeshVertex
 10
-1.875477
 20
1.778057
 30
2.01
 70
    64
  0
VERTEX
  5
349D
100
AcDbEntity
  8
0
100
AcDbVertex
100
AcDbPolygonMeshVertex
 10
-1.875477
 20
1.778057
 30
2.01
 70
    64
  0
VERTEX
  5
349E
100
AcDbEntity
  8
0
100
AcDbVertex
100
AcDbPolygonMeshVertex
 10
-1.656786
 20
1.983421
 30
2.01
 70
    64
  0
VERTEX
  5
349F
100
AcDbEntity
  8
0
100
AcDbVertex
100
AcDbPolygonMeshVertex
 10
-1.711186
 20
1.603105
 30
2.01
 70
    64
  0
VERTEX
  5
34A0
100
AcDbEntity
  8
0
100
AcDbVertex
100
AcDbPolygonMeshVertex
 10
-1.711186
 20
1.603105
 30
2.01
 70
    64
  0
VERTEX
  5
34A1
100
AcDbEntity
  8
0
100
AcDbVertex
100
AcDbPolygonMeshVertex
 10
-1.492495
 20
1.808469
 30
2.01
 70
    64
  0
SEQEND
  5
34A2
100
AcDbEntity
  8
0
  0
POLYLINE
  5
34A3
100
AcDbEntity
  8
0
100
AcDbPolygonMesh
 66
     1
 10
0.0
 20
0.0
 30
0.0
 70
    16
 71
     6
 72
     3
  0
VERTEX
  5
34A4
100
AcDbEntity
  8
0
100
AcDbVertex
100
AcDbPolygonMeshVertex
 10
-1.778057
 20
1.875477
 30
2.01
 70
    64
  0
VERTEX
  5
34A5
100
AcDbEntity
  8
0
100
AcDbVertex
100
AcDbPolygonMeshVertex
 10
-1.778057
 20
1.875477
 30
0.705
 70
    64
  0
VERTEX
  5
34A6
100
AcDbEntity
  8
0
100
AcDbVertex
100
AcDbPolygonMeshVertex
 10
-1.778057
 20
1.875477
 30
0.705
 70
    64
  0
VERTEX
  5
34A7
100
AcDbEntity
  8
0
100
AcDbVertex
100
AcDbPolygonMeshVertex
 10
-1.603105
 20
1.711186
 30
2.01
 70
    64
  0
VERTEX
  5
34A8
100
AcDbEntity
  8
0
100
AcDbVertex
100
AcDbPolygonMeshVertex
 10
-1.603105
 20
1.711186
 30
0.705
 70
    64
  0
VERTEX
  5
34A9
100
AcDbEntity
  8
0
100
AcDbVertex
100
AcDbPolygonMeshVertex
 10
-1.603105
 20
1.711186
 30
0.705
 70
    64
  0
VERTEX
  5
34AA
100
AcDbEntity
  8
0
100
AcDbVertex
100
AcDbPolygonMeshVertex
 10
-1.808469
 20
1.492495
 30
2.01
 70
    64
  0
VERTEX
  5
34AB
100
AcDbEntity
  8
0
100
AcDbVertex
100
AcDbPolygonMeshVertex
 10
-1.808469
 20
1.492495
 30
0.705
 70
    64
  0
VERTEX
  5
34AC
100
AcDbEntity
  8
0
100
AcDbVertex
100
AcDbPolygonMeshVertex
 10
-1.603105
 20
1.711186
 30
0.705
 70
    64
  0
VERTEX
  5
34AD
100
AcDbEntity
  8
0
100
AcDbVertex
100
AcDbPolygonMeshVertex
 10
-1.983421
 20
1.656786
 30
2.01
 70
    64
  0
VERTEX
  5
34AE
100
AcDbEntity
  8
0
100
AcDbVertex
100
AcDbPolygonMeshVertex
 10
-1.983421
 20
1.656786
 30
0.705
 70
    64
  0
VERTEX
  5
34AF
100
AcDbEntity
  8
0
100
AcDbVertex
100
AcDbPolygonMeshVertex
 10
-1.778057
 20
1.875477
 30
0.705
 70
    64
  0
VERTEX
  5
34B0
100
AcDbEntity
  8
0
100
AcDbVertex
100
AcDbPolygonMeshVertex
 10
-1.983421
 20
1.656786
 30
2.01
 70
    64
  0
VERTEX
  5
34B1
100
AcDbEntity
  8
0
100
AcDbVertex
100
AcDbPolygonMeshVertex
 10
-1.983421
 20
1.656786
 30
2.01
 70
    64
  0
VERTEX
  5
34B2
100
AcDbEntity
  8
0
100
AcDbVertex
100
AcDbPolygonMeshVertex
 10
-1.778057
 20
1.875477
 30
2.01
 70
    64
  0
VERTEX
  5
34B3
100
AcDbEntity
  8
0
100
AcDbVertex
100
AcDbPolygonMeshVertex
 10
-1.808469
 20
1.492495
 30
2.01
 70
    64
  0
VERTEX
  5
34B4
100
AcDbEntity
  8
0
100
AcDbVertex
100
AcDbPolygonMeshVertex
 10
-1.808469
 20
1.492495
 30
2.01
 70
    64
  0
VERTEX
  5
34B5
100
AcDbEntity
  8
0
100
AcDbVertex
100
AcDbPolygonMeshVertex
 10
-1.603105
 20
1.711186
 30
2.01
 70
    64
  0
SEQEND
  5
34B6
100
AcDbEntity
  8
0
  0
POLYLINE
  5
34B7
100
AcDbEntity
  8
0
100
AcDbPolygonMesh
 66
     1
 10
0.0
 20
0.0
 30
0.0
 70
    16
 71
     6
 72
     3
  0
VERTEX
  5
34B8
100
AcDbEntity
  8
0
100
AcDbVertex
100
AcDbPolygonMeshVertex
 10
-1.892311
 20
1.760131
 30
2.01
 70
    64
  0
VERTEX
  5
34B9
100
AcDbEntity
  8
0
100
AcDbVertex
100
AcDbPolygonMeshVertex
 10
-1.892311
 20
1.760131
 30
0.705
 70
    64
  0
VERTEX
  5
34BA
100
AcDbEntity
  8
0
100
AcDbVertex
100
AcDbPolygonMeshVertex
 10
-1.892311
 20
1.760131
 30
0.705
 70
    64
  0
VERTEX
  5
34BB
100
AcDbEntity
  8
0
100
AcDbVertex
100
AcDbPolygonMeshVertex
 10
-1.707387
 20
1.607149
 30
2.01
 70
    64
  0
VERTEX
  5
34BC
100
AcDbEntity
  8
0
100
AcDbVertex
100
AcDbPolygonMeshVertex
 10
-1.707387
 20
1.607149
 30
0.705
 70
    64
  0
VERTEX
  5
34BD
100
AcDbEntity
  8
0
100
AcDbVertex
100
AcDbPolygonMeshVertex
 10
-1.707387
 20
1.607149
 30
0.705
 70
    64
  0
VERTEX
  5
34BE
100
AcDbEntity
  8
0
100
AcDbVertex
100
AcDbPolygonMeshVertex
 10
-1.898615
 20
1.375995
 30
2.01
 70
    64
  0
VERTEX
  5
34BF
100
AcDbEntity
  8
0
100
AcDbVertex
100
AcDbPolygonMeshVertex
 10
-1.898615
 20
1.375995
 30
0.705
 70
    64
  0
VERTEX
  5
34C0
100
AcDbEntity
  8
0
100
AcDbVertex
100
AcDbPolygonMeshVertex
 10
-1.707387
 20
1.607149
 30
0.705
 70
    64
  0
VERTEX
  5
34C1
100
AcDbEntity
  8
0
100
AcDbVertex
100
AcDbPolygonMeshVertex
 10
-2.083538
 20
1.528977
 30
2.01
 70
    64
  0
VERTEX
  5
34C2
100
AcDbEntity
  8
0
100
AcDbVertex
100
AcDbPolygonMeshVertex
 10
-2.083538
 20
1.528977
 30
0.705
 70
    64
  0
VERTEX
  5
34C3
100
AcDbEntity
  8
0
100
AcDbVertex
100
AcDbPolygonMeshVertex
 10
-1.892311
 20
1.760131
 30
0.705
 70
    64
  0
VERTEX
  5
34C4
100
AcDbEntity
  8
0
100
AcDbVertex
100
AcDbPolygonMeshVertex
 10
-2.083538
 20
1.528977
 30
2.01
 70
    64
  0
VERTEX
  5
34C5
100
AcDbEntity
  8
0
100
AcDbVertex
100
AcDbPolygonMeshVertex
 10
-2.083538
 20
1.528977
 30
2.01
 70
    64
  0
VERTEX
  5
34C6
100
AcDbEntity
  8
0
100
AcDbVertex
100
AcDbPolygonMeshVertex
 10
-1.892311
 20
1.760131
 30
2.01
 70
    64
  0
VERTEX
  5
34C7
100
AcDbEntity
  8
0
100
AcDbVertex
100
AcDbPolygonMeshVertex
 10
-1.898615
 20
1.375995
 30
2.01
 70
    64
  0
VERTEX
  5
34C8
100
AcDbEntity
  8
0
100
AcDbVertex
100
AcDbPolygonMeshVertex
 10
-1.898615
 20
1.375995
 30
2.01
 70
    64
  0
VERTEX
  5
34C9
100
AcDbEntity
  8
0
100
AcDbVertex
100
AcDbPolygonMeshVertex
 10
-1.707387
 20
1.607149
 30
2.01
 70
    64
  0
SEQEND
  5
34CA
100
AcDbEntity
  8
0
  0
POLYLINE
  5
34CB
100
AcDbEntity
  8
0
100
AcDbPolygonMesh
 66
     1
 10
0.0
 20
0.0
 30
0.0
 70
    16
 71
     6
 72
     3
  0
VERTEX
  5
34CC
100
AcDbEntity
  8
0
100
AcDbVertex
100
AcDbPolygonMeshVertex
 10
-1.999096
 20
1.637839
 30
2.01
 70
    64
  0
VERTEX
  5
34CD
100
AcDbEntity
  8
0
100
AcDbVertex
100
AcDbPolygonMeshVertex
 10
-1.999096
 20
1.637839
 30
0.705
 70
    64
  0
VERTEX
  5
34CE
100
AcDbEntity
  8
0
100
AcDbVertex
100
AcDbPolygonMeshVertex
 10
-1.999096
 20
1.637839
 30
0.705
 70
    64
  0
VERTEX
  5
34CF
100
AcDbEntity
  8
0
100
AcDbVertex
100
AcDbPolygonMeshVertex
 10
-1.804932
 20
1.49677
 30
2.01
 70
    64
  0
VERTEX
  5
34D0
100
AcDbEntity
  8
0
100
AcDbVertex
100
AcDbPolygonMeshVertex
 10
-1.804932
 20
1.49677
 30
0.705
 70
    64
  0
VERTEX
  5
34D1
100
AcDbEntity
  8
0
100
AcDbVertex
100
AcDbPolygonMeshVertex
 10
-1.804932
 20
1.49677
 30
0.705
 70
    64
  0
VERTEX
  5
34D2
100
AcDbEntity
  8
0
100
AcDbVertex
100
AcDbPolygonMeshVertex
 10
-1.981268
 20
1.254065
 30
2.01
 70
    64
  0
VERTEX
  5
34D3
100
AcDbEntity
  8
0
100
AcDbVertex
100
AcDbPolygonMeshVertex
 10
-1.981268
 20
1.254065
 30
0.705
 70
    64
  0
VERTEX
  5
34D4
100
AcDbEntity
  8
0
100
AcDbVertex
100
AcDbPolygonMeshVertex
 10
-1.804932
 20
1.49677
 30
0.705
 70
    64
  0
VERTEX
  5
34D5
100
AcDbEntity
  8
0
100
AcDbVertex
100
AcDbPolygonMeshVertex
 10
-2.175432
 20
1.395133
 30
2.01
 70
    64
  0
VERTEX
  5
34D6
100
AcDbEntity
  8
0
100
AcDbVertex
100
AcDbPolygonMeshVertex
 10
-2.175432
 20
1.395133
 30
0.705
 70
    64
  0
VERTEX
  5
34D7
100
AcDbEntity
  8
0
100
AcDbVertex
100
AcDbPolygonMeshVertex
 10
-1.999096
 20
1.637839
 30
0.705
 70
    64
  0
VERTEX
  5
34D8
100
AcDbEntity
  8
0
100
AcDbVertex
100
AcDbPolygonMeshVertex
 10
-2.175432
 20
1.395133
 30
2.01
 70
    64
  0
VERTEX
  5
34D9
100
AcDbEntity
  8
0
100
AcDbVertex
100
AcDbPolygonMeshVertex
 10
-2.175432
 20
1.395133
 30
2.01
 70
    64
  0
VERTEX
  5
34DA
100
AcDbEntity
  8
0
100
AcDbVertex
100
AcDbPolygonMeshVertex
 10
-1.999096
 20
1.637839
 30
2.01
 70
    64
  0
VERTEX
  5
34DB
100
AcDbEntity
  8
0
100
AcDbVertex
100
AcDbPolygonMeshVertex
 10
-1.981268
 20
1.254065
 30
2.01
 70
    64
  0
VERTEX
  5
34DC
100
AcDbEntity
  8
0
100
AcDbVertex
100
AcDbPolygonMeshVertex
 10
-1.981268
 20
1.254065
 30
2.01
 70
    64
  0
VERTEX
  5
34DD
100
AcDbEntity
  8
0
100
AcDbVertex
100
AcDbPolygonMeshVertex
 10
-1.804932
 20
1.49677
 30
2.01
 70
    64
  0
SEQEND
  5
34DE
100
AcDbEntity
  8
0
  0
POLYLINE
  5
34DF
100
AcDbEntity
  8
0
100
AcDbPolygonMesh
 66
     1
 10
0.0
 20
0.0
 30
0.0
 70
    16
 71
     6
 72
     3
  0
VERTEX
  5
34E0
100
AcDbEntity
  8
0
100
AcDbVertex
100
AcDbPolygonMeshVertex
 10
-2.097992
 20
1.509082
 30
2.01
 70
    64
  0
VERTEX
  5
34E1
100
AcDbEntity
  8
0
100
AcDbVertex
100
AcDbPolygonMeshVertex
 10
-2.097992
 20
1.509082
 30
0.705
 70
    64
  0
VERTEX
  5
34E2
100
AcDbEntity
  8
0
100
AcDbVertex
100
AcDbPolygonMeshVertex
 10
-2.097992
 20
1.509082
 30
0.705
 70
    64
  0
VERTEX
  5
34E3
100
AcDbEntity
  8
0
100
AcDbVertex
100
AcDbPolygonMeshVertex
 10
-1.895353
 20
1.380484
 30
2.01
 70
    64
  0
VERTEX
  5
34E4
100
AcDbEntity
  8
0
100
AcDbVertex
100
AcDbPolygonMeshVertex
 10
-1.895353
 20
1.380484
 30
0.705
 70
    64
  0
VERTEX
  5
34E5
100
AcDbEntity
  8
0
100
AcDbVertex
100
AcDbPolygonMeshVertex
 10
-1.895353
 20
1.380484
 30
0.705
 70
    64
  0
VERTEX
  5
34E6
100
AcDbEntity
  8
0
100
AcDbVertex
100
AcDbPolygonMeshVertex
 10
-2.056101
 20
1.127186
 30
2.01
 70
    64
  0
VERTEX
  5
34E7
100
AcDbEntity
  8
0
100
AcDbVertex
100
AcDbPolygonMeshVertex
 10
-2.056101
 20
1.127186
 30
0.705
 70
    64
  0
VERTEX
  5
34E8
100
AcDbEntity
  8
0
100
AcDbVertex
100
AcDbPolygonMeshVertex
 10
-1.895353
 20
1.380484
 30
0.705
 70
    64
  0
VERTEX
  5
34E9
100
AcDbEntity
  8
0
100
AcDbVertex
100
AcDbPolygonMeshVertex
 10
-2.25874
 20
1.255784
 30
2.01
 70
    64
  0
VERTEX
  5
34EA
100
AcDbEntity
  8
0
100
AcDbVertex
100
AcDbPolygonMeshVertex
 10
-2.25874
 20
1.255784
 30
0.705
 70
    64
  0
VERTEX
  5
34EB
100
AcDbEntity
  8
0
100
AcDbVertex
100
AcDbPolygonMeshVertex
 10
-2.097992
 20
1.509082
 30
0.705
 70
    64
  0
VERTEX
  5
34EC
100
AcDbEntity
  8
0
100
AcDbVertex
100
AcDbPolygonMeshVertex
 10
-2.25874
 20
1.255784
 30
2.01
 70
    64
  0
VERTEX
  5
34ED
100
AcDbEntity
  8
0
100
AcDbVertex
100
AcDbPolygonMeshVertex
 10
-2.25874
 20
1.255784
 30
2.01
 70
    64
  0
VERTEX
  5
34EE
100
AcDbEntity
  8
0
100
AcDbVertex
100
AcDbPolygonMeshVertex
 10
-2.097992
 20
1.509082
 30
2.01
 70
    64
  0
VERTEX
  5
34EF
100
AcDbEntity
  8
0
100
AcDbVertex
100
AcDbPolygonMeshVertex
 10
-2.056101
 20
1.127186
 30
2.01
 70
    64
  0
VERTEX
  5
34F0
100
AcDbEntity
  8
0
100
AcDbVertex
100
AcDbPolygonMeshVertex
 10
-2.056101
 20
1.127186
 30
2.01
 70
    64
  0
VERTEX
  5
34F1
100
AcDbEntity
  8
0
100
AcDbVertex
100
AcDbPolygonMeshVertex
 10
-1.895353
 20
1.380484
 30
2.01
 70
    64
  0
SEQEND
  5
34F2
100
AcDbEntity
  8
0
  0
POLYLINE
  5
34F3
100
AcDbEntity
  8
0
100
AcDbPolygonMesh
 66
     1
 10
0.0
 20
0.0
 30
0.0
 70
    16
 71
     6
 72
     3
  0
VERTEX
  5
34F4
100
AcDbEntity
  8
0
100
AcDbVertex
100
AcDbPolygonMeshVertex
 10
-2.188608
 20
1.37437
 30
2.01
 70
    64
  0
VERTEX
  5
34F5
100
AcDbEntity
  8
0
100
AcDbVertex
100
AcDbPolygonMeshVertex
 10
-2.188608
 20
1.37437
 30
0.705
 70
    64
  0
VERTEX
  5
34F6
100
AcDbEntity
  8
0
100
AcDbVertex
100
AcDbPolygonMeshVertex
 10
-2.188608
 20
1.37437
 30
0.705
 70
    64
  0
VERTEX
  5
34F7
100
AcDbEntity
  8
0
100
AcDbVertex
100
AcDbPolygonMeshVertex
 10
-1.978295
 20
1.25875
 30
2.01
 70
    64
  0
VERTEX
  5
34F8
100
AcDbEntity
  8
0
100
AcDbVertex
100
AcDbPolygonMeshVertex
 10
-1.978295
 20
1.25875
 30
0.705
 70
    64
  0
VERTEX
  5
34F9
100
AcDbEntity
  8
0
100
AcDbVertex
100
AcDbPolygonMeshVertex
 10
-1.978295
 20
1.25875
 30
0.705
 70
    64
  0
VERTEX
  5
34FA
100
AcDbEntity
  8
0
100
AcDbVertex
100
AcDbPolygonMeshVertex
 10
-2.122821
 20
0.995858
 30
2.01
 70
    64
  0
VERTEX
  5
34FB
100
AcDbEntity
  8
0
100
AcDbVertex
100
AcDbPolygonMeshVertex
 10
-2.122821
 20
0.995858
 30
0.705
 70
    64
  0
VERTEX
  5
34FC
100
AcDbEntity
  8
0
100
AcDbVertex
100
AcDbPolygonMeshVertex
 10
-1.978295
 20
1.25875
 30
0.705
 70
    64
  0
VERTEX
  5
34FD
100
AcDbEntity
  8
0
100
AcDbVertex
100
AcDbPolygonMeshVertex
 10
-2.333134
 20
1.111478
 30
2.01
 70
    64
  0
VERTEX
  5
34FE
100
AcDbEntity
  8
0
100
AcDbVertex
100
AcDbPolygonMeshVertex
 10
-2.333134
 20
1.111478
 30
0.705
 70
    64
  0
VERTEX
  5
34FF
100
AcDbEntity
  8
0
100
AcDbVertex
100
AcDbPolygonMeshVertex
 10
-2.188608
 20
1.37437
 30
0.705
 70
    64
  0
VERTEX
  5
3500
100
AcDbEntity
  8
0
100
AcDbVertex
100
AcDbPolygonMeshVertex
 10
-2.333134
 20
1.111478
 30
2.01
 70
    64
  0
VERTEX
  5
3501
100
AcDbEntity
  8
0
100
AcDbVertex
100
AcDbPolygonMeshVertex
 10
-2.333134
 20
1.111478
 30
2.01
 70
    64
  0
VERTEX
  5
3502
100
AcDbEntity
  8
0
100
AcDbVertex
100
AcDbPolygonMeshVertex
 10
-2.188608
 20
1.37437
 30
2.01
 70
    64
  0
VERTEX
  5
3503
100
AcDbEntity
  8
0
100
AcDbVertex
100
AcDbPolygonMeshVertex
 10
-2.122821
 20
0.995858
 30
2.01
 70
    64
  0
VERTEX
  5
3504
100
AcDbEntity
  8
0
100
AcDbVertex
100
AcDbPolygonMeshVertex
 10
-2.122821
 20
0.995858
 30
2.01
 70
    64
  0
VERTEX
  5
3505
100
AcDbEntity
  8
0
100
AcDbVertex
100
AcDbPolygonMeshVertex
 10
-1.978295
 20
1.25875
 30
2.01
 70
    64
  0
SEQEND
  5
3506
100
AcDbEntity
  8
0
  0
POLYLINE
  5
3507
100
AcDbEntity
  8
0
100
AcDbPolygonMesh
 66
     1
 10
0.0
 20
0.0
 30
0.0
 70
    16
 71
     6
 72
     3
  0
VERTEX
  5
3508
100
AcDbEntity
  8
0
100
AcDbVertex
100
AcDbPolygonMeshVertex
 10
-2.270587
 20
1.234235
 30
2.01
 70
    64
  0
VERTEX
  5
3509
100
AcDbEntity
  8
0
100
AcDbVertex
100
AcDbPolygonMeshVertex
 10
-2.270587
 20
1.234235
 30
0.705
 70
    64
  0
VERTEX
  5
350A
100
AcDbEntity
  8
0
100
AcDbVertex
100
AcDbPolygonMeshVertex
 10
-2.270587
 20
1.234235
 30
0.705
 70
    64
  0
VERTEX
  5
350B
100
AcDbEntity
  8
0
100
AcDbVertex
100
AcDbPolygonMeshVertex
 10
-2.053428
 20
1.132048
 30
2.01
 70
    64
  0
VERTEX
  5
350C
100
AcDbEntity
  8
0
100
AcDbVertex
100
AcDbPolygonMeshVertex
 10
-2.053428
 20
1.132048
 30
0.705
 70
    64
  0
VERTEX
  5
350D
100
AcDbEntity
  8
0
100
AcDbVertex
100
AcDbPolygonMeshVertex
 10
-2.053428
 20
1.132048
 30
0.705
 70
    64
  0
VERTEX
  5
350E
100
AcDbEntity
  8
0
100
AcDbVertex
100
AcDbPolygonMeshVertex
 10
-2.181162
 20
0.860599
 30
2.01
 70
    64
  0
VERTEX
  5
350F
100
AcDbEntity
  8
0
100
AcDbVertex
100
AcDbPolygonMeshVertex
 10
-2.181162
 20
0.860599
 30
0.705
 70
    64
  0
VERTEX
  5
3510
100
AcDbEntity
  8
0
100
AcDbVertex
100
AcDbPolygonMeshVertex
 10
-2.053428
 20
1.132048
 30
0.705
 70
    64
  0
VERTEX
  5
3511
100
AcDbEntity
  8
0
100
AcDbVertex
100
AcDbPolygonMeshVertex
 10
-2.398321
 20
0.962787
 30
2.01
 70
    64
  0
VERTEX
  5
3512
100
AcDbEntity
  8
0
100
AcDbVertex
100
AcDbPolygonMeshVertex
 10
-2.398321
 20
0.962787
 30
0.705
 70
    64
  0
VERTEX
  5
3513
100
AcDbEntity
  8
0
100
AcDbVertex
100
AcDbPolygonMeshVertex
 10
-2.270587
 20
1.234235
 30
0.705
 70
    64
  0
VERTEX
  5
3514
100
AcDbEntity
  8
0
100
AcDbVertex
100
AcDbPolygonMeshVertex
 10
-2.398321
 20
0.962787
 30
2.01
 70
    64
  0
VERTEX
  5
3515
100
AcDbEntity
  8
0
100
AcDbVertex
100
AcDbPolygonMeshVertex
 10
-2.398321
 20
0.962787
 30
2.01
 70
    64
  0
VERTEX
  5
3516
100
AcDbEntity
  8
0
100
AcDbVertex
100
AcDbPolygonMeshVertex
 10
-2.270587
 20
1.234235
 30
2.01
 70
    64
  0
VERTEX
  5
3517
100
AcDbEntity
  8
0
100
AcDbVertex
100
AcDbPolygonMeshVertex
 10
-2.181162
 20
0.860599
 30
2.01
 70
    64
  0
VERTEX
  5
3518
100
AcDbEntity
  8
0
100
AcDbVertex
100
AcDbPolygonMeshVertex
 10
-2.181162
 20
0.860599
 30
2.01
 70
    64
  0
VERTEX
  5
3519
100
AcDbEntity
  8
0
100
AcDbVertex
100
AcDbPolygonMeshVertex
 10
-2.053428
 20
1.132048
 30
2.01
 70
    64
  0
SEQEND
  5
351A
100
AcDbEntity
  8
0
  0
POLYLINE
  5
351B
100
AcDbEntity
  8
0
100
AcDbPolygonMesh
 66
     1
 10
0.0
 20
0.0
 30
0.0
 70
    16
 71
     6
 72
     3
  0
VERTEX
  5
351C
100
AcDbEntity
  8
0
100
AcDbVertex
100
AcDbPolygonMeshVertex
 10
-2.343605
 20
1.089228
 30
2.01
 70
    64
  0
VERTEX
  5
351D
100
AcDbEntity
  8
0
100
AcDbVertex
100
AcDbPolygonMeshVertex
 10
-2.343605
 20
1.089228
 30
0.705
 70
    64
  0
VERTEX
  5
351E
100
AcDbEntity
  8
0
100
AcDbVertex
100
AcDbPolygonMeshVertex
 10
-2.343605
 20
1.089228
 30
0.705
 70
    64
  0
VERTEX
  5
351F
100
AcDbEntity
  8
0
100
AcDbVertex
100
AcDbPolygonMeshVertex
 10
-2.120458
 20
1.000878
 30
2.01
 70
    64
  0
VERTEX
  5
3520
100
AcDbEntity
  8
0
100
AcDbVertex
100
AcDbPolygonMeshVertex
 10
-2.120458
 20
1.000878
 30
0.705
 70
    64
  0
VERTEX
  5
3521
100
AcDbEntity
  8
0
100
AcDbVertex
100
AcDbPolygonMeshVertex
 10
-2.120458
 20
1.000878
 30
0.705
 70
    64
  0
VERTEX
  5
3522
100
AcDbEntity
  8
0
100
AcDbVertex
100
AcDbPolygonMeshVertex
 10
-2.230896
 20
0.721945
 30
2.01
 70
    64
  0
VERTEX
  5
3523
100
AcDbEntity
  8
0
100
AcDbVertex
100
AcDbPolygonMeshVertex
 10
-2.230896
 20
0.721945
 30
0.705
 70
    64
  0
VERTEX
  5
3524
100
AcDbEntity
  8
0
100
AcDbVertex
100
AcDbPolygonMeshVertex
 10
-2.120458
 20
1.000878
 30
0.705
 70
    64
  0
VERTEX
  5
3525
100
AcDbEntity
  8
0
100
AcDbVertex
100
AcDbPolygonMeshVertex
 10
-2.454042
 20
0.810295
 30
2.01
 70
    64
  0
VERTEX
  5
3526
100
AcDbEntity
  8
0
100
AcDbVertex
100
AcDbPolygonMeshVertex
 10
-2.454042
 20
0.810295
 30
0.705
 70
    64
  0
VERTEX
  5
3527
100
AcDbEntity
  8
0
100
AcDbVertex
100
AcDbPolygonMeshVertex
 10
-2.343605
 20
1.089228
 30
0.705
 70
    64
  0
VERTEX
  5
3528
100
AcDbEntity
  8
0
100
AcDbVertex
100
AcDbPolygonMeshVertex
 10
-2.454042
 20
0.810295
 30
2.01
 70
    64
  0
VERTEX
  5
3529
100
AcDbEntity
  8
0
100
AcDbVertex
100
AcDbPolygonMeshVertex
 10
-2.454042
 20
0.810295
 30
2.01
 70
    64
  0
VERTEX
  5
352A
100
AcDbEntity
  8
0
100
AcDbVertex
100
AcDbPolygonMeshVertex
 10
-2.343605
 20
1.089228
 30
2.01
 70
    64
  0
VERTEX
  5
352B
100
AcDbEntity
  8
0
100
AcDbVertex
100
AcDbPolygonMeshVertex
 10
-2.230896
 20
0.721945
 30
2.01
 70
    64
  0
VERTEX
  5
352C
100
AcDbEntity
  8
0
100
AcDbVertex
100
AcDbPolygonMeshVertex
 10
-2.230896
 20
0.721945
 30
2.01
 70
    64
  0
VERTEX
  5
352D
100
AcDbEntity
  8
0
100
AcDbVertex
100
AcDbPolygonMeshVertex
 10
-2.120458
 20
1.000878
 30
2.01
 70
    64
  0
SEQEND
  5
352E
100
AcDbEntity
  8
0
  0
POLYLINE
  5
352F
100
AcDbEntity
  8
0
100
AcDbPolygonMesh
 66
     1
 10
0.0
 20
0.0
 30
0.0
 70
    16
 71
     6
 72
     3
  0
VERTEX
  5
3530
100
AcDbEntity
  8
0
100
AcDbVertex
100
AcDbPolygonMeshVertex
 10
-2.407373
 20
0.939922
 30
2.01
 70
    64
  0
VERTEX
  5
3531
100
AcDbEntity
  8
0
100
AcDbVertex
100
AcDbPolygonMeshVertex
 10
-2.407373
 20
0.939922
 30
0.705
 70
    64
  0
VERTEX
  5
3532
100
AcDbEntity
  8
0
100
AcDbVertex
100
AcDbPolygonMeshVertex
 10
-2.407373
 20
0.939922
 30
0.705
 70
    64
  0
VERTEX
  5
3533
100
AcDbEntity
  8
0
100
AcDbVertex
100
AcDbPolygonMeshVertex
 10
-2.17912
 20
0.865758
 30
2.01
 70
    64
  0
VERTEX
  5
3534
100
AcDbEntity
  8
0
100
AcDbVertex
100
AcDbPolygonMeshVertex
 10
-2.17912
 20
0.865758
 30
0.705
 70
    64
  0
VERTEX
  5
3535
100
AcDbEntity
  8
0
100
AcDbVertex
100
AcDbPolygonMeshVertex
 10
-2.17912
 20
0.865758
 30
0.705
 70
    64
  0
VERTEX
  5
3536
100
AcDbEntity
  8
0
100
AcDbVertex
100
AcDbPolygonMeshVertex
 10
-2.271825
 20
0.580441
 30
2.01
 70
    64
  0
VERTEX
  5
3537
100
AcDbEntity
  8
0
100
AcDbVertex
100
AcDbPolygonMeshVertex
 10
-2.271825
 20
0.580441
 30
0.705
 70
    64
  0
VERTEX
  5
3538
100
AcDbEntity
  8
0
100
AcDbVertex
100
AcDbPolygonMeshVertex
 10
-2.17912
 20
0.865758
 30
0.705
 70
    64
  0
VERTEX
  5
3539
100
AcDbEntity
  8
0
100
AcDbVertex
100
AcDbPolygonMeshVertex
 10
-2.500078
 20
0.654605
 30
2.01
 70
    64
  0
VERTEX
  5
353A
100
AcDbEntity
  8
0
100
AcDbVertex
100
AcDbPolygonMeshVertex
 10
-2.500078
 20
0.654605
 30
0.705
 70
    64
  0
VERTEX
  5
353B
100
AcDbEntity
  8
0
100
AcDbVertex
100
AcDbPolygonMeshVertex
 10
-2.407373
 20
0.939922
 30
0.705
 70
    64
  0
VERTEX
  5
353C
100
AcDbEntity
  8
0
100
AcDbVertex
100
AcDbPolygonMeshVertex
 10
-2.500078
 20
0.654605
 30
2.01
 70
    64
  0
VERTEX
  5
353D
100
AcDbEntity
  8
0
100
AcDbVertex
100
AcDbPolygonMeshVertex
 10
-2.500078
 20
0.654605
 30
2.01
 70
    64
  0
VERTEX
  5
353E
100
AcDbEntity
  8
0
100
AcDbVertex
100
AcDbPolygonMeshVertex
 10
-2.407373
 20
0.939922
 30
2.01
 70
    64
  0
VERTEX
  5
353F
100
AcDbEntity
  8
0
100
AcDbVertex
100
AcDbPolygonMeshVertex
 10
-2.271825
 20
0.580441
 30
2.01
 70
    64
  0
VERTEX
  5
3540
100
AcDbEntity
  8
0
100
AcDbVertex
100
AcDbPolygonMeshVertex
 10
-2.271825
 20
0.580441
 30
2.01
 70
    64
  0
VERTEX
  5
3541
100
AcDbEntity
  8
0
100
AcDbVertex
100
AcDbPolygonMeshVertex
 10
-2.17912
 20
0.865758
 30
2.01
 70
    64
  0
SEQEND
  5
3542
100
AcDbEntity
  8
0
  0
POLYLINE
  5
3543
100
AcDbEntity
  8
0
100
AcDbPolygonMesh
 66
     1
 10
0.0
 20
0.0
 30
0.0
 70
    16
 71
     6
 72
     3
  0
VERTEX
  5
3544
100
AcDbEntity
  8
0
100
AcDbVertex
100
AcDbPolygonMeshVertex
 10
-2.461641
 20
0.786907
 30
2.01
 70
    64
  0
VERTEX
  5
3545
100
AcDbEntity
  8
0
100
AcDbVertex
100
AcDbPolygonMeshVertex
 10
-2.461641
 20
0.786907
 30
0.705
 70
    64
  0
VERTEX
  5
3546
100
AcDbEntity
  8
0
100
AcDbVertex
100
AcDbPolygonMeshVertex
 10
-2.461641
 20
0.786907
 30
0.705
 70
    64
  0
VERTEX
  5
3547
100
AcDbEntity
  8
0
100
AcDbVertex
100
AcDbPolygonMeshVertex
 10
-2.229181
 20
0.727222
 30
2.01
 70
    64
  0
VERTEX
  5
3548
100
AcDbEntity
  8
0
100
AcDbVertex
100
AcDbPolygonMeshVertex
 10
-2.229181
 20
0.727222
 30
0.705
 70
    64
  0
VERTEX
  5
3549
100
AcDbEntity
  8
0
100
AcDbVertex
100
AcDbPolygonMeshVertex
 10
-2.229181
 20
0.727222
 30
0.705
 70
    64
  0
VERTEX
  5
354A
100
AcDbEntity
  8
0
100
AcDbVertex
100
AcDbPolygonMeshVertex
 10
-2.303788
 20
0.436647
 30
2.01
 70
    64
  0
VERTEX
  5
354B
100
AcDbEntity
  8
0
100
AcDbVertex
100
AcDbPolygonMeshVertex
 10
-2.303788
 20
0.436647
 30
0.705
 70
    64
  0
VERTEX
  5
354C
100
AcDbEntity
  8
0
100
AcDbVertex
100
AcDbPolygonMeshVertex
 10
-2.229181
 20
0.727222
 30
0.705
 70
    64
  0
VERTEX
  5
354D
100
AcDbEntity
  8
0
100
AcDbVertex
100
AcDbPolygonMeshVertex
 10
-2.536248
 20
0.496332
 30
2.01
 70
    64
  0
VERTEX
  5
354E
100
AcDbEntity
  8
0
100
AcDbVertex
100
AcDbPolygonMeshVertex
 10
-2.536248
 20
0.496332
 30
0.705
 70
    64
  0
VERTEX
  5
354F
100
AcDbEntity
  8
0
100
AcDbVertex
100
AcDbPolygonMeshVertex
 10
-2.461641
 20
0.786907
 30
0.705
 70
    64
  0
VERTEX
  5
3550
100
AcDbEntity
  8
0
100
AcDbVertex
100
AcDbPolygonMeshVertex
 10
-2.536248
 20
0.496332
 30
2.01
 70
    64
  0
VERTEX
  5
3551
100
AcDbEntity
  8
0
100
AcDbVertex
100
AcDbPolygonMeshVertex
 10
-2.536248
 20
0.496332
 30
2.01
 70
    64
  0
VERTEX
  5
3552
100
AcDbEntity
  8
0
100
AcDbVertex
100
AcDbPolygonMeshVertex
 10
-2.461641
 20
0.786907
 30
2.01
 70
    64
  0
VERTEX
  5
3553
100
AcDbEntity
  8
0
100
AcDbVertex
100
AcDbPolygonMeshVertex
 10
-2.303788
 20
0.436647
 30
2.01
 70
    64
  0
VERTEX
  5
3554
100
AcDbEntity
  8
0
100
AcDbVertex
100
AcDbPolygonMeshVertex
 10
-2.303788
 20
0.436647
 30
2.01
 70
    64
  0
VERTEX
  5
3555
100
AcDbEntity
  8
0
100
AcDbVertex
100
AcDbPolygonMeshVertex
 10
-2.229181
 20
0.727222
 30
2.01
 70
    64
  0
SEQEND
  5
3556
100
AcDbEntity
  8
0
  0
POLYLINE
  5
3557
100
AcDbEntity
  8
0
100
AcDbPolygonMesh
 66
     1
 10
0.0
 20
0.0
 30
0.0
 70
    16
 71
     6
 72
     3
  0
VERTEX
  5
3558
100
AcDbEntity
  8
0
100
AcDbVertex
100
AcDbPolygonMeshVertex
 10
-2.506194
 20
0.630787
 30
2.01
 70
    64
  0
VERTEX
  5
3559
100
AcDbEntity
  8
0
100
AcDbVertex
100
AcDbPolygonMeshVertex
 10
-2.506194
 20
0.630787
 30
0.705
 70
    64
  0
VERTEX
  5
355A
100
AcDbEntity
  8
0
100
AcDbVertex
100
AcDbPolygonMeshVertex
 10
-2.506194
 20
0.630787
 30
0.705
 70
    64
  0
VERTEX
  5
355B
100
AcDbEntity
  8
0
100
AcDbVertex
100
AcDbPolygonMeshVertex
 10
-2.270445
 20
0.585815
 30
2.01
 70
    64
  0
VERTEX
  5
355C
100
AcDbEntity
  8
0
100
AcDbVertex
100
AcDbPolygonMeshVertex
 10
-2.270445
 20
0.585815
 30
0.705
 70
    64
  0
VERTEX
  5
355D
100
AcDbEntity
  8
0
100
AcDbVertex
100
AcDbPolygonMeshVertex
 10
-2.270445
 20
0.585815
 30
0.705
 70
    64
  0
VERTEX
  5
355E
100
AcDbEntity
  8
0
100
AcDbVertex
100
AcDbPolygonMeshVertex
 10
-2.326659
 20
0.291129
 30
2.01
 70
    64
  0
VERTEX
  5
355F
100
AcDbEntity
  8
0
100
AcDbVertex
100
AcDbPolygonMeshVertex
 10
-2.326659
 20
0.291129
 30
0.705
 70
    64
  0
VERTEX
  5
3560
100
AcDbEntity
  8
0
100
AcDbVertex
100
AcDbPolygonMeshVertex
 10
-2.270445
 20
0.585815
 30
0.705
 70
    64
  0
VERTEX
  5
3561
100
AcDbEntity
  8
0
100
AcDbVertex
100
AcDbPolygonMeshVertex
 10
-2.562408
 20
0.336101
 30
2.01
 70
    64
  0
VERTEX
  5
3562
100
AcDbEntity
  8
0
100
AcDbVertex
100
AcDbPolygonMeshVertex
 10
-2.562408
 20
0.336101
 30
0.705
 70
    64
  0
VERTEX
  5
3563
100
AcDbEntity
  8
0
100
AcDbVertex
100
AcDbPolygonMeshVertex
 10
-2.506194
 20
0.630787
 30
0.705
 70
    64
  0
VERTEX
  5
3564
100
AcDbEntity
  8
0
100
AcDbVertex
100
AcDbPolygonMeshVertex
 10
-2.562408
 20
0.336101
 30
2.01
 70
    64
  0
VERTEX
  5
3565
100
AcDbEntity
  8
0
100
AcDbVertex
100
AcDbPolygonMeshVertex
 10
-2.562408
 20
0.336101
 30
2.01
 70
    64
  0
VERTEX
  5
3566
100
AcDbEntity
  8
0
100
AcDbVertex
100
AcDbPolygonMeshVertex
 10
-2.506194
 20
0.630787
 30
2.01
 70
    64
  0
VERTEX
  5
3567
100
AcDbEntity
  8
0
100
AcDbVertex
100
AcDbPolygonMeshVertex
 10
-2.326659
 20
0.291129
 30
2.01
 70
    64
  0
VERTEX
  5
3568
100
AcDbEntity
  8
0
100
AcDbVertex
100
AcDbPolygonMeshVertex
 10
-2.326659
 20
0.291129
 30
2.01
 70
    64
  0
VERTEX
  5
3569
100
AcDbEntity
  8
0
100
AcDbVertex
100
AcDbPolygonMeshVertex
 10
-2.270445
 20
0.585815
 30
2.01
 70
    64
  0
SEQEND
  5
356A
100
AcDbEntity
  8
0
  0
POLYLINE
  5
356B
100
AcDbEntity
  8
0
100
AcDbPolygonMesh
 66
     1
 10
0.0
 20
0.0
 30
0.0
 70
    16
 71
     6
 72
     3
  0
VERTEX
  5
356C
100
AcDbEntity
  8
0
100
AcDbVertex
100
AcDbPolygonMeshVertex
 10
-2.540856
 20
0.472177
 30
2.01
 70
    64
  0
VERTEX
  5
356D
100
AcDbEntity
  8
0
100
AcDbVertex
100
AcDbPolygonMeshVertex
 10
-2.540856
 20
0.472177
 30
0.705
 70
    64
  0
VERTEX
  5
356E
100
AcDbEntity
  8
0
100
AcDbVertex
100
AcDbPolygonMeshVertex
 10
-2.540856
 20
0.472177
 30
0.705
 70
    64
  0
VERTEX
  5
356F
100
AcDbEntity
  8
0
100
AcDbVertex
100
AcDbPolygonMeshVertex
 10
-2.302748
 20
0.442097
 30
2.01
 70
    64
  0
VERTEX
  5
3570
100
AcDbEntity
  8
0
100
AcDbVertex
100
AcDbPolygonMeshVertex
 10
-2.302748
 20
0.442097
 30
0.705
 70
    64
  0
VERTEX
  5
3571
100
AcDbEntity
  8
0
100
AcDbVertex
100
AcDbPolygonMeshVertex
 10
-2.302748
 20
0.442097
 30
0.705
 70
    64
  0
VERTEX
  5
3572
100
AcDbEntity
  8
0
100
AcDbVertex
100
AcDbPolygonMeshVertex
 10
-2.340348
 20
0.144463
 30
2.01
 70
    64
  0
VERTEX
  5
3573
100
AcDbEntity
  8
0
100
AcDbVertex
100
AcDbPolygonMeshVertex
 10
-2.340348
 20
0.144463
 30
0.705
 70
    64
  0
VERTEX
  5
3574
100
AcDbEntity
  8
0
100
AcDbVertex
100
AcDbPolygonMeshVertex
 10
-2.302748
 20
0.442097
 30
0.705
 70
    64
  0
VERTEX
  5
3575
100
AcDbEntity
  8
0
100
AcDbVertex
100
AcDbPolygonMeshVertex
 10
-2.578456
 20
0.174543
 30
2.01
 70
    64
  0
VERTEX
  5
3576
100
AcDbEntity
  8
0
100
AcDbVertex
100
AcDbPolygonMeshVertex
 10
-2.578456
 20
0.174543
 30
0.705
 70
    64
  0
VERTEX
  5
3577
100
AcDbEntity
  8
0
100
AcDbVertex
100
AcDbPolygonMeshVertex
 10
-2.540856
 20
0.472177
 30
0.705
 70
    64
  0
VERTEX
  5
3578
100
AcDbEntity
  8
0
100
AcDbVertex
100
AcDbPolygonMeshVertex
 10
-2.578456
 20
0.174543
 30
2.01
 70
    64
  0
VERTEX
  5
3579
100
AcDbEntity
  8
0
100
AcDbVertex
100
AcDbPolygonMeshVertex
 10
-2.578456
 20
0.174543
 30
2.01
 70
    64
  0
VERTEX
  5
357A
100
AcDbEntity
  8
0
100
AcDbVertex
100
AcDbPolygonMeshVertex
 10
-2.540856
 20
0.472177
 30
2.01
 70
    64
  0
VERTEX
  5
357B
100
AcDbEntity
  8
0
100
AcDbVertex
100
AcDbPolygonMeshVertex
 10
-2.340348
 20
0.144463
 30
2.01
 70
    64
  0
VERTEX
  5
357C
100
AcDbEntity
  8
0
100
AcDbVertex
100
AcDbPolygonMeshVertex
 10
-2.340348
 20
0.144463
 30
2.01
 70
    64
  0
VERTEX
  5
357D
100
AcDbEntity
  8
0
100
AcDbVertex
100
AcDbPolygonMeshVertex
 10
-2.302748
 20
0.442097
 30
2.01
 70
    64
  0
SEQEND
  5
357E
100
AcDbEntity
  8
0
  0
POLYLINE
  5
357F
100
AcDbEntity
  8
0
100
AcDbPolygonMesh
 66
     1
 10
0.0
 20
0.0
 30
0.0
 70
    16
 71
     6
 72
     3
  0
VERTEX
  5
3580
100
AcDbEntity
  8
0
100
AcDbVertex
100
AcDbPolygonMeshVertex
 10
-2.56549
 20
0.311704
 30
2.01
 70
    64
  0
VERTEX
  5
3581
100
AcDbEntity
  8
0
100
AcDbVertex
100
AcDbPolygonMeshVertex
 10
-2.56549
 20
0.311704
 30
0.705
 70
    64
  0
VERTEX
  5
3582
100
AcDbEntity
  8
0
100
AcDbVertex
100
AcDbPolygonMeshVertex
 10
-2.56549
 20
0.311704
 30
0.705
 70
    64
  0
VERTEX
  5
3583
100
AcDbEntity
  8
0
100
AcDbVertex
100
AcDbPolygonMeshVertex
 10
-2.325964
 20
0.296634
 30
2.01
 70
    64
  0
VERTEX
  5
3584
100
AcDbEntity
  8
0
100
AcDbVertex
100
AcDbPolygonMeshVertex
 10
-2.325964
 20
0.296634
 30
0.705
 70
    64
  0
VERTEX
  5
3585
100
AcDbEntity
  8
0
100
AcDbVertex
100
AcDbPolygonMeshVertex
 10
-2.325964
 20
0.296634
 30
0.705
 70
    64
  0
VERTEX
  5
3586
100
AcDbEntity
  8
0
100
AcDbVertex
100
AcDbPolygonMeshVertex
 10
-2.344801
 20
-0.002774
 30
2.01
 70
    64
  0
VERTEX
  5
3587
100
AcDbEntity
  8
0
100
AcDbVertex
100
AcDbPolygonMeshVertex
 10
-2.344801
 20
-0.002774
 30
0.705
 70
    64
  0
VERTEX
  5
3588
100
AcDbEntity
  8
0
100
AcDbVertex
100
AcDbPolygonMeshVertex
 10
-2.325964
 20
0.296634
 30
0.705
 70
    64
  0
VERTEX
  5
3589
100
AcDbEntity
  8
0
100
AcDbVertex
100
AcDbPolygonMeshVertex
 10
-2.584328
 20
0.012296
 30
2.01
 70
    64
  0
VERTEX
  5
358A
100
AcDbEntity
  8
0
100
AcDbVertex
100
AcDbPolygonMeshVertex
 10
-2.584328
 20
0.012296
 30
0.705
 70
    64
  0
VERTEX
  5
358B
100
AcDbEntity
  8
0
100
AcDbVertex
100
AcDbPolygonMeshVertex
 10
-2.56549
 20
0.311704
 30
0.705
 70
    64
  0
VERTEX
  5
358C
100
AcDbEntity
  8
0
100
AcDbVertex
100
AcDbPolygonMeshVertex
 10
-2.584328
 20
0.012296
 30
2.01
 70
    64
  0
VERTEX
  5
358D
100
AcDbEntity
  8
0
100
AcDbVertex
100
AcDbPolygonMeshVertex
 10
-2.584328
 20
0.012296
 30
2.01
 70
    64
  0
VERTEX
  5
358E
100
AcDbEntity
  8
0
100
AcDbVertex
100
AcDbPolygonMeshVertex
 10
-2.56549
 20
0.311704
 30
2.01
 70
    64
  0
VERTEX
  5
358F
100
AcDbEntity
  8
0
100
AcDbVertex
100
AcDbPolygonMeshVertex
 10
-2.344801
 20
-0.002774
 30
2.01
 70
    64
  0
VERTEX
  5
3590
100
AcDbEntity
  8
0
100
AcDbVertex
100
AcDbPolygonMeshVertex
 10
-2.344801
 20
-0.002774
 30
2.01
 70
    64
  0
VERTEX
  5
3591
100
AcDbEntity
  8
0
100
AcDbVertex
100
AcDbPolygonMeshVertex
 10
-2.325964
 20
0.296634
 30
2.01
 70
    64
  0
SEQEND
  5
3592
100
AcDbEntity
  8
0
  0
POLYLINE
  5
3593
100
AcDbEntity
  8
0
100
AcDbPolygonMesh
 66
     1
 10
0.0
 20
0.0
 30
0.0
 70
    16
 71
     6
 72
     3
  0
VERTEX
  5
3594
100
AcDbEntity
  8
0
100
AcDbVertex
100
AcDbPolygonMeshVertex
 10
-2.58
 20
0.15
 30
2.01
 70
    64
  0
VERTEX
  5
3595
100
AcDbEntity
  8
0
100
AcDbVertex
100
AcDbPolygonMeshVertex
 10
-2.58
 20
0.15
 30
0.705
 70
    64
  0
VERTEX
  5
3596
100
AcDbEntity
  8
0
100
AcDbVertex
100
AcDbPolygonMeshVertex
 10
-2.58
 20
0.15
 30
0.705
 70
    64
  0
VERTEX
  5
3597
100
AcDbEntity
  8
0
100
AcDbVertex
100
AcDbPolygonMeshVertex
 10
-2.34
 20
0.15
 30
2.01
 70
    64
  0
VERTEX
  5
3598
100
AcDbEntity
  8
0
100
AcDbVertex
100
AcDbPolygonMeshVertex
 10
-2.34
 20
0.15
 30
0.705
 70
    64
  0
VERTEX
  5
3599
100
AcDbEntity
  8
0
100
AcDbVertex
100
AcDbPolygonMeshVertex
 10
-2.34
 20
0.15
 30
0.705
 70
    64
  0
VERTEX
  5
359A
100
AcDbEntity
  8
0
100
AcDbVertex
100
AcDbPolygonMeshVertex
 10
-2.34
 20
-0.15
 30
2.01
 70
    64
  0
VERTEX
  5
359B
100
AcDbEntity
  8
0
100
AcDbVertex
100
AcDbPolygonMeshVertex
 10
-2.34
 20
-0.15
 30
0.705
 70
    64
  0
VERTEX
  5
359C
100
AcDbEntity
  8
0
100
AcDbVertex
100
AcDbPolygonMeshVertex
 10
-2.34
 20
0.15
 30
0.705
 70
    64
  0
VERTEX
  5
359D
100
AcDbEntity
  8
0
100
AcDbVertex
100
AcDbPolygonMeshVertex
 10
-2.58
 20
-0.15
 30
2.01
 70
    64
  0
VERTEX
  5
359E
100
AcDbEntity
  8
0
100
AcDbVertex
100
AcDbPolygonMeshVertex
 10
-2.58
 20
-0.15
 30
0.705
 70
    64
  0
VERTEX
  5
359F
100
AcDbEntity
  8
0
100
AcDbVertex
100
AcDbPolygonMeshVertex
 10
-2.58
 20
0.15
 30
0.705
 70
    64
  0
VERTEX
  5
35A0
100
AcDbEntity
  8
0
100
AcDbVertex
100
AcDbPolygonMeshVertex
 10
-2.58
 20
-0.15
 30
2.01
 70
    64
  0
VERTEX
  5
35A1
100
AcDbEntity
  8
0
100
AcDbVertex
100
AcDbPolygonMeshVertex
 10
-2.58
 20
-0.15
 30
2.01
 70
    64
  0
VERTEX
  5
35A2
100
AcDbEntity
  8
0
100
AcDbVertex
100
AcDbPolygonMeshVertex
 10
-2.58
 20
0.15
 30
2.01
 70
    64
  0
VERTEX
  5
35A3
100
AcDbEntity
  8
0
100
AcDbVertex
100
AcDbPolygonMeshVertex
 10
-2.34
 20
-0.15
 30
2.01
 70
    64
  0
VERTEX
  5
35A4
100
AcDbEntity
  8
0
100
AcDbVertex
100
AcDbPolygonMeshVertex
 10
-2.34
 20
-0.15
 30
2.01
 70
    64
  0
VERTEX
  5
35A5
100
AcDbEntity
  8
0
100
AcDbVertex
100
AcDbPolygonMeshVertex
 10
-2.34
 20
0.15
 30
2.01
 70
    64
  0
SEQEND
  5
35A6
100
AcDbEntity
  8
0
  0
POLYLINE
  5
35A7
100
AcDbEntity
  8
0
100
AcDbPolygonMesh
 66
     1
 10
0.0
 20
0.0
 30
0.0
 70
    16
 71
     6
 72
     3
  0
VERTEX
  5
35A8
100
AcDbEntity
  8
0
100
AcDbVertex
100
AcDbPolygonMeshVertex
 10
-2.584328
 20
-0.012296
 30
2.01
 70
    64
  0
VERTEX
  5
35A9
100
AcDbEntity
  8
0
100
AcDbVertex
100
AcDbPolygonMeshVertex
 10
-2.584328
 20
-0.012296
 30
0.705
 70
    64
  0
VERTEX
  5
35AA
100
AcDbEntity
  8
0
100
AcDbVertex
100
AcDbPolygonMeshVertex
 10
-2.584328
 20
-0.012296
 30
0.705
 70
    64
  0
VERTEX
  5
35AB
100
AcDbEntity
  8
0
100
AcDbVertex
100
AcDbPolygonMeshVertex
 10
-2.344801
 20
0.002774
 30
2.01
 70
    64
  0
VERTEX
  5
35AC
100
AcDbEntity
  8
0
100
AcDbVertex
100
AcDbPolygonMeshVertex
 10
-2.344801
 20
0.002774
 30
0.705
 70
    64
  0
VERTEX
  5
35AD
100
AcDbEntity
  8
0
100
AcDbVertex
100
AcDbPolygonMeshVertex
 10
-2.344801
 20
0.002774
 30
0.705
 70
    64
  0
VERTEX
  5
35AE
100
AcDbEntity
  8
0
100
AcDbVertex
100
AcDbPolygonMeshVertex
 10
-2.325964
 20
-0.296634
 30
2.01
 70
    64
  0
VERTEX
  5
35AF
100
AcDbEntity
  8
0
100
AcDbVertex
100
AcDbPolygonMeshVertex
 10
-2.325964
 20
-0.296634
 30
0.705
 70
    64
  0
VERTEX
  5
35B0
100
AcDbEntity
  8
0
100
AcDbVertex
100
AcDbPolygonMeshVertex
 10
-2.344801
 20
0.002774
 30
0.705
 70
    64
  0
VERTEX
  5
35B1
100
AcDbEntity
  8
0
100
AcDbVertex
100
AcDbPolygonMeshVertex
 10
-2.56549
 20
-0.311704
 30
2.01
 70
    64
  0
VERTEX
  5
35B2
100
AcDbEntity
  8
0
100
AcDbVertex
100
AcDbPolygonMeshVertex
 10
-2.56549
 20
-0.311704
 30
0.705
 70
    64
  0
VERTEX
  5
35B3
100
AcDbEntity
  8
0
100
AcDbVertex
100
AcDbPolygonMeshVertex
 10
-2.584328
 20
-0.012296
 30
0.705
 70
    64
  0
VERTEX
  5
35B4
100
AcDbEntity
  8
0
100
AcDbVertex
100
AcDbPolygonMeshVertex
 10
-2.56549
 20
-0.311704
 30
2.01
 70
    64
  0
VERTEX
  5
35B5
100
AcDbEntity
  8
0
100
AcDbVertex
100
AcDbPolygonMeshVertex
 10
-2.56549
 20
-0.311704
 30
2.01
 70
    64
  0
VERTEX
  5
35B6
100
AcDbEntity
  8
0
100
AcDbVertex
100
AcDbPolygonMeshVertex
 10
-2.584328
 20
-0.012296
 30
2.01
 70
    64
  0
VERTEX
  5
35B7
100
AcDbEntity
  8
0
100
AcDbVertex
100
AcDbPolygonMeshVertex
 10
-2.325964
 20
-0.296634
 30
2.01
 70
    64
  0
VERTEX
  5
35B8
100
AcDbEntity
  8
0
100
AcDbVertex
100
AcDbPolygonMeshVertex
 10
-2.325964
 20
-0.296634
 30
2.01
 70
    64
  0
VERTEX
  5
35B9
100
AcDbEntity
  8
0
100
AcDbVertex
100
AcDbPolygonMeshVertex
 10
-2.344801
 20
0.002774
 30
2.01
 70
    64
  0
SEQEND
  5
35BA
100
AcDbEntity
  8
0
  0
POLYLINE
  5
35BB
100
AcDbEntity
  8
0
100
AcDbPolygonMesh
 66
     1
 10
0.0
 20
0.0
 30
0.0
 70
    16
 71
     6
 72
     3
  0
VERTEX
  5
35BC
100
AcDbEntity
  8
0
100
AcDbVertex
100
AcDbPolygonMeshVertex
 10
-2.578456
 20
-0.174543
 30
2.01
 70
    64
  0
VERTEX
  5
35BD
100
AcDbEntity
  8
0
100
AcDbVertex
100
AcDbPolygonMeshVertex
 10
-2.578456
 20
-0.174543
 30
0.705
 70
    64
  0
VERTEX
  5
35BE
100
AcDbEntity
  8
0
100
AcDbVertex
100
AcDbPolygonMeshVertex
 10
-2.578456
 20
-0.174543
 30
0.705
 70
    64
  0
VERTEX
  5
35BF
100
AcDbEntity
  8
0
100
AcDbVertex
100
AcDbPolygonMeshVertex
 10
-2.340348
 20
-0.144463
 30
2.01
 70
    64
  0
VERTEX
  5
35C0
100
AcDbEntity
  8
0
100
AcDbVertex
100
AcDbPolygonMeshVertex
 10
-2.340348
 20
-0.144463
 30
0.705
 70
    64
  0
VERTEX
  5
35C1
100
AcDbEntity
  8
0
100
AcDbVertex
100
AcDbPolygonMeshVertex
 10
-2.340348
 20
-0.144463
 30
0.705
 70
    64
  0
VERTEX
  5
35C2
100
AcDbEntity
  8
0
100
AcDbVertex
100
AcDbPolygonMeshVertex
 10
-2.302748
 20
-0.442097
 30
2.01
 70
    64
  0
VERTEX
  5
35C3
100
AcDbEntity
  8
0
100
AcDbVertex
100
AcDbPolygonMeshVertex
 10
-2.302748
 20
-0.442097
 30
0.705
 70
    64
  0
VERTEX
  5
35C4
100
AcDbEntity
  8
0
100
AcDbVertex
100
AcDbPolygonMeshVertex
 10
-2.340348
 20
-0.144463
 30
0.705
 70
    64
  0
VERTEX
  5
35C5
100
AcDbEntity
  8
0
100
AcDbVertex
100
AcDbPolygonMeshVertex
 10
-2.540856
 20
-0.472177
 30
2.01
 70
    64
  0
VERTEX
  5
35C6
100
AcDbEntity
  8
0
100
AcDbVertex
100
AcDbPolygonMeshVertex
 10
-2.540856
 20
-0.472177
 30
0.705
 70
    64
  0
VERTEX
  5
35C7
100
AcDbEntity
  8
0
100
AcDbVertex
100
AcDbPolygonMeshVertex
 10
-2.578456
 20
-0.174543
 30
0.705
 70
    64
  0
VERTEX
  5
35C8
100
AcDbEntity
  8
0
100
AcDbVertex
100
AcDbPolygonMeshVertex
 10
-2.540856
 20
-0.472177
 30
2.01
 70
    64
  0
VERTEX
  5
35C9
100
AcDbEntity
  8
0
100
AcDbVertex
100
AcDbPolygonMeshVertex
 10
-2.540856
 20
-0.472177
 30
2.01
 70
    64
  0
VERTEX
  5
35CA
100
AcDbEntity
  8
0
100
AcDbVertex
100
AcDbPolygonMeshVertex
 10
-2.578456
 20
-0.174543
 30
2.01
 70
    64
  0
VERTEX
  5
35CB
100
AcDbEntity
  8
0
100
AcDbVertex
100
AcDbPolygonMeshVertex
 10
-2.302748
 20
-0.442097
 30
2.01
 70
    64
  0
VERTEX
  5
35CC
100
AcDbEntity
  8
0
100
AcDbVertex
100
AcDbPolygonMeshVertex
 10
-2.302748
 20
-0.442097
 30
2.01
 70
    64
  0
VERTEX
  5
35CD
100
AcDbEntity
  8
0
100
AcDbVertex
100
AcDbPolygonMeshVertex
 10
-2.340348
 20
-0.144463
 30
2.01
 70
    64
  0
SEQEND
  5
35CE
100
AcDbEntity
  8
0
  0
POLYLINE
  5
35CF
100
AcDbEntity
  8
0
100
AcDbPolygonMesh
 66
     1
 10
0.0
 20
0.0
 30
0.0
 70
    16
 71
     6
 72
     3
  0
VERTEX
  5
35D0
100
AcDbEntity
  8
0
100
AcDbVertex
100
AcDbPolygonMeshVertex
 10
-2.562408
 20
-0.336101
 30
2.01
 70
    64
  0
VERTEX
  5
35D1
100
AcDbEntity
  8
0
100
AcDbVertex
100
AcDbPolygonMeshVertex
 10
-2.562408
 20
-0.336101
 30
0.705
 70
    64
  0
VERTEX
  5
35D2
100
AcDbEntity
  8
0
100
AcDbVertex
100
AcDbPolygonMeshVertex
 10
-2.562408
 20
-0.336101
 30
0.705
 70
    64
  0
VERTEX
  5
35D3
100
AcDbEntity
  8
0
100
AcDbVertex
100
AcDbPolygonMeshVertex
 10
-2.326659
 20
-0.291129
 30
2.01
 70
    64
  0
VERTEX
  5
35D4
100
AcDbEntity
  8
0
100
AcDbVertex
100
AcDbPolygonMeshVertex
 10
-2.326659
 20
-0.291129
 30
0.705
 70
    64
  0
VERTEX
  5
35D5
100
AcDbEntity
  8
0
100
AcDbVertex
100
AcDbPolygonMeshVertex
 10
-2.326659
 20
-0.291129
 30
0.705
 70
    64
  0
VERTEX
  5
35D6
100
AcDbEntity
  8
0
100
AcDbVertex
100
AcDbPolygonMeshVertex
 10
-2.270445
 20
-0.585815
 30
2.01
 70
    64
  0
VERTEX
  5
35D7
100
AcDbEntity
  8
0
100
AcDbVertex
100
AcDbPolygonMeshVertex
 10
-2.270445
 20
-0.585815
 30
0.705
 70
    64
  0
VERTEX
  5
35D8
100
AcDbEntity
  8
0
100
AcDbVertex
100
AcDbPolygonMeshVertex
 10
-2.326659
 20
-0.291129
 30
0.705
 70
    64
  0
VERTEX
  5
35D9
100
AcDbEntity
  8
0
100
AcDbVertex
100
AcDbPolygonMeshVertex
 10
-2.506194
 20
-0.630787
 30
2.01
 70
    64
  0
VERTEX
  5
35DA
100
AcDbEntity
  8
0
100
AcDbVertex
100
AcDbPolygonMeshVertex
 10
-2.506194
 20
-0.630787
 30
0.705
 70
    64
  0
VERTEX
  5
35DB
100
AcDbEntity
  8
0
100
AcDbVertex
100
AcDbPolygonMeshVertex
 10
-2.562408
 20
-0.336101
 30
0.705
 70
    64
  0
VERTEX
  5
35DC
100
AcDbEntity
  8
0
100
AcDbVertex
100
AcDbPolygonMeshVertex
 10
-2.506194
 20
-0.630787
 30
2.01
 70
    64
  0
VERTEX
  5
35DD
100
AcDbEntity
  8
0
100
AcDbVertex
100
AcDbPolygonMeshVertex
 10
-2.506194
 20
-0.630787
 30
2.01
 70
    64
  0
VERTEX
  5
35DE
100
AcDbEntity
  8
0
100
AcDbVertex
100
AcDbPolygonMeshVertex
 10
-2.562408
 20
-0.336101
 30
2.01
 70
    64
  0
VERTEX
  5
35DF
100
AcDbEntity
  8
0
100
AcDbVertex
100
AcDbPolygonMeshVertex
 10
-2.270445
 20
-0.585815
 30
2.01
 70
    64
  0
VERTEX
  5
35E0
100
AcDbEntity
  8
0
100
AcDbVertex
100
AcDbPolygonMeshVertex
 10
-2.270445
 20
-0.585815
 30
2.01
 70
    64
  0
VERTEX
  5
35E1
100
AcDbEntity
  8
0
100
AcDbVertex
100
AcDbPolygonMeshVertex
 10
-2.326659
 20
-0.291129
 30
2.01
 70
    64
  0
SEQEND
  5
35E2
100
AcDbEntity
  8
0
  0
POLYLINE
  5
35E3
100
AcDbEntity
  8
0
100
AcDbPolygonMesh
 66
     1
 10
0.0
 20
0.0
 30
0.0
 70
    16
 71
     6
 72
     3
  0
VERTEX
  5
35E4
100
AcDbEntity
  8
0
100
AcDbVertex
100
AcDbPolygonMeshVertex
 10
-2.536248
 20
-0.496332
 30
2.01
 70
    64
  0
VERTEX
  5
35E5
100
AcDbEntity
  8
0
100
AcDbVertex
100
AcDbPolygonMeshVertex
 10
-2.536248
 20
-0.496332
 30
0.705
 70
    64
  0
VERTEX
  5
35E6
100
AcDbEntity
  8
0
100
AcDbVertex
100
AcDbPolygonMeshVertex
 10
-2.536248
 20
-0.496332
 30
0.705
 70
    64
  0
VERTEX
  5
35E7
100
AcDbEntity
  8
0
100
AcDbVertex
100
AcDbPolygonMeshVertex
 10
-2.303788
 20
-0.436647
 30
2.01
 70
    64
  0
VERTEX
  5
35E8
100
AcDbEntity
  8
0
100
AcDbVertex
100
AcDbPolygonMeshVertex
 10
-2.303788
 20
-0.436647
 30
0.705
 70
    64
  0
VERTEX
  5
35E9
100
AcDbEntity
  8
0
100
AcDbVertex
100
AcDbPolygonMeshVertex
 10
-2.303788
 20
-0.436647
 30
0.705
 70
    64
  0
VERTEX
  5
35EA
100
AcDbEntity
  8
0
100
AcDbVertex
100
AcDbPolygonMeshVertex
 10
-2.229181
 20
-0.727222
 30
2.01
 70
    64
  0
VERTEX
  5
35EB
100
AcDbEntity
  8
0
100
AcDbVertex
100
AcDbPolygonMeshVertex
 10
-2.229181
 20
-0.727222
 30
0.705
 70
    64
  0
VERTEX
  5
35EC
100
AcDbEntity
  8
0
100
AcDbVertex
100
AcDbPolygonMeshVertex
 10
-2.303788
 20
-0.436647
 30
0.705
 70
    64
  0
VERTEX
  5
35ED
100
AcDbEntity
  8
0
100
AcDbVertex
100
AcDbPolygonMeshVertex
 10
-2.461641
 20
-0.786907
 30
2.01
 70
    64
  0
VERTEX
  5
35EE
100
AcDbEntity
  8
0
100
AcDbVertex
100
AcDbPolygonMeshVertex
 10
-2.461641
 20
-0.786907
 30
0.705
 70
    64
  0
VERTEX
  5
35EF
100
AcDbEntity
  8
0
100
AcDbVertex
100
AcDbPolygonMeshVertex
 10
-2.536248
 20
-0.496332
 30
0.705
 70
    64
  0
VERTEX
  5
35F0
100
AcDbEntity
  8
0
100
AcDbVertex
100
AcDbPolygonMeshVertex
 10
-2.461641
 20
-0.786907
 30
2.01
 70
    64
  0
VERTEX
  5
35F1
100
AcDbEntity
  8
0
100
AcDbVertex
100
AcDbPolygonMeshVertex
 10
-2.461641
 20
-0.786907
 30
2.01
 70
    64
  0
VERTEX
  5
35F2
100
AcDbEntity
  8
0
100
AcDbVertex
100
AcDbPolygonMeshVertex
 10
-2.536248
 20
-0.496332
 30
2.01
 70
    64
  0
VERTEX
  5
35F3
100
AcDbEntity
  8
0
100
AcDbVertex
100
AcDbPolygonMeshVertex
 10
-2.229181
 20
-0.727222
 30
2.01
 70
    64
  0
VERTEX
  5
35F4
100
AcDbEntity
  8
0
100
AcDbVertex
100
AcDbPolygonMeshVertex
 10
-2.229181
 20
-0.727222
 30
2.01
 70
    64
  0
VERTEX
  5
35F5
100
AcDbEntity
  8
0
100
AcDbVertex
100
AcDbPolygonMeshVertex
 10
-2.303788
 20
-0.436647
 30
2.01
 70
    64
  0
SEQEND
  5
35F6
100
AcDbEntity
  8
0
  0
POLYLINE
  5
35F7
100
AcDbEntity
  8
0
100
AcDbPolygonMesh
 66
     1
 10
0.0
 20
0.0
 30
0.0
 70
    16
 71
     6
 72
     3
  0
VERTEX
  5
35F8
100
AcDbEntity
  8
0
100
AcDbVertex
100
AcDbPolygonMeshVertex
 10
-2.500078
 20
-0.654605
 30
2.01
 70
    64
  0
VERTEX
  5
35F9
100
AcDbEntity
  8
0
100
AcDbVertex
100
AcDbPolygonMeshVertex
 10
-2.500078
 20
-0.654605
 30
0.705
 70
    64
  0
VERTEX
  5
35FA
100
AcDbEntity
  8
0
100
AcDbVertex
100
AcDbPolygonMeshVertex
 10
-2.500078
 20
-0.654605
 30
0.705
 70
    64
  0
VERTEX
  5
35FB
100
AcDbEntity
  8
0
100
AcDbVertex
100
AcDbPolygonMeshVertex
 10
-2.271825
 20
-0.580441
 30
2.01
 70
    64
  0
VERTEX
  5
35FC
100
AcDbEntity
  8
0
100
AcDbVertex
100
AcDbPolygonMeshVertex
 10
-2.271825
 20
-0.580441
 30
0.705
 70
    64
  0
VERTEX
  5
35FD
100
AcDbEntity
  8
0
100
AcDbVertex
100
AcDbPolygonMeshVertex
 10
-2.271825
 20
-0.580441
 30
0.705
 70
    64
  0
VERTEX
  5
35FE
100
AcDbEntity
  8
0
100
AcDbVertex
100
AcDbPolygonMeshVertex
 10
-2.17912
 20
-0.865758
 30
2.01
 70
    64
  0
VERTEX
  5
35FF
100
AcDbEntity
  8
0
100
AcDbVertex
100
AcDbPolygonMeshVertex
 10
-2.17912
 20
-0.865758
 30
0.705
 70
    64
  0
VERTEX
  5
3600
100
AcDbEntity
  8
0
100
AcDbVertex
100
AcDbPolygonMeshVertex
 10
-2.271825
 20
-0.580441
 30
0.705
 70
    64
  0
VERTEX
  5
3601
100
AcDbEntity
  8
0
100
AcDbVertex
100
AcDbPolygonMeshVertex
 10
-2.407373
 20
-0.939922
 30
2.01
 70
    64
  0
VERTEX
  5
3602
100
AcDbEntity
  8
0
100
AcDbVertex
100
AcDbPolygonMeshVertex
 10
-2.407373
 20
-0.939922
 30
0.705
 70
    64
  0
VERTEX
  5
3603
100
AcDbEntity
  8
0
100
AcDbVertex
100
AcDbPolygonMeshVertex
 10
-2.500078
 20
-0.654605
 30
0.705
 70
    64
  0
VERTEX
  5
3604
100
AcDbEntity
  8
0
100
AcDbVertex
100
AcDbPolygonMeshVertex
 10
-2.407373
 20
-0.939922
 30
2.01
 70
    64
  0
VERTEX
  5
3605
100
AcDbEntity
  8
0
100
AcDbVertex
100
AcDbPolygonMeshVertex
 10
-2.407373
 20
-0.939922
 30
2.01
 70
    64
  0
VERTEX
  5
3606
100
AcDbEntity
  8
0
100
AcDbVertex
100
AcDbPolygonMeshVertex
 10
-2.500078
 20
-0.654605
 30
2.01
 70
    64
  0
VERTEX
  5
3607
100
AcDbEntity
  8
0
100
AcDbVertex
100
AcDbPolygonMeshVertex
 10
-2.17912
 20
-0.865758
 30
2.01
 70
    64
  0
VERTEX
  5
3608
100
AcDbEntity
  8
0
100
AcDbVertex
100
AcDbPolygonMeshVertex
 10
-2.17912
 20
-0.865758
 30
2.01
 70
    64
  0
VERTEX
  5
3609
100
AcDbEntity
  8
0
100
AcDbVertex
100
AcDbPolygonMeshVertex
 10
-2.271825
 20
-0.580441
 30
2.01
 70
    64
  0
SEQEND
  5
360A
100
AcDbEntity
  8
0
  0
POLYLINE
  5
360B
100
AcDbEntity
  8
0
100
AcDbPolygonMesh
 66
     1
 10
0.0
 20
0.0
 30
0.0
 70
    16
 71
     6
 72
     3
  0
VERTEX
  5
360C
100
AcDbEntity
  8
0
100
AcDbVertex
100
AcDbPolygonMeshVertex
 10
-2.454042
 20
-0.810295
 30
2.01
 70
    64
  0
VERTEX
  5
360D
100
AcDbEntity
  8
0
100
AcDbVertex
100
AcDbPolygonMeshVertex
 10
-2.454042
 20
-0.810295
 30
0.705
 70
    64
  0
VERTEX
  5
360E
100
AcDbEntity
  8
0
100
AcDbVertex
100
AcDbPolygonMeshVertex
 10
-2.454042
 20
-0.810295
 30
0.705
 70
    64
  0
VERTEX
  5
360F
100
AcDbEntity
  8
0
100
AcDbVertex
100
AcDbPolygonMeshVertex
 10
-2.230896
 20
-0.721945
 30
2.01
 70
    64
  0
VERTEX
  5
3610
100
AcDbEntity
  8
0
100
AcDbVertex
100
AcDbPolygonMeshVertex
 10
-2.230896
 20
-0.721945
 30
0.705
 70
    64
  0
VERTEX
  5
3611
100
AcDbEntity
  8
0
100
AcDbVertex
100
AcDbPolygonMeshVertex
 10
-2.230896
 20
-0.721945
 30
0.705
 70
    64
  0
VERTEX
  5
3612
100
AcDbEntity
  8
0
100
AcDbVertex
100
AcDbPolygonMeshVertex
 10
-2.120458
 20
-1.000878
 30
2.01
 70
    64
  0
VERTEX
  5
3613
100
AcDbEntity
  8
0
100
AcDbVertex
100
AcDbPolygonMeshVertex
 10
-2.120458
 20
-1.000878
 30
0.705
 70
    64
  0
VERTEX
  5
3614
100
AcDbEntity
  8
0
100
AcDbVertex
100
AcDbPolygonMeshVertex
 10
-2.230896
 20
-0.721945
 30
0.705
 70
    64
  0
VERTEX
  5
3615
100
AcDbEntity
  8
0
100
AcDbVertex
100
AcDbPolygonMeshVertex
 10
-2.343605
 20
-1.089228
 30
2.01
 70
    64
  0
VERTEX
  5
3616
100
AcDbEntity
  8
0
100
AcDbVertex
100
AcDbPolygonMeshVertex
 10
-2.343605
 20
-1.089228
 30
0.705
 70
    64
  0
VERTEX
  5
3617
100
AcDbEntity
  8
0
100
AcDbVertex
100
AcDbPolygonMeshVertex
 10
-2.454042
 20
-0.810295
 30
0.705
 70
    64
  0
VERTEX
  5
3618
100
AcDbEntity
  8
0
100
AcDbVertex
100
AcDbPolygonMeshVertex
 10
-2.343605
 20
-1.089228
 30
2.01
 70
    64
  0
VERTEX
  5
3619
100
AcDbEntity
  8
0
100
AcDbVertex
100
AcDbPolygonMeshVertex
 10
-2.343605
 20
-1.089228
 30
2.01
 70
    64
  0
VERTEX
  5
361A
100
AcDbEntity
  8
0
100
AcDbVertex
100
AcDbPolygonMeshVertex
 10
-2.454042
 20
-0.810295
 30
2.01
 70
    64
  0
VERTEX
  5
361B
100
AcDbEntity
  8
0
100
AcDbVertex
100
AcDbPolygonMeshVertex
 10
-2.120458
 20
-1.000878
 30
2.01
 70
    64
  0
VERTEX
  5
361C
100
AcDbEntity
  8
0
100
AcDbVertex
100
AcDbPolygonMeshVertex
 10
-2.120458
 20
-1.000878
 30
2.01
 70
    64
  0
VERTEX
  5
361D
100
AcDbEntity
  8
0
100
AcDbVertex
100
AcDbPolygonMeshVertex
 10
-2.230896
 20
-0.721945
 30
2.01
 70
    64
  0
SEQEND
  5
361E
100
AcDbEntity
  8
0
  0
POLYLINE
  5
361F
100
AcDbEntity
  8
0
100
AcDbPolygonMesh
 66
     1
 10
0.0
 20
0.0
 30
0.0
 70
    16
 71
     6
 72
     3
  0
VERTEX
  5
3620
100
AcDbEntity
  8
0
100
AcDbVertex
100
AcDbPolygonMeshVertex
 10
-2.398321
 20
-0.962787
 30
2.01
 70
    64
  0
VERTEX
  5
3621
100
AcDbEntity
  8
0
100
AcDbVertex
100
AcDbPolygonMeshVertex
 10
-2.398321
 20
-0.962787
 30
0.705
 70
    64
  0
VERTEX
  5
3622
100
AcDbEntity
  8
0
100
AcDbVertex
100
AcDbPolygonMeshVertex
 10
-2.398321
 20
-0.962787
 30
0.705
 70
    64
  0
VERTEX
  5
3623
100
AcDbEntity
  8
0
100
AcDbVertex
100
AcDbPolygonMeshVertex
 10
-2.181162
 20
-0.860599
 30
2.01
 70
    64
  0
VERTEX
  5
3624
100
AcDbEntity
  8
0
100
AcDbVertex
100
AcDbPolygonMeshVertex
 10
-2.181162
 20
-0.860599
 30
0.705
 70
    64
  0
VERTEX
  5
3625
100
AcDbEntity
  8
0
100
AcDbVertex
100
AcDbPolygonMeshVertex
 10
-2.181162
 20
-0.860599
 30
0.705
 70
    64
  0
VERTEX
  5
3626
100
AcDbEntity
  8
0
100
AcDbVertex
100
AcDbPolygonMeshVertex
 10
-2.053428
 20
-1.132048
 30
2.01
 70
    64
  0
VERTEX
  5
3627
100
AcDbEntity
  8
0
100
AcDbVertex
100
AcDbPolygonMeshVertex
 10
-2.053428
 20
-1.132048
 30
0.705
 70
    64
  0
VERTEX
  5
3628
100
AcDbEntity
  8
0
100
AcDbVertex
100
AcDbPolygonMeshVertex
 10
-2.181162
 20
-0.860599
 30
0.705
 70
    64
  0
VERTEX
  5
3629
100
AcDbEntity
  8
0
100
AcDbVertex
100
AcDbPolygonMeshVertex
 10
-2.270587
 20
-1.234235
 30
2.01
 70
    64
  0
VERTEX
  5
362A
100
AcDbEntity
  8
0
100
AcDbVertex
100
AcDbPolygonMeshVertex
 10
-2.270587
 20
-1.234235
 30
0.705
 70
    64
  0
VERTEX
  5
362B
100
AcDbEntity
  8
0
100
AcDbVertex
100
AcDbPolygonMeshVertex
 10
-2.398321
 20
-0.962787
 30
0.705
 70
    64
  0
VERTEX
  5
362C
100
AcDbEntity
  8
0
100
AcDbVertex
100
AcDbPolygonMeshVertex
 10
-2.270587
 20
-1.234235
 30
2.01
 70
    64
  0
VERTEX
  5
362D
100
AcDbEntity
  8
0
100
AcDbVertex
100
AcDbPolygonMeshVertex
 10
-2.270587
 20
-1.234235
 30
2.01
 70
    64
  0
VERTEX
  5
362E
100
AcDbEntity
  8
0
100
AcDbVertex
100
AcDbPolygonMeshVertex
 10
-2.398321
 20
-0.962787
 30
2.01
 70
    64
  0
VERTEX
  5
362F
100
AcDbEntity
  8
0
100
AcDbVertex
100
AcDbPolygonMeshVertex
 10
-2.053428
 20
-1.132048
 30
2.01
 70
    64
  0
VERTEX
  5
3630
100
AcDbEntity
  8
0
100
AcDbVertex
100
AcDbPolygonMeshVertex
 10
-2.053428
 20
-1.132048
 30
2.01
 70
    64
  0
VERTEX
  5
3631
100
AcDbEntity
  8
0
100
AcDbVertex
100
AcDbPolygonMeshVertex
 10
-2.181162
 20
-0.860599
 30
2.01
 70
    64
  0
SEQEND
  5
3632
100
AcDbEntity
  8
0
  0
POLYLINE
  5
3633
100
AcDbEntity
  8
0
100
AcDbPolygonMesh
 66
     1
 10
0.0
 20
0.0
 30
0.0
 70
    16
 71
     6
 72
     3
  0
VERTEX
  5
3634
100
AcDbEntity
  8
0
100
AcDbVertex
100
AcDbPolygonMeshVertex
 10
-2.333134
 20
-1.111478
 30
2.01
 70
    64
  0
VERTEX
  5
3635
100
AcDbEntity
  8
0
100
AcDbVertex
100
AcDbPolygonMeshVertex
 10
-2.333134
 20
-1.111478
 30
0.705
 70
    64
  0
VERTEX
  5
3636
100
AcDbEntity
  8
0
100
AcDbVertex
100
AcDbPolygonMeshVertex
 10
-2.333134
 20
-1.111478
 30
0.705
 70
    64
  0
VERTEX
  5
3637
100
AcDbEntity
  8
0
100
AcDbVertex
100
AcDbPolygonMeshVertex
 10
-2.122821
 20
-0.995858
 30
2.01
 70
    64
  0
VERTEX
  5
3638
100
AcDbEntity
  8
0
100
AcDbVertex
100
AcDbPolygonMeshVertex
 10
-2.122821
 20
-0.995858
 30
0.705
 70
    64
  0
VERTEX
  5
3639
100
AcDbEntity
  8
0
100
AcDbVertex
100
AcDbPolygonMeshVertex
 10
-2.122821
 20
-0.995858
 30
0.705
 70
    64
  0
VERTEX
  5
363A
100
AcDbEntity
  8
0
100
AcDbVertex
100
AcDbPolygonMeshVertex
 10
-1.978295
 20
-1.25875
 30
2.01
 70
    64
  0
VERTEX
  5
363B
100
AcDbEntity
  8
0
100
AcDbVertex
100
AcDbPolygonMeshVertex
 10
-1.978295
 20
-1.25875
 30
0.705
 70
    64
  0
VERTEX
  5
363C
100
AcDbEntity
  8
0
100
AcDbVertex
100
AcDbPolygonMeshVertex
 10
-2.122821
 20
-0.995858
 30
0.705
 70
    64
  0
VERTEX
  5
363D
100
AcDbEntity
  8
0
100
AcDbVertex
100
AcDbPolygonMeshVertex
 10
-2.188608
 20
-1.37437
 30
2.01
 70
    64
  0
VERTEX
  5
363E
100
AcDbEntity
  8
0
100
AcDbVertex
100
AcDbPolygonMeshVertex
 10
-2.188608
 20
-1.37437
 30
0.705
 70
    64
  0
VERTEX
  5
363F
100
AcDbEntity
  8
0
100
AcDbVertex
100
AcDbPolygonMeshVertex
 10
-2.333134
 20
-1.111478
 30
0.705
 70
    64
  0
VERTEX
  5
3640
100
AcDbEntity
  8
0
100
AcDbVertex
100
AcDbPolygonMeshVertex
 10
-2.188608
 20
-1.37437
 30
2.01
 70
    64
  0
VERTEX
  5
3641
100
AcDbEntity
  8
0
100
AcDbVertex
100
AcDbPolygonMeshVertex
 10
-2.188608
 20
-1.37437
 30
2.01
 70
    64
  0
VERTEX
  5
3642
100
AcDbEntity
  8
0
100
AcDbVertex
100
AcDbPolygonMeshVertex
 10
-2.333134
 20
-1.111478
 30
2.01
 70
    64
  0
VERTEX
  5
3643
100
AcDbEntity
  8
0
100
AcDbVertex
100
AcDbPolygonMeshVertex
 10
-1.978295
 20
-1.25875
 30
2.01
 70
    64
  0
VERTEX
  5
3644
100
AcDbEntity
  8
0
100
AcDbVertex
100
AcDbPolygonMeshVertex
 10
-1.978295
 20
-1.25875
 30
2.01
 70
    64
  0
VERTEX
  5
3645
100
AcDbEntity
  8
0
100
AcDbVertex
100
AcDbPolygonMeshVertex
 10
-2.122821
 20
-0.995858
 30
2.01
 70
    64
  0
SEQEND
  5
3646
100
AcDbEntity
  8
0
  0
POLYLINE
  5
3647
100
AcDbEntity
  8
0
100
AcDbPolygonMesh
 66
     1
 10
0.0
 20
0.0
 30
0.0
 70
    16
 71
     6
 72
     3
  0
VERTEX
  5
3648
100
AcDbEntity
  8
0
100
AcDbVertex
100
AcDbPolygonMeshVertex
 10
-2.25874
 20
-1.255784
 30
2.01
 70
    64
  0
VERTEX
  5
3649
100
AcDbEntity
  8
0
100
AcDbVertex
100
AcDbPolygonMeshVertex
 10
-2.25874
 20
-1.255784
 30
0.705
 70
    64
  0
VERTEX
  5
364A
100
AcDbEntity
  8
0
100
AcDbVertex
100
AcDbPolygonMeshVertex
 10
-2.25874
 20
-1.255784
 30
0.705
 70
    64
  0
VERTEX
  5
364B
100
AcDbEntity
  8
0
100
AcDbVertex
100
AcDbPolygonMeshVertex
 10
-2.056101
 20
-1.127186
 30
2.01
 70
    64
  0
VERTEX
  5
364C
100
AcDbEntity
  8
0
100
AcDbVertex
100
AcDbPolygonMeshVertex
 10
-2.056101
 20
-1.127186
 30
0.705
 70
    64
  0
VERTEX
  5
364D
100
AcDbEntity
  8
0
100
AcDbVertex
100
AcDbPolygonMeshVertex
 10
-2.056101
 20
-1.127186
 30
0.705
 70
    64
  0
VERTEX
  5
364E
100
AcDbEntity
  8
0
100
AcDbVertex
100
AcDbPolygonMeshVertex
 10
-1.895353
 20
-1.380484
 30
2.01
 70
    64
  0
VERTEX
  5
364F
100
AcDbEntity
  8
0
100
AcDbVertex
100
AcDbPolygonMeshVertex
 10
-1.895353
 20
-1.380484
 30
0.705
 70
    64
  0
VERTEX
  5
3650
100
AcDbEntity
  8
0
100
AcDbVertex
100
AcDbPolygonMeshVertex
 10
-2.056101
 20
-1.127186
 30
0.705
 70
    64
  0
VERTEX
  5
3651
100
AcDbEntity
  8
0
100
AcDbVertex
100
AcDbPolygonMeshVertex
 10
-2.097992
 20
-1.509082
 30
2.01
 70
    64
  0
VERTEX
  5
3652
100
AcDbEntity
  8
0
100
AcDbVertex
100
AcDbPolygonMeshVertex
 10
-2.097992
 20
-1.509082
 30
0.705
 70
    64
  0
VERTEX
  5
3653
100
AcDbEntity
  8
0
100
AcDbVertex
100
AcDbPolygonMeshVertex
 10
-2.25874
 20
-1.255784
 30
0.705
 70
    64
  0
VERTEX
  5
3654
100
AcDbEntity
  8
0
100
AcDbVertex
100
AcDbPolygonMeshVertex
 10
-2.097992
 20
-1.509082
 30
2.01
 70
    64
  0
VERTEX
  5
3655
100
AcDbEntity
  8
0
100
AcDbVertex
100
AcDbPolygonMeshVertex
 10
-2.097992
 20
-1.509082
 30
2.01
 70
    64
  0
VERTEX
  5
3656
100
AcDbEntity
  8
0
100
AcDbVertex
100
AcDbPolygonMeshVertex
 10
-2.25874
 20
-1.255784
 30
2.01
 70
    64
  0
VERTEX
  5
3657
100
AcDbEntity
  8
0
100
AcDbVertex
100
AcDbPolygonMeshVertex
 10
-1.895353
 20
-1.380484
 30
2.01
 70
    64
  0
VERTEX
  5
3658
100
AcDbEntity
  8
0
100
AcDbVertex
100
AcDbPolygonMeshVertex
 10
-1.895353
 20
-1.380484
 30
2.01
 70
    64
  0
VERTEX
  5
3659
100
AcDbEntity
  8
0
100
AcDbVertex
100
AcDbPolygonMeshVertex
 10
-2.056101
 20
-1.127186
 30
2.01
 70
    64
  0
SEQEND
  5
365A
100
AcDbEntity
  8
0
  0
POLYLINE
  5
365B
100
AcDbEntity
  8
0
100
AcDbPolygonMesh
 66
     1
 10
0.0
 20
0.0
 30
0.0
 70
    16
 71
     6
 72
     3
  0
VERTEX
  5
365C
100
AcDbEntity
  8
0
100
AcDbVertex
100
AcDbPolygonMeshVertex
 10
-2.175432
 20
-1.395133
 30
2.01
 70
    64
  0
VERTEX
  5
365D
100
AcDbEntity
  8
0
100
AcDbVertex
100
AcDbPolygonMeshVertex
 10
-2.175432
 20
-1.395133
 30
0.705
 70
    64
  0
VERTEX
  5
365E
100
AcDbEntity
  8
0
100
AcDbVertex
100
AcDbPolygonMeshVertex
 10
-2.175432
 20
-1.395133
 30
0.705
 70
    64
  0
VERTEX
  5
365F
100
AcDbEntity
  8
0
100
AcDbVertex
100
AcDbPolygonMeshVertex
 10
-1.981268
 20
-1.254065
 30
2.01
 70
    64
  0
VERTEX
  5
3660
100
AcDbEntity
  8
0
100
AcDbVertex
100
AcDbPolygonMeshVertex
 10
-1.981268
 20
-1.254065
 30
0.705
 70
    64
  0
VERTEX
  5
3661
100
AcDbEntity
  8
0
100
AcDbVertex
100
AcDbPolygonMeshVertex
 10
-1.981268
 20
-1.254065
 30
0.705
 70
    64
  0
VERTEX
  5
3662
100
AcDbEntity
  8
0
100
AcDbVertex
100
AcDbPolygonMeshVertex
 10
-1.804932
 20
-1.49677
 30
2.01
 70
    64
  0
VERTEX
  5
3663
100
AcDbEntity
  8
0
100
AcDbVertex
100
AcDbPolygonMeshVertex
 10
-1.804932
 20
-1.49677
 30
0.705
 70
    64
  0
VERTEX
  5
3664
100
AcDbEntity
  8
0
100
AcDbVertex
100
AcDbPolygonMeshVertex
 10
-1.981268
 20
-1.254065
 30
0.705
 70
    64
  0
VERTEX
  5
3665
100
AcDbEntity
  8
0
100
AcDbVertex
100
AcDbPolygonMeshVertex
 10
-1.999096
 20
-1.637839
 30
2.01
 70
    64
  0
VERTEX
  5
3666
100
AcDbEntity
  8
0
100
AcDbVertex
100
AcDbPolygonMeshVertex
 10
-1.999096
 20
-1.637839
 30
0.705
 70
    64
  0
VERTEX
  5
3667
100
AcDbEntity
  8
0
100
AcDbVertex
100
AcDbPolygonMeshVertex
 10
-2.175432
 20
-1.395133
 30
0.705
 70
    64
  0
VERTEX
  5
3668
100
AcDbEntity
  8
0
100
AcDbVertex
100
AcDbPolygonMeshVertex
 10
-1.999096
 20
-1.637839
 30
2.01
 70
    64
  0
VERTEX
  5
3669
100
AcDbEntity
  8
0
100
AcDbVertex
100
AcDbPolygonMeshVertex
 10
-1.999096
 20
-1.637839
 30
2.01
 70
    64
  0
VERTEX
  5
366A
100
AcDbEntity
  8
0
100
AcDbVertex
100
AcDbPolygonMeshVertex
 10
-2.175432
 20
-1.395133
 30
2.01
 70
    64
  0
VERTEX
  5
366B
100
AcDbEntity
  8
0
100
AcDbVertex
100
AcDbPolygonMeshVertex
 10
-1.804932
 20
-1.49677
 30
2.01
 70
    64
  0
VERTEX
  5
366C
100
AcDbEntity
  8
0
100
AcDbVertex
100
AcDbPolygonMeshVertex
 10
-1.804932
 20
-1.49677
 30
2.01
 70
    64
  0
VERTEX
  5
366D
100
AcDbEntity
  8
0
100
AcDbVertex
100
AcDbPolygonMeshVertex
 10
-1.981268
 20
-1.254065
 30
2.01
 70
    64
  0
SEQEND
  5
366E
100
AcDbEntity
  8
0
  0
POLYLINE
  5
366F
100
AcDbEntity
  8
0
100
AcDbPolygonMesh
 66
     1
 10
0.0
 20
0.0
 30
0.0
 70
    16
 71
     6
 72
     3
  0
VERTEX
  5
3670
100
AcDbEntity
  8
0
100
AcDbVertex
100
AcDbPolygonMeshVertex
 10
-2.083538
 20
-1.528977
 30
2.01
 70
    64
  0
VERTEX
  5
3671
100
AcDbEntity
  8
0
100
AcDbVertex
100
AcDbPolygonMeshVertex
 10
-2.083538
 20
-1.528977
 30
0.705
 70
    64
  0
VERTEX
  5
3672
100
AcDbEntity
  8
0
100
AcDbVertex
100
AcDbPolygonMeshVertex
 10
-2.083538
 20
-1.528977
 30
0.705
 70
    64
  0
VERTEX
  5
3673
100
AcDbEntity
  8
0
100
AcDbVertex
100
AcDbPolygonMeshVertex
 10
-1.898615
 20
-1.375995
 30
2.01
 70
    64
  0
VERTEX
  5
3674
100
AcDbEntity
  8
0
100
AcDbVertex
100
AcDbPolygonMeshVertex
 10
-1.898615
 20
-1.375995
 30
0.705
 70
    64
  0
VERTEX
  5
3675
100
AcDbEntity
  8
0
100
AcDbVertex
100
AcDbPolygonMeshVertex
 10
-1.898615
 20
-1.375995
 30
0.705
 70
    64
  0
VERTEX
  5
3676
100
AcDbEntity
  8
0
100
AcDbVertex
100
AcDbPolygonMeshVertex
 10
-1.707387
 20
-1.607149
 30
2.01
 70
    64
  0
VERTEX
  5
3677
100
AcDbEntity
  8
0
100
AcDbVertex
100
AcDbPolygonMeshVertex
 10
-1.707387
 20
-1.607149
 30
0.705
 70
    64
  0
VERTEX
  5
3678
100
AcDbEntity
  8
0
100
AcDbVertex
100
AcDbPolygonMeshVertex
 10
-1.898615
 20
-1.375995
 30
0.705
 70
    64
  0
VERTEX
  5
3679
100
AcDbEntity
  8
0
100
AcDbVertex
100
AcDbPolygonMeshVertex
 10
-1.892311
 20
-1.760131
 30
2.01
 70
    64
  0
VERTEX
  5
367A
100
AcDbEntity
  8
0
100
AcDbVertex
100
AcDbPolygonMeshVertex
 10
-1.892311
 20
-1.760131
 30
0.705
 70
    64
  0
VERTEX
  5
367B
100
AcDbEntity
  8
0
100
AcDbVertex
100
AcDbPolygonMeshVertex
 10
-2.083538
 20
-1.528977
 30
0.705
 70
    64
  0
VERTEX
  5
367C
100
AcDbEntity
  8
0
100
AcDbVertex
100
AcDbPolygonMeshVertex
 10
-1.892311
 20
-1.760131
 30
2.01
 70
    64
  0
VERTEX
  5
367D
100
AcDbEntity
  8
0
100
AcDbVertex
100
AcDbPolygonMeshVertex
 10
-1.892311
 20
-1.760131
 30
2.01
 70
    64
  0
VERTEX
  5
367E
100
AcDbEntity
  8
0
100
AcDbVertex
100
AcDbPolygonMeshVertex
 10
-2.083538
 20
-1.528977
 30
2.01
 70
    64
  0
VERTEX
  5
367F
100
AcDbEntity
  8
0
100
AcDbVertex
100
AcDbPolygonMeshVertex
 10
-1.707387
 20
-1.607149
 30
2.01
 70
    64
  0
VERTEX
  5
3680
100
AcDbEntity
  8
0
100
AcDbVertex
100
AcDbPolygonMeshVertex
 10
-1.707387
 20
-1.607149
 30
2.01
 70
    64
  0
VERTEX
  5
3681
100
AcDbEntity
  8
0
100
AcDbVertex
100
AcDbPolygonMeshVertex
 10
-1.898615
 20
-1.375995
 30
2.01
 70
    64
  0
SEQEND
  5
3682
100
AcDbEntity
  8
0
  0
POLYLINE
  5
3683
100
AcDbEntity
  8
0
100
AcDbPolygonMesh
 66
     1
 10
0.0
 20
0.0
 30
0.0
 70
    16
 71
     6
 72
     3
  0
VERTEX
  5
3684
100
AcDbEntity
  8
0
100
AcDbVertex
100
AcDbPolygonMeshVertex
 10
-1.983421
 20
-1.656786
 30
2.01
 70
    64
  0
VERTEX
  5
3685
100
AcDbEntity
  8
0
100
AcDbVertex
100
AcDbPolygonMeshVertex
 10
-1.983421
 20
-1.656786
 30
0.705
 70
    64
  0
VERTEX
  5
3686
100
AcDbEntity
  8
0
100
AcDbVertex
100
AcDbPolygonMeshVertex
 10
-1.983421
 20
-1.656786
 30
0.705
 70
    64
  0
VERTEX
  5
3687
100
AcDbEntity
  8
0
100
AcDbVertex
100
AcDbPolygonMeshVertex
 10
-1.808469
 20
-1.492495
 30
2.01
 70
    64
  0
VERTEX
  5
3688
100
AcDbEntity
  8
0
100
AcDbVertex
100
AcDbPolygonMeshVertex
 10
-1.808469
 20
-1.492495
 30
0.705
 70
    64
  0
VERTEX
  5
3689
100
AcDbEntity
  8
0
100
AcDbVertex
100
AcDbPolygonMeshVertex
 10
-1.808469
 20
-1.492495
 30
0.705
 70
    64
  0
VERTEX
  5
368A
100
AcDbEntity
  8
0
100
AcDbVertex
100
AcDbPolygonMeshVertex
 10
-1.603105
 20
-1.711186
 30
2.01
 70
    64
  0
VERTEX
  5
368B
100
AcDbEntity
  8
0
100
AcDbVertex
100
AcDbPolygonMeshVertex
 10
-1.603105
 20
-1.711186
 30
0.705
 70
    64
  0
VERTEX
  5
368C
100
AcDbEntity
  8
0
100
AcDbVertex
100
AcDbPolygonMeshVertex
 10
-1.808469
 20
-1.492495
 30
0.705
 70
    64
  0
VERTEX
  5
368D
100
AcDbEntity
  8
0
100
AcDbVertex
100
AcDbPolygonMeshVertex
 10
-1.778057
 20
-1.875477
 30
2.01
 70
    64
  0
VERTEX
  5
368E
100
AcDbEntity
  8
0
100
AcDbVertex
100
AcDbPolygonMeshVertex
 10
-1.778057
 20
-1.875477
 30
0.705
 70
    64
  0
VERTEX
  5
368F
100
AcDbEntity
  8
0
100
AcDbVertex
100
AcDbPolygonMeshVertex
 10
-1.983421
 20
-1.656786
 30
0.705
 70
    64
  0
VERTEX
  5
3690
100
AcDbEntity
  8
0
100
AcDbVertex
100
AcDbPolygonMeshVertex
 10
-1.778057
 20
-1.875477
 30
2.01
 70
    64
  0
VERTEX
  5
3691
100
AcDbEntity
  8
0
100
AcDbVertex
100
AcDbPolygonMeshVertex
 10
-1.778057
 20
-1.875477
 30
2.01
 70
    64
  0
VERTEX
  5
3692
100
AcDbEntity
  8
0
100
AcDbVertex
100
AcDbPolygonMeshVertex
 10
-1.983421
 20
-1.656786
 30
2.01
 70
    64
  0
VERTEX
  5
3693
100
AcDbEntity
  8
0
100
AcDbVertex
100
AcDbPolygonMeshVertex
 10
-1.603105
 20
-1.711186
 30
2.01
 70
    64
  0
VERTEX
  5
3694
100
AcDbEntity
  8
0
100
AcDbVertex
100
AcDbPolygonMeshVertex
 10
-1.603105
 20
-1.711186
 30
2.01
 70
    64
  0
VERTEX
  5
3695
100
AcDbEntity
  8
0
100
AcDbVertex
100
AcDbPolygonMeshVertex
 10
-1.808469
 20
-1.492495
 30
2.01
 70
    64
  0
SEQEND
  5
3696
100
AcDbEntity
  8
0
  0
POLYLINE
  5
3697
100
AcDbEntity
  8
0
100
AcDbPolygonMesh
 66
     1
 10
0.0
 20
0.0
 30
0.0
 70
    16
 71
     6
 72
     3
  0
VERTEX
  5
3698
100
AcDbEntity
  8
0
100
AcDbVertex
100
AcDbPolygonMeshVertex
 10
-1.875477
 20
-1.778057
 30
2.01
 70
    64
  0
VERTEX
  5
3699
100
AcDbEntity
  8
0
100
AcDbVertex
100
AcDbPolygonMeshVertex
 10
-1.875477
 20
-1.778057
 30
0.705
 70
    64
  0
VERTEX
  5
369A
100
AcDbEntity
  8
0
100
AcDbVertex
100
AcDbPolygonMeshVertex
 10
-1.875477
 20
-1.778057
 30
0.705
 70
    64
  0
VERTEX
  5
369B
100
AcDbEntity
  8
0
100
AcDbVertex
100
AcDbPolygonMeshVertex
 10
-1.711186
 20
-1.603105
 30
2.01
 70
    64
  0
VERTEX
  5
369C
100
AcDbEntity
  8
0
100
AcDbVertex
100
AcDbPolygonMeshVertex
 10
-1.711186
 20
-1.603105
 30
0.705
 70
    64
  0
VERTEX
  5
369D
100
AcDbEntity
  8
0
100
AcDbVertex
100
AcDbPolygonMeshVertex
 10
-1.711186
 20
-1.603105
 30
0.705
 70
    64
  0
VERTEX
  5
369E
100
AcDbEntity
  8
0
100
AcDbVertex
100
AcDbPolygonMeshVertex
 10
-1.492495
 20
-1.808469
 30
2.01
 70
    64
  0
VERTEX
  5
369F
100
AcDbEntity
  8
0
100
AcDbVertex
100
AcDbPolygonMeshVertex
 10
-1.492495
 20
-1.808469
 30
0.705
 70
    64
  0
VERTEX
  5
36A0
100
AcDbEntity
  8
0
100
AcDbVertex
100
AcDbPolygonMeshVertex
 10
-1.711186
 20
-1.603105
 30
0.705
 70
    64
  0
VERTEX
  5
36A1
100
AcDbEntity
  8
0
100
AcDbVertex
100
AcDbPolygonMeshVertex
 10
-1.656786
 20
-1.983421
 30
2.01
 70
    64
  0
VERTEX
  5
36A2
100
AcDbEntity
  8
0
100
AcDbVertex
100
AcDbPolygonMeshVertex
 10
-1.656786
 20
-1.983421
 30
0.705
 70
    64
  0
VERTEX
  5
36A3
100
AcDbEntity
  8
0
100
AcDbVertex
100
AcDbPolygonMeshVertex
 10
-1.875477
 20
-1.778057
 30
0.705
 70
    64
  0
VERTEX
  5
36A4
100
AcDbEntity
  8
0
100
AcDbVertex
100
AcDbPolygonMeshVertex
 10
-1.656786
 20
-1.983421
 30
2.01
 70
    64
  0
VERTEX
  5
36A5
100
AcDbEntity
  8
0
100
AcDbVertex
100
AcDbPolygonMeshVertex
 10
-1.656786
 20
-1.983421
 30
2.01
 70
    64
  0
VERTEX
  5
36A6
100
AcDbEntity
  8
0
100
AcDbVertex
100
AcDbPolygonMeshVertex
 10
-1.875477
 20
-1.778057
 30
2.01
 70
    64
  0
VERTEX
  5
36A7
100
AcDbEntity
  8
0
100
AcDbVertex
100
AcDbPolygonMeshVertex
 10
-1.492495
 20
-1.808469
 30
2.01
 70
    64
  0
VERTEX
  5
36A8
100
AcDbEntity
  8
0
100
AcDbVertex
100
AcDbPolygonMeshVertex
 10
-1.492495
 20
-1.808469
 30
2.01
 70
    64
  0
VERTEX
  5
36A9
100
AcDbEntity
  8
0
100
AcDbVertex
100
AcDbPolygonMeshVertex
 10
-1.711186
 20
-1.603105
 30
2.01
 70
    64
  0
SEQEND
  5
36AA
100
AcDbEntity
  8
0
  0
POLYLINE
  5
36AB
100
AcDbEntity
  8
0
100
AcDbPolygonMesh
 66
     1
 10
0.0
 20
0.0
 30
0.0
 70
    16
 71
     6
 72
     3
  0
VERTEX
  5
36AC
100
AcDbEntity
  8
0
100
AcDbVertex
100
AcDbPolygonMeshVertex
 10
-1.760131
 20
-1.892311
 30
2.01
 70
    64
  0
VERTEX
  5
36AD
100
AcDbEntity
  8
0
100
AcDbVertex
100
AcDbPolygonMeshVertex
 10
-1.760131
 20
-1.892311
 30
0.705
 70
    64
  0
VERTEX
  5
36AE
100
AcDbEntity
  8
0
100
AcDbVertex
100
AcDbPolygonMeshVertex
 10
-1.760131
 20
-1.892311
 30
0.705
 70
    64
  0
VERTEX
  5
36AF
100
AcDbEntity
  8
0
100
AcDbVertex
100
AcDbPolygonMeshVertex
 10
-1.607149
 20
-1.707387
 30
2.01
 70
    64
  0
VERTEX
  5
36B0
100
AcDbEntity
  8
0
100
AcDbVertex
100
AcDbPolygonMeshVertex
 10
-1.607149
 20
-1.707387
 30
0.705
 70
    64
  0
VERTEX
  5
36B1
100
AcDbEntity
  8
0
100
AcDbVertex
100
AcDbPolygonMeshVertex
 10
-1.607149
 20
-1.707387
 30
0.705
 70
    64
  0
VERTEX
  5
36B2
100
AcDbEntity
  8
0
100
AcDbVertex
100
AcDbPolygonMeshVertex
 10
-1.375995
 20
-1.898615
 30
2.01
 70
    64
  0
VERTEX
  5
36B3
100
AcDbEntity
  8
0
100
AcDbVertex
100
AcDbPolygonMeshVertex
 10
-1.375995
 20
-1.898615
 30
0.705
 70
    64
  0
VERTEX
  5
36B4
100
AcDbEntity
  8
0
100
AcDbVertex
100
AcDbPolygonMeshVertex
 10
-1.607149
 20
-1.707387
 30
0.705
 70
    64
  0
VERTEX
  5
36B5
100
AcDbEntity
  8
0
100
AcDbVertex
100
AcDbPolygonMeshVertex
 10
-1.528977
 20
-2.083538
 30
2.01
 70
    64
  0
VERTEX
  5
36B6
100
AcDbEntity
  8
0
100
AcDbVertex
100
AcDbPolygonMeshVertex
 10
-1.528977
 20
-2.083538
 30
0.705
 70
    64
  0
VERTEX
  5
36B7
100
AcDbEntity
  8
0
100
AcDbVertex
100
AcDbPolygonMeshVertex
 10
-1.760131
 20
-1.892311
 30
0.705
 70
    64
  0
VERTEX
  5
36B8
100
AcDbEntity
  8
0
100
AcDbVertex
100
AcDbPolygonMeshVertex
 10
-1.528977
 20
-2.083538
 30
2.01
 70
    64
  0
VERTEX
  5
36B9
100
AcDbEntity
  8
0
100
AcDbVertex
100
AcDbPolygonMeshVertex
 10
-1.528977
 20
-2.083538
 30
2.01
 70
    64
  0
VERTEX
  5
36BA
100
AcDbEntity
  8
0
100
AcDbVertex
100
AcDbPolygonMeshVertex
 10
-1.760131
 20
-1.892311
 30
2.01
 70
    64
  0
VERTEX
  5
36BB
100
AcDbEntity
  8
0
100
AcDbVertex
100
AcDbPolygonMeshVertex
 10
-1.375995
 20
-1.898615
 30
2.01
 70
    64
  0
VERTEX
  5
36BC
100
AcDbEntity
  8
0
100
AcDbVertex
100
AcDbPolygonMeshVertex
 10
-1.375995
 20
-1.898615
 30
2.01
 70
    64
  0
VERTEX
  5
36BD
100
AcDbEntity
  8
0
100
AcDbVertex
100
AcDbPolygonMeshVertex
 10
-1.607149
 20
-1.707387
 30
2.01
 70
    64
  0
SEQEND
  5
36BE
100
AcDbEntity
  8
0
  0
POLYLINE
  5
36BF
100
AcDbEntity
  8
0
100
AcDbPolygonMesh
 66
     1
 10
0.0
 20
0.0
 30
0.0
 70
    16
 71
     6
 72
     3
  0
VERTEX
  5
36C0
100
AcDbEntity
  8
0
100
AcDbVertex
100
AcDbPolygonMeshVertex
 10
-1.637839
 20
-1.999096
 30
2.01
 70
    64
  0
VERTEX
  5
36C1
100
AcDbEntity
  8
0
100
AcDbVertex
100
AcDbPolygonMeshVertex
 10
-1.637839
 20
-1.999096
 30
0.705
 70
    64
  0
VERTEX
  5
36C2
100
AcDbEntity
  8
0
100
AcDbVertex
100
AcDbPolygonMeshVertex
 10
-1.637839
 20
-1.999096
 30
0.705
 70
    64
  0
VERTEX
  5
36C3
100
AcDbEntity
  8
0
100
AcDbVertex
100
AcDbPolygonMeshVertex
 10
-1.49677
 20
-1.804932
 30
2.01
 70
    64
  0
VERTEX
  5
36C4
100
AcDbEntity
  8
0
100
AcDbVertex
100
AcDbPolygonMeshVertex
 10
-1.49677
 20
-1.804932
 30
0.705
 70
    64
  0
VERTEX
  5
36C5
100
AcDbEntity
  8
0
100
AcDbVertex
100
AcDbPolygonMeshVertex
 10
-1.49677
 20
-1.804932
 30
0.705
 70
    64
  0
VERTEX
  5
36C6
100
AcDbEntity
  8
0
100
AcDbVertex
100
AcDbPolygonMeshVertex
 10
-1.254065
 20
-1.981268
 30
2.01
 70
    64
  0
VERTEX
  5
36C7
100
AcDbEntity
  8
0
100
AcDbVertex
100
AcDbPolygonMeshVertex
 10
-1.254065
 20
-1.981268
 30
0.705
 70
    64
  0
VERTEX
  5
36C8
100
AcDbEntity
  8
0
100
AcDbVertex
100
AcDbPolygonMeshVertex
 10
-1.49677
 20
-1.804932
 30
0.705
 70
    64
  0
VERTEX
  5
36C9
100
AcDbEntity
  8
0
100
AcDbVertex
100
AcDbPolygonMeshVertex
 10
-1.395133
 20
-2.175432
 30
2.01
 70
    64
  0
VERTEX
  5
36CA
100
AcDbEntity
  8
0
100
AcDbVertex
100
AcDbPolygonMeshVertex
 10
-1.395133
 20
-2.175432
 30
0.705
 70
    64
  0
VERTEX
  5
36CB
100
AcDbEntity
  8
0
100
AcDbVertex
100
AcDbPolygonMeshVertex
 10
-1.637839
 20
-1.999096
 30
0.705
 70
    64
  0
VERTEX
  5
36CC
100
AcDbEntity
  8
0
100
AcDbVertex
100
AcDbPolygonMeshVertex
 10
-1.395133
 20
-2.175432
 30
2.01
 70
    64
  0
VERTEX
  5
36CD
100
AcDbEntity
  8
0
100
AcDbVertex
100
AcDbPolygonMeshVertex
 10
-1.395133
 20
-2.175432
 30
2.01
 70
    64
  0
VERTEX
  5
36CE
100
AcDbEntity
  8
0
100
AcDbVertex
100
AcDbPolygonMeshVertex
 10
-1.637839
 20
-1.999096
 30
2.01
 70
    64
  0
VERTEX
  5
36CF
100
AcDbEntity
  8
0
100
AcDbVertex
100
AcDbPolygonMeshVertex
 10
-1.254065
 20
-1.981268
 30
2.01
 70
    64
  0
VERTEX
  5
36D0
100
AcDbEntity
  8
0
100
AcDbVertex
100
AcDbPolygonMeshVertex
 10
-1.254065
 20
-1.981268
 30
2.01
 70
    64
  0
VERTEX
  5
36D1
100
AcDbEntity
  8
0
100
AcDbVertex
100
AcDbPolygonMeshVertex
 10
-1.49677
 20
-1.804932
 30
2.01
 70
    64
  0
SEQEND
  5
36D2
100
AcDbEntity
  8
0
  0
POLYLINE
  5
36D3
100
AcDbEntity
  8
0
100
AcDbPolygonMesh
 66
     1
 10
0.0
 20
0.0
 30
0.0
 70
    16
 71
     6
 72
     3
  0
VERTEX
  5
36D4
100
AcDbEntity
  8
0
100
AcDbVertex
100
AcDbPolygonMeshVertex
 10
-1.509082
 20
-2.097992
 30
2.01
 70
    64
  0
VERTEX
  5
36D5
100
AcDbEntity
  8
0
100
AcDbVertex
100
AcDbPolygonMeshVertex
 10
-1.509082
 20
-2.097992
 30
0.705
 70
    64
  0
VERTEX
  5
36D6
100
AcDbEntity
  8
0
100
AcDbVertex
100
AcDbPolygonMeshVertex
 10
-1.509082
 20
-2.097992
 30
0.705
 70
    64
  0
VERTEX
  5
36D7
100
AcDbEntity
  8
0
100
AcDbVertex
100
AcDbPolygonMeshVertex
 10
-1.380484
 20
-1.895353
 30
2.01
 70
    64
  0
VERTEX
  5
36D8
100
AcDbEntity
  8
0
100
AcDbVertex
100
AcDbPolygonMeshVertex
 10
-1.380484
 20
-1.895353
 30
0.705
 70
    64
  0
VERTEX
  5
36D9
100
AcDbEntity
  8
0
100
AcDbVertex
100
AcDbPolygonMeshVertex
 10
-1.380484
 20
-1.895353
 30
0.705
 70
    64
  0
VERTEX
  5
36DA
100
AcDbEntity
  8
0
100
AcDbVertex
100
AcDbPolygonMeshVertex
 10
-1.127186
 20
-2.056101
 30
2.01
 70
    64
  0
VERTEX
  5
36DB
100
AcDbEntity
  8
0
100
AcDbVertex
100
AcDbPolygonMeshVertex
 10
-1.127186
 20
-2.056101
 30
0.705
 70
    64
  0
VERTEX
  5
36DC
100
AcDbEntity
  8
0
100
AcDbVertex
100
AcDbPolygonMeshVertex
 10
-1.380484
 20
-1.895353
 30
0.705
 70
    64
  0
VERTEX
  5
36DD
100
AcDbEntity
  8
0
100
AcDbVertex
100
AcDbPolygonMeshVertex
 10
-1.255784
 20
-2.25874
 30
2.01
 70
    64
  0
VERTEX
  5
36DE
100
AcDbEntity
  8
0
100
AcDbVertex
100
AcDbPolygonMeshVertex
 10
-1.255784
 20
-2.25874
 30
0.705
 70
    64
  0
VERTEX
  5
36DF
100
AcDbEntity
  8
0
100
AcDbVertex
100
AcDbPolygonMeshVertex
 10
-1.509082
 20
-2.097992
 30
0.705
 70
    64
  0
VERTEX
  5
36E0
100
AcDbEntity
  8
0
100
AcDbVertex
100
AcDbPolygonMeshVertex
 10
-1.255784
 20
-2.25874
 30
2.01
 70
    64
  0
VERTEX
  5
36E1
100
AcDbEntity
  8
0
100
AcDbVertex
100
AcDbPolygonMeshVertex
 10
-1.255784
 20
-2.25874
 30
2.01
 70
    64
  0
VERTEX
  5
36E2
100
AcDbEntity
  8
0
100
AcDbVertex
100
AcDbPolygonMeshVertex
 10
-1.509082
 20
-2.097992
 30
2.01
 70
    64
  0
VERTEX
  5
36E3
100
AcDbEntity
  8
0
100
AcDbVertex
100
AcDbPolygonMeshVertex
 10
-1.127186
 20
-2.056101
 30
2.01
 70
    64
  0
VERTEX
  5
36E4
100
AcDbEntity
  8
0
100
AcDbVertex
100
AcDbPolygonMeshVertex
 10
-1.127186
 20
-2.056101
 30
2.01
 70
    64
  0
VERTEX
  5
36E5
100
AcDbEntity
  8
0
100
AcDbVertex
100
AcDbPolygonMeshVertex
 10
-1.380484
 20
-1.895353
 30
2.01
 70
    64
  0
SEQEND
  5
36E6
100
AcDbEntity
  8
0
  0
POLYLINE
  5
36E7
100
AcDbEntity
  8
0
100
AcDbPolygonMesh
 66
     1
 10
0.0
 20
0.0
 30
0.0
 70
    16
 71
     6
 72
     3
  0
VERTEX
  5
36E8
100
AcDbEntity
  8
0
100
AcDbVertex
100
AcDbPolygonMeshVertex
 10
-1.37437
 20
-2.188608
 30
2.01
 70
    64
  0
VERTEX
  5
36E9
100
AcDbEntity
  8
0
100
AcDbVertex
100
AcDbPolygonMeshVertex
 10
-1.37437
 20
-2.188608
 30
0.705
 70
    64
  0
VERTEX
  5
36EA
100
AcDbEntity
  8
0
100
AcDbVertex
100
AcDbPolygonMeshVertex
 10
-1.37437
 20
-2.188608
 30
0.705
 70
    64
  0
VERTEX
  5
36EB
100
AcDbEntity
  8
0
100
AcDbVertex
100
AcDbPolygonMeshVertex
 10
-1.25875
 20
-1.978295
 30
2.01
 70
    64
  0
VERTEX
  5
36EC
100
AcDbEntity
  8
0
100
AcDbVertex
100
AcDbPolygonMeshVertex
 10
-1.25875
 20
-1.978295
 30
0.705
 70
    64
  0
VERTEX
  5
36ED
100
AcDbEntity
  8
0
100
AcDbVertex
100
AcDbPolygonMeshVertex
 10
-1.25875
 20
-1.978295
 30
0.705
 70
    64
  0
VERTEX
  5
36EE
100
AcDbEntity
  8
0
100
AcDbVertex
100
AcDbPolygonMeshVertex
 10
-0.995858
 20
-2.122821
 30
2.01
 70
    64
  0
VERTEX
  5
36EF
100
AcDbEntity
  8
0
100
AcDbVertex
100
AcDbPolygonMeshVertex
 10
-0.995858
 20
-2.122821
 30
0.705
 70
    64
  0
VERTEX
  5
36F0
100
AcDbEntity
  8
0
100
AcDbVertex
100
AcDbPolygonMeshVertex
 10
-1.25875
 20
-1.978295
 30
0.705
 70
    64
  0
VERTEX
  5
36F1
100
AcDbEntity
  8
0
100
AcDbVertex
100
AcDbPolygonMeshVertex
 10
-1.111478
 20
-2.333134
 30
2.01
 70
    64
  0
VERTEX
  5
36F2
100
AcDbEntity
  8
0
100
AcDbVertex
100
AcDbPolygonMeshVertex
 10
-1.111478
 20
-2.333134
 30
0.705
 70
    64
  0
VERTEX
  5
36F3
100
AcDbEntity
  8
0
100
AcDbVertex
100
AcDbPolygonMeshVertex
 10
-1.37437
 20
-2.188608
 30
0.705
 70
    64
  0
VERTEX
  5
36F4
100
AcDbEntity
  8
0
100
AcDbVertex
100
AcDbPolygonMeshVertex
 10
-1.111478
 20
-2.333134
 30
2.01
 70
    64
  0
VERTEX
  5
36F5
100
AcDbEntity
  8
0
100
AcDbVertex
100
AcDbPolygonMeshVertex
 10
-1.111478
 20
-2.333134
 30
2.01
 70
    64
  0
VERTEX
  5
36F6
100
AcDbEntity
  8
0
100
AcDbVertex
100
AcDbPolygonMeshVertex
 10
-1.37437
 20
-2.188608
 30
2.01
 70
    64
  0
VERTEX
  5
36F7
100
AcDbEntity
  8
0
100
AcDbVertex
100
AcDbPolygonMeshVertex
 10
-0.995858
 20
-2.122821
 30
2.01
 70
    64
  0
VERTEX
  5
36F8
100
AcDbEntity
  8
0
100
AcDbVertex
100
AcDbPolygonMeshVertex
 10
-0.995858
 20
-2.122821
 30
2.01
 70
    64
  0
VERTEX
  5
36F9
100
AcDbEntity
  8
0
100
AcDbVertex
100
AcDbPolygonMeshVertex
 10
-1.25875
 20
-1.978295
 30
2.01
 70
    64
  0
SEQEND
  5
36FA
100
AcDbEntity
  8
0
  0
POLYLINE
  5
36FB
100
AcDbEntity
  8
0
100
AcDbPolygonMesh
 66
     1
 10
0.0
 20
0.0
 30
0.0
 70
    16
 71
     6
 72
     3
  0
VERTEX
  5
36FC
100
AcDbEntity
  8
0
100
AcDbVertex
100
AcDbPolygonMeshVertex
 10
-1.234235
 20
-2.270587
 30
2.01
 70
    64
  0
VERTEX
  5
36FD
100
AcDbEntity
  8
0
100
AcDbVertex
100
AcDbPolygonMeshVertex
 10
-1.234235
 20
-2.270587
 30
0.705
 70
    64
  0
VERTEX
  5
36FE
100
AcDbEntity
  8
0
100
AcDbVertex
100
AcDbPolygonMeshVertex
 10
-1.234235
 20
-2.270587
 30
0.705
 70
    64
  0
VERTEX
  5
36FF
100
AcDbEntity
  8
0
100
AcDbVertex
100
AcDbPolygonMeshVertex
 10
-1.132048
 20
-2.053428
 30
2.01
 70
    64
  0
VERTEX
  5
3700
100
AcDbEntity
  8
0
100
AcDbVertex
100
AcDbPolygonMeshVertex
 10
-1.132048
 20
-2.053428
 30
0.705
 70
    64
  0
VERTEX
  5
3701
100
AcDbEntity
  8
0
100
AcDbVertex
100
AcDbPolygonMeshVertex
 10
-1.132048
 20
-2.053428
 30
0.705
 70
    64
  0
VERTEX
  5
3702
100
AcDbEntity
  8
0
100
AcDbVertex
100
AcDbPolygonMeshVertex
 10
-0.860599
 20
-2.181162
 30
2.01
 70
    64
  0
VERTEX
  5
3703
100
AcDbEntity
  8
0
100
AcDbVertex
100
AcDbPolygonMeshVertex
 10
-0.860599
 20
-2.181162
 30
0.705
 70
    64
  0
VERTEX
  5
3704
100
AcDbEntity
  8
0
100
AcDbVertex
100
AcDbPolygonMeshVertex
 10
-1.132048
 20
-2.053428
 30
0.705
 70
    64
  0
VERTEX
  5
3705
100
AcDbEntity
  8
0
100
AcDbVertex
100
AcDbPolygonMeshVertex
 10
-0.962787
 20
-2.398321
 30
2.01
 70
    64
  0
VERTEX
  5
3706
100
AcDbEntity
  8
0
100
AcDbVertex
100
AcDbPolygonMeshVertex
 10
-0.962787
 20
-2.398321
 30
0.705
 70
    64
  0
VERTEX
  5
3707
100
AcDbEntity
  8
0
100
AcDbVertex
100
AcDbPolygonMeshVertex
 10
-1.234235
 20
-2.270587
 30
0.705
 70
    64
  0
VERTEX
  5
3708
100
AcDbEntity
  8
0
100
AcDbVertex
100
AcDbPolygonMeshVertex
 10
-0.962787
 20
-2.398321
 30
2.01
 70
    64
  0
VERTEX
  5
3709
100
AcDbEntity
  8
0
100
AcDbVertex
100
AcDbPolygonMeshVertex
 10
-0.962787
 20
-2.398321
 30
2.01
 70
    64
  0
VERTEX
  5
370A
100
AcDbEntity
  8
0
100
AcDbVertex
100
AcDbPolygonMeshVertex
 10
-1.234235
 20
-2.270587
 30
2.01
 70
    64
  0
VERTEX
  5
370B
100
AcDbEntity
  8
0
100
AcDbVertex
100
AcDbPolygonMeshVertex
 10
-0.860599
 20
-2.181162
 30
2.01
 70
    64
  0
VERTEX
  5
370C
100
AcDbEntity
  8
0
100
AcDbVertex
100
AcDbPolygonMeshVertex
 10
-0.860599
 20
-2.181162
 30
2.01
 70
    64
  0
VERTEX
  5
370D
100
AcDbEntity
  8
0
100
AcDbVertex
100
AcDbPolygonMeshVertex
 10
-1.132048
 20
-2.053428
 30
2.01
 70
    64
  0
SEQEND
  5
370E
100
AcDbEntity
  8
0
  0
POLYLINE
  5
370F
100
AcDbEntity
  8
0
100
AcDbPolygonMesh
 66
     1
 10
0.0
 20
0.0
 30
0.0
 70
    16
 71
     6
 72
     3
  0
VERTEX
  5
3710
100
AcDbEntity
  8
0
100
AcDbVertex
100
AcDbPolygonMeshVertex
 10
-1.089228
 20
-2.343605
 30
2.01
 70
    64
  0
VERTEX
  5
3711
100
AcDbEntity
  8
0
100
AcDbVertex
100
AcDbPolygonMeshVertex
 10
-1.089228
 20
-2.343605
 30
0.705
 70
    64
  0
VERTEX
  5
3712
100
AcDbEntity
  8
0
100
AcDbVertex
100
AcDbPolygonMeshVertex
 10
-1.089228
 20
-2.343605
 30
0.705
 70
    64
  0
VERTEX
  5
3713
100
AcDbEntity
  8
0
100
AcDbVertex
100
AcDbPolygonMeshVertex
 10
-1.000878
 20
-2.120458
 30
2.01
 70
    64
  0
VERTEX
  5
3714
100
AcDbEntity
  8
0
100
AcDbVertex
100
AcDbPolygonMeshVertex
 10
-1.000878
 20
-2.120458
 30
0.705
 70
    64
  0
VERTEX
  5
3715
100
AcDbEntity
  8
0
100
AcDbVertex
100
AcDbPolygonMeshVertex
 10
-1.000878
 20
-2.120458
 30
0.705
 70
    64
  0
VERTEX
  5
3716
100
AcDbEntity
  8
0
100
AcDbVertex
100
AcDbPolygonMeshVertex
 10
-0.721945
 20
-2.230896
 30
2.01
 70
    64
  0
VERTEX
  5
3717
100
AcDbEntity
  8
0
100
AcDbVertex
100
AcDbPolygonMeshVertex
 10
-0.721945
 20
-2.230896
 30
0.705
 70
    64
  0
VERTEX
  5
3718
100
AcDbEntity
  8
0
100
AcDbVertex
100
AcDbPolygonMeshVertex
 10
-1.000878
 20
-2.120458
 30
0.705
 70
    64
  0
VERTEX
  5
3719
100
AcDbEntity
  8
0
100
AcDbVertex
100
AcDbPolygonMeshVertex
 10
-0.810295
 20
-2.454042
 30
2.01
 70
    64
  0
VERTEX
  5
371A
100
AcDbEntity
  8
0
100
AcDbVertex
100
AcDbPolygonMeshVertex
 10
-0.810295
 20
-2.454042
 30
0.705
 70
    64
  0
VERTEX
  5
371B
100
AcDbEntity
  8
0
100
AcDbVertex
100
AcDbPolygonMeshVertex
 10
-1.089228
 20
-2.343605
 30
0.705
 70
    64
  0
VERTEX
  5
371C
100
AcDbEntity
  8
0
100
AcDbVertex
100
AcDbPolygonMeshVertex
 10
-0.810295
 20
-2.454042
 30
2.01
 70
    64
  0
VERTEX
  5
371D
100
AcDbEntity
  8
0
100
AcDbVertex
100
AcDbPolygonMeshVertex
 10
-0.810295
 20
-2.454042
 30
2.01
 70
    64
  0
VERTEX
  5
371E
100
AcDbEntity
  8
0
100
AcDbVertex
100
AcDbPolygonMeshVertex
 10
-1.089228
 20
-2.343605
 30
2.01
 70
    64
  0
VERTEX
  5
371F
100
AcDbEntity
  8
0
100
AcDbVertex
100
AcDbPolygonMeshVertex
 10
-0.721945
 20
-2.230896
 30
2.01
 70
    64
  0
VERTEX
  5
3720
100
AcDbEntity
  8
0
100
AcDbVertex
100
AcDbPolygonMeshVertex
 10
-0.721945
 20
-2.230896
 30
2.01
 70
    64
  0
VERTEX
  5
3721
100
AcDbEntity
  8
0
100
AcDbVertex
100
AcDbPolygonMeshVertex
 10
-1.000878
 20
-2.120458
 30
2.01
 70
    64
  0
SEQEND
  5
3722
100
AcDbEntity
  8
0
  0
POLYLINE
  5
3723
100
AcDbEntity
  8
0
100
AcDbPolygonMesh
 66
     1
 10
0.0
 20
0.0
 30
0.0
 70
    16
 71
     6
 72
     3
  0
VERTEX
  5
3724
100
AcDbEntity
  8
0
100
AcDbVertex
100
AcDbPolygonMeshVertex
 10
-0.939922
 20
-2.407373
 30
2.01
 70
    64
  0
VERTEX
  5
3725
100
AcDbEntity
  8
0
100
AcDbVertex
100
AcDbPolygonMeshVertex
 10
-0.939922
 20
-2.407373
 30
0.705
 70
    64
  0
VERTEX
  5
3726
100
AcDbEntity
  8
0
100
AcDbVertex
100
AcDbPolygonMeshVertex
 10
-0.939922
 20
-2.407373
 30
0.705
 70
    64
  0
VERTEX
  5
3727
100
AcDbEntity
  8
0
100
AcDbVertex
100
AcDbPolygonMeshVertex
 10
-0.865758
 20
-2.17912
 30
2.01
 70
    64
  0
VERTEX
  5
3728
100
AcDbEntity
  8
0
100
AcDbVertex
100
AcDbPolygonMeshVertex
 10
-0.865758
 20
-2.17912
 30
0.705
 70
    64
  0
VERTEX
  5
3729
100
AcDbEntity
  8
0
100
AcDbVertex
100
AcDbPolygonMeshVertex
 10
-0.865758
 20
-2.17912
 30
0.705
 70
    64
  0
VERTEX
  5
372A
100
AcDbEntity
  8
0
100
AcDbVertex
100
AcDbPolygonMeshVertex
 10
-0.580441
 20
-2.271825
 30
2.01
 70
    64
  0
VERTEX
  5
372B
100
AcDbEntity
  8
0
100
AcDbVertex
100
AcDbPolygonMeshVertex
 10
-0.580441
 20
-2.271825
 30
0.705
 70
    64
  0
VERTEX
  5
372C
100
AcDbEntity
  8
0
100
AcDbVertex
100
AcDbPolygonMeshVertex
 10
-0.865758
 20
-2.17912
 30
0.705
 70
    64
  0
VERTEX
  5
372D
100
AcDbEntity
  8
0
100
AcDbVertex
100
AcDbPolygonMeshVertex
 10
-0.654605
 20
-2.500078
 30
2.01
 70
    64
  0
VERTEX
  5
372E
100
AcDbEntity
  8
0
100
AcDbVertex
100
AcDbPolygonMeshVertex
 10
-0.654605
 20
-2.500078
 30
0.705
 70
    64
  0
VERTEX
  5
372F
100
AcDbEntity
  8
0
100
AcDbVertex
100
AcDbPolygonMeshVertex
 10
-0.939922
 20
-2.407373
 30
0.705
 70
    64
  0
VERTEX
  5
3730
100
AcDbEntity
  8
0
100
AcDbVertex
100
AcDbPolygonMeshVertex
 10
-0.654605
 20
-2.500078
 30
2.01
 70
    64
  0
VERTEX
  5
3731
100
AcDbEntity
  8
0
100
AcDbVertex
100
AcDbPolygonMeshVertex
 10
-0.654605
 20
-2.500078
 30
2.01
 70
    64
  0
VERTEX
  5
3732
100
AcDbEntity
  8
0
100
AcDbVertex
100
AcDbPolygonMeshVertex
 10
-0.939922
 20
-2.407373
 30
2.01
 70
    64
  0
VERTEX
  5
3733
100
AcDbEntity
  8
0
100
AcDbVertex
100
AcDbPolygonMeshVertex
 10
-0.580441
 20
-2.271825
 30
2.01
 70
    64
  0
VERTEX
  5
3734
100
AcDbEntity
  8
0
100
AcDbVertex
100
AcDbPolygonMeshVertex
 10
-0.580441
 20
-2.271825
 30
2.01
 70
    64
  0
VERTEX
  5
3735
100
AcDbEntity
  8
0
100
AcDbVertex
100
AcDbPolygonMeshVertex
 10
-0.865758
 20
-2.17912
 30
2.01
 70
    64
  0
SEQEND
  5
3736
100
AcDbEntity
  8
0
  0
POLYLINE
  5
3737
100
AcDbEntity
  8
0
100
AcDbPolygonMesh
 66
     1
 10
0.0
 20
0.0
 30
0.0
 70
    16
 71
     6
 72
     3
  0
VERTEX
  5
3738
100
AcDbEntity
  8
0
100
AcDbVertex
100
AcDbPolygonMeshVertex
 10
-0.786907
 20
-2.461641
 30
2.01
 70
    64
  0
VERTEX
  5
3739
100
AcDbEntity
  8
0
100
AcDbVertex
100
AcDbPolygonMeshVertex
 10
-0.786907
 20
-2.461641
 30
0.705
 70
    64
  0
VERTEX
  5
373A
100
AcDbEntity
  8
0
100
AcDbVertex
100
AcDbPolygonMeshVertex
 10
-0.786907
 20
-2.461641
 30
0.705
 70
    64
  0
VERTEX
  5
373B
100
AcDbEntity
  8
0
100
AcDbVertex
100
AcDbPolygonMeshVertex
 10
-0.727222
 20
-2.229181
 30
2.01
 70
    64
  0
VERTEX
  5
373C
100
AcDbEntity
  8
0
100
AcDbVertex
100
AcDbPolygonMeshVertex
 10
-0.727222
 20
-2.229181
 30
0.705
 70
    64
  0
VERTEX
  5
373D
100
AcDbEntity
  8
0
100
AcDbVertex
100
AcDbPolygonMeshVertex
 10
-0.727222
 20
-2.229181
 30
0.705
 70
    64
  0
VERTEX
  5
373E
100
AcDbEntity
  8
0
100
AcDbVertex
100
AcDbPolygonMeshVertex
 10
-0.436647
 20
-2.303788
 30
2.01
 70
    64
  0
VERTEX
  5
373F
100
AcDbEntity
  8
0
100
AcDbVertex
100
AcDbPolygonMeshVertex
 10
-0.436647
 20
-2.303788
 30
0.705
 70
    64
  0
VERTEX
  5
3740
100
AcDbEntity
  8
0
100
AcDbVertex
100
AcDbPolygonMeshVertex
 10
-0.727222
 20
-2.229181
 30
0.705
 70
    64
  0
VERTEX
  5
3741
100
AcDbEntity
  8
0
100
AcDbVertex
100
AcDbPolygonMeshVertex
 10
-0.496332
 20
-2.536248
 30
2.01
 70
    64
  0
VERTEX
  5
3742
100
AcDbEntity
  8
0
100
AcDbVertex
100
AcDbPolygonMeshVertex
 10
-0.496332
 20
-2.536248
 30
0.705
 70
    64
  0
VERTEX
  5
3743
100
AcDbEntity
  8
0
100
AcDbVertex
100
AcDbPolygonMeshVertex
 10
-0.786907
 20
-2.461641
 30
0.705
 70
    64
  0
VERTEX
  5
3744
100
AcDbEntity
  8
0
100
AcDbVertex
100
AcDbPolygonMeshVertex
 10
-0.496332
 20
-2.536248
 30
2.01
 70
    64
  0
VERTEX
  5
3745
100
AcDbEntity
  8
0
100
AcDbVertex
100
AcDbPolygonMeshVertex
 10
-0.496332
 20
-2.536248
 30
2.01
 70
    64
  0
VERTEX
  5
3746
100
AcDbEntity
  8
0
100
AcDbVertex
100
AcDbPolygonMeshVertex
 10
-0.786907
 20
-2.461641
 30
2.01
 70
    64
  0
VERTEX
  5
3747
100
AcDbEntity
  8
0
100
AcDbVertex
100
AcDbPolygonMeshVertex
 10
-0.436647
 20
-2.303788
 30
2.01
 70
    64
  0
VERTEX
  5
3748
100
AcDbEntity
  8
0
100
AcDbVertex
100
AcDbPolygonMeshVertex
 10
-0.436647
 20
-2.303788
 30
2.01
 70
    64
  0
VERTEX
  5
3749
100
AcDbEntity
  8
0
100
AcDbVertex
100
AcDbPolygonMeshVertex
 10
-0.727222
 20
-2.229181
 30
2.01
 70
    64
  0
SEQEND
  5
374A
100
AcDbEntity
  8
0
  0
POLYLINE
  5
374B
100
AcDbEntity
  8
0
100
AcDbPolygonMesh
 66
     1
 10
0.0
 20
0.0
 30
0.0
 70
    16
 71
     6
 72
     3
  0
VERTEX
  5
374C
100
AcDbEntity
  8
0
100
AcDbVertex
100
AcDbPolygonMeshVertex
 10
-0.630787
 20
-2.506194
 30
2.01
 70
    64
  0
VERTEX
  5
374D
100
AcDbEntity
  8
0
100
AcDbVertex
100
AcDbPolygonMeshVertex
 10
-0.630787
 20
-2.506194
 30
0.705
 70
    64
  0
VERTEX
  5
374E
100
AcDbEntity
  8
0
100
AcDbVertex
100
AcDbPolygonMeshVertex
 10
-0.630787
 20
-2.506194
 30
0.705
 70
    64
  0
VERTEX
  5
374F
100
AcDbEntity
  8
0
100
AcDbVertex
100
AcDbPolygonMeshVertex
 10
-0.585815
 20
-2.270445
 30
2.01
 70
    64
  0
VERTEX
  5
3750
100
AcDbEntity
  8
0
100
AcDbVertex
100
AcDbPolygonMeshVertex
 10
-0.585815
 20
-2.270445
 30
0.705
 70
    64
  0
VERTEX
  5
3751
100
AcDbEntity
  8
0
100
AcDbVertex
100
AcDbPolygonMeshVertex
 10
-0.585815
 20
-2.270445
 30
0.705
 70
    64
  0
VERTEX
  5
3752
100
AcDbEntity
  8
0
100
AcDbVertex
100
AcDbPolygonMeshVertex
 10
-0.291129
 20
-2.326659
 30
2.01
 70
    64
  0
VERTEX
  5
3753
100
AcDbEntity
  8
0
100
AcDbVertex
100
AcDbPolygonMeshVertex
 10
-0.291129
 20
-2.326659
 30
0.705
 70
    64
  0
VERTEX
  5
3754
100
AcDbEntity
  8
0
100
AcDbVertex
100
AcDbPolygonMeshVertex
 10
-0.585815
 20
-2.270445
 30
0.705
 70
    64
  0
VERTEX
  5
3755
100
AcDbEntity
  8
0
100
AcDbVertex
100
AcDbPolygonMeshVertex
 10
-0.336101
 20
-2.562408
 30
2.01
 70
    64
  0
VERTEX
  5
3756
100
AcDbEntity
  8
0
100
AcDbVertex
100
AcDbPolygonMeshVertex
 10
-0.336101
 20
-2.562408
 30
0.705
 70
    64
  0
VERTEX
  5
3757
100
AcDbEntity
  8
0
100
AcDbVertex
100
AcDbPolygonMeshVertex
 10
-0.630787
 20
-2.506194
 30
0.705
 70
    64
  0
VERTEX
  5
3758
100
AcDbEntity
  8
0
100
AcDbVertex
100
AcDbPolygonMeshVertex
 10
-0.336101
 20
-2.562408
 30
2.01
 70
    64
  0
VERTEX
  5
3759
100
AcDbEntity
  8
0
100
AcDbVertex
100
AcDbPolygonMeshVertex
 10
-0.336101
 20
-2.562408
 30
2.01
 70
    64
  0
VERTEX
  5
375A
100
AcDbEntity
  8
0
100
AcDbVertex
100
AcDbPolygonMeshVertex
 10
-0.630787
 20
-2.506194
 30
2.01
 70
    64
  0
VERTEX
  5
375B
100
AcDbEntity
  8
0
100
AcDbVertex
100
AcDbPolygonMeshVertex
 10
-0.291129
 20
-2.326659
 30
2.01
 70
    64
  0
VERTEX
  5
375C
100
AcDbEntity
  8
0
100
AcDbVertex
100
AcDbPolygonMeshVertex
 10
-0.291129
 20
-2.326659
 30
2.01
 70
    64
  0
VERTEX
  5
375D
100
AcDbEntity
  8
0
100
AcDbVertex
100
AcDbPolygonMeshVertex
 10
-0.585815
 20
-2.270445
 30
2.01
 70
    64
  0
SEQEND
  5
375E
100
AcDbEntity
  8
0
  0
POLYLINE
  5
375F
100
AcDbEntity
  8
0
100
AcDbPolygonMesh
 66
     1
 10
0.0
 20
0.0
 30
0.0
 70
    16
 71
     6
 72
     3
  0
VERTEX
  5
3760
100
AcDbEntity
  8
0
100
AcDbVertex
100
AcDbPolygonMeshVertex
 10
-0.472177
 20
-2.540856
 30
2.01
 70
    64
  0
VERTEX
  5
3761
100
AcDbEntity
  8
0
100
AcDbVertex
100
AcDbPolygonMeshVertex
 10
-0.472177
 20
-2.540856
 30
0.705
 70
    64
  0
VERTEX
  5
3762
100
AcDbEntity
  8
0
100
AcDbVertex
100
AcDbPolygonMeshVertex
 10
-0.472177
 20
-2.540856
 30
0.705
 70
    64
  0
VERTEX
  5
3763
100
AcDbEntity
  8
0
100
AcDbVertex
100
AcDbPolygonMeshVertex
 10
-0.442097
 20
-2.302748
 30
2.01
 70
    64
  0
VERTEX
  5
3764
100
AcDbEntity
  8
0
100
AcDbVertex
100
AcDbPolygonMeshVertex
 10
-0.442097
 20
-2.302748
 30
0.705
 70
    64
  0
VERTEX
  5
3765
100
AcDbEntity
  8
0
100
AcDbVertex
100
AcDbPolygonMeshVertex
 10
-0.442097
 20
-2.302748
 30
0.705
 70
    64
  0
VERTEX
  5
3766
100
AcDbEntity
  8
0
100
AcDbVertex
100
AcDbPolygonMeshVertex
 10
-0.144463
 20
-2.340348
 30
2.01
 70
    64
  0
VERTEX
  5
3767
100
AcDbEntity
  8
0
100
AcDbVertex
100
AcDbPolygonMeshVertex
 10
-0.144463
 20
-2.340348
 30
0.705
 70
    64
  0
VERTEX
  5
3768
100
AcDbEntity
  8
0
100
AcDbVertex
100
AcDbPolygonMeshVertex
 10
-0.442097
 20
-2.302748
 30
0.705
 70
    64
  0
VERTEX
  5
3769
100
AcDbEntity
  8
0
100
AcDbVertex
100
AcDbPolygonMeshVertex
 10
-0.174543
 20
-2.578456
 30
2.01
 70
    64
  0
VERTEX
  5
376A
100
AcDbEntity
  8
0
100
AcDbVertex
100
AcDbPolygonMeshVertex
 10
-0.174543
 20
-2.578456
 30
0.705
 70
    64
  0
VERTEX
  5
376B
100
AcDbEntity
  8
0
100
AcDbVertex
100
AcDbPolygonMeshVertex
 10
-0.472177
 20
-2.540856
 30
0.705
 70
    64
  0
VERTEX
  5
376C
100
AcDbEntity
  8
0
100
AcDbVertex
100
AcDbPolygonMeshVertex
 10
-0.174543
 20
-2.578456
 30
2.01
 70
    64
  0
VERTEX
  5
376D
100
AcDbEntity
  8
0
100
AcDbVertex
100
AcDbPolygonMeshVertex
 10
-0.174543
 20
-2.578456
 30
2.01
 70
    64
  0
VERTEX
  5
376E
100
AcDbEntity
  8
0
100
AcDbVertex
100
AcDbPolygonMeshVertex
 10
-0.472177
 20
-2.540856
 30
2.01
 70
    64
  0
VERTEX
  5
376F
100
AcDbEntity
  8
0
100
AcDbVertex
100
AcDbPolygonMeshVertex
 10
-0.144463
 20
-2.340348
 30
2.01
 70
    64
  0
VERTEX
  5
3770
100
AcDbEntity
  8
0
100
AcDbVertex
100
AcDbPolygonMeshVertex
 10
-0.144463
 20
-2.340348
 30
2.01
 70
    64
  0
VERTEX
  5
3771
100
AcDbEntity
  8
0
100
AcDbVertex
100
AcDbPolygonMeshVertex
 10
-0.442097
 20
-2.302748
 30
2.01
 70
    64
  0
SEQEND
  5
3772
100
AcDbEntity
  8
0
  0
POLYLINE
  5
3773
100
AcDbEntity
  8
0
100
AcDbPolygonMesh
 66
     1
 10
0.0
 20
0.0
 30
0.0
 70
    16
 71
     6
 72
     3
  0
VERTEX
  5
3774
100
AcDbEntity
  8
0
100
AcDbVertex
100
AcDbPolygonMeshVertex
 10
-0.311704
 20
-2.56549
 30
2.01
 70
    64
  0
VERTEX
  5
3775
100
AcDbEntity
  8
0
100
AcDbVertex
100
AcDbPolygonMeshVertex
 10
-0.311704
 20
-2.56549
 30
0.705
 70
    64
  0
VERTEX
  5
3776
100
AcDbEntity
  8
0
100
AcDbVertex
100
AcDbPolygonMeshVertex
 10
-0.311704
 20
-2.56549
 30
0.705
 70
    64
  0
VERTEX
  5
3777
100
AcDbEntity
  8
0
100
AcDbVertex
100
AcDbPolygonMeshVertex
 10
-0.296634
 20
-2.325964
 30
2.01
 70
    64
  0
VERTEX
  5
3778
100
AcDbEntity
  8
0
100
AcDbVertex
100
AcDbPolygonMeshVertex
 10
-0.296634
 20
-2.325964
 30
0.705
 70
    64
  0
VERTEX
  5
3779
100
AcDbEntity
  8
0
100
AcDbVertex
100
AcDbPolygonMeshVertex
 10
-0.296634
 20
-2.325964
 30
0.705
 70
    64
  0
VERTEX
  5
377A
100
AcDbEntity
  8
0
100
AcDbVertex
100
AcDbPolygonMeshVertex
 10
0.002774
 20
-2.344801
 30
2.01
 70
    64
  0
VERTEX
  5
377B
100
AcDbEntity
  8
0
100
AcDbVertex
100
AcDbPolygonMeshVertex
 10
0.002774
 20
-2.344801
 30
0.705
 70
    64
  0
VERTEX
  5
377C
100
AcDbEntity
  8
0
100
AcDbVertex
100
AcDbPolygonMeshVertex
 10
-0.296634
 20
-2.325964
 30
0.705
 70
    64
  0
VERTEX
  5
377D
100
AcDbEntity
  8
0
100
AcDbVertex
100
AcDbPolygonMeshVertex
 10
-0.012296
 20
-2.584328
 30
2.01
 70
    64
  0
VERTEX
  5
377E
100
AcDbEntity
  8
0
100
AcDbVertex
100
AcDbPolygonMeshVertex
 10
-0.012296
 20
-2.584328
 30
0.705
 70
    64
  0
VERTEX
  5
377F
100
AcDbEntity
  8
0
100
AcDbVertex
100
AcDbPolygonMeshVertex
 10
-0.311704
 20
-2.56549
 30
0.705
 70
    64
  0
VERTEX
  5
3780
100
AcDbEntity
  8
0
100
AcDbVertex
100
AcDbPolygonMeshVertex
 10
-0.012296
 20
-2.584328
 30
2.01
 70
    64
  0
VERTEX
  5
3781
100
AcDbEntity
  8
0
100
AcDbVertex
100
AcDbPolygonMeshVertex
 10
-0.012296
 20
-2.584328
 30
2.01
 70
    64
  0
VERTEX
  5
3782
100
AcDbEntity
  8
0
100
AcDbVertex
100
AcDbPolygonMeshVertex
 10
-0.311704
 20
-2.56549
 30
2.01
 70
    64
  0
VERTEX
  5
3783
100
AcDbEntity
  8
0
100
AcDbVertex
100
AcDbPolygonMeshVertex
 10
0.002774
 20
-2.344801
 30
2.01
 70
    64
  0
VERTEX
  5
3784
100
AcDbEntity
  8
0
100
AcDbVertex
100
AcDbPolygonMeshVertex
 10
0.002774
 20
-2.344801
 30
2.01
 70
    64
  0
VERTEX
  5
3785
100
AcDbEntity
  8
0
100
AcDbVertex
100
AcDbPolygonMeshVertex
 10
-0.296634
 20
-2.325964
 30
2.01
 70
    64
  0
SEQEND
  5
3786
100
AcDbEntity
  8
0
  0
POLYLINE
  5
3787
100
AcDbEntity
  8
0
100
AcDbPolygonMesh
 66
     1
 10
0.0
 20
0.0
 30
0.0
 70
    16
 71
     6
 72
     3
  0
VERTEX
  5
3788
100
AcDbEntity
  8
0
100
AcDbVertex
100
AcDbPolygonMeshVertex
 10
-0.15
 20
-2.58
 30
2.01
 70
    64
  0
VERTEX
  5
3789
100
AcDbEntity
  8
0
100
AcDbVertex
100
AcDbPolygonMeshVertex
 10
-0.15
 20
-2.58
 30
0.705
 70
    64
  0
VERTEX
  5
378A
100
AcDbEntity
  8
0
100
AcDbVertex
100
AcDbPolygonMeshVertex
 10
-0.15
 20
-2.58
 30
0.705
 70
    64
  0
VERTEX
  5
378B
100
AcDbEntity
  8
0
100
AcDbVertex
100
AcDbPolygonMeshVertex
 10
-0.15
 20
-2.34
 30
2.01
 70
    64
  0
VERTEX
  5
378C
100
AcDbEntity
  8
0
100
AcDbVertex
100
AcDbPolygonMeshVertex
 10
-0.15
 20
-2.34
 30
0.705
 70
    64
  0
VERTEX
  5
378D
100
AcDbEntity
  8
0
100
AcDbVertex
100
AcDbPolygonMeshVertex
 10
-0.15
 20
-2.34
 30
0.705
 70
    64
  0
VERTEX
  5
378E
100
AcDbEntity
  8
0
100
AcDbVertex
100
AcDbPolygonMeshVertex
 10
0.15
 20
-2.34
 30
2.01
 70
    64
  0
VERTEX
  5
378F
100
AcDbEntity
  8
0
100
AcDbVertex
100
AcDbPolygonMeshVertex
 10
0.15
 20
-2.34
 30
0.705
 70
    64
  0
VERTEX
  5
3790
100
AcDbEntity
  8
0
100
AcDbVertex
100
AcDbPolygonMeshVertex
 10
-0.15
 20
-2.34
 30
0.705
 70
    64
  0
VERTEX
  5
3791
100
AcDbEntity
  8
0
100
AcDbVertex
100
AcDbPolygonMeshVertex
 10
0.15
 20
-2.58
 30
2.01
 70
    64
  0
VERTEX
  5
3792
100
AcDbEntity
  8
0
100
AcDbVertex
100
AcDbPolygonMeshVertex
 10
0.15
 20
-2.58
 30
0.705
 70
    64
  0
VERTEX
  5
3793
100
AcDbEntity
  8
0
100
AcDbVertex
100
AcDbPolygonMeshVertex
 10
-0.15
 20
-2.58
 30
0.705
 70
    64
  0
VERTEX
  5
3794
100
AcDbEntity
  8
0
100
AcDbVertex
100
AcDbPolygonMeshVertex
 10
0.15
 20
-2.58
 30
2.01
 70
    64
  0
VERTEX
  5
3795
100
AcDbEntity
  8
0
100
AcDbVertex
100
AcDbPolygonMeshVertex
 10
0.15
 20
-2.58
 30
2.01
 70
    64
  0
VERTEX
  5
3796
100
AcDbEntity
  8
0
100
AcDbVertex
100
AcDbPolygonMeshVertex
 10
-0.15
 20
-2.58
 30
2.01
 70
    64
  0
VERTEX
  5
3797
100
AcDbEntity
  8
0
100
AcDbVertex
100
AcDbPolygonMeshVertex
 10
0.15
 20
-2.34
 30
2.01
 70
    64
  0
VERTEX
  5
3798
100
AcDbEntity
  8
0
100
AcDbVertex
100
AcDbPolygonMeshVertex
 10
0.15
 20
-2.34
 30
2.01
 70
    64
  0
VERTEX
  5
3799
100
AcDbEntity
  8
0
100
AcDbVertex
100
AcDbPolygonMeshVertex
 10
-0.15
 20
-2.34
 30
2.01
 70
    64
  0
SEQEND
  5
379A
100
AcDbEntity
  8
0
  0
POLYLINE
  5
379B
100
AcDbEntity
  8
0
100
AcDbPolygonMesh
 66
     1
 10
0.0
 20
0.0
 30
0.0
 70
    16
 71
     6
 72
     3
  0
VERTEX
  5
379C
100
AcDbEntity
  8
0
100
AcDbVertex
100
AcDbPolygonMeshVertex
 10
0.012296
 20
-2.584328
 30
2.01
 70
    64
  0
VERTEX
  5
379D
100
AcDbEntity
  8
0
100
AcDbVertex
100
AcDbPolygonMeshVertex
 10
0.012296
 20
-2.584328
 30
0.705
 70
    64
  0
VERTEX
  5
379E
100
AcDbEntity
  8
0
100
AcDbVertex
100
AcDbPolygonMeshVertex
 10
0.012296
 20
-2.584328
 30
0.705
 70
    64
  0
VERTEX
  5
379F
100
AcDbEntity
  8
0
100
AcDbVertex
100
AcDbPolygonMeshVertex
 10
-0.002774
 20
-2.344801
 30
2.01
 70
    64
  0
VERTEX
  5
37A0
100
AcDbEntity
  8
0
100
AcDbVertex
100
AcDbPolygonMeshVertex
 10
-0.002774
 20
-2.344801
 30
0.705
 70
    64
  0
VERTEX
  5
37A1
100
AcDbEntity
  8
0
100
AcDbVertex
100
AcDbPolygonMeshVertex
 10
-0.002774
 20
-2.344801
 30
0.705
 70
    64
  0
VERTEX
  5
37A2
100
AcDbEntity
  8
0
100
AcDbVertex
100
AcDbPolygonMeshVertex
 10
0.296634
 20
-2.325964
 30
2.01
 70
    64
  0
VERTEX
  5
37A3
100
AcDbEntity
  8
0
100
AcDbVertex
100
AcDbPolygonMeshVertex
 10
0.296634
 20
-2.325964
 30
0.705
 70
    64
  0
VERTEX
  5
37A4
100
AcDbEntity
  8
0
100
AcDbVertex
100
AcDbPolygonMeshVertex
 10
-0.002774
 20
-2.344801
 30
0.705
 70
    64
  0
VERTEX
  5
37A5
100
AcDbEntity
  8
0
100
AcDbVertex
100
AcDbPolygonMeshVertex
 10
0.311704
 20
-2.56549
 30
2.01
 70
    64
  0
VERTEX
  5
37A6
100
AcDbEntity
  8
0
100
AcDbVertex
100
AcDbPolygonMeshVertex
 10
0.311704
 20
-2.56549
 30
0.705
 70
    64
  0
VERTEX
  5
37A7
100
AcDbEntity
  8
0
100
AcDbVertex
100
AcDbPolygonMeshVertex
 10
0.012296
 20
-2.584328
 30
0.705
 70
    64
  0
VERTEX
  5
37A8
100
AcDbEntity
  8
0
100
AcDbVertex
100
AcDbPolygonMeshVertex
 10
0.311704
 20
-2.56549
 30
2.01
 70
    64
  0
VERTEX
  5
37A9
100
AcDbEntity
  8
0
100
AcDbVertex
100
AcDbPolygonMeshVertex
 10
0.311704
 20
-2.56549
 30
2.01
 70
    64
  0
VERTEX
  5
37AA
100
AcDbEntity
  8
0
100
AcDbVertex
100
AcDbPolygonMeshVertex
 10
0.012296
 20
-2.584328
 30
2.01
 70
    64
  0
VERTEX
  5
37AB
100
AcDbEntity
  8
0
100
AcDbVertex
100
AcDbPolygonMeshVertex
 10
0.296634
 20
-2.325964
 30
2.01
 70
    64
  0
VERTEX
  5
37AC
100
AcDbEntity
  8
0
100
AcDbVertex
100
AcDbPolygonMeshVertex
 10
0.296634
 20
-2.325964
 30
2.01
 70
    64
  0
VERTEX
  5
37AD
100
AcDbEntity
  8
0
100
AcDbVertex
100
AcDbPolygonMeshVertex
 10
-0.002774
 20
-2.344801
 30
2.01
 70
    64
  0
SEQEND
  5
37AE
100
AcDbEntity
  8
0
  0
POLYLINE
  5
37AF
100
AcDbEntity
  8
0
100
AcDbPolygonMesh
 66
     1
 10
0.0
 20
0.0
 30
0.0
 70
    16
 71
     6
 72
     3
  0
VERTEX
  5
37B0
100
AcDbEntity
  8
0
100
AcDbVertex
100
AcDbPolygonMeshVertex
 10
0.174543
 20
-2.578456
 30
2.01
 70
    64
  0
VERTEX
  5
37B1
100
AcDbEntity
  8
0
100
AcDbVertex
100
AcDbPolygonMeshVertex
 10
0.174543
 20
-2.578456
 30
0.705
 70
    64
  0
VERTEX
  5
37B2
100
AcDbEntity
  8
0
100
AcDbVertex
100
AcDbPolygonMeshVertex
 10
0.174543
 20
-2.578456
 30
0.705
 70
    64
  0
VERTEX
  5
37B3
100
AcDbEntity
  8
0
100
AcDbVertex
100
AcDbPolygonMeshVertex
 10
0.144463
 20
-2.340348
 30
2.01
 70
    64
  0
VERTEX
  5
37B4
100
AcDbEntity
  8
0
100
AcDbVertex
100
AcDbPolygonMeshVertex
 10
0.144463
 20
-2.340348
 30
0.705
 70
    64
  0
VERTEX
  5
37B5
100
AcDbEntity
  8
0
100
AcDbVertex
100
AcDbPolygonMeshVertex
 10
0.144463
 20
-2.340348
 30
0.705
 70
    64
  0
VERTEX
  5
37B6
100
AcDbEntity
  8
0
100
AcDbVertex
100
AcDbPolygonMeshVertex
 10
0.442097
 20
-2.302748
 30
2.01
 70
    64
  0
VERTEX
  5
37B7
100
AcDbEntity
  8
0
100
AcDbVertex
100
AcDbPolygonMeshVertex
 10
0.442097
 20
-2.302748
 30
0.705
 70
    64
  0
VERTEX
  5
37B8
100
AcDbEntity
  8
0
100
AcDbVertex
100
AcDbPolygonMeshVertex
 10
0.144463
 20
-2.340348
 30
0.705
 70
    64
  0
VERTEX
  5
37B9
100
AcDbEntity
  8
0
100
AcDbVertex
100
AcDbPolygonMeshVertex
 10
0.472177
 20
-2.540856
 30
2.01
 70
    64
  0
VERTEX
  5
37BA
100
AcDbEntity
  8
0
100
AcDbVertex
100
AcDbPolygonMeshVertex
 10
0.472177
 20
-2.540856
 30
0.705
 70
    64
  0
VERTEX
  5
37BB
100
AcDbEntity
  8
0
100
AcDbVertex
100
AcDbPolygonMeshVertex
 10
0.174543
 20
-2.578456
 30
0.705
 70
    64
  0
VERTEX
  5
37BC
100
AcDbEntity
  8
0
100
AcDbVertex
100
AcDbPolygonMeshVertex
 10
0.472177
 20
-2.540856
 30
2.01
 70
    64
  0
VERTEX
  5
37BD
100
AcDbEntity
  8
0
100
AcDbVertex
100
AcDbPolygonMeshVertex
 10
0.472177
 20
-2.540856
 30
2.01
 70
    64
  0
VERTEX
  5
37BE
100
AcDbEntity
  8
0
100
AcDbVertex
100
AcDbPolygonMeshVertex
 10
0.174543
 20
-2.578456
 30
2.01
 70
    64
  0
VERTEX
  5
37BF
100
AcDbEntity
  8
0
100
AcDbVertex
100
AcDbPolygonMeshVertex
 10
0.442097
 20
-2.302748
 30
2.01
 70
    64
  0
VERTEX
  5
37C0
100
AcDbEntity
  8
0
100
AcDbVertex
100
AcDbPolygonMeshVertex
 10
0.442097
 20
-2.302748
 30
2.01
 70
    64
  0
VERTEX
  5
37C1
100
AcDbEntity
  8
0
100
AcDbVertex
100
AcDbPolygonMeshVertex
 10
0.144463
 20
-2.340348
 30
2.01
 70
    64
  0
SEQEND
  5
37C2
100
AcDbEntity
  8
0
  0
POLYLINE
  5
37C3
100
AcDbEntity
  8
0
100
AcDbPolygonMesh
 66
     1
 10
0.0
 20
0.0
 30
0.0
 70
    16
 71
     6
 72
     3
  0
VERTEX
  5
37C4
100
AcDbEntity
  8
0
100
AcDbVertex
100
AcDbPolygonMeshVertex
 10
0.336101
 20
-2.562408
 30
2.01
 70
    64
  0
VERTEX
  5
37C5
100
AcDbEntity
  8
0
100
AcDbVertex
100
AcDbPolygonMeshVertex
 10
0.336101
 20
-2.562408
 30
0.705
 70
    64
  0
VERTEX
  5
37C6
100
AcDbEntity
  8
0
100
AcDbVertex
100
AcDbPolygonMeshVertex
 10
0.336101
 20
-2.562408
 30
0.705
 70
    64
  0
VERTEX
  5
37C7
100
AcDbEntity
  8
0
100
AcDbVertex
100
AcDbPolygonMeshVertex
 10
0.291129
 20
-2.326659
 30
2.01
 70
    64
  0
VERTEX
  5
37C8
100
AcDbEntity
  8
0
100
AcDbVertex
100
AcDbPolygonMeshVertex
 10
0.291129
 20
-2.326659
 30
0.705
 70
    64
  0
VERTEX
  5
37C9
100
AcDbEntity
  8
0
100
AcDbVertex
100
AcDbPolygonMeshVertex
 10
0.291129
 20
-2.326659
 30
0.705
 70
    64
  0
VERTEX
  5
37CA
100
AcDbEntity
  8
0
100
AcDbVertex
100
AcDbPolygonMeshVertex
 10
0.585815
 20
-2.270445
 30
2.01
 70
    64
  0
VERTEX
  5
37CB
100
AcDbEntity
  8
0
100
AcDbVertex
100
AcDbPolygonMeshVertex
 10
0.585815
 20
-2.270445
 30
0.705
 70
    64
  0
VERTEX
  5
37CC
100
AcDbEntity
  8
0
100
AcDbVertex
100
AcDbPolygonMeshVertex
 10
0.291129
 20
-2.326659
 30
0.705
 70
    64
  0
VERTEX
  5
37CD
100
AcDbEntity
  8
0
100
AcDbVertex
100
AcDbPolygonMeshVertex
 10
0.630787
 20
-2.506194
 30
2.01
 70
    64
  0
VERTEX
  5
37CE
100
AcDbEntity
  8
0
100
AcDbVertex
100
AcDbPolygonMeshVertex
 10
0.630787
 20
-2.506194
 30
0.705
 70
    64
  0
VERTEX
  5
37CF
100
AcDbEntity
  8
0
100
AcDbVertex
100
AcDbPolygonMeshVertex
 10
0.336101
 20
-2.562408
 30
0.705
 70
    64
  0
VERTEX
  5
37D0
100
AcDbEntity
  8
0
100
AcDbVertex
100
AcDbPolygonMeshVertex
 10
0.630787
 20
-2.506194
 30
2.01
 70
    64
  0
VERTEX
  5
37D1
100
AcDbEntity
  8
0
100
AcDbVertex
100
AcDbPolygonMeshVertex
 10
0.630787
 20
-2.506194
 30
2.01
 70
    64
  0
VERTEX
  5
37D2
100
AcDbEntity
  8
0
100
AcDbVertex
100
AcDbPolygonMeshVertex
 10
0.336101
 20
-2.562408
 30
2.01
 70
    64
  0
VERTEX
  5
37D3
100
AcDbEntity
  8
0
100
AcDbVertex
100
AcDbPolygonMeshVertex
 10
0.585815
 20
-2.270445
 30
2.01
 70
    64
  0
VERTEX
  5
37D4
100
AcDbEntity
  8
0
100
AcDbVertex
100
AcDbPolygonMeshVertex
 10
0.585815
 20
-2.270445
 30
2.01
 70
    64
  0
VERTEX
  5
37D5
100
AcDbEntity
  8
0
100
AcDbVertex
100
AcDbPolygonMeshVertex
 10
0.291129
 20
-2.326659
 30
2.01
 70
    64
  0
SEQEND
  5
37D6
100
AcDbEntity
  8
0
  0
POLYLINE
  5
37D7
100
AcDbEntity
  8
0
100
AcDbPolygonMesh
 66
     1
 10
0.0
 20
0.0
 30
0.0
 70
    16
 71
     6
 72
     3
  0
VERTEX
  5
37D8
100
AcDbEntity
  8
0
100
AcDbVertex
100
AcDbPolygonMeshVertex
 10
0.496332
 20
-2.536248
 30
2.01
 70
    64
  0
VERTEX
  5
37D9
100
AcDbEntity
  8
0
100
AcDbVertex
100
AcDbPolygonMeshVertex
 10
0.496332
 20
-2.536248
 30
0.705
 70
    64
  0
VERTEX
  5
37DA
100
AcDbEntity
  8
0
100
AcDbVertex
100
AcDbPolygonMeshVertex
 10
0.496332
 20
-2.536248
 30
0.705
 70
    64
  0
VERTEX
  5
37DB
100
AcDbEntity
  8
0
100
AcDbVertex
100
AcDbPolygonMeshVertex
 10
0.436647
 20
-2.303788
 30
2.01
 70
    64
  0
VERTEX
  5
37DC
100
AcDbEntity
  8
0
100
AcDbVertex
100
AcDbPolygonMeshVertex
 10
0.436647
 20
-2.303788
 30
0.705
 70
    64
  0
VERTEX
  5
37DD
100
AcDbEntity
  8
0
100
AcDbVertex
100
AcDbPolygonMeshVertex
 10
0.436647
 20
-2.303788
 30
0.705
 70
    64
  0
VERTEX
  5
37DE
100
AcDbEntity
  8
0
100
AcDbVertex
100
AcDbPolygonMeshVertex
 10
0.727222
 20
-2.229181
 30
2.01
 70
    64
  0
VERTEX
  5
37DF
100
AcDbEntity
  8
0
100
AcDbVertex
100
AcDbPolygonMeshVertex
 10
0.727222
 20
-2.229181
 30
0.705
 70
    64
  0
VERTEX
  5
37E0
100
AcDbEntity
  8
0
100
AcDbVertex
100
AcDbPolygonMeshVertex
 10
0.436647
 20
-2.303788
 30
0.705
 70
    64
  0
VERTEX
  5
37E1
100
AcDbEntity
  8
0
100
AcDbVertex
100
AcDbPolygonMeshVertex
 10
0.786907
 20
-2.461641
 30
2.01
 70
    64
  0
VERTEX
  5
37E2
100
AcDbEntity
  8
0
100
AcDbVertex
100
AcDbPolygonMeshVertex
 10
0.786907
 20
-2.461641
 30
0.705
 70
    64
  0
VERTEX
  5
37E3
100
AcDbEntity
  8
0
100
AcDbVertex
100
AcDbPolygonMeshVertex
 10
0.496332
 20
-2.536248
 30
0.705
 70
    64
  0
VERTEX
  5
37E4
100
AcDbEntity
  8
0
100
AcDbVertex
100
AcDbPolygonMeshVertex
 10
0.786907
 20
-2.461641
 30
2.01
 70
    64
  0
VERTEX
  5
37E5
100
AcDbEntity
  8
0
100
AcDbVertex
100
AcDbPolygonMeshVertex
 10
0.786907
 20
-2.461641
 30
2.01
 70
    64
  0
VERTEX
  5
37E6
100
AcDbEntity
  8
0
100
AcDbVertex
100
AcDbPolygonMeshVertex
 10
0.496332
 20
-2.536248
 30
2.01
 70
    64
  0
VERTEX
  5
37E7
100
AcDbEntity
  8
0
100
AcDbVertex
100
AcDbPolygonMeshVertex
 10
0.727222
 20
-2.229181
 30
2.01
 70
    64
  0
VERTEX
  5
37E8
100
AcDbEntity
  8
0
100
AcDbVertex
100
AcDbPolygonMeshVertex
 10
0.727222
 20
-2.229181
 30
2.01
 70
    64
  0
VERTEX
  5
37E9
100
AcDbEntity
  8
0
100
AcDbVertex
100
AcDbPolygonMeshVertex
 10
0.436647
 20
-2.303788
 30
2.01
 70
    64
  0
SEQEND
  5
37EA
100
AcDbEntity
  8
0
  0
POLYLINE
  5
37EB
100
AcDbEntity
  8
0
100
AcDbPolygonMesh
 66
     1
 10
0.0
 20
0.0
 30
0.0
 70
    16
 71
     6
 72
     3
  0
VERTEX
  5
37EC
100
AcDbEntity
  8
0
100
AcDbVertex
100
AcDbPolygonMeshVertex
 10
0.654605
 20
-2.500078
 30
2.01
 70
    64
  0
VERTEX
  5
37ED
100
AcDbEntity
  8
0
100
AcDbVertex
100
AcDbPolygonMeshVertex
 10
0.654605
 20
-2.500078
 30
0.705
 70
    64
  0
VERTEX
  5
37EE
100
AcDbEntity
  8
0
100
AcDbVertex
100
AcDbPolygonMeshVertex
 10
0.654605
 20
-2.500078
 30
0.705
 70
    64
  0
VERTEX
  5
37EF
100
AcDbEntity
  8
0
100
AcDbVertex
100
AcDbPolygonMeshVertex
 10
0.580441
 20
-2.271825
 30
2.01
 70
    64
  0
VERTEX
  5
37F0
100
AcDbEntity
  8
0
100
AcDbVertex
100
AcDbPolygonMeshVertex
 10
0.580441
 20
-2.271825
 30
0.705
 70
    64
  0
VERTEX
  5
37F1
100
AcDbEntity
  8
0
100
AcDbVertex
100
AcDbPolygonMeshVertex
 10
0.580441
 20
-2.271825
 30
0.705
 70
    64
  0
VERTEX
  5
37F2
100
AcDbEntity
  8
0
100
AcDbVertex
100
AcDbPolygonMeshVertex
 10
0.865758
 20
-2.17912
 30
2.01
 70
    64
  0
VERTEX
  5
37F3
100
AcDbEntity
  8
0
100
AcDbVertex
100
AcDbPolygonMeshVertex
 10
0.865758
 20
-2.17912
 30
0.705
 70
    64
  0
VERTEX
  5
37F4
100
AcDbEntity
  8
0
100
AcDbVertex
100
AcDbPolygonMeshVertex
 10
0.580441
 20
-2.271825
 30
0.705
 70
    64
  0
VERTEX
  5
37F5
100
AcDbEntity
  8
0
100
AcDbVertex
100
AcDbPolygonMeshVertex
 10
0.939922
 20
-2.407373
 30
2.01
 70
    64
  0
VERTEX
  5
37F6
100
AcDbEntity
  8
0
100
AcDbVertex
100
AcDbPolygonMeshVertex
 10
0.939922
 20
-2.407373
 30
0.705
 70
    64
  0
VERTEX
  5
37F7
100
AcDbEntity
  8
0
100
AcDbVertex
100
AcDbPolygonMeshVertex
 10
0.654605
 20
-2.500078
 30
0.705
 70
    64
  0
VERTEX
  5
37F8
100
AcDbEntity
  8
0
100
AcDbVertex
100
AcDbPolygonMeshVertex
 10
0.939922
 20
-2.407373
 30
2.01
 70
    64
  0
VERTEX
  5
37F9
100
AcDbEntity
  8
0
100
AcDbVertex
100
AcDbPolygonMeshVertex
 10
0.939922
 20
-2.407373
 30
2.01
 70
    64
  0
VERTEX
  5
37FA
100
AcDbEntity
  8
0
100
AcDbVertex
100
AcDbPolygonMeshVertex
 10
0.654605
 20
-2.500078
 30
2.01
 70
    64
  0
VERTEX
  5
37FB
100
AcDbEntity
  8
0
100
AcDbVertex
100
AcDbPolygonMeshVertex
 10
0.865758
 20
-2.17912
 30
2.01
 70
    64
  0
VERTEX
  5
37FC
100
AcDbEntity
  8
0
100
AcDbVertex
100
AcDbPolygonMeshVertex
 10
0.865758
 20
-2.17912
 30
2.01
 70
    64
  0
VERTEX
  5
37FD
100
AcDbEntity
  8
0
100
AcDbVertex
100
AcDbPolygonMeshVertex
 10
0.580441
 20
-2.271825
 30
2.01
 70
    64
  0
SEQEND
  5
37FE
100
AcDbEntity
  8
0
  0
POLYLINE
  5
37FF
100
AcDbEntity
  8
0
100
AcDbPolygonMesh
 66
     1
 10
0.0
 20
0.0
 30
0.0
 70
    16
 71
     6
 72
     3
  0
VERTEX
  5
3800
100
AcDbEntity
  8
0
100
AcDbVertex
100
AcDbPolygonMeshVertex
 10
0.810295
 20
-2.454042
 30
2.01
 70
    64
  0
VERTEX
  5
3801
100
AcDbEntity
  8
0
100
AcDbVertex
100
AcDbPolygonMeshVertex
 10
0.810295
 20
-2.454042
 30
0.705
 70
    64
  0
VERTEX
  5
3802
100
AcDbEntity
  8
0
100
AcDbVertex
100
AcDbPolygonMeshVertex
 10
0.810295
 20
-2.454042
 30
0.705
 70
    64
  0
VERTEX
  5
3803
100
AcDbEntity
  8
0
100
AcDbVertex
100
AcDbPolygonMeshVertex
 10
0.721945
 20
-2.230896
 30
2.01
 70
    64
  0
VERTEX
  5
3804
100
AcDbEntity
  8
0
100
AcDbVertex
100
AcDbPolygonMeshVertex
 10
0.721945
 20
-2.230896
 30
0.705
 70
    64
  0
VERTEX
  5
3805
100
AcDbEntity
  8
0
100
AcDbVertex
100
AcDbPolygonMeshVertex
 10
0.721945
 20
-2.230896
 30
0.705
 70
    64
  0
VERTEX
  5
3806
100
AcDbEntity
  8
0
100
AcDbVertex
100
AcDbPolygonMeshVertex
 10
1.000878
 20
-2.120458
 30
2.01
 70
    64
  0
VERTEX
  5
3807
100
AcDbEntity
  8
0
100
AcDbVertex
100
AcDbPolygonMeshVertex
 10
1.000878
 20
-2.120458
 30
0.705
 70
    64
  0
VERTEX
  5
3808
100
AcDbEntity
  8
0
100
AcDbVertex
100
AcDbPolygonMeshVertex
 10
0.721945
 20
-2.230896
 30
0.705
 70
    64
  0
VERTEX
  5
3809
100
AcDbEntity
  8
0
100
AcDbVertex
100
AcDbPolygonMeshVertex
 10
1.089228
 20
-2.343605
 30
2.01
 70
    64
  0
VERTEX
  5
380A
100
AcDbEntity
  8
0
100
AcDbVertex
100
AcDbPolygonMeshVertex
 10
1.089228
 20
-2.343605
 30
0.705
 70
    64
  0
VERTEX
  5
380B
100
AcDbEntity
  8
0
100
AcDbVertex
100
AcDbPolygonMeshVertex
 10
0.810295
 20
-2.454042
 30
0.705
 70
    64
  0
VERTEX
  5
380C
100
AcDbEntity
  8
0
100
AcDbVertex
100
AcDbPolygonMeshVertex
 10
1.089228
 20
-2.343605
 30
2.01
 70
    64
  0
VERTEX
  5
380D
100
AcDbEntity
  8
0
100
AcDbVertex
100
AcDbPolygonMeshVertex
 10
1.089228
 20
-2.343605
 30
2.01
 70
    64
  0
VERTEX
  5
380E
100
AcDbEntity
  8
0
100
AcDbVertex
100
AcDbPolygonMeshVertex
 10
0.810295
 20
-2.454042
 30
2.01
 70
    64
  0
VERTEX
  5
380F
100
AcDbEntity
  8
0
100
AcDbVertex
100
AcDbPolygonMeshVertex
 10
1.000878
 20
-2.120458
 30
2.01
 70
    64
  0
VERTEX
  5
3810
100
AcDbEntity
  8
0
100
AcDbVertex
100
AcDbPolygonMeshVertex
 10
1.000878
 20
-2.120458
 30
2.01
 70
    64
  0
VERTEX
  5
3811
100
AcDbEntity
  8
0
100
AcDbVertex
100
AcDbPolygonMeshVertex
 10
0.721945
 20
-2.230896
 30
2.01
 70
    64
  0
SEQEND
  5
3812
100
AcDbEntity
  8
0
  0
POLYLINE
  5
3813
100
AcDbEntity
  8
0
100
AcDbPolygonMesh
 66
     1
 10
0.0
 20
0.0
 30
0.0
 70
    16
 71
     6
 72
     3
  0
VERTEX
  5
3814
100
AcDbEntity
  8
0
100
AcDbVertex
100
AcDbPolygonMeshVertex
 10
0.962787
 20
-2.398321
 30
2.01
 70
    64
  0
VERTEX
  5
3815
100
AcDbEntity
  8
0
100
AcDbVertex
100
AcDbPolygonMeshVertex
 10
0.962787
 20
-2.398321
 30
0.705
 70
    64
  0
VERTEX
  5
3816
100
AcDbEntity
  8
0
100
AcDbVertex
100
AcDbPolygonMeshVertex
 10
0.962787
 20
-2.398321
 30
0.705
 70
    64
  0
VERTEX
  5
3817
100
AcDbEntity
  8
0
100
AcDbVertex
100
AcDbPolygonMeshVertex
 10
0.860599
 20
-2.181162
 30
2.01
 70
    64
  0
VERTEX
  5
3818
100
AcDbEntity
  8
0
100
AcDbVertex
100
AcDbPolygonMeshVertex
 10
0.860599
 20
-2.181162
 30
0.705
 70
    64
  0
VERTEX
  5
3819
100
AcDbEntity
  8
0
100
AcDbVertex
100
AcDbPolygonMeshVertex
 10
0.860599
 20
-2.181162
 30
0.705
 70
    64
  0
VERTEX
  5
381A
100
AcDbEntity
  8
0
100
AcDbVertex
100
AcDbPolygonMeshVertex
 10
1.132048
 20
-2.053428
 30
2.01
 70
    64
  0
VERTEX
  5
381B
100
AcDbEntity
  8
0
100
AcDbVertex
100
AcDbPolygonMeshVertex
 10
1.132048
 20
-2.053428
 30
0.705
 70
    64
  0
VERTEX
  5
381C
100
AcDbEntity
  8
0
100
AcDbVertex
100
AcDbPolygonMeshVertex
 10
0.860599
 20
-2.181162
 30
0.705
 70
    64
  0
VERTEX
  5
381D
100
AcDbEntity
  8
0
100
AcDbVertex
100
AcDbPolygonMeshVertex
 10
1.234235
 20
-2.270587
 30
2.01
 70
    64
  0
VERTEX
  5
381E
100
AcDbEntity
  8
0
100
AcDbVertex
100
AcDbPolygonMeshVertex
 10
1.234235
 20
-2.270587
 30
0.705
 70
    64
  0
VERTEX
  5
381F
100
AcDbEntity
  8
0
100
AcDbVertex
100
AcDbPolygonMeshVertex
 10
0.962787
 20
-2.398321
 30
0.705
 70
    64
  0
VERTEX
  5
3820
100
AcDbEntity
  8
0
100
AcDbVertex
100
AcDbPolygonMeshVertex
 10
1.234235
 20
-2.270587
 30
2.01
 70
    64
  0
VERTEX
  5
3821
100
AcDbEntity
  8
0
100
AcDbVertex
100
AcDbPolygonMeshVertex
 10
1.234235
 20
-2.270587
 30
2.01
 70
    64
  0
VERTEX
  5
3822
100
AcDbEntity
  8
0
100
AcDbVertex
100
AcDbPolygonMeshVertex
 10
0.962787
 20
-2.398321
 30
2.01
 70
    64
  0
VERTEX
  5
3823
100
AcDbEntity
  8
0
100
AcDbVertex
100
AcDbPolygonMeshVertex
 10
1.132048
 20
-2.053428
 30
2.01
 70
    64
  0
VERTEX
  5
3824
100
AcDbEntity
  8
0
100
AcDbVertex
100
AcDbPolygonMeshVertex
 10
1.132048
 20
-2.053428
 30
2.01
 70
    64
  0
VERTEX
  5
3825
100
AcDbEntity
  8
0
100
AcDbVertex
100
AcDbPolygonMeshVertex
 10
0.860599
 20
-2.181162
 30
2.01
 70
    64
  0
SEQEND
  5
3826
100
AcDbEntity
  8
0
  0
POLYLINE
  5
3827
100
AcDbEntity
  8
0
100
AcDbPolygonMesh
 66
     1
 10
0.0
 20
0.0
 30
0.0
 70
    16
 71
     6
 72
     3
  0
VERTEX
  5
3828
100
AcDbEntity
  8
0
100
AcDbVertex
100
AcDbPolygonMeshVertex
 10
1.111478
 20
-2.333134
 30
2.01
 70
    64
  0
VERTEX
  5
3829
100
AcDbEntity
  8
0
100
AcDbVertex
100
AcDbPolygonMeshVertex
 10
1.111478
 20
-2.333134
 30
0.705
 70
    64
  0
VERTEX
  5
382A
100
AcDbEntity
  8
0
100
AcDbVertex
100
AcDbPolygonMeshVertex
 10
1.111478
 20
-2.333134
 30
0.705
 70
    64
  0
VERTEX
  5
382B
100
AcDbEntity
  8
0
100
AcDbVertex
100
AcDbPolygonMeshVertex
 10
0.995858
 20
-2.122821
 30
2.01
 70
    64
  0
VERTEX
  5
382C
100
AcDbEntity
  8
0
100
AcDbVertex
100
AcDbPolygonMeshVertex
 10
0.995858
 20
-2.122821
 30
0.705
 70
    64
  0
VERTEX
  5
382D
100
AcDbEntity
  8
0
100
AcDbVertex
100
AcDbPolygonMeshVertex
 10
0.995858
 20
-2.122821
 30
0.705
 70
    64
  0
VERTEX
  5
382E
100
AcDbEntity
  8
0
100
AcDbVertex
100
AcDbPolygonMeshVertex
 10
1.25875
 20
-1.978295
 30
2.01
 70
    64
  0
VERTEX
  5
382F
100
AcDbEntity
  8
0
100
AcDbVertex
100
AcDbPolygonMeshVertex
 10
1.25875
 20
-1.978295
 30
0.705
 70
    64
  0
VERTEX
  5
3830
100
AcDbEntity
  8
0
100
AcDbVertex
100
AcDbPolygonMeshVertex
 10
0.995858
 20
-2.122821
 30
0.705
 70
    64
  0
VERTEX
  5
3831
100
AcDbEntity
  8
0
100
AcDbVertex
100
AcDbPolygonMeshVertex
 10
1.37437
 20
-2.188608
 30
2.01
 70
    64
  0
VERTEX
  5
3832
100
AcDbEntity
  8
0
100
AcDbVertex
100
AcDbPolygonMeshVertex
 10
1.37437
 20
-2.188608
 30
0.705
 70
    64
  0
VERTEX
  5
3833
100
AcDbEntity
  8
0
100
AcDbVertex
100
AcDbPolygonMeshVertex
 10
1.111478
 20
-2.333134
 30
0.705
 70
    64
  0
VERTEX
  5
3834
100
AcDbEntity
  8
0
100
AcDbVertex
100
AcDbPolygonMeshVertex
 10
1.37437
 20
-2.188608
 30
2.01
 70
    64
  0
VERTEX
  5
3835
100
AcDbEntity
  8
0
100
AcDbVertex
100
AcDbPolygonMeshVertex
 10
1.37437
 20
-2.188608
 30
2.01
 70
    64
  0
VERTEX
  5
3836
100
AcDbEntity
  8
0
100
AcDbVertex
100
AcDbPolygonMeshVertex
 10
1.111478
 20
-2.333134
 30
2.01
 70
    64
  0
VERTEX
  5
3837
100
AcDbEntity
  8
0
100
AcDbVertex
100
AcDbPolygonMeshVertex
 10
1.25875
 20
-1.978295
 30
2.01
 70
    64
  0
VERTEX
  5
3838
100
AcDbEntity
  8
0
100
AcDbVertex
100
AcDbPolygonMeshVertex
 10
1.25875
 20
-1.978295
 30
2.01
 70
    64
  0
VERTEX
  5
3839
100
AcDbEntity
  8
0
100
AcDbVertex
100
AcDbPolygonMeshVertex
 10
0.995858
 20
-2.122821
 30
2.01
 70
    64
  0
SEQEND
  5
383A
100
AcDbEntity
  8
0
  0
POLYLINE
  5
383B
100
AcDbEntity
  8
0
100
AcDbPolygonMesh
 66
     1
 10
0.0
 20
0.0
 30
0.0
 70
    16
 71
     6
 72
     3
  0
VERTEX
  5
383C
100
AcDbEntity
  8
0
100
AcDbVertex
100
AcDbPolygonMeshVertex
 10
1.255784
 20
-2.25874
 30
2.01
 70
    64
  0
VERTEX
  5
383D
100
AcDbEntity
  8
0
100
AcDbVertex
100
AcDbPolygonMeshVertex
 10
1.255784
 20
-2.25874
 30
0.705
 70
    64
  0
VERTEX
  5
383E
100
AcDbEntity
  8
0
100
AcDbVertex
100
AcDbPolygonMeshVertex
 10
1.255784
 20
-2.25874
 30
0.705
 70
    64
  0
VERTEX
  5
383F
100
AcDbEntity
  8
0
100
AcDbVertex
100
AcDbPolygonMeshVertex
 10
1.127186
 20
-2.056101
 30
2.01
 70
    64
  0
VERTEX
  5
3840
100
AcDbEntity
  8
0
100
AcDbVertex
100
AcDbPolygonMeshVertex
 10
1.127186
 20
-2.056101
 30
0.705
 70
    64
  0
VERTEX
  5
3841
100
AcDbEntity
  8
0
100
AcDbVertex
100
AcDbPolygonMeshVertex
 10
1.127186
 20
-2.056101
 30
0.705
 70
    64
  0
VERTEX
  5
3842
100
AcDbEntity
  8
0
100
AcDbVertex
100
AcDbPolygonMeshVertex
 10
1.380484
 20
-1.895353
 30
2.01
 70
    64
  0
VERTEX
  5
3843
100
AcDbEntity
  8
0
100
AcDbVertex
100
AcDbPolygonMeshVertex
 10
1.380484
 20
-1.895353
 30
0.705
 70
    64
  0
VERTEX
  5
3844
100
AcDbEntity
  8
0
100
AcDbVertex
100
AcDbPolygonMeshVertex
 10
1.127186
 20
-2.056101
 30
0.705
 70
    64
  0
VERTEX
  5
3845
100
AcDbEntity
  8
0
100
AcDbVertex
100
AcDbPolygonMeshVertex
 10
1.509082
 20
-2.097992
 30
2.01
 70
    64
  0
VERTEX
  5
3846
100
AcDbEntity
  8
0
100
AcDbVertex
100
AcDbPolygonMeshVertex
 10
1.509082
 20
-2.097992
 30
0.705
 70
    64
  0
VERTEX
  5
3847
100
AcDbEntity
  8
0
100
AcDbVertex
100
AcDbPolygonMeshVertex
 10
1.255784
 20
-2.25874
 30
0.705
 70
    64
  0
VERTEX
  5
3848
100
AcDbEntity
  8
0
100
AcDbVertex
100
AcDbPolygonMeshVertex
 10
1.509082
 20
-2.097992
 30
2.01
 70
    64
  0
VERTEX
  5
3849
100
AcDbEntity
  8
0
100
AcDbVertex
100
AcDbPolygonMeshVertex
 10
1.509082
 20
-2.097992
 30
2.01
 70
    64
  0
VERTEX
  5
384A
100
AcDbEntity
  8
0
100
AcDbVertex
100
AcDbPolygonMeshVertex
 10
1.255784
 20
-2.25874
 30
2.01
 70
    64
  0
VERTEX
  5
384B
100
AcDbEntity
  8
0
100
AcDbVertex
100
AcDbPolygonMeshVertex
 10
1.380484
 20
-1.895353
 30
2.01
 70
    64
  0
VERTEX
  5
384C
100
AcDbEntity
  8
0
100
AcDbVertex
100
AcDbPolygonMeshVertex
 10
1.380484
 20
-1.895353
 30
2.01
 70
    64
  0
VERTEX
  5
384D
100
AcDbEntity
  8
0
100
AcDbVertex
100
AcDbPolygonMeshVertex
 10
1.127186
 20
-2.056101
 30
2.01
 70
    64
  0
SEQEND
  5
384E
100
AcDbEntity
  8
0
  0
POLYLINE
  5
384F
100
AcDbEntity
  8
0
100
AcDbPolygonMesh
 66
     1
 10
0.0
 20
0.0
 30
0.0
 70
    16
 71
     6
 72
     3
  0
VERTEX
  5
3850
100
AcDbEntity
  8
0
100
AcDbVertex
100
AcDbPolygonMeshVertex
 10
1.395133
 20
-2.175432
 30
2.01
 70
    64
  0
VERTEX
  5
3851
100
AcDbEntity
  8
0
100
AcDbVertex
100
AcDbPolygonMeshVertex
 10
1.395133
 20
-2.175432
 30
0.705
 70
    64
  0
VERTEX
  5
3852
100
AcDbEntity
  8
0
100
AcDbVertex
100
AcDbPolygonMeshVertex
 10
1.395133
 20
-2.175432
 30
0.705
 70
    64
  0
VERTEX
  5
3853
100
AcDbEntity
  8
0
100
AcDbVertex
100
AcDbPolygonMeshVertex
 10
1.254065
 20
-1.981268
 30
2.01
 70
    64
  0
VERTEX
  5
3854
100
AcDbEntity
  8
0
100
AcDbVertex
100
AcDbPolygonMeshVertex
 10
1.254065
 20
-1.981268
 30
0.705
 70
    64
  0
VERTEX
  5
3855
100
AcDbEntity
  8
0
100
AcDbVertex
100
AcDbPolygonMeshVertex
 10
1.254065
 20
-1.981268
 30
0.705
 70
    64
  0
VERTEX
  5
3856
100
AcDbEntity
  8
0
100
AcDbVertex
100
AcDbPolygonMeshVertex
 10
1.49677
 20
-1.804932
 30
2.01
 70
    64
  0
VERTEX
  5
3857
100
AcDbEntity
  8
0
100
AcDbVertex
100
AcDbPolygonMeshVertex
 10
1.49677
 20
-1.804932
 30
0.705
 70
    64
  0
VERTEX
  5
3858
100
AcDbEntity
  8
0
100
AcDbVertex
100
AcDbPolygonMeshVertex
 10
1.254065
 20
-1.981268
 30
0.705
 70
    64
  0
VERTEX
  5
3859
100
AcDbEntity
  8
0
100
AcDbVertex
100
AcDbPolygonMeshVertex
 10
1.637839
 20
-1.999096
 30
2.01
 70
    64
  0
VERTEX
  5
385A
100
AcDbEntity
  8
0
100
AcDbVertex
100
AcDbPolygonMeshVertex
 10
1.637839
 20
-1.999096
 30
0.705
 70
    64
  0
VERTEX
  5
385B
100
AcDbEntity
  8
0
100
AcDbVertex
100
AcDbPolygonMeshVertex
 10
1.395133
 20
-2.175432
 30
0.705
 70
    64
  0
VERTEX
  5
385C
100
AcDbEntity
  8
0
100
AcDbVertex
100
AcDbPolygonMeshVertex
 10
1.637839
 20
-1.999096
 30
2.01
 70
    64
  0
VERTEX
  5
385D
100
AcDbEntity
  8
0
100
AcDbVertex
100
AcDbPolygonMeshVertex
 10
1.637839
 20
-1.999096
 30
2.01
 70
    64
  0
VERTEX
  5
385E
100
AcDbEntity
  8
0
100
AcDbVertex
100
AcDbPolygonMeshVertex
 10
1.395133
 20
-2.175432
 30
2.01
 70
    64
  0
VERTEX
  5
385F
100
AcDbEntity
  8
0
100
AcDbVertex
100
AcDbPolygonMeshVertex
 10
1.49677
 20
-1.804932
 30
2.01
 70
    64
  0
VERTEX
  5
3860
100
AcDbEntity
  8
0
100
AcDbVertex
100
AcDbPolygonMeshVertex
 10
1.49677
 20
-1.804932
 30
2.01
 70
    64
  0
VERTEX
  5
3861
100
AcDbEntity
  8
0
100
AcDbVertex
100
AcDbPolygonMeshVertex
 10
1.254065
 20
-1.981268
 30
2.01
 70
    64
  0
SEQEND
  5
3862
100
AcDbEntity
  8
0
  0
POLYLINE
  5
3863
100
AcDbEntity
  8
0
100
AcDbPolygonMesh
 66
     1
 10
0.0
 20
0.0
 30
0.0
 70
    16
 71
     6
 72
     3
  0
VERTEX
  5
3864
100
AcDbEntity
  8
0
100
AcDbVertex
100
AcDbPolygonMeshVertex
 10
1.528977
 20
-2.083538
 30
2.01
 70
    64
  0
VERTEX
  5
3865
100
AcDbEntity
  8
0
100
AcDbVertex
100
AcDbPolygonMeshVertex
 10
1.528977
 20
-2.083538
 30
0.705
 70
    64
  0
VERTEX
  5
3866
100
AcDbEntity
  8
0
100
AcDbVertex
100
AcDbPolygonMeshVertex
 10
1.528977
 20
-2.083538
 30
0.705
 70
    64
  0
VERTEX
  5
3867
100
AcDbEntity
  8
0
100
AcDbVertex
100
AcDbPolygonMeshVertex
 10
1.375995
 20
-1.898615
 30
2.01
 70
    64
  0
VERTEX
  5
3868
100
AcDbEntity
  8
0
100
AcDbVertex
100
AcDbPolygonMeshVertex
 10
1.375995
 20
-1.898615
 30
0.705
 70
    64
  0
VERTEX
  5
3869
100
AcDbEntity
  8
0
100
AcDbVertex
100
AcDbPolygonMeshVertex
 10
1.375995
 20
-1.898615
 30
0.705
 70
    64
  0
VERTEX
  5
386A
100
AcDbEntity
  8
0
100
AcDbVertex
100
AcDbPolygonMeshVertex
 10
1.607149
 20
-1.707387
 30
2.01
 70
    64
  0
VERTEX
  5
386B
100
AcDbEntity
  8
0
100
AcDbVertex
100
AcDbPolygonMeshVertex
 10
1.607149
 20
-1.707387
 30
0.705
 70
    64
  0
VERTEX
  5
386C
100
AcDbEntity
  8
0
100
AcDbVertex
100
AcDbPolygonMeshVertex
 10
1.375995
 20
-1.898615
 30
0.705
 70
    64
  0
VERTEX
  5
386D
100
AcDbEntity
  8
0
100
AcDbVertex
100
AcDbPolygonMeshVertex
 10
1.760131
 20
-1.892311
 30
2.01
 70
    64
  0
VERTEX
  5
386E
100
AcDbEntity
  8
0
100
AcDbVertex
100
AcDbPolygonMeshVertex
 10
1.760131
 20
-1.892311
 30
0.705
 70
    64
  0
VERTEX
  5
386F
100
AcDbEntity
  8
0
100
AcDbVertex
100
AcDbPolygonMeshVertex
 10
1.528977
 20
-2.083538
 30
0.705
 70
    64
  0
VERTEX
  5
3870
100
AcDbEntity
  8
0
100
AcDbVertex
100
AcDbPolygonMeshVertex
 10
1.760131
 20
-1.892311
 30
2.01
 70
    64
  0
VERTEX
  5
3871
100
AcDbEntity
  8
0
100
AcDbVertex
100
AcDbPolygonMeshVertex
 10
1.760131
 20
-1.892311
 30
2.01
 70
    64
  0
VERTEX
  5
3872
100
AcDbEntity
  8
0
100
AcDbVertex
100
AcDbPolygonMeshVertex
 10
1.528977
 20
-2.083538
 30
2.01
 70
    64
  0
VERTEX
  5
3873
100
AcDbEntity
  8
0
100
AcDbVertex
100
AcDbPolygonMeshVertex
 10
1.607149
 20
-1.707387
 30
2.01
 70
    64
  0
VERTEX
  5
3874
100
AcDbEntity
  8
0
100
AcDbVertex
100
AcDbPolygonMeshVertex
 10
1.607149
 20
-1.707387
 30
2.01
 70
    64
  0
VERTEX
  5
3875
100
AcDbEntity
  8
0
100
AcDbVertex
100
AcDbPolygonMeshVertex
 10
1.375995
 20
-1.898615
 30
2.01
 70
    64
  0
SEQEND
  5
3876
100
AcDbEntity
  8
0
  0
POLYLINE
  5
3877
100
AcDbEntity
  8
0
100
AcDbPolygonMesh
 66
     1
 10
0.0
 20
0.0
 30
0.0
 70
    16
 71
     6
 72
     3
  0
VERTEX
  5
3878
100
AcDbEntity
  8
0
100
AcDbVertex
100
AcDbPolygonMeshVertex
 10
1.656786
 20
-1.983421
 30
2.01
 70
    64
  0
VERTEX
  5
3879
100
AcDbEntity
  8
0
100
AcDbVertex
100
AcDbPolygonMeshVertex
 10
1.656786
 20
-1.983421
 30
0.705
 70
    64
  0
VERTEX
  5
387A
100
AcDbEntity
  8
0
100
AcDbVertex
100
AcDbPolygonMeshVertex
 10
1.656786
 20
-1.983421
 30
0.705
 70
    64
  0
VERTEX
  5
387B
100
AcDbEntity
  8
0
100
AcDbVertex
100
AcDbPolygonMeshVertex
 10
1.492495
 20
-1.808469
 30
2.01
 70
    64
  0
VERTEX
  5
387C
100
AcDbEntity
  8
0
100
AcDbVertex
100
AcDbPolygonMeshVertex
 10
1.492495
 20
-1.808469
 30
0.705
 70
    64
  0
VERTEX
  5
387D
100
AcDbEntity
  8
0
100
AcDbVertex
100
AcDbPolygonMeshVertex
 10
1.492495
 20
-1.808469
 30
0.705
 70
    64
  0
VERTEX
  5
387E
100
AcDbEntity
  8
0
100
AcDbVertex
100
AcDbPolygonMeshVertex
 10
1.711186
 20
-1.603105
 30
2.01
 70
    64
  0
VERTEX
  5
387F
100
AcDbEntity
  8
0
100
AcDbVertex
100
AcDbPolygonMeshVertex
 10
1.711186
 20
-1.603105
 30
0.705
 70
    64
  0
VERTEX
  5
3880
100
AcDbEntity
  8
0
100
AcDbVertex
100
AcDbPolygonMeshVertex
 10
1.492495
 20
-1.808469
 30
0.705
 70
    64
  0
VERTEX
  5
3881
100
AcDbEntity
  8
0
100
AcDbVertex
100
AcDbPolygonMeshVertex
 10
1.875477
 20
-1.778057
 30
2.01
 70
    64
  0
VERTEX
  5
3882
100
AcDbEntity
  8
0
100
AcDbVertex
100
AcDbPolygonMeshVertex
 10
1.875477
 20
-1.778057
 30
0.705
 70
    64
  0
VERTEX
  5
3883
100
AcDbEntity
  8
0
100
AcDbVertex
100
AcDbPolygonMeshVertex
 10
1.656786
 20
-1.983421
 30
0.705
 70
    64
  0
VERTEX
  5
3884
100
AcDbEntity
  8
0
100
AcDbVertex
100
AcDbPolygonMeshVertex
 10
1.875477
 20
-1.778057
 30
2.01
 70
    64
  0
VERTEX
  5
3885
100
AcDbEntity
  8
0
100
AcDbVertex
100
AcDbPolygonMeshVertex
 10
1.875477
 20
-1.778057
 30
2.01
 70
    64
  0
VERTEX
  5
3886
100
AcDbEntity
  8
0
100
AcDbVertex
100
AcDbPolygonMeshVertex
 10
1.656786
 20
-1.983421
 30
2.01
 70
    64
  0
VERTEX
  5
3887
100
AcDbEntity
  8
0
100
AcDbVertex
100
AcDbPolygonMeshVertex
 10
1.711186
 20
-1.603105
 30
2.01
 70
    64
  0
VERTEX
  5
3888
100
AcDbEntity
  8
0
100
AcDbVertex
100
AcDbPolygonMeshVertex
 10
1.711186
 20
-1.603105
 30
2.01
 70
    64
  0
VERTEX
  5
3889
100
AcDbEntity
  8
0
100
AcDbVertex
100
AcDbPolygonMeshVertex
 10
1.492495
 20
-1.808469
 30
2.01
 70
    64
  0
SEQEND
  5
388A
100
AcDbEntity
  8
0
  0
POLYLINE
  5
388B
100
AcDbEntity
  8
0
100
AcDbPolygonMesh
 66
     1
 10
0.0
 20
0.0
 30
0.0
 70
    16
 71
     6
 72
     3
  0
VERTEX
  5
388C
100
AcDbEntity
  8
0
100
AcDbVertex
100
AcDbPolygonMeshVertex
 10
1.778057
 20
-1.875477
 30
2.01
 70
    64
  0
VERTEX
  5
388D
100
AcDbEntity
  8
0
100
AcDbVertex
100
AcDbPolygonMeshVertex
 10
1.778057
 20
-1.875477
 30
0.705
 70
    64
  0
VERTEX
  5
388E
100
AcDbEntity
  8
0
100
AcDbVertex
100
AcDbPolygonMeshVertex
 10
1.778057
 20
-1.875477
 30
0.705
 70
    64
  0
VERTEX
  5
388F
100
AcDbEntity
  8
0
100
AcDbVertex
100
AcDbPolygonMeshVertex
 10
1.603105
 20
-1.711186
 30
2.01
 70
    64
  0
VERTEX
  5
3890
100
AcDbEntity
  8
0
100
AcDbVertex
100
AcDbPolygonMeshVertex
 10
1.603105
 20
-1.711186
 30
0.705
 70
    64
  0
VERTEX
  5
3891
100
AcDbEntity
  8
0
100
AcDbVertex
100
AcDbPolygonMeshVertex
 10
1.603105
 20
-1.711186
 30
0.705
 70
    64
  0
VERTEX
  5
3892
100
AcDbEntity
  8
0
100
AcDbVertex
100
AcDbPolygonMeshVertex
 10
1.808469
 20
-1.492495
 30
2.01
 70
    64
  0
VERTEX
  5
3893
100
AcDbEntity
  8
0
100
AcDbVertex
100
AcDbPolygonMeshVertex
 10
1.808469
 20
-1.492495
 30
0.705
 70
    64
  0
VERTEX
  5
3894
100
AcDbEntity
  8
0
100
AcDbVertex
100
AcDbPolygonMeshVertex
 10
1.603105
 20
-1.711186
 30
0.705
 70
    64
  0
VERTEX
  5
3895
100
AcDbEntity
  8
0
100
AcDbVertex
100
AcDbPolygonMeshVertex
 10
1.983421
 20
-1.656786
 30
2.01
 70
    64
  0
VERTEX
  5
3896
100
AcDbEntity
  8
0
100
AcDbVertex
100
AcDbPolygonMeshVertex
 10
1.983421
 20
-1.656786
 30
0.705
 70
    64
  0
VERTEX
  5
3897
100
AcDbEntity
  8
0
100
AcDbVertex
100
AcDbPolygonMeshVertex
 10
1.778057
 20
-1.875477
 30
0.705
 70
    64
  0
VERTEX
  5
3898
100
AcDbEntity
  8
0
100
AcDbVertex
100
AcDbPolygonMeshVertex
 10
1.983421
 20
-1.656786
 30
2.01
 70
    64
  0
VERTEX
  5
3899
100
AcDbEntity
  8
0
100
AcDbVertex
100
AcDbPolygonMeshVertex
 10
1.983421
 20
-1.656786
 30
2.01
 70
    64
  0
VERTEX
  5
389A
100
AcDbEntity
  8
0
100
AcDbVertex
100
AcDbPolygonMeshVertex
 10
1.778057
 20
-1.875477
 30
2.01
 70
    64
  0
VERTEX
  5
389B
100
AcDbEntity
  8
0
100
AcDbVertex
100
AcDbPolygonMeshVertex
 10
1.808469
 20
-1.492495
 30
2.01
 70
    64
  0
VERTEX
  5
389C
100
AcDbEntity
  8
0
100
AcDbVertex
100
AcDbPolygonMeshVertex
 10
1.808469
 20
-1.492495
 30
2.01
 70
    64
  0
VERTEX
  5
389D
100
AcDbEntity
  8
0
100
AcDbVertex
100
AcDbPolygonMeshVertex
 10
1.603105
 20
-1.711186
 30
2.01
 70
    64
  0
SEQEND
  5
389E
100
AcDbEntity
  8
0
  0
POLYLINE
  5
389F
100
AcDbEntity
  8
0
100
AcDbPolygonMesh
 66
     1
 10
0.0
 20
0.0
 30
0.0
 70
    16
 71
     6
 72
     3
  0
VERTEX
  5
38A0
100
AcDbEntity
  8
0
100
AcDbVertex
100
AcDbPolygonMeshVertex
 10
1.892311
 20
-1.760131
 30
2.01
 70
    64
  0
VERTEX
  5
38A1
100
AcDbEntity
  8
0
100
AcDbVertex
100
AcDbPolygonMeshVertex
 10
1.892311
 20
-1.760131
 30
0.705
 70
    64
  0
VERTEX
  5
38A2
100
AcDbEntity
  8
0
100
AcDbVertex
100
AcDbPolygonMeshVertex
 10
1.892311
 20
-1.760131
 30
0.705
 70
    64
  0
VERTEX
  5
38A3
100
AcDbEntity
  8
0
100
AcDbVertex
100
AcDbPolygonMeshVertex
 10
1.707387
 20
-1.607149
 30
2.01
 70
    64
  0
VERTEX
  5
38A4
100
AcDbEntity
  8
0
100
AcDbVertex
100
AcDbPolygonMeshVertex
 10
1.707387
 20
-1.607149
 30
0.705
 70
    64
  0
VERTEX
  5
38A5
100
AcDbEntity
  8
0
100
AcDbVertex
100
AcDbPolygonMeshVertex
 10
1.707387
 20
-1.607149
 30
0.705
 70
    64
  0
VERTEX
  5
38A6
100
AcDbEntity
  8
0
100
AcDbVertex
100
AcDbPolygonMeshVertex
 10
1.898615
 20
-1.375995
 30
2.01
 70
    64
  0
VERTEX
  5
38A7
100
AcDbEntity
  8
0
100
AcDbVertex
100
AcDbPolygonMeshVertex
 10
1.898615
 20
-1.375995
 30
0.705
 70
    64
  0
VERTEX
  5
38A8
100
AcDbEntity
  8
0
100
AcDbVertex
100
AcDbPolygonMeshVertex
 10
1.707387
 20
-1.607149
 30
0.705
 70
    64
  0
VERTEX
  5
38A9
100
AcDbEntity
  8
0
100
AcDbVertex
100
AcDbPolygonMeshVertex
 10
2.083538
 20
-1.528977
 30
2.01
 70
    64
  0
VERTEX
  5
38AA
100
AcDbEntity
  8
0
100
AcDbVertex
100
AcDbPolygonMeshVertex
 10
2.083538
 20
-1.528977
 30
0.705
 70
    64
  0
VERTEX
  5
38AB
100
AcDbEntity
  8
0
100
AcDbVertex
100
AcDbPolygonMeshVertex
 10
1.892311
 20
-1.760131
 30
0.705
 70
    64
  0
VERTEX
  5
38AC
100
AcDbEntity
  8
0
100
AcDbVertex
100
AcDbPolygonMeshVertex
 10
2.083538
 20
-1.528977
 30
2.01
 70
    64
  0
VERTEX
  5
38AD
100
AcDbEntity
  8
0
100
AcDbVertex
100
AcDbPolygonMeshVertex
 10
2.083538
 20
-1.528977
 30
2.01
 70
    64
  0
VERTEX
  5
38AE
100
AcDbEntity
  8
0
100
AcDbVertex
100
AcDbPolygonMeshVertex
 10
1.892311
 20
-1.760131
 30
2.01
 70
    64
  0
VERTEX
  5
38AF
100
AcDbEntity
  8
0
100
AcDbVertex
100
AcDbPolygonMeshVertex
 10
1.898615
 20
-1.375995
 30
2.01
 70
    64
  0
VERTEX
  5
38B0
100
AcDbEntity
  8
0
100
AcDbVertex
100
AcDbPolygonMeshVertex
 10
1.898615
 20
-1.375995
 30
2.01
 70
    64
  0
VERTEX
  5
38B1
100
AcDbEntity
  8
0
100
AcDbVertex
100
AcDbPolygonMeshVertex
 10
1.707387
 20
-1.607149
 30
2.01
 70
    64
  0
SEQEND
  5
38B2
100
AcDbEntity
  8
0
  0
POLYLINE
  5
38B3
100
AcDbEntity
  8
0
100
AcDbPolygonMesh
 66
     1
 10
0.0
 20
0.0
 30
0.0
 70
    16
 71
     6
 72
     3
  0
VERTEX
  5
38B4
100
AcDbEntity
  8
0
100
AcDbVertex
100
AcDbPolygonMeshVertex
 10
1.999096
 20
-1.637839
 30
2.01
 70
    64
  0
VERTEX
  5
38B5
100
AcDbEntity
  8
0
100
AcDbVertex
100
AcDbPolygonMeshVertex
 10
1.999096
 20
-1.637839
 30
0.705
 70
    64
  0
VERTEX
  5
38B6
100
AcDbEntity
  8
0
100
AcDbVertex
100
AcDbPolygonMeshVertex
 10
1.999096
 20
-1.637839
 30
0.705
 70
    64
  0
VERTEX
  5
38B7
100
AcDbEntity
  8
0
100
AcDbVertex
100
AcDbPolygonMeshVertex
 10
1.804932
 20
-1.49677
 30
2.01
 70
    64
  0
VERTEX
  5
38B8
100
AcDbEntity
  8
0
100
AcDbVertex
100
AcDbPolygonMeshVertex
 10
1.804932
 20
-1.49677
 30
0.705
 70
    64
  0
VERTEX
  5
38B9
100
AcDbEntity
  8
0
100
AcDbVertex
100
AcDbPolygonMeshVertex
 10
1.804932
 20
-1.49677
 30
0.705
 70
    64
  0
VERTEX
  5
38BA
100
AcDbEntity
  8
0
100
AcDbVertex
100
AcDbPolygonMeshVertex
 10
1.981268
 20
-1.254065
 30
2.01
 70
    64
  0
VERTEX
  5
38BB
100
AcDbEntity
  8
0
100
AcDbVertex
100
AcDbPolygonMeshVertex
 10
1.981268
 20
-1.254065
 30
0.705
 70
    64
  0
VERTEX
  5
38BC
100
AcDbEntity
  8
0
100
AcDbVertex
100
AcDbPolygonMeshVertex
 10
1.804932
 20
-1.49677
 30
0.705
 70
    64
  0
VERTEX
  5
38BD
100
AcDbEntity
  8
0
100
AcDbVertex
100
AcDbPolygonMeshVertex
 10
2.175432
 20
-1.395133
 30
2.01
 70
    64
  0
VERTEX
  5
38BE
100
AcDbEntity
  8
0
100
AcDbVertex
100
AcDbPolygonMeshVertex
 10
2.175432
 20
-1.395133
 30
0.705
 70
    64
  0
VERTEX
  5
38BF
100
AcDbEntity
  8
0
100
AcDbVertex
100
AcDbPolygonMeshVertex
 10
1.999096
 20
-1.637839
 30
0.705
 70
    64
  0
VERTEX
  5
38C0
100
AcDbEntity
  8
0
100
AcDbVertex
100
AcDbPolygonMeshVertex
 10
2.175432
 20
-1.395133
 30
2.01
 70
    64
  0
VERTEX
  5
38C1
100
AcDbEntity
  8
0
100
AcDbVertex
100
AcDbPolygonMeshVertex
 10
2.175432
 20
-1.395133
 30
2.01
 70
    64
  0
VERTEX
  5
38C2
100
AcDbEntity
  8
0
100
AcDbVertex
100
AcDbPolygonMeshVertex
 10
1.999096
 20
-1.637839
 30
2.01
 70
    64
  0
VERTEX
  5
38C3
100
AcDbEntity
  8
0
100
AcDbVertex
100
AcDbPolygonMeshVertex
 10
1.981268
 20
-1.254065
 30
2.01
 70
    64
  0
VERTEX
  5
38C4
100
AcDbEntity
  8
0
100
AcDbVertex
100
AcDbPolygonMeshVertex
 10
1.981268
 20
-1.254065
 30
2.01
 70
    64
  0
VERTEX
  5
38C5
100
AcDbEntity
  8
0
100
AcDbVertex
100
AcDbPolygonMeshVertex
 10
1.804932
 20
-1.49677
 30
2.01
 70
    64
  0
SEQEND
  5
38C6
100
AcDbEntity
  8
0
  0
POLYLINE
  5
38C7
100
AcDbEntity
  8
0
100
AcDbPolygonMesh
 66
     1
 10
0.0
 20
0.0
 30
0.0
 70
    16
 71
     6
 72
     3
  0
VERTEX
  5
38C8
100
AcDbEntity
  8
0
100
AcDbVertex
100
AcDbPolygonMeshVertex
 10
2.097992
 20
-1.509082
 30
2.01
 70
    64
  0
VERTEX
  5
38C9
100
AcDbEntity
  8
0
100
AcDbVertex
100
AcDbPolygonMeshVertex
 10
2.097992
 20
-1.509082
 30
0.705
 70
    64
  0
VERTEX
  5
38CA
100
AcDbEntity
  8
0
100
AcDbVertex
100
AcDbPolygonMeshVertex
 10
2.097992
 20
-1.509082
 30
0.705
 70
    64
  0
VERTEX
  5
38CB
100
AcDbEntity
  8
0
100
AcDbVertex
100
AcDbPolygonMeshVertex
 10
1.895353
 20
-1.380484
 30
2.01
 70
    64
  0
VERTEX
  5
38CC
100
AcDbEntity
  8
0
100
AcDbVertex
100
AcDbPolygonMeshVertex
 10
1.895353
 20
-1.380484
 30
0.705
 70
    64
  0
VERTEX
  5
38CD
100
AcDbEntity
  8
0
100
AcDbVertex
100
AcDbPolygonMeshVertex
 10
1.895353
 20
-1.380484
 30
0.705
 70
    64
  0
VERTEX
  5
38CE
100
AcDbEntity
  8
0
100
AcDbVertex
100
AcDbPolygonMeshVertex
 10
2.056101
 20
-1.127186
 30
2.01
 70
    64
  0
VERTEX
  5
38CF
100
AcDbEntity
  8
0
100
AcDbVertex
100
AcDbPolygonMeshVertex
 10
2.056101
 20
-1.127186
 30
0.705
 70
    64
  0
VERTEX
  5
38D0
100
AcDbEntity
  8
0
100
AcDbVertex
100
AcDbPolygonMeshVertex
 10
1.895353
 20
-1.380484
 30
0.705
 70
    64
  0
VERTEX
  5
38D1
100
AcDbEntity
  8
0
100
AcDbVertex
100
AcDbPolygonMeshVertex
 10
2.25874
 20
-1.255784
 30
2.01
 70
    64
  0
VERTEX
  5
38D2
100
AcDbEntity
  8
0
100
AcDbVertex
100
AcDbPolygonMeshVertex
 10
2.25874
 20
-1.255784
 30
0.705
 70
    64
  0
VERTEX
  5
38D3
100
AcDbEntity
  8
0
100
AcDbVertex
100
AcDbPolygonMeshVertex
 10
2.097992
 20
-1.509082
 30
0.705
 70
    64
  0
VERTEX
  5
38D4
100
AcDbEntity
  8
0
100
AcDbVertex
100
AcDbPolygonMeshVertex
 10
2.25874
 20
-1.255784
 30
2.01
 70
    64
  0
VERTEX
  5
38D5
100
AcDbEntity
  8
0
100
AcDbVertex
100
AcDbPolygonMeshVertex
 10
2.25874
 20
-1.255784
 30
2.01
 70
    64
  0
VERTEX
  5
38D6
100
AcDbEntity
  8
0
100
AcDbVertex
100
AcDbPolygonMeshVertex
 10
2.097992
 20
-1.509082
 30
2.01
 70
    64
  0
VERTEX
  5
38D7
100
AcDbEntity
  8
0
100
AcDbVertex
100
AcDbPolygonMeshVertex
 10
2.056101
 20
-1.127186
 30
2.01
 70
    64
  0
VERTEX
  5
38D8
100
AcDbEntity
  8
0
100
AcDbVertex
100
AcDbPolygonMeshVertex
 10
2.056101
 20
-1.127186
 30
2.01
 70
    64
  0
VERTEX
  5
38D9
100
AcDbEntity
  8
0
100
AcDbVertex
100
AcDbPolygonMeshVertex
 10
1.895353
 20
-1.380484
 30
2.01
 70
    64
  0
SEQEND
  5
38DA
100
AcDbEntity
  8
0
  0
POLYLINE
  5
38DB
100
AcDbEntity
  8
0
100
AcDbPolygonMesh
 66
     1
 10
0.0
 20
0.0
 30
0.0
 70
    16
 71
     6
 72
     3
  0
VERTEX
  5
38DC
100
AcDbEntity
  8
0
100
AcDbVertex
100
AcDbPolygonMeshVertex
 10
2.188608
 20
-1.37437
 30
2.01
 70
    64
  0
VERTEX
  5
38DD
100
AcDbEntity
  8
0
100
AcDbVertex
100
AcDbPolygonMeshVertex
 10
2.188608
 20
-1.37437
 30
0.705
 70
    64
  0
VERTEX
  5
38DE
100
AcDbEntity
  8
0
100
AcDbVertex
100
AcDbPolygonMeshVertex
 10
2.188608
 20
-1.37437
 30
0.705
 70
    64
  0
VERTEX
  5
38DF
100
AcDbEntity
  8
0
100
AcDbVertex
100
AcDbPolygonMeshVertex
 10
1.978295
 20
-1.25875
 30
2.01
 70
    64
  0
VERTEX
  5
38E0
100
AcDbEntity
  8
0
100
AcDbVertex
100
AcDbPolygonMeshVertex
 10
1.978295
 20
-1.25875
 30
0.705
 70
    64
  0
VERTEX
  5
38E1
100
AcDbEntity
  8
0
100
AcDbVertex
100
AcDbPolygonMeshVertex
 10
1.978295
 20
-1.25875
 30
0.705
 70
    64
  0
VERTEX
  5
38E2
100
AcDbEntity
  8
0
100
AcDbVertex
100
AcDbPolygonMeshVertex
 10
2.122821
 20
-0.995858
 30
2.01
 70
    64
  0
VERTEX
  5
38E3
100
AcDbEntity
  8
0
100
AcDbVertex
100
AcDbPolygonMeshVertex
 10
2.122821
 20
-0.995858
 30
0.705
 70
    64
  0
VERTEX
  5
38E4
100
AcDbEntity
  8
0
100
AcDbVertex
100
AcDbPolygonMeshVertex
 10
1.978295
 20
-1.25875
 30
0.705
 70
    64
  0
VERTEX
  5
38E5
100
AcDbEntity
  8
0
100
AcDbVertex
100
AcDbPolygonMeshVertex
 10
2.333134
 20
-1.111478
 30
2.01
 70
    64
  0
VERTEX
  5
38E6
100
AcDbEntity
  8
0
100
AcDbVertex
100
AcDbPolygonMeshVertex
 10
2.333134
 20
-1.111478
 30
0.705
 70
    64
  0
VERTEX
  5
38E7
100
AcDbEntity
  8
0
100
AcDbVertex
100
AcDbPolygonMeshVertex
 10
2.188608
 20
-1.37437
 30
0.705
 70
    64
  0
VERTEX
  5
38E8
100
AcDbEntity
  8
0
100
AcDbVertex
100
AcDbPolygonMeshVertex
 10
2.333134
 20
-1.111478
 30
2.01
 70
    64
  0
VERTEX
  5
38E9
100
AcDbEntity
  8
0
100
AcDbVertex
100
AcDbPolygonMeshVertex
 10
2.333134
 20
-1.111478
 30
2.01
 70
    64
  0
VERTEX
  5
38EA
100
AcDbEntity
  8
0
100
AcDbVertex
100
AcDbPolygonMeshVertex
 10
2.188608
 20
-1.37437
 30
2.01
 70
    64
  0
VERTEX
  5
38EB
100
AcDbEntity
  8
0
100
AcDbVertex
100
AcDbPolygonMeshVertex
 10
2.122821
 20
-0.995858
 30
2.01
 70
    64
  0
VERTEX
  5
38EC
100
AcDbEntity
  8
0
100
AcDbVertex
100
AcDbPolygonMeshVertex
 10
2.122821
 20
-0.995858
 30
2.01
 70
    64
  0
VERTEX
  5
38ED
100
AcDbEntity
  8
0
100
AcDbVertex
100
AcDbPolygonMeshVertex
 10
1.978295
 20
-1.25875
 30
2.01
 70
    64
  0
SEQEND
  5
38EE
100
AcDbEntity
  8
0
  0
POLYLINE
  5
38EF
100
AcDbEntity
  8
0
100
AcDbPolygonMesh
 66
     1
 10
0.0
 20
0.0
 30
0.0
 70
    16
 71
     6
 72
     3
  0
VERTEX
  5
38F0
100
AcDbEntity
  8
0
100
AcDbVertex
100
AcDbPolygonMeshVertex
 10
2.270587
 20
-1.234235
 30
2.01
 70
    64
  0
VERTEX
  5
38F1
100
AcDbEntity
  8
0
100
AcDbVertex
100
AcDbPolygonMeshVertex
 10
2.270587
 20
-1.234235
 30
0.705
 70
    64
  0
VERTEX
  5
38F2
100
AcDbEntity
  8
0
100
AcDbVertex
100
AcDbPolygonMeshVertex
 10
2.270587
 20
-1.234235
 30
0.705
 70
    64
  0
VERTEX
  5
38F3
100
AcDbEntity
  8
0
100
AcDbVertex
100
AcDbPolygonMeshVertex
 10
2.053428
 20
-1.132048
 30
2.01
 70
    64
  0
VERTEX
  5
38F4
100
AcDbEntity
  8
0
100
AcDbVertex
100
AcDbPolygonMeshVertex
 10
2.053428
 20
-1.132048
 30
0.705
 70
    64
  0
VERTEX
  5
38F5
100
AcDbEntity
  8
0
100
AcDbVertex
100
AcDbPolygonMeshVertex
 10
2.053428
 20
-1.132048
 30
0.705
 70
    64
  0
VERTEX
  5
38F6
100
AcDbEntity
  8
0
100
AcDbVertex
100
AcDbPolygonMeshVertex
 10
2.181162
 20
-0.860599
 30
2.01
 70
    64
  0
VERTEX
  5
38F7
100
AcDbEntity
  8
0
100
AcDbVertex
100
AcDbPolygonMeshVertex
 10
2.181162
 20
-0.860599
 30
0.705
 70
    64
  0
VERTEX
  5
38F8
100
AcDbEntity
  8
0
100
AcDbVertex
100
AcDbPolygonMeshVertex
 10
2.053428
 20
-1.132048
 30
0.705
 70
    64
  0
VERTEX
  5
38F9
100
AcDbEntity
  8
0
100
AcDbVertex
100
AcDbPolygonMeshVertex
 10
2.398321
 20
-0.962787
 30
2.01
 70
    64
  0
VERTEX
  5
38FA
100
AcDbEntity
  8
0
100
AcDbVertex
100
AcDbPolygonMeshVertex
 10
2.398321
 20
-0.962787
 30
0.705
 70
    64
  0
VERTEX
  5
38FB
100
AcDbEntity
  8
0
100
AcDbVertex
100
AcDbPolygonMeshVertex
 10
2.270587
 20
-1.234235
 30
0.705
 70
    64
  0
VERTEX
  5
38FC
100
AcDbEntity
  8
0
100
AcDbVertex
100
AcDbPolygonMeshVertex
 10
2.398321
 20
-0.962787
 30
2.01
 70
    64
  0
VERTEX
  5
38FD
100
AcDbEntity
  8
0
100
AcDbVertex
100
AcDbPolygonMeshVertex
 10
2.398321
 20
-0.962787
 30
2.01
 70
    64
  0
VERTEX
  5
38FE
100
AcDbEntity
  8
0
100
AcDbVertex
100
AcDbPolygonMeshVertex
 10
2.270587
 20
-1.234235
 30
2.01
 70
    64
  0
VERTEX
  5
38FF
100
AcDbEntity
  8
0
100
AcDbVertex
100
AcDbPolygonMeshVertex
 10
2.181162
 20
-0.860599
 30
2.01
 70
    64
  0
VERTEX
  5
3900
100
AcDbEntity
  8
0
100
AcDbVertex
100
AcDbPolygonMeshVertex
 10
2.181162
 20
-0.860599
 30
2.01
 70
    64
  0
VERTEX
  5
3901
100
AcDbEntity
  8
0
100
AcDbVertex
100
AcDbPolygonMeshVertex
 10
2.053428
 20
-1.132048
 30
2.01
 70
    64
  0
SEQEND
  5
3902
100
AcDbEntity
  8
0
  0
POLYLINE
  5
3903
100
AcDbEntity
  8
0
100
AcDbPolygonMesh
 66
     1
 10
0.0
 20
0.0
 30
0.0
 70
    16
 71
     6
 72
     3
  0
VERTEX
  5
3904
100
AcDbEntity
  8
0
100
AcDbVertex
100
AcDbPolygonMeshVertex
 10
2.343605
 20
-1.089228
 30
2.01
 70
    64
  0
VERTEX
  5
3905
100
AcDbEntity
  8
0
100
AcDbVertex
100
AcDbPolygonMeshVertex
 10
2.343605
 20
-1.089228
 30
0.705
 70
    64
  0
VERTEX
  5
3906
100
AcDbEntity
  8
0
100
AcDbVertex
100
AcDbPolygonMeshVertex
 10
2.343605
 20
-1.089228
 30
0.705
 70
    64
  0
VERTEX
  5
3907
100
AcDbEntity
  8
0
100
AcDbVertex
100
AcDbPolygonMeshVertex
 10
2.120458
 20
-1.000878
 30
2.01
 70
    64
  0
VERTEX
  5
3908
100
AcDbEntity
  8
0
100
AcDbVertex
100
AcDbPolygonMeshVertex
 10
2.120458
 20
-1.000878
 30
0.705
 70
    64
  0
VERTEX
  5
3909
100
AcDbEntity
  8
0
100
AcDbVertex
100
AcDbPolygonMeshVertex
 10
2.120458
 20
-1.000878
 30
0.705
 70
    64
  0
VERTEX
  5
390A
100
AcDbEntity
  8
0
100
AcDbVertex
100
AcDbPolygonMeshVertex
 10
2.230896
 20
-0.721945
 30
2.01
 70
    64
  0
VERTEX
  5
390B
100
AcDbEntity
  8
0
100
AcDbVertex
100
AcDbPolygonMeshVertex
 10
2.230896
 20
-0.721945
 30
0.705
 70
    64
  0
VERTEX
  5
390C
100
AcDbEntity
  8
0
100
AcDbVertex
100
AcDbPolygonMeshVertex
 10
2.120458
 20
-1.000878
 30
0.705
 70
    64
  0
VERTEX
  5
390D
100
AcDbEntity
  8
0
100
AcDbVertex
100
AcDbPolygonMeshVertex
 10
2.454042
 20
-0.810295
 30
2.01
 70
    64
  0
VERTEX
  5
390E
100
AcDbEntity
  8
0
100
AcDbVertex
100
AcDbPolygonMeshVertex
 10
2.454042
 20
-0.810295
 30
0.705
 70
    64
  0
VERTEX
  5
390F
100
AcDbEntity
  8
0
100
AcDbVertex
100
AcDbPolygonMeshVertex
 10
2.343605
 20
-1.089228
 30
0.705
 70
    64
  0
VERTEX
  5
3910
100
AcDbEntity
  8
0
100
AcDbVertex
100
AcDbPolygonMeshVertex
 10
2.454042
 20
-0.810295
 30
2.01
 70
    64
  0
VERTEX
  5
3911
100
AcDbEntity
  8
0
100
AcDbVertex
100
AcDbPolygonMeshVertex
 10
2.454042
 20
-0.810295
 30
2.01
 70
    64
  0
VERTEX
  5
3912
100
AcDbEntity
  8
0
100
AcDbVertex
100
AcDbPolygonMeshVertex
 10
2.343605
 20
-1.089228
 30
2.01
 70
    64
  0
VERTEX
  5
3913
100
AcDbEntity
  8
0
100
AcDbVertex
100
AcDbPolygonMeshVertex
 10
2.230896
 20
-0.721945
 30
2.01
 70
    64
  0
VERTEX
  5
3914
100
AcDbEntity
  8
0
100
AcDbVertex
100
AcDbPolygonMeshVertex
 10
2.230896
 20
-0.721945
 30
2.01
 70
    64
  0
VERTEX
  5
3915
100
AcDbEntity
  8
0
100
AcDbVertex
100
AcDbPolygonMeshVertex
 10
2.120458
 20
-1.000878
 30
2.01
 70
    64
  0
SEQEND
  5
3916
100
AcDbEntity
  8
0
  0
POLYLINE
  5
3917
100
AcDbEntity
  8
0
100
AcDbPolygonMesh
 66
     1
 10
0.0
 20
0.0
 30
0.0
 70
    16
 71
     6
 72
     3
  0
VERTEX
  5
3918
100
AcDbEntity
  8
0
100
AcDbVertex
100
AcDbPolygonMeshVertex
 10
2.407373
 20
-0.939922
 30
2.01
 70
    64
  0
VERTEX
  5
3919
100
AcDbEntity
  8
0
100
AcDbVertex
100
AcDbPolygonMeshVertex
 10
2.407373
 20
-0.939922
 30
0.705
 70
    64
  0
VERTEX
  5
391A
100
AcDbEntity
  8
0
100
AcDbVertex
100
AcDbPolygonMeshVertex
 10
2.407373
 20
-0.939922
 30
0.705
 70
    64
  0
VERTEX
  5
391B
100
AcDbEntity
  8
0
100
AcDbVertex
100
AcDbPolygonMeshVertex
 10
2.17912
 20
-0.865758
 30
2.01
 70
    64
  0
VERTEX
  5
391C
100
AcDbEntity
  8
0
100
AcDbVertex
100
AcDbPolygonMeshVertex
 10
2.17912
 20
-0.865758
 30
0.705
 70
    64
  0
VERTEX
  5
391D
100
AcDbEntity
  8
0
100
AcDbVertex
100
AcDbPolygonMeshVertex
 10
2.17912
 20
-0.865758
 30
0.705
 70
    64
  0
VERTEX
  5
391E
100
AcDbEntity
  8
0
100
AcDbVertex
100
AcDbPolygonMeshVertex
 10
2.271825
 20
-0.580441
 30
2.01
 70
    64
  0
VERTEX
  5
391F
100
AcDbEntity
  8
0
100
AcDbVertex
100
AcDbPolygonMeshVertex
 10
2.271825
 20
-0.580441
 30
0.705
 70
    64
  0
VERTEX
  5
3920
100
AcDbEntity
  8
0
100
AcDbVertex
100
AcDbPolygonMeshVertex
 10
2.17912
 20
-0.865758
 30
0.705
 70
    64
  0
VERTEX
  5
3921
100
AcDbEntity
  8
0
100
AcDbVertex
100
AcDbPolygonMeshVertex
 10
2.500078
 20
-0.654605
 30
2.01
 70
    64
  0
VERTEX
  5
3922
100
AcDbEntity
  8
0
100
AcDbVertex
100
AcDbPolygonMeshVertex
 10
2.500078
 20
-0.654605
 30
0.705
 70
    64
  0
VERTEX
  5
3923
100
AcDbEntity
  8
0
100
AcDbVertex
100
AcDbPolygonMeshVertex
 10
2.407373
 20
-0.939922
 30
0.705
 70
    64
  0
VERTEX
  5
3924
100
AcDbEntity
  8
0
100
AcDbVertex
100
AcDbPolygonMeshVertex
 10
2.500078
 20
-0.654605
 30
2.01
 70
    64
  0
VERTEX
  5
3925
100
AcDbEntity
  8
0
100
AcDbVertex
100
AcDbPolygonMeshVertex
 10
2.500078
 20
-0.654605
 30
2.01
 70
    64
  0
VERTEX
  5
3926
100
AcDbEntity
  8
0
100
AcDbVertex
100
AcDbPolygonMeshVertex
 10
2.407373
 20
-0.939922
 30
2.01
 70
    64
  0
VERTEX
  5
3927
100
AcDbEntity
  8
0
100
AcDbVertex
100
AcDbPolygonMeshVertex
 10
2.271825
 20
-0.580441
 30
2.01
 70
    64
  0
VERTEX
  5
3928
100
AcDbEntity
  8
0
100
AcDbVertex
100
AcDbPolygonMeshVertex
 10
2.271825
 20
-0.580441
 30
2.01
 70
    64
  0
VERTEX
  5
3929
100
AcDbEntity
  8
0
100
AcDbVertex
100
AcDbPolygonMeshVertex
 10
2.17912
 20
-0.865758
 30
2.01
 70
    64
  0
SEQEND
  5
392A
100
AcDbEntity
  8
0
  0
POLYLINE
  5
392B
100
AcDbEntity
  8
0
100
AcDbPolygonMesh
 66
     1
 10
0.0
 20
0.0
 30
0.0
 70
    16
 71
     6
 72
     3
  0
VERTEX
  5
392C
100
AcDbEntity
  8
0
100
AcDbVertex
100
AcDbPolygonMeshVertex
 10
2.461641
 20
-0.786907
 30
2.01
 70
    64
  0
VERTEX
  5
392D
100
AcDbEntity
  8
0
100
AcDbVertex
100
AcDbPolygonMeshVertex
 10
2.461641
 20
-0.786907
 30
0.705
 70
    64
  0
VERTEX
  5
392E
100
AcDbEntity
  8
0
100
AcDbVertex
100
AcDbPolygonMeshVertex
 10
2.461641
 20
-0.786907
 30
0.705
 70
    64
  0
VERTEX
  5
392F
100
AcDbEntity
  8
0
100
AcDbVertex
100
AcDbPolygonMeshVertex
 10
2.229181
 20
-0.727222
 30
2.01
 70
    64
  0
VERTEX
  5
3930
100
AcDbEntity
  8
0
100
AcDbVertex
100
AcDbPolygonMeshVertex
 10
2.229181
 20
-0.727222
 30
0.705
 70
    64
  0
VERTEX
  5
3931
100
AcDbEntity
  8
0
100
AcDbVertex
100
AcDbPolygonMeshVertex
 10
2.229181
 20
-0.727222
 30
0.705
 70
    64
  0
VERTEX
  5
3932
100
AcDbEntity
  8
0
100
AcDbVertex
100
AcDbPolygonMeshVertex
 10
2.303788
 20
-0.436647
 30
2.01
 70
    64
  0
VERTEX
  5
3933
100
AcDbEntity
  8
0
100
AcDbVertex
100
AcDbPolygonMeshVertex
 10
2.303788
 20
-0.436647
 30
0.705
 70
    64
  0
VERTEX
  5
3934
100
AcDbEntity
  8
0
100
AcDbVertex
100
AcDbPolygonMeshVertex
 10
2.229181
 20
-0.727222
 30
0.705
 70
    64
  0
VERTEX
  5
3935
100
AcDbEntity
  8
0
100
AcDbVertex
100
AcDbPolygonMeshVertex
 10
2.536248
 20
-0.496332
 30
2.01
 70
    64
  0
VERTEX
  5
3936
100
AcDbEntity
  8
0
100
AcDbVertex
100
AcDbPolygonMeshVertex
 10
2.536248
 20
-0.496332
 30
0.705
 70
    64
  0
VERTEX
  5
3937
100
AcDbEntity
  8
0
100
AcDbVertex
100
AcDbPolygonMeshVertex
 10
2.461641
 20
-0.786907
 30
0.705
 70
    64
  0
VERTEX
  5
3938
100
AcDbEntity
  8
0
100
AcDbVertex
100
AcDbPolygonMeshVertex
 10
2.536248
 20
-0.496332
 30
2.01
 70
    64
  0
VERTEX
  5
3939
100
AcDbEntity
  8
0
100
AcDbVertex
100
AcDbPolygonMeshVertex
 10
2.536248
 20
-0.496332
 30
2.01
 70
    64
  0
VERTEX
  5
393A
100
AcDbEntity
  8
0
100
AcDbVertex
100
AcDbPolygonMeshVertex
 10
2.461641
 20
-0.786907
 30
2.01
 70
    64
  0
VERTEX
  5
393B
100
AcDbEntity
  8
0
100
AcDbVertex
100
AcDbPolygonMeshVertex
 10
2.303788
 20
-0.436647
 30
2.01
 70
    64
  0
VERTEX
  5
393C
100
AcDbEntity
  8
0
100
AcDbVertex
100
AcDbPolygonMeshVertex
 10
2.303788
 20
-0.436647
 30
2.01
 70
    64
  0
VERTEX
  5
393D
100
AcDbEntity
  8
0
100
AcDbVertex
100
AcDbPolygonMeshVertex
 10
2.229181
 20
-0.727222
 30
2.01
 70
    64
  0
SEQEND
  5
393E
100
AcDbEntity
  8
0
  0
POLYLINE
  5
393F
100
AcDbEntity
  8
0
100
AcDbPolygonMesh
 66
     1
 10
0.0
 20
0.0
 30
0.0
 70
    16
 71
     6
 72
     3
  0
VERTEX
  5
3940
100
AcDbEntity
  8
0
100
AcDbVertex
100
AcDbPolygonMeshVertex
 10
2.506194
 20
-0.630787
 30
2.01
 70
    64
  0
VERTEX
  5
3941
100
AcDbEntity
  8
0
100
AcDbVertex
100
AcDbPolygonMeshVertex
 10
2.506194
 20
-0.630787
 30
0.705
 70
    64
  0
VERTEX
  5
3942
100
AcDbEntity
  8
0
100
AcDbVertex
100
AcDbPolygonMeshVertex
 10
2.506194
 20
-0.630787
 30
0.705
 70
    64
  0
VERTEX
  5
3943
100
AcDbEntity
  8
0
100
AcDbVertex
100
AcDbPolygonMeshVertex
 10
2.270445
 20
-0.585815
 30
2.01
 70
    64
  0
VERTEX
  5
3944
100
AcDbEntity
  8
0
100
AcDbVertex
100
AcDbPolygonMeshVertex
 10
2.270445
 20
-0.585815
 30
0.705
 70
    64
  0
VERTEX
  5
3945
100
AcDbEntity
  8
0
100
AcDbVertex
100
AcDbPolygonMeshVertex
 10
2.270445
 20
-0.585815
 30
0.705
 70
    64
  0
VERTEX
  5
3946
100
AcDbEntity
  8
0
100
AcDbVertex
100
AcDbPolygonMeshVertex
 10
2.326659
 20
-0.291129
 30
2.01
 70
    64
  0
VERTEX
  5
3947
100
AcDbEntity
  8
0
100
AcDbVertex
100
AcDbPolygonMeshVertex
 10
2.326659
 20
-0.291129
 30
0.705
 70
    64
  0
VERTEX
  5
3948
100
AcDbEntity
  8
0
100
AcDbVertex
100
AcDbPolygonMeshVertex
 10
2.270445
 20
-0.585815
 30
0.705
 70
    64
  0
VERTEX
  5
3949
100
AcDbEntity
  8
0
100
AcDbVertex
100
AcDbPolygonMeshVertex
 10
2.562408
 20
-0.336101
 30
2.01
 70
    64
  0
VERTEX
  5
394A
100
AcDbEntity
  8
0
100
AcDbVertex
100
AcDbPolygonMeshVertex
 10
2.562408
 20
-0.336101
 30
0.705
 70
    64
  0
VERTEX
  5
394B
100
AcDbEntity
  8
0
100
AcDbVertex
100
AcDbPolygonMeshVertex
 10
2.506194
 20
-0.630787
 30
0.705
 70
    64
  0
VERTEX
  5
394C
100
AcDbEntity
  8
0
100
AcDbVertex
100
AcDbPolygonMeshVertex
 10
2.562408
 20
-0.336101
 30
2.01
 70
    64
  0
VERTEX
  5
394D
100
AcDbEntity
  8
0
100
AcDbVertex
100
AcDbPolygonMeshVertex
 10
2.562408
 20
-0.336101
 30
2.01
 70
    64
  0
VERTEX
  5
394E
100
AcDbEntity
  8
0
100
AcDbVertex
100
AcDbPolygonMeshVertex
 10
2.506194
 20
-0.630787
 30
2.01
 70
    64
  0
VERTEX
  5
394F
100
AcDbEntity
  8
0
100
AcDbVertex
100
AcDbPolygonMeshVertex
 10
2.326659
 20
-0.291129
 30
2.01
 70
    64
  0
VERTEX
  5
3950
100
AcDbEntity
  8
0
100
AcDbVertex
100
AcDbPolygonMeshVertex
 10
2.326659
 20
-0.291129
 30
2.01
 70
    64
  0
VERTEX
  5
3951
100
AcDbEntity
  8
0
100
AcDbVertex
100
AcDbPolygonMeshVertex
 10
2.270445
 20
-0.585815
 30
2.01
 70
    64
  0
SEQEND
  5
3952
100
AcDbEntity
  8
0
  0
POLYLINE
  5
3953
100
AcDbEntity
  8
0
100
AcDbPolygonMesh
 66
     1
 10
0.0
 20
0.0
 30
0.0
 70
    16
 71
     6
 72
     3
  0
VERTEX
  5
3954
100
AcDbEntity
  8
0
100
AcDbVertex
100
AcDbPolygonMeshVertex
 10
2.540856
 20
-0.472177
 30
2.01
 70
    64
  0
VERTEX
  5
3955
100
AcDbEntity
  8
0
100
AcDbVertex
100
AcDbPolygonMeshVertex
 10
2.540856
 20
-0.472177
 30
0.705
 70
    64
  0
VERTEX
  5
3956
100
AcDbEntity
  8
0
100
AcDbVertex
100
AcDbPolygonMeshVertex
 10
2.540856
 20
-0.472177
 30
0.705
 70
    64
  0
VERTEX
  5
3957
100
AcDbEntity
  8
0
100
AcDbVertex
100
AcDbPolygonMeshVertex
 10
2.302748
 20
-0.442097
 30
2.01
 70
    64
  0
VERTEX
  5
3958
100
AcDbEntity
  8
0
100
AcDbVertex
100
AcDbPolygonMeshVertex
 10
2.302748
 20
-0.442097
 30
0.705
 70
    64
  0
VERTEX
  5
3959
100
AcDbEntity
  8
0
100
AcDbVertex
100
AcDbPolygonMeshVertex
 10
2.302748
 20
-0.442097
 30
0.705
 70
    64
  0
VERTEX
  5
395A
100
AcDbEntity
  8
0
100
AcDbVertex
100
AcDbPolygonMeshVertex
 10
2.340348
 20
-0.144463
 30
2.01
 70
    64
  0
VERTEX
  5
395B
100
AcDbEntity
  8
0
100
AcDbVertex
100
AcDbPolygonMeshVertex
 10
2.340348
 20
-0.144463
 30
0.705
 70
    64
  0
VERTEX
  5
395C
100
AcDbEntity
  8
0
100
AcDbVertex
100
AcDbPolygonMeshVertex
 10
2.302748
 20
-0.442097
 30
0.705
 70
    64
  0
VERTEX
  5
395D
100
AcDbEntity
  8
0
100
AcDbVertex
100
AcDbPolygonMeshVertex
 10
2.578456
 20
-0.174543
 30
2.01
 70
    64
  0
VERTEX
  5
395E
100
AcDbEntity
  8
0
100
AcDbVertex
100
AcDbPolygonMeshVertex
 10
2.578456
 20
-0.174543
 30
0.705
 70
    64
  0
VERTEX
  5
395F
100
AcDbEntity
  8
0
100
AcDbVertex
100
AcDbPolygonMeshVertex
 10
2.540856
 20
-0.472177
 30
0.705
 70
    64
  0
VERTEX
  5
3960
100
AcDbEntity
  8
0
100
AcDbVertex
100
AcDbPolygonMeshVertex
 10
2.578456
 20
-0.174543
 30
2.01
 70
    64
  0
VERTEX
  5
3961
100
AcDbEntity
  8
0
100
AcDbVertex
100
AcDbPolygonMeshVertex
 10
2.578456
 20
-0.174543
 30
2.01
 70
    64
  0
VERTEX
  5
3962
100
AcDbEntity
  8
0
100
AcDbVertex
100
AcDbPolygonMeshVertex
 10
2.540856
 20
-0.472177
 30
2.01
 70
    64
  0
VERTEX
  5
3963
100
AcDbEntity
  8
0
100
AcDbVertex
100
AcDbPolygonMeshVertex
 10
2.340348
 20
-0.144463
 30
2.01
 70
    64
  0
VERTEX
  5
3964
100
AcDbEntity
  8
0
100
AcDbVertex
100
AcDbPolygonMeshVertex
 10
2.340348
 20
-0.144463
 30
2.01
 70
    64
  0
VERTEX
  5
3965
100
AcDbEntity
  8
0
100
AcDbVertex
100
AcDbPolygonMeshVertex
 10
2.302748
 20
-0.442097
 30
2.01
 70
    64
  0
SEQEND
  5
3966
100
AcDbEntity
  8
0
  0
POLYLINE
  5
3967
100
AcDbEntity
  8
0
100
AcDbPolygonMesh
 66
     1
 10
0.0
 20
0.0
 30
0.0
 70
    16
 71
     6
 72
     3
  0
VERTEX
  5
3968
100
AcDbEntity
  8
0
100
AcDbVertex
100
AcDbPolygonMeshVertex
 10
2.56549
 20
-0.311704
 30
2.01
 70
    64
  0
VERTEX
  5
3969
100
AcDbEntity
  8
0
100
AcDbVertex
100
AcDbPolygonMeshVertex
 10
2.56549
 20
-0.311704
 30
0.705
 70
    64
  0
VERTEX
  5
396A
100
AcDbEntity
  8
0
100
AcDbVertex
100
AcDbPolygonMeshVertex
 10
2.56549
 20
-0.311704
 30
0.705
 70
    64
  0
VERTEX
  5
396B
100
AcDbEntity
  8
0
100
AcDbVertex
100
AcDbPolygonMeshVertex
 10
2.325964
 20
-0.296634
 30
2.01
 70
    64
  0
VERTEX
  5
396C
100
AcDbEntity
  8
0
100
AcDbVertex
100
AcDbPolygonMeshVertex
 10
2.325964
 20
-0.296634
 30
0.705
 70
    64
  0
VERTEX
  5
396D
100
AcDbEntity
  8
0
100
AcDbVertex
100
AcDbPolygonMeshVertex
 10
2.325964
 20
-0.296634
 30
0.705
 70
    64
  0
VERTEX
  5
396E
100
AcDbEntity
  8
0
100
AcDbVertex
100
AcDbPolygonMeshVertex
 10
2.344801
 20
0.002774
 30
2.01
 70
    64
  0
VERTEX
  5
396F
100
AcDbEntity
  8
0
100
AcDbVertex
100
AcDbPolygonMeshVertex
 10
2.344801
 20
0.002774
 30
0.705
 70
    64
  0
VERTEX
  5
3970
100
AcDbEntity
  8
0
100
AcDbVertex
100
AcDbPolygonMeshVertex
 10
2.325964
 20
-0.296634
 30
0.705
 70
    64
  0
VERTEX
  5
3971
100
AcDbEntity
  8
0
100
AcDbVertex
100
AcDbPolygonMeshVertex
 10
2.584328
 20
-0.012296
 30
2.01
 70
    64
  0
VERTEX
  5
3972
100
AcDbEntity
  8
0
100
AcDbVertex
100
AcDbPolygonMeshVertex
 10
2.584328
 20
-0.012296
 30
0.705
 70
    64
  0
VERTEX
  5
3973
100
AcDbEntity
  8
0
100
AcDbVertex
100
AcDbPolygonMeshVertex
 10
2.56549
 20
-0.311704
 30
0.705
 70
    64
  0
VERTEX
  5
3974
100
AcDbEntity
  8
0
100
AcDbVertex
100
AcDbPolygonMeshVertex
 10
2.584328
 20
-0.012296
 30
2.01
 70
    64
  0
VERTEX
  5
3975
100
AcDbEntity
  8
0
100
AcDbVertex
100
AcDbPolygonMeshVertex
 10
2.584328
 20
-0.012296
 30
2.01
 70
    64
  0
VERTEX
  5
3976
100
AcDbEntity
  8
0
100
AcDbVertex
100
AcDbPolygonMeshVertex
 10
2.56549
 20
-0.311704
 30
2.01
 70
    64
  0
VERTEX
  5
3977
100
AcDbEntity
  8
0
100
AcDbVertex
100
AcDbPolygonMeshVertex
 10
2.344801
 20
0.002774
 30
2.01
 70
    64
  0
VERTEX
  5
3978
100
AcDbEntity
  8
0
100
AcDbVertex
100
AcDbPolygonMeshVertex
 10
2.344801
 20
0.002774
 30
2.01
 70
    64
  0
VERTEX
  5
3979
100
AcDbEntity
  8
0
100
AcDbVertex
100
AcDbPolygonMeshVertex
 10
2.325964
 20
-0.296634
 30
2.01
 70
    64
  0
SEQEND
  5
397A
100
AcDbEntity
  8
0
  0
POLYLINE
  5
397B
100
AcDbEntity
  8
0
100
AcDbPolygonMesh
 66
     1
 10
0.0
 20
0.0
 30
0.0
 70
    16
 71
     6
 72
     3
  0
VERTEX
  5
397C
100
AcDbEntity
  8
0
100
AcDbVertex
100
AcDbPolygonMeshVertex
 10
0.6
 20
1.7775
 30
2.685
 70
    64
  0
VERTEX
  5
397D
100
AcDbEntity
  8
0
100
AcDbVertex
100
AcDbPolygonMeshVertex
 10
0.6
 20
1.7775
 30
0.705
 70
    64
  0
VERTEX
  5
397E
100
AcDbEntity
  8
0
100
AcDbVertex
100
AcDbPolygonMeshVertex
 10
0.6
 20
1.7775
 30
0.705
 70
    64
  0
VERTEX
  5
397F
100
AcDbEntity
  8
0
100
AcDbVertex
100
AcDbPolygonMeshVertex
 10
-0.6
 20
1.7775
 30
2.685
 70
    64
  0
VERTEX
  5
3980
100
AcDbEntity
  8
0
100
AcDbVertex
100
AcDbPolygonMeshVertex
 10
-0.6
 20
1.7775
 30
0.705
 70
    64
  0
VERTEX
  5
3981
100
AcDbEntity
  8
0
100
AcDbVertex
100
AcDbPolygonMeshVertex
 10
-0.6
 20
1.7775
 30
0.705
 70
    64
  0
VERTEX
  5
3982
100
AcDbEntity
  8
0
100
AcDbVertex
100
AcDbPolygonMeshVertex
 10
-0.6
 20
-2.3775
 30
2.685
 70
    64
  0
VERTEX
  5
3983
100
AcDbEntity
  8
0
100
AcDbVertex
100
AcDbPolygonMeshVertex
 10
-0.6
 20
-2.3775
 30
0.705
 70
    64
  0
VERTEX
  5
3984
100
AcDbEntity
  8
0
100
AcDbVertex
100
AcDbPolygonMeshVertex
 10
-0.6
 20
1.7775
 30
0.705
 70
    64
  0
VERTEX
  5
3985
100
AcDbEntity
  8
0
100
AcDbVertex
100
AcDbPolygonMeshVertex
 10
0.6
 20
-2.3775
 30
2.685
 70
    64
  0
VERTEX
  5
3986
100
AcDbEntity
  8
0
100
AcDbVertex
100
AcDbPolygonMeshVertex
 10
0.6
 20
-2.3775
 30
0.705
 70
    64
  0
VERTEX
  5
3987
100
AcDbEntity
  8
0
100
AcDbVertex
100
AcDbPolygonMeshVertex
 10
0.6
 20
1.7775
 30
0.705
 70
    64
  0
VERTEX
  5
3988
100
AcDbEntity
  8
0
100
AcDbVertex
100
AcDbPolygonMeshVertex
 10
0.6
 20
-2.3775
 30
2.685
 70
    64
  0
VERTEX
  5
3989
100
AcDbEntity
  8
0
100
AcDbVertex
100
AcDbPolygonMeshVertex
 10
0.6
 20
-2.3775
 30
2.685
 70
    64
  0
VERTEX
  5
398A
100
AcDbEntity
  8
0
100
AcDbVertex
100
AcDbPolygonMeshVertex
 10
0.6
 20
1.7775
 30
2.685
 70
    64
  0
VERTEX
  5
398B
100
AcDbEntity
  8
0
100
AcDbVertex
100
AcDbPolygonMeshVertex
 10
-0.6
 20
-2.3775
 30
2.685
 70
    64
  0
VERTEX
  5
398C
100
AcDbEntity
  8
0
100
AcDbVertex
100
AcDbPolygonMeshVertex
 10
-0.6
 20
-2.3775
 30
2.685
 70
    64
  0
VERTEX
  5
398D
100
AcDbEntity
  8
0
100
AcDbVertex
100
AcDbPolygonMeshVertex
 10
-0.6
 20
1.7775
 30
2.685
 70
    64
  0
SEQEND
  5
398E
100
AcDbEntity
  8
0
  0
POINT
  5
398F
100
AcDbEntity
  8
SNAP_POINTS
100
AcDbPoint
 10
0.0
 20
0.0
 30
0.0
  0
DIMENSION
  5
3990
100
AcDbEntity
  8
AREA1
100
AcDbDimension
  2
*D0
 10
2.6625
 20
2.994136
 30
0.0
 11
-0.090633
 21
2.994136
 31
0.0
 70
   160
  3
ABECAD_3D
100
AcDbAlignedDimension
 13
-2.6625
 23
2.6625
 33
0.0
 14
2.6625
 24
2.6625
 34
0.0
100
AcDbRotatedDimension
  0
DIMENSION
  5
3991
100
AcDbEntity
  8
AREA1
100
AcDbDimension
  2
*D1
 10
3.100605
 20
-2.6625
 30
0.0
 11
3.100605
 21
-0.003489
 31
0.0
 70
   160
  3
ABECAD_3D
100
AcDbAlignedDimension
 13
2.6625
 23
2.6625
 33
0.0
 14
2.6625
 24
-2.6625
 34
0.0
 50
90.0
100
AcDbRotatedDimension
  0
ENDBLK
  5
3993
100
AcDbEntity
  8
0
100
AcDbBlockEnd
  0
BLOCK
  5
39AB
100
AcDbEntity
  8
0
100
AcDbBlockBegin
  2
*D3
 70
     1
 10
0.0
 20
0.0
 30
0.0
  3
*D3
  1

  0
LINE
  5
39A1
100
AcDbEntity
  8
AREA2
 62
     0
100
AcDbLine
 10
0.6625
 20
2.685
 30
0.0
 11
3.202526
 21
2.685
 31
0.0
1001
ACAD
1000
RTLwPs
1070
   158
  0
LINE
  5
39A2
100
AcDbEntity
  8
AREA2
 62
     0
100
AcDbLine
 10
2.725
 20
0.0
 30
0.0
 11
3.202526
 21
0.0
 31
0.0
1001
ACAD
1000
RTLwPs
1070
   158
  0
LINE
  5
39A3
100
AcDbEntity
  8
AREA2
 62
     0
100
AcDbLine
 10
3.022526
 20
2.505
 30
0.0
 11
3.022526
 21
2.011651
 31
0.0
1001
ACAD
1000
RTLwPs
1070
   158
  0
LINE
  5
39A4
100
AcDbEntity
  8
AREA2
 62
     0
100
AcDbLine
 10
3.022526
 20
0.18
 30
0.0
 11
3.022526
 21
0.736651
 31
0.0
1001
ACAD
1000
RTLwPs
1070
   158
  0
MTEXT
  5
39A5
100
AcDbEntity
  8
AREA2
 62
     0
100
AcDbMText
 10
3.022526
 20
1.374151
 30
0.0
 40
0.09
 41
0.0
 71
     5
 72
     1
  1
\A1;2 11/16 [68.20]
 11
0.0
 21
1.0
 31
0.0
1001
ACAD
1000
MTEXTBEGIN
1070
    73
1070
     1
1070
    44
1040
1.0
1070
    74
1070
     0
1000
MTEXTEND
1000
MTEXTBEGIN
1070
    73
1070
     1
1070
    44
1040
1.0
1070
    74
1070
     0
1000
MTEXTEND
1000
MTEXTBEGIN
1070
    73
1070
     1
1070
    44
1040
1.0
1070
    74
1070
     0
1000
MTEXTEND
1000
MTEXTBEGIN
1070
    73
1070
     1
1070
    44
1040
1.0
1070
    74
1070
     0
1000
MTEXTEND
  0
SOLID
  5
39A6
100
AcDbEntity
  8
AREA2
 62
     0
100
AcDbTrace
 10
2.992526
 20
2.505
 30
0.0
 11
3.052526
 21
2.505
 31
0.0
 12
3.022526
 22
2.685
 32
0.0
 13
3.022526
 23
2.685
 33
0.0
  0
SOLID
  5
39A7
100
AcDbEntity
  8
AREA2
 62
     0
100
AcDbTrace
 10
2.992526
 20
0.18
 30
0.0
 11
3.052526
 21
0.18
 31
0.0
 12
3.022526
 22
0.0
 32
0.0
 13
3.022526
 23
0.0
 33
0.0
  0
POINT
  5
39A8
100
AcDbEntity
  8
DEFPOINTS
 62
     0
100
AcDbPoint
 10
0.6
 20
2.685
 30
-1.7775
  0
POINT
  5
39A9
100
AcDbEntity
  8
DEFPOINTS
 62
     0
100
AcDbPoint
 10
2.6625
 20
0.0
 30
2.6625
  0
POINT
  5
39AA
100
AcDbEntity
  8
DEFPOINTS
 62
     0
100
AcDbPoint
 10
3.022526
 20
0.0
 30
0.0
  0
ENDBLK
  5
39AC
100
AcDbEntity
  8
0
100
AcDbBlockEnd
  0
ENDSEC
  0
SECTION
  2
ENTITIES
  0
INSERT
  5
3994
100
AcDbEntity
  8
0
100
AcDbBlockReference
 66
     1
  2
ABDSB500
 10
0.0
 20
0.0
 30
0.0
  0
ATTRIB
  5
3996
100
AcDbEntity
  8
ATTRIBUTES
100
AcDbText
 10
-2.5511
 20
-1.05572
 30
0.0
 40
0.09
  1
ALLEN-BRADLEY
100
AcDbAttribute
  2
AC_VND_LABEL
 70
     1
  0
ATTRIB
  5
3997
100
AcDbEntity
  8
ATTRIBUTES
100
AcDbText
 10
-2.5511
 20
-1.24322
 30
0.0
 40
0.09
  1
194L-HE13G/N-***
100
AcDbAttribute
  2
AC_PART_NO
 70
     1
  0
ATTRIB
  5
3998
100
AcDbEntity
  8
ATTRIBUTES
100
AcDbText
 10
-2.5511
 20
-1.43072
 30
0.0
 40
0.09
  1
Control and Load Switch Actuator, Type G/N
100
AcDbAttribute
  2
AC_DESCRIPTION
 70
     1
  0
ATTRIB
  5
3999
100
AcDbEntity
  8
ATTRIBUTES
100
AcDbText
 10
-2.5511
 20
-1.61822
 30
0.0
 40
0.09
  1

100
AcDbAttribute
  2
DEVICE_ID
 70
     1
  0
ATTRIB
  5
399A
100
AcDbEntity
  8
ATTRIBUTES
100
AcDbText
 10
-2.5511
 20
-1.80572
 30
0.0
 40
0.09
  1

100
AcDbAttribute
  2
AC_CPART_NO
 70
     1
  0
ATTRIB
  5
399B
100
AcDbEntity
  8
ATTRIBUTES
100
AcDbText
 10
-2.5511
 20
-1.99322
 30
0.0
 40
0.09
  1

100
AcDbAttribute
  2
AC_NOTE
 70
     1
  0
ATTRIB
  5
399C
100
AcDbEntity
  8
ATTRIBUTES
100
AcDbText
 10
-2.5511
 20
-2.18072
 30
0.0
 40
0.09
  1

100
AcDbAttribute
  2
FASTENER
 70
     1
  0
ATTRIB
  5
399D
100
AcDbEntity
  8
ATTRIBUTES
100
AcDbText
 10
-2.5511
 20
-2.36822
 30
0.0
 40
0.09
  1
INCH
100
AcDbAttribute
  2
AC_SCALE_UNIT
 70
     1
  0
ATTRIB
  5
399E
100
AcDbEntity
  8
ATTRIBUTES
100
AcDbText
 10
-2.5511
 20
-2.55572
 30
0.0
 40
0.09
  1
0
100
AcDbAttribute
  2
AC_VIEW_CODE
 70
     1
  0
SEQEND
  5
3995
100
AcDbEntity
  8
0
  0
DIMENSION
  5
399F
100
AcDbEntity
  8
AREA2
100
AcDbDimension
  2
*D3
 10
3.022526
 20
0.0
 30
0.0
 11
3.022526
 21
1.374151
 31
0.0
 70
   160
210
0.0
220
-1.0
230
0.0
  3
ABECAD_3V
100
AcDbAlignedDimension
 13
0.6
 23
1.7775
 33
2.685
 14
2.6625
 24
-2.6625
 34
0.0
 50
90.0
100
AcDbRotatedDimension
1001
ACAD
1000
DSTYLE
1002
{
1070
    40
1040
1.0
1002
}
  0
VIEWPORT
  5
2C
102
{ACAD_XDICTIONARY
360
3A82
102
}
100
AcDbEntity
 67
     1
  8
0
100
AcDbViewport
 10
4.999849
 20
3.750155
 30
0.0
 40
15.434
 41
7.617554
 68
     1
 69
     1
1001
ACAD
1000
MVIEW
1002
{
1070
    16
1010
0.0
1020
0.0
1030
0.0
1010
0.0
1020
0.0
1030
1.0
1040
0.0
1040
7.617554
1040
4.999849
1040
3.750155
1040
50.0
1040
0.0
1040
0.0
1070
     0
1070
   100
1070
     1
1070
     1
1070
     0
1070
     0
1070
     0
1070
     0
1040
0.0
1040
0.0
1040
0.0
1040
1.0
1040
1.0
1040
0.0
1040
0.0
1070
     0
1002
{
1002
}
1002
}
  0
VIEWPORT
  5
2D
102
{ACAD_XDICTIONARY
360
3A84
102
}
100
AcDbEntity
 67
     1
  8
0
100
AcDbViewport
 10
2.5
 20
5.625
 30
0.0
 40
5.0
 41
3.75
 68
     3
 69
     2
1001
ACAD
1000
MVIEW
1002
{
1070
    16
1010
0.0
1020
0.0
1030
0.0
1010
0.0
1020
0.0
1030
1.0
1040
0.0
1040
6.522479
1040
0.316556
1040
0.156789
1040
50.0
1040
0.0
1040
0.0
1070
     0
1070
   100
1070
     1
1070
     0
1070
     0
1070
     0
1070
     0
1070
     0
1040
0.0
1040
0.0
1040
0.0
1040
1.0
1040
1.0
1040
0.0
1040
0.0
1070
     0
1002
{
1003
AREA2
1002
}
1002
}
  0
VIEWPORT
  5
2E
102
{ACAD_XDICTIONARY
360
3A86
102
}
100
AcDbEntity
 67
     1
  8
0
100
AcDbViewport
 10
2.5
 20
1.875
 30
0.0
 40
5.0
 41
3.75
 68
     4
 69
     3
1001
ACAD
1000
MVIEW
1002
{
1070
    16
1010
0.0
1020
0.0
1030
0.0
1010
0.0
1020
-1.0
1030
0.0
1040
0.0
1040
6.058036
1040
0.332898
1040
1.548508
1040
50.0
1040
0.0
1040
0.0
1070
     0
1070
   100
1070
     1
1070
     0
1070
     0
1070
     0
1070
     0
1070
     0
1040
0.0
1040
0.0
1040
0.0
1040
1.0
1040
1.0
1040
0.0
1040
0.0
1070
     0
1002
{
1003
AREA1
1002
}
1002
}
  0
VIEWPORT
  5
2F
102
{ACAD_XDICTIONARY
360
3A88
102
}
100
AcDbEntity
 67
     1
  8
0
100
AcDbViewport
 10
7.5
 20
3.75
 30
0.0
 40
5.0
 41
7.5
 68
     2
 69
     4
1001
ACAD
1000
MVIEW
1002
{
1070
    16
1010
0.0
1020
0.0
1030
0.0
1010
-1.0
1020
-1.0
1030
1.0
1040
0.0
1040
12.545516
1040
-0.11111
1040
2.770936
1040
50.0
1040
0.0
1040
0.0
1070
     0
1070
   100
1070
     1
1070
     0
1070
     0
1070
     0
1070
     0
1070
     0
1040
0.0
1040
0.0
1040
0.0
1040
1.0
1040
1.0
1040
0.0
1040
0.0
1070
     0
1002
{
1003
AREA1
1003
AREA2
1002
}
1002
}
  0
TEXT
  5
42D
100
AcDbEntity
 67
     1
  8
0
100
AcDbText
 10
5.253785
 20
7.092701
 30
0.0
 40
0.2
  1
194E-HE13G/N-*
100
AcDbText
  0
TEXT
  5
431
100
AcDbEntity
 67
     1
  8
0
100
AcDbText
 10
5.253785
 20
6.759368
 30
0.0
 40
0.2
  1
ACTUATOR, 135mm x 135mm
100
AcDbText
1001
ACAD
1000
R13OBJECT
1002
{
1005
42D
1002
}
  0
TEXT
  5
6C2
100
AcDbEntity
 67
     1
  8
0
100
AcDbText
 10
5.253785
 20
6.43306
 30
0.0
 40
0.2
  1

100
AcDbText
1001
ACAD
1000
R13OBJECT
1002
{
1005
42D
1002
}
  0
ENDSEC
  0
SECTION
  2
OBJECTS
  0
DICTIONARY
  5
46D
100
AcDbDictionary
  3
ACAD_GROUP
350
46E
  3
ACAD_LAYOUT
350
49E
  3
ACAD_MLINESTYLE
350
47B
  3
ACAD_PLOTSETTINGS
350
49F
  3
ACAD_PLOTSTYLENAME
350
49C
  3
ACDBHEADERROUNDTRIPXREC
350
3A61
  3
ACDBVARIABLEDICTIONARY
350
48D
  3
DWGPROPS
350
39AE
  0
DICTIONARY
  5
3A5F
100
AcDbDictionary
280
     1
  3
ACAD_XREC_ROUNDTRIP
360
3A60
  0
DICTIONARY
  5
3A8C
100
AcDbDictionary
280
     1
  3
ACAD_XREC_ROUNDTRIP
360
3A8D
  0
DICTIONARY
  5
3A8E
100
AcDbDictionary
280
     1
  3
ACAD_XREC_ROUNDTRIP
360
3A8F
  0
DICTIONARY
  5
3A92
100
AcDbDictionary
280
     1
  3
ACAD_XREC_ROUNDTRIP
360
3A93
  0
DICTIONARY
  5
4D2
100
AcDbDictionary
280
     1
  3
ACAD_LAYOUTSELFREF
360
3A8B
  0
DICTIONARY
  5
4D0
100
AcDbDictionary
280
     1
  3
ACAD_LAYOUTSELFREF
360
3A8A
  0
DICTIONARY
  5
3A5D
100
AcDbDictionary
280
     1
  3
ACAD_XREC_ROUNDTRIP
360
3A5E
  0
DICTIONARY
  5
3A82
100
AcDbDictionary
280
     1
  3
ACAD_XREC_ROUNDTRIP
360
3A83
  0
DICTIONARY
  5
3A84
100
AcDbDictionary
280
     1
  3
ACAD_XREC_ROUNDTRIP
360
3A85
  0
DICTIONARY
  5
3A86
100
AcDbDictionary
280
     1
  3
ACAD_XREC_ROUNDTRIP
360
3A87
  0
DICTIONARY
  5
3A88
100
AcDbDictionary
280
     1
  3
ACAD_XREC_ROUNDTRIP
360
3A89
  0
DICTIONARY
  5
46E
102
{ACAD_REACTORS
330
46D
102
}
100
AcDbDictionary
  0
DICTIONARY
  5
49E
102
{ACAD_XDICTIONARY
360
3A90
102
}
102
{ACAD_REACTORS
330
46D
102
}
100
AcDbDictionary
  3
LAYOUT1
350
4A1
  3
MODEL
350
4A0
  0
DICTIONARY
  5
47B
102
{ACAD_REACTORS
330
46D
102
}
100
AcDbDictionary
  3
STANDARD
350
47C
  0
DICTIONARY
  5
49F
102
{ACAD_REACTORS
330
46D
102
}
100
AcDbDictionary
  0
ACAD_PROXY_OBJECT
  5
49C
102
{ACAD_REACTORS
330
46D
102
}
100
AcDbProxyObject
 90
      499
 91
      501
 93
       86
310
405010041939BDC9B585B0
350
49D
340
49D
 94
        0
  0
DICTIONARY
  5
3A61
102
{ACAD_REACTORS
330
46D
102
}
100
AcDbDictionary
  3
CEPSNTYPE
350
3A6B
  3
DIMSTYLEDATA
350
3A6F
  3
FINGERPRINTGUID
350
3A6C
  3
HYPERLINKBASE
350
3A64
  3
INSUNITS
350
3A6A
  3
LAYOUTDICT
350
3A66
  3
LWETCUNION
350
3A69
  3
PLOTSETDICT
350
3A67
  3
PLOTSTYLNAMDICT
350
3A68
  3
PSVPSCALE
350
3A6E
  3
PUCSBASE
350
3A72
  3
PUCSORGBACK
350
3A78
  3
PUCSORGBOTTOM
350
3A74
  3
PUCSORGFRONT
350
3A77
  3
PUCSORGLEFT
350
3A75
  3
PUCSORGRIGHT
350
3A76
  3
PUCSORGTOP
350
3A73
  3
PUCSORTHOREF
350
3A70
  3
PUCSORTHOVIEW
350
3A71
  3
STYLESHEET
350
3A65
  3
TSTACKALIGN
350
3A62
  3
TSTACKSIZE
350
3A63
  3
UCSBASE
350
3A7B
  3
UCSORGBACK
350
3A81
  3
UCSORGBOTTOM
350
3A7D
  3
UCSORGFRONT
350
3A80
  3
UCSORGLEFT
350
3A7E
  3
UCSORGRIGHT
350
3A7F
  3
UCSORGTOP
350
3A7C
  3
UCSORTHOREF
350
3A79
  3
UCSORTHOVIEW
350
3A7A
  3
VERSIONGUID
350
3A6D
  0
DICTIONARY
  5
48D
102
{ACAD_REACTORS
330
46D
102
}
100
AcDbDictionary
  3
DIMADEC
350
48E
  0
XRECORD
  5
39AE
102
{ACAD_REACTORS
330
46D
102
}
100
AcDbXrecord
  1
DWGPROPS COOKIE
  2

  3

  4

  6

  7

  8
colin
  9

300
=
301
=
302
=
303
=
304
=
305
=
306
=
307
=
308
=
309
=
 40
0.13625
 41
2451726.480029
 42
2451841.554519
  1

 90
        0
  0
XRECORD
  5
3A60
102
{ACAD_REACTORS
330
3A5F
102
}
100
AcDbXrecord
102
EXTNAMES
  1
*ACTIVE
  2
*Active
102
UCS
 74
     0
 71
     1
 10
0.0
 20
0.0
 30
0.0
 10
1.0
 20
0.0
 30
0.0
 10
0.0
 20
0.0
 30
1.0
146
0.0
 79
     3
102
VIEW
281
     0
  0
XRECORD
  5
3A8D
102
{ACAD_REACTORS
330
3A8C
102
}
100
AcDbXrecord
102
PLOTBIT
280
     0
  0
XRECORD
  5
3A8F
102
{ACAD_REACTORS
330
3A8E
102
}
100
AcDbXrecord
102
ACADR14ROUNDTRIP
1000
DSTYLE
1002
{
1070
   276
 70
     2
1070
   277
 70
     5
1070
   279
 70
     2
1070
   289
 70
     2
1002
}
  0
XRECORD
  5
3A93
102
{ACAD_REACTORS
330
3A92
102
}
100
AcDbXrecord
102
ACADR14ROUNDTRIP
1000
DSTYLE
1002
{
1070
   276
 70
     2
1070
   277
 70
     5
1070
   279
 70
     2
1070
   289
 70
     2
1002
}
  0
XRECORD
  5
3A8B
102
{ACAD_REACTORS
330
4D2
102
}
100
AcDbXrecord
340
478
  0
XRECORD
  5
3A8A
102
{ACAD_REACTORS
330
4D0
102
}
100
AcDbXrecord
340
475
  0
XRECORD
  5
3A5E
102
{ACAD_REACTORS
330
3A5D
102
}
100
AcDbXrecord
102
EXTNAMES
  1
ABDSB500
  2
abdsb500
  0
XRECORD
  5
3A83
102
{ACAD_REACTORS
330
3A82
102
}
100
AcDbXrecord
102
UCS
 74
     0
 71
     1
 10
0.0
 20
0.0
 30
0.0
 10
1.0
 20
0.0
 30
0.0
 10
0.0
 20
1.0
 30
0.0
146
0.0
 79
     0
102
VIEW
281
     0
102
NEWVIEWCONTROL
280
     4
  0
XRECORD
  5
3A85
102
{ACAD_REACTORS
330
3A84
102
}
100
AcDbXrecord
102
UCS
 74
     0
 71
     1
 10
0.0
 20
0.0
 30
0.0
 10
1.0
 20
0.0
 30
0.0
 10
0.0
 20
1.0
 30
0.0
146
0.0
 79
     1
102
VIEW
281
     0
102
NEWVIEWCONTROL
280
     4
  0
XRECORD
  5
3A87
102
{ACAD_REACTORS
330
3A86
102
}
100
AcDbXrecord
102
UCS
 74
     0
 71
     1
 10
0.0
 20
0.0
 30
0.0
 10
1.0
 20
0.0
 30
0.0
 10
0.0
 20
0.0
 30
1.0
146
0.0
 79
     3
102
VIEW
281
     0
102
NEWVIEWCONTROL
280
     4
  0
XRECORD
  5
3A89
102
{ACAD_REACTORS
330
3A88
102
}
100
AcDbXrecord
102
UCS
 74
     0
 71
     1
 10
0.0
 20
0.0
 30
0.0
 10
1.0
 20
0.0
 30
0.0
 10
0.0
 20
1.0
 30
0.0
146
0.0
 79
     1
102
VIEW
281
     0
102
NEWVIEWCONTROL
280
     4
  0
DICTIONARY
  5
3A90
100
AcDbDictionary
280
     1
  3
ACAD_XREC_ROUNDTRIP
360
3A91
  0
ACAD_PROXY_OBJECT
  5
4A1
102
{ACAD_REACTORS
330
49E
102
}
100
AcDbProxyObject
 90
      499
 91
      503
 93
     2044
310
91D4850204C617365724A65742035303030205365726965732050434C20362C008000000C0BB1B1440000000102F06C510000000000BC1B1440000000002E06C5100000000C0CCFC6A4000000018199D9C501064C6574746572A901406AA427D84144352EEE3F47D11959985D5B1D08148C4D081C195B88185CDCDA59DB9B5
310
95B9D1CCB98DD18A30EDE3B1BBFDBC0FC1D572C8D6D0C833F1A2B3054E9249F0FD074C61796F75743140501A97D7DB4AA43C31EFF91E46EBA53B71EFD1B32A15809809100B2537F8EAD447D02A6A6A00200C0093BD106FC0000F06EE366FABE0000032E846F6A2F44424FF2920002440160B7F435600079000000D00CEECC5
310
43D0
330
475
330
2C
340
0
340
0
 94
        0
  0
ACAD_PROXY_OBJECT
  5
4A0
102
{ACAD_REACTORS
330
49E
102
}
100
AcDbProxyObject
 90
      499
 91
      503
 93
      924
310
91D4850204C617365724A65742035303030205365726965732050434C20362C01AAAAAAAAA547D11959985D5B1D08148C4D081C195B88185CDCDA59DB9B595B9D1CCB98DD18A69054D6F64656C901A800000000000000000000000000000000000000000000A1000000000000008902A6A6AAAA2
330
478
330
0
340
0
340
0
 94
        0
  0
MLINESTYLE
  5
47C
102
{ACAD_REACTORS
330
47B
102
}
100
AcDbMlineStyle
  2
STANDARD
 70
     0
  3

 62
   256
 51
90.0
 52
90.0
 71
     2
 49
0.5
 62
   256
  6
BYLAYER
 49
-0.5
 62
   256
  6
BYLAYER
  0
ACAD_PROXY_OBJECT
  5
49D
102
{ACAD_REACTORS
330
49C
102
}
100
AcDbProxyObject
 90
      499
 91
      502
 93
        0
 94
        0
  0
XRECORD
  5
3A6B
102
{ACAD_REACTORS
330
3A61
102
}
100
AcDbXrecord
 90
        0
  0
XRECORD
  5
3A6F
102
{ACAD_REACTORS
330
3A61
102
}
100
AcDbXrecord
1000
DSTYLE
1002
{
1070
   276
 70
     2
1070
   277
 70
     5
1070
   279
 70
     2
1070
   289
 70
     2
1002
}
  0
XRECORD
  5
3A6C
102
{ACAD_REACTORS
330
3A61
102
}
100
AcDbXrecord
  1
{6E0CF4B5-225E-11D4-A150-00A0CC3303EC}
  0
XRECORD
  5
3A64
102
{ACAD_REACTORS
330
3A61
102
}
100
AcDbXrecord
  1

  0
XRECORD
  5
3A6A
102
{ACAD_REACTORS
330
3A61
102
}
100
AcDbXrecord
 90
        0
  0
XRECORD
  5
3A66
102
{ACAD_REACTORS
330
3A61
102
}
100
AcDbXrecord
340
49E
  0
XRECORD
  5
3A69
102
{ACAD_REACTORS
330
3A61
102
}
100
AcDbXrecord
 90
    14877
  0
XRECORD
  5
3A67
102
{ACAD_REACTORS
330
3A61
102
}
100
AcDbXrecord
340
49F
  0
XRECORD
  5
3A68
102
{ACAD_REACTORS
330
3A61
102
}
100
AcDbXrecord
340
49C
  0
XRECORD
  5
3A6E
102
{ACAD_REACTORS
330
3A61
102
}
100
AcDbXrecord
 40
0.0
  0
XRECORD
  5
3A72
102
{ACAD_REACTORS
330
3A61
102
}
100
AcDbXrecord
340
0
  0
XRECORD
  5
3A78
102
{ACAD_REACTORS
330
3A61
102
}
100
AcDbXrecord
 10
0.0
 20
0.0
 30
0.0
  0
XRECORD
  5
3A74
102
{ACAD_REACTORS
330
3A61
102
}
100
AcDbXrecord
 10
0.0
 20
0.0
 30
0.0
  0
XRECORD
  5
3A77
102
{ACAD_REACTORS
330
3A61
102
}
100
AcDbXrecord
 10
0.0
 20
0.0
 30
0.0
  0
XRECORD
  5
3A75
102
{ACAD_REACTORS
330
3A61
102
}
100
AcDbXrecord
 10
0.0
 20
0.0
 30
0.0
  0
XRECORD
  5
3A76
102
{ACAD_REACTORS
330
3A61
102
}
100
AcDbXrecord
 10
0.0
 20
0.0
 30
0.0
  0
XRECORD
  5
3A73
102
{ACAD_REACTORS
330
3A61
102
}
100
AcDbXrecord
 10
0.0
 20
0.0
 30
0.0
  0
XRECORD
  5
3A70
102
{ACAD_REACTORS
330
3A61
102
}
100
AcDbXrecord
340
0
  0
XRECORD
  5
3A71
102
{ACAD_REACTORS
330
3A61
102
}
100
AcDbXrecord
 70
     0
  0
XRECORD
  5
3A65
102
{ACAD_REACTORS
330
3A61
102
}
100
AcDbXrecord
  1

  0
XRECORD
  5
3A62
102
{ACAD_REACTORS
330
3A61
102
}
100
AcDbXrecord
 90
        1
  0
XRECORD
  5
3A63
102
{ACAD_REACTORS
330
3A61
102
}
100
AcDbXrecord
 90
       70
  0
XRECORD
  5
3A7B
102
{ACAD_REACTORS
330
3A61
102
}
100
AcDbXrecord
340
0
  0
XRECORD
  5
3A81
102
{ACAD_REACTORS
330
3A61
102
}
100
AcDbXrecord
 10
0.0
 20
0.0
 30
0.0
  0
XRECORD
  5
3A7D
102
{ACAD_REACTORS
330
3A61
102
}
100
AcDbXrecord
 10
0.0
 20
0.0
 30
0.0
  0
XRECORD
  5
3A80
102
{ACAD_REACTORS
330
3A61
102
}
100
AcDbXrecord
 10
0.0
 20
0.0
 30
0.0
  0
XRECORD
  5
3A7E
102
{ACAD_REACTORS
330
3A61
102
}
100
AcDbXrecord
 10
0.0
 20
0.0
 30
0.0
  0
XRECORD
  5
3A7F
102
{ACAD_REACTORS
330
3A61
102
}
100
AcDbXrecord
 10
0.0
 20
0.0
 30
0.0
  0
XRECORD
  5
3A7C
102
{ACAD_REACTORS
330
3A61
102
}
100
AcDbXrecord
 10
0.0
 20
0.0
 30
0.0
  0
XRECORD
  5
3A79
102
{ACAD_REACTORS
330
3A61
102
}
100
AcDbXrecord
340
0
  0
XRECORD
  5
3A7A
102
{ACAD_REACTORS
330
3A61
102
}
100
AcDbXrecord
 70
     1
  0
XRECORD
  5
3A6D
102
{ACAD_REACTORS
330
3A61
102
}
100
AcDbXrecord
  1
{696EACB6-3B1E-42A1-B3E0-F7202297372D}
  0
DICTIONARYVAR
  5
48E
102
{ACAD_REACTORS
330
48D
102
}
100
DictionaryVariables
280
     0
  1
0
  0
XRECORD
  5
3A91
102
{ACAD_REACTORS
330
3A90
102
}
100
AcDbXrecord
102
EXTNAMES
  1
LAYOUT1
  2
Layout1
  1
MODEL
  2
Model
  0
ENDSEC
  0
EOF
