  0
SECTION
  2
HEADER
  9
$ACADVER
  1
AC1014
  9
$ACADMAINTVER
 70
     8
  9
$DWGCODEPAGE
  3
ANSI_1252
  9
$INSBASE
 10
0.0
 20
0.0
 30
0.0
  9
$EXTMIN
 10
-2.6625
 20
-2.693364
 30
0.0
  9
$EXTMAX
 10
4.883627
 20
3.174136
 30
2.685
  9
$LIMMIN
 10
0.0
 20
0.0
  9
$LIMMAX
 10
12.0
 20
9.0
  9
$ORTHOMODE
 70
     0
  9
$REGENMODE
 70
     1
  9
$FILLMODE
 70
     1
  9
$QTEXTMODE
 70
     0
  9
$MIRRTEXT
 70
     1
  9
$DRAGMODE
 70
     2
  9
$LTSCALE
 40
1.0
  9
$OSMODE
 70
    37
  9
$ATTMODE
 70
     1
  9
$TEXTSIZE
 40
0.12
  9
$TRACEWID
 40
0.05
  9
$TEXTSTYLE
  7
STANDARD
  9
$CLAYER
  8
0
  9
$CELTYPE
  6
BYLAYER
  9
$CECOLOR
 62
   256
  9
$CELTSCALE
 40
1.0
  9
$DELOBJ
 70
     1
  9
$DISPSILH
 70
     0
  9
$DIMSCALE
 40
1.0
  9
$DIMASZ
 40
0.09
  9
$DIMEXO
 40
0.0625
  9
$DIMDLI
 40
0.375
  9
$DIMRND
 40
0.0
  9
$DIMDLE
 40
0.0
  9
$DIMEXE
 40
0.18
  9
$DIMTP
 40
0.0
  9
$DIMTM
 40
0.0
  9
$DIMTXT
 40
0.09
  9
$DIMCEN
 40
0.09
  9
$DIMTSZ
 40
0.0
  9
$DIMTOL
 70
     0
  9
$DIMLIM
 70
     0
  9
$DIMTIH
 70
     0
  9
$DIMTOH
 70
     1
  9
$DIMSE1
 70
     0
  9
$DIMSE2
 70
     0
  9
$DIMTAD
 70
     0
  9
$DIMZIN
 70
     4
  9
$DIMBLK
  1

  9
$DIMASO
 70
     1
  9
$DIMSHO
 70
     1
  9
$DIMPOST
  1

  9
$DIMAPOST
  1

  9
$DIMALT
 70
     1
  9
$DIMALTD
 70
     2
  9
$DIMALTF
 40
25.4
  9
$DIMLFAC
 40
1.0
  9
$DIMTOFL
 70
     0
  9
$DIMTVP
 40
0.0
  9
$DIMTIX
 70
     0
  9
$DIMSOXD
 70
     0
  9
$DIMSAH
 70
     0
  9
$DIMBLK1
  1

  9
$DIMBLK2
  1

  9
$DIMSTYLE
  2
ABECAD_3D
  9
$DIMCLRD
 70
     0
  9
$DIMCLRE
 70
     0
  9
$DIMCLRT
 70
     0
  9
$DIMTFAC
 40
1.5
  9
$DIMGAP
 40
0.09
  9
$DIMJUST
 70
     0
  9
$DIMSD1
 70
     0
  9
$DIMSD2
 70
     0
  9
$DIMTOLJ
 70
     1
  9
$DIMTZIN
 70
     4
  9
$DIMALTZ
 70
     4
  9
$DIMALTTZ
 70
     4
  9
$DIMFIT
 70
     5
  9
$DIMUPT
 70
     1
  9
$DIMUNIT
 70
     7
  9
$DIMDEC
 70
     6
  9
$DIMTDEC
 70
     6
  9
$DIMALTU
 70
     2
  9
$DIMALTTD
 70
     2
  9
$DIMTXSTY
  7
STANDARD
  9
$DIMAUNIT
 70
     0
  9
$LUNITS
 70
     2
  9
$LUPREC
 70
     4
  9
$SKETCHINC
 40
0.1
  9
$FILLETRAD
 40
0.0
  9
$AUNITS
 70
     0
  9
$AUPREC
 70
     0
  9
$MENU
  1
ACAD
  9
$ELEVATION
 40
0.0
  9
$PELEVATION
 40
0.0
  9
$THICKNESS
 40
0.0
  9
$LIMCHECK
 70
     0
  9
$BLIPMODE
 70
     0
  9
$CHAMFERA
 40
0.0
  9
$CHAMFERB
 40
0.0
  9
$CHAMFERC
 40
0.0
  9
$CHAMFERD
 40
0.0
  9
$SKPOLY
 70
     0
  9
$TDCREATE
 40
2451726.480055787
  9
$TDUPDATE
 40
2452010.485262847
  9
$TDINDWG
 40
0.0071672454
  9
$TDUSRTIMER
 40
0.0071672454
  9
$USRTIMER
 70
     1
  9
$ANGBASE
 50
0.0
  9
$ANGDIR
 70
     0
  9
$PDMODE
 70
     3
  9
$PDSIZE
 40
0.09
  9
$PLINEWID
 40
0.0
  9
$COORDS
 70
     1
  9
$SPLFRAME
 70
     1
  9
$SPLINETYPE
 70
     6
  9
$SPLINESEGS
 70
     8
  9
$ATTDIA
 70
     0
  9
$ATTREQ
 70
     1
  9
$HANDLING
 70
     1
  9
$HANDSEED
  5
46B0A
  9
$SURFTAB1
 70
     6
  9
$SURFTAB2
 70
     6
  9
$SURFTYPE
 70
     6
  9
$SURFU
 70
     6
  9
$SURFV
 70
     6
  9
$UCSNAME
  2

  9
$UCSORG
 10
0.0
 20
0.0
 30
0.0
  9
$UCSXDIR
 10
1.0
 20
0.0
 30
0.0
  9
$UCSYDIR
 10
0.0
 20
1.0
 30
0.0
  9
$PUCSNAME
  2

  9
$PUCSORG
 10
0.0
 20
0.0
 30
0.0
  9
$PUCSXDIR
 10
1.0
 20
0.0
 30
0.0
  9
$PUCSYDIR
 10
0.0
 20
1.0
 30
0.0
  9
$USERI1
 70
     0
  9
$USERI2
 70
     0
  9
$USERI3
 70
     0
  9
$USERI4
 70
     0
  9
$USERI5
 70
     0
  9
$USERR1
 40
0.0
  9
$USERR2
 40
0.0
  9
$USERR3
 40
0.0
  9
$USERR4
 40
0.0
  9
$USERR5
 40
0.0
  9
$WORLDVIEW
 70
     1
  9
$SHADEDGE
 70
     3
  9
$SHADEDIF
 70
    70
  9
$TILEMODE
 70
     1
  9
$MAXACTVP
 70
    16
  9
$PINSBASE
 10
0.0
 20
0.0
 30
0.0
  9
$PLIMCHECK
 70
     0
  9
$PEXTMIN
 10
1.000000E+20
 20
1.000000E+20
 30
1.000000E+20
  9
$PEXTMAX
 10
-1.000000E+20
 20
-1.000000E+20
 30
-1.000000E+20
  9
$PLIMMIN
 10
0.0
 20
0.0
  9
$PLIMMAX
 10
12.0
 20
9.0
  9
$UNITMODE
 70
     0
  9
$VISRETAIN
 70
     0
  9
$PLINEGEN
 70
     0
  9
$PSLTSCALE
 70
     1
  9
$TREEDEPTH
 70
  3020
  9
$PICKSTYLE
 70
     1
  9
$CMLSTYLE
  2
STANDARD
  9
$CMLJUST
 70
     0
  9
$CMLSCALE
 40
1.0
  9
$PROXYGRAPHICS
 70
     1
  9
$MEASUREMENT
 70
     0
  0
ENDSEC
  0
SECTION
  2
CLASSES
  0
CLASS
  1
DICTIONARYVAR
  2
AcDbDictionaryVar
  3
"AutoCAD"
 90
        0
280
     0
281
     0
  0
CLASS
  1
ACDBDICTIONARYWDFLT
  2
AcDbDictionaryWithDefault
  3
AutoCAD 2000
 90
        0
280
     0
281
     0
  0
CLASS
  1
ACDBPLACEHOLDER
  2
AcDbPlaceHolder
  3
AutoCAD 2000
 90
        0
280
     0
281
     0
  0
CLASS
  1
LAYOUT
  2
AcDbLayout
  3
AutoCAD 2000
 90
        0
280
     0
281
     0
  0
CLASS
  1
LONG_TRANSACTION
  2
AcDbLongTransaction
  3
AutoCAD 2000
 90
        0
280
     0
281
     0
  0
CLASS
  1
LWPOLYLINE
  2
AcDbPolyline
  3
"AutoCAD"
 90
        0
280
     0
281
     1
  0
CLASS
  1
HATCH
  2
AcDbHatch
  3
"ACAD_SEDONA"
 90
        0
280
     0
281
     1
  0
CLASS
  1
XRECORD
  2
AcDbXrecord
  3
"<Built In>"
 90
        0
280
     0
281
     0
  0
CLASS
  1
LONG_TRANSACTION
  2
AcDbLongTransaction
  3
AutoCAD 2000
 90
        0
280
     0
281
     0
  0
CLASS
  1
LWPOLYLINE
  2
AcDbPolyline
  3
"AutoCAD"
 90
        0
280
     0
281
     1
  0
CLASS
  1
HATCH
  2
AcDbHatch
  3
"ACAD_SEDONA"
 90
        0
280
     0
281
     1
  0
CLASS
  1
XRECORD
  2
AcDbXrecord
  3
"<Built In>"
 90
        0
280
     0
281
     0
  0
CLASS
  1
LONG_TRANSACTION
  2
AcDbLongTransaction
  3
AutoCAD 2000
 90
        0
280
     0
281
     0
  0
CLASS
  1
LWPOLYLINE
  2
AcDbPolyline
  3
"AutoCAD"
 90
        0
280
     0
281
     1
  0
CLASS
  1
HATCH
  2
AcDbHatch
  3
"ACAD_SEDONA"
 90
        0
280
     0
281
     1
  0
CLASS
  1
XRECORD
  2
AcDbXrecord
  3
"<Built In>"
 90
        0
280
     0
281
     0
  0
CLASS
  1
LONG_TRANSACTION
  2
AcDbLongTransaction
  3
AutoCAD 2000
 90
        0
280
     0
281
     0
  0
CLASS
  1
LWPOLYLINE
  2
AcDbPolyline
  3
"AutoCAD"
 90
        0
280
     0
281
     1
  0
CLASS
  1
HATCH
  2
AcDbHatch
  3
"ACAD_SEDONA"
 90
        0
280
     0
281
     1
  0
CLASS
  1
XRECORD
  2
AcDbXrecord
  3
"<Built In>"
 90
        0
280
     0
281
     0
  0
CLASS
  1
LONG_TRANSACTION
  2
AcDbLongTransaction
  3
AutoCAD 2000
 90
        0
280
     0
281
     0
  0
CLASS
  1
LWPOLYLINE
  2
AcDbPolyline
  3
"AutoCAD"
 90
        0
280
     0
281
     1
  0
CLASS
  1
HATCH
  2
AcDbHatch
  3
"ACAD_SEDONA"
 90
        0
280
     0
281
     1
  0
CLASS
  1
XRECORD
  2
AcDbXrecord
  3
"<Built In>"
 90
        0
280
     0
281
     0
  0
CLASS
  1
LONG_TRANSACTION
  2
AcDbLongTransaction
  3
AutoCAD 2000
 90
        0
280
     0
281
     0
  0
CLASS
  1
LWPOLYLINE
  2
AcDbPolyline
  3
"AutoCAD"
 90
        0
280
     0
281
     1
  0
CLASS
  1
HATCH
  2
AcDbHatch
  3
"ACAD_SEDONA"
 90
        0
280
     0
281
     1
  0
CLASS
  1
XRECORD
  2
AcDbXrecord
  3
"<Built In>"
 90
        0
280
     0
281
     0
  0
ENDSEC
  0
SECTION
  2
TABLES
  0
TABLE
  2
VPORT
  5
458C7
100
AcDbSymbolTable
 70
     1
  0
VPORT
  5
46AD9
102
{ACAD_XDICTIONARY
360
46ADC
102
}
100
AcDbSymbolTableRecord
100
AcDbViewportTableRecord
  2
*ACTIVE
 70
     0
 10
0.0
 20
0.0
 11
1.0
 21
1.0
 12
1.110852
 22
0.240504
 13
0.0
 23
0.0
 14
0.25
 24
0.25
 15
0.25
 25
0.25
 16
0.0
 26
0.0
 36
1.0
 17
0.0
 27
0.0
 37
0.0
 40
5.967079
 41
1.960674
 42
50.0
 43
0.0
 44
0.0
 50
0.0
 51
0.0
 71
     0
 72
 20000
 73
     1
 74
     1
 75
     0
 76
     0
 77
     0
 78
     0
  0
ENDTAB
  0
TABLE
  2
LTYPE
  5
458C4
100
AcDbSymbolTable
 70
     1
  0
LTYPE
  5
458D0
100
AcDbSymbolTableRecord
100
AcDbLinetypeTableRecord
  2
BYBLOCK
 70
     0
  3

 72
    65
 73
     0
 40
0.0
  0
LTYPE
  5
458D1
100
AcDbSymbolTableRecord
100
AcDbLinetypeTableRecord
  2
BYLAYER
 70
     0
  3

 72
    65
 73
     0
 40
0.0
  0
LTYPE
  5
458D2
100
AcDbSymbolTableRecord
100
AcDbLinetypeTableRecord
  2
CONTINUOUS
 70
     0
  3
Solid line
 72
    65
 73
     0
 40
0.0
  0
ENDTAB
  0
TABLE
  2
LAYER
  5
458C1
100
AcDbSymbolTable
 70
     7
  0
LAYER
  5
458CD
100
AcDbSymbolTableRecord
100
AcDbLayerTableRecord
  2
0
 70
     0
 62
     7
  6
CONTINUOUS
  0
LAYER
  5
458EA
100
AcDbSymbolTableRecord
100
AcDbLayerTableRecord
  2
DIMS-MTG-HOLES
 70
     0
 62
     1
  6
CONTINUOUS
  0
LAYER
  5
458EB
100
AcDbSymbolTableRecord
100
AcDbLayerTableRecord
  2
ATTRIBUTES
 70
     0
 62
     7
  6
CONTINUOUS
  0
LAYER
  5
4593B
102
{ACAD_XDICTIONARY
360
46B05
102
}
100
AcDbSymbolTableRecord
100
AcDbLayerTableRecord
  2
AREA1
 70
     0
 62
    -7
  6
CONTINUOUS
  0
LAYER
  5
45940
102
{ACAD_XDICTIONARY
360
46ADA
102
}
100
AcDbSymbolTableRecord
100
AcDbLayerTableRecord
  2
DEFPOINTS
 70
     0
 62
    -7
  6
CONTINUOUS
  0
LAYER
  5
45954
100
AcDbSymbolTableRecord
100
AcDbLayerTableRecord
  2
SCALE
 70
     0
 62
    -7
  6
CONTINUOUS
  0
LAYER
  5
459D2
100
AcDbSymbolTableRecord
100
AcDbLayerTableRecord
  2
SNAP_POINTS
 70
     0
 62
    -1
  6
CONTINUOUS
  0
ENDTAB
  0
TABLE
  2
STYLE
  5
458C2
100
AcDbSymbolTable
 70
     1
  0
STYLE
  5
458CE
100
AcDbSymbolTableRecord
100
AcDbTextStyleTableRecord
  2
STANDARD
 70
     0
 40
0.0
 41
1.0
 50
0.0
 71
     0
 42
0.12
  3
txt
  4

  0
ENDTAB
  0
TABLE
  2
VIEW
  5
458C5
100
AcDbSymbolTable
 70
     0
  0
ENDTAB
  0
TABLE
  2
UCS
  5
458C6
100
AcDbSymbolTable
 70
     0
  0
ENDTAB
  0
TABLE
  2
APPID
  5
458C8
100
AcDbSymbolTable
 70
     1
  0
APPID
  5
458CF
100
AcDbSymbolTableRecord
100
AcDbRegAppTableRecord
  2
ACAD
 70
     0
  0
ENDTAB
  0
TABLE
  2
DIMSTYLE
  5
458C9
100
AcDbSymbolTable
 70
     1
  0
DIMSTYLE
105
458F6
102
{ACAD_XDICTIONARY
360
46B01
102
}
102
{ACAD_REACTORS
330
46A5B
330
46A69
102
}
100
AcDbSymbolTableRecord
100
AcDbDimStyleTableRecord
  2
ABECAD_3D
 70
     0
  3

  4

  5

  6

  7

 40
1.0
 41
0.09
 42
0.0625
 43
0.375
 44
0.18
 45
0.0
 46
0.0
 47
0.0
 48
0.0
140
0.09
141
0.09
142
0.0
143
25.4
144
1.0
145
0.0
146
1.5
147
0.09
 71
     0
 72
     0
 73
     0
 74
     1
 75
     0
 76
     0
 77
     0
 78
     4
170
     1
171
     2
172
     0
173
     0
174
     0
175
     0
176
     0
177
     0
178
     0
270
     7
271
     6
272
     6
273
     2
274
     2
340
458CE
275
     0
280
     0
281
     0
282
     0
283
     1
284
     4
285
     4
286
     4
287
     5
288
     1
  0
ENDTAB
  0
TABLE
  2
BLOCK_RECORD
  5
458C0
100
AcDbSymbolTable
 70
     2
  0
BLOCK_RECORD
  5
458D6
102
{ACAD_XDICTIONARY
360
4592C
102
}
100
AcDbSymbolTableRecord
100
AcDbBlockTableRecord
  2
*MODEL_SPACE
  0
BLOCK_RECORD
  5
458D3
102
{ACAD_XDICTIONARY
360
4592A
102
}
100
AcDbSymbolTableRecord
100
AcDbBlockTableRecord
  2
*PAPER_SPACE
  0
BLOCK_RECORD
  5
46A5C
100
AcDbSymbolTableRecord
100
AcDbBlockTableRecord
  2
*D0
  0
BLOCK_RECORD
  5
46A6A
100
AcDbSymbolTableRecord
100
AcDbBlockTableRecord
  2
*D1
  0
ENDTAB
  0
ENDSEC
  0
SECTION
  2
BLOCKS
  0
BLOCK
  5
458DF
100
AcDbEntity
  8
0
100
AcDbBlockBegin
  2
*MODEL_SPACE
 70
     0
 10
0.0
 20
0.0
 30
0.0
  3
*MODEL_SPACE
  1

  0
ENDBLK
  5
458E0
100
AcDbEntity
  8
0
100
AcDbBlockEnd
  0
BLOCK
  5
458DD
100
AcDbEntity
 67
     1
  8
0
100
AcDbBlockBegin
  2
*PAPER_SPACE
 70
     0
 10
0.0
 20
0.0
 30
0.0
  3
*PAPER_SPACE
  1

  0
ENDBLK
  5
458DE
100
AcDbEntity
 67
     1
  8
0
100
AcDbBlockEnd
  0
BLOCK
  5
46A67
100
AcDbEntity
  8
0
100
AcDbBlockBegin
  2
*D0
 70
     1
 10
0.0
 20
0.0
 30
0.0
  3
*D0
  1

  0
LINE
  5
46A5D
100
AcDbEntity
  8
AREA1
 62
     0
100
AcDbLine
 10
-2.6625
 20
2.725
 30
0.0
 11
-2.6625
 21
3.174136
 31
0.0
1001
ACAD
1000
RTLwPs
1070
   158
  0
LINE
  5
46A5E
100
AcDbEntity
  8
AREA1
 62
     0
100
AcDbLine
 10
2.6625
 20
2.725
 30
0.0
 11
2.6625
 21
3.174136
 31
0.0
1001
ACAD
1000
RTLwPs
1070
   158
  0
LINE
  5
46A5F
100
AcDbEntity
  8
AREA1
 62
     0
100
AcDbLine
 10
-2.5725
 20
2.994136
 30
0.0
 11
-0.795633
 21
2.994136
 31
0.0
1001
ACAD
1000
RTLwPs
1070
   158
  0
LINE
  5
46A60
100
AcDbEntity
  8
AREA1
 62
     0
100
AcDbLine
 10
2.5725
 20
2.994136
 30
0.0
 11
0.614367
 21
2.994136
 31
0.0
1001
ACAD
1000
RTLwPs
1070
   158
  0
MTEXT
  5
46A61
100
AcDbEntity
  8
AREA1
 62
     0
100
AcDbMText
 10
-0.090633
 20
2.994136
 30
0.0
 40
0.09
 41
0.0
 71
     5
 72
     1
  1
\A1;5 21/64 [135.26]
1001
ACAD
1000
MTEXTBEGIN
1070
    73
1070
     1
1070
    44
1040
1.0
1070
    74
1070
     0
1000
MTEXTEND
1000
MTEXTBEGIN
1070
    73
1070
     1
1070
    44
1040
1.0
1070
    74
1070
     0
1000
MTEXTEND
1000
MTEXTBEGIN
1070
    73
1070
     1
1070
    44
1040
1.0
1070
    74
1070
     0
1000
MTEXTEND
  0
SOLID
  5
46A62
100
AcDbEntity
  8
AREA1
 62
     0
100
AcDbTrace
 10
-2.5725
 20
3.009136
 30
0.0
 11
-2.5725
 21
2.979136
 31
0.0
 12
-2.6625
 22
2.994136
 32
0.0
 13
-2.6625
 23
2.994136
 33
0.0
  0
SOLID
  5
46A63
100
AcDbEntity
  8
AREA1
 62
     0
100
AcDbTrace
 10
2.5725
 20
3.009136
 30
0.0
 11
2.5725
 21
2.979136
 31
0.0
 12
2.6625
 22
2.994136
 32
0.0
 13
2.6625
 23
2.994136
 33
0.0
  0
POINT
  5
46A64
100
AcDbEntity
  8
DEFPOINTS
 62
     0
100
AcDbPoint
 10
-2.6625
 20
2.6625
 30
0.0
  0
POINT
  5
46A65
100
AcDbEntity
  8
DEFPOINTS
 62
     0
100
AcDbPoint
 10
2.6625
 20
2.6625
 30
0.0
  0
POINT
  5
46A66
100
AcDbEntity
  8
DEFPOINTS
 62
     0
100
AcDbPoint
 10
2.6625
 20
2.994136
 30
0.0
  0
ENDBLK
  5
46A68
100
AcDbEntity
  8
0
100
AcDbBlockEnd
  0
BLOCK
  5
46A75
100
AcDbEntity
  8
0
100
AcDbBlockBegin
  2
*D1
 70
     1
 10
0.0
 20
0.0
 30
0.0
  3
*D1
  1

  0
LINE
  5
46A6B
100
AcDbEntity
  8
AREA1
 62
     0
100
AcDbLine
 10
2.725
 20
2.6625
 30
0.0
 11
3.280605
 21
2.6625
 31
0.0
1001
ACAD
1000
RTLwPs
1070
   158
  0
LINE
  5
46A6C
100
AcDbEntity
  8
AREA1
 62
     0
100
AcDbLine
 10
2.725
 20
-2.6625
 30
0.0
 11
3.280605
 21
-2.6625
 31
0.0
1001
ACAD
1000
RTLwPs
1070
   158
  0
LINE
  5
46A6D
100
AcDbEntity
  8
AREA1
 62
     0
100
AcDbLine
 10
3.100605
 20
2.5725
 30
0.0
 11
3.100605
 21
0.701511
 31
0.0
1001
ACAD
1000
RTLwPs
1070
   158
  0
LINE
  5
46A6E
100
AcDbEntity
  8
AREA1
 62
     0
100
AcDbLine
 10
3.100605
 20
-2.5725
 30
0.0
 11
3.100605
 21
-0.708489
 31
0.0
1001
ACAD
1000
RTLwPs
1070
   158
  0
MTEXT
  5
46A6F
100
AcDbEntity
  8
AREA1
 62
     0
100
AcDbMText
 10
3.100605
 20
-0.003489
 30
0.0
 40
0.09
 41
0.0
 71
     5
 72
     1
  1
\A1;5 21/64 [135.26]
 11
0.0
 21
1.0
 31
0.0
1001
ACAD
1000
MTEXTBEGIN
1070
    73
1070
     1
1070
    44
1040
1.0
1070
    74
1070
     0
1000
MTEXTEND
1000
MTEXTBEGIN
1070
    73
1070
     1
1070
    44
1040
1.0
1070
    74
1070
     0
1000
MTEXTEND
1000
MTEXTBEGIN
1070
    73
1070
     1
1070
    44
1040
1.0
1070
    74
1070
     0
1000
MTEXTEND
  0
SOLID
  5
46A70
100
AcDbEntity
  8
AREA1
 62
     0
100
AcDbTrace
 10
3.085605
 20
2.5725
 30
0.0
 11
3.115605
 21
2.5725
 31
0.0
 12
3.100605
 22
2.6625
 32
0.0
 13
3.100605
 23
2.6625
 33
0.0
  0
SOLID
  5
46A71
100
AcDbEntity
  8
AREA1
 62
     0
100
AcDbTrace
 10
3.085605
 20
-2.5725
 30
0.0
 11
3.115605
 21
-2.5725
 31
0.0
 12
3.100605
 22
-2.6625
 32
0.0
 13
3.100605
 23
-2.6625
 33
0.0
  0
POINT
  5
46A72
100
AcDbEntity
  8
DEFPOINTS
 62
     0
100
AcDbPoint
 10
2.6625
 20
2.6625
 30
0.0
  0
POINT
  5
46A73
100
AcDbEntity
  8
DEFPOINTS
 62
     0
100
AcDbPoint
 10
2.6625
 20
-2.6625
 30
0.0
  0
POINT
  5
46A74
100
AcDbEntity
  8
DEFPOINTS
 62
     0
100
AcDbPoint
 10
3.100605
 20
-2.6625
 30
0.0
  0
ENDBLK
  5
46A76
100
AcDbEntity
  8
0
100
AcDbBlockEnd
  0
ENDSEC
  0
SECTION
  2
ENTITIES
  0
LINE
  5
45955
100
AcDbEntity
  8
SCALE
100
AcDbLine
 10
3.805997
 20
-2.231833
 30
0.0
 11
4.805997
 21
-2.231833
 31
0.0
  0
LINE
  5
45956
100
AcDbEntity
  8
SCALE
100
AcDbLine
 10
4.805997
 20
-2.231833
 30
0.0
 11
4.805997
 21
-2.331833
 31
0.0
  0
LINE
  5
45957
100
AcDbEntity
  8
SCALE
100
AcDbLine
 10
4.805997
 20
-2.331833
 30
0.0
 11
4.805997
 21
-2.131833
 31
0.0
  0
LINE
  5
45958
100
AcDbEntity
  8
SCALE
100
AcDbLine
 10
3.805997
 20
-2.331833
 30
0.0
 11
3.805997
 21
-2.131833
 31
0.0
  0
LINE
  5
45959
100
AcDbEntity
  8
SCALE
100
AcDbLine
 10
3.805997
 20
-2.631833
 30
0.0
 11
3.805997
 21
-2.431833
 31
0.0
  0
LINE
  5
4595A
100
AcDbEntity
  8
SCALE
100
AcDbLine
 10
4.199697
 20
-2.631833
 30
0.0
 11
4.199697
 21
-2.431833
 31
0.0
  0
LINE
  5
4595B
100
AcDbEntity
  8
SCALE
100
AcDbLine
 10
3.805997
 20
-2.531833
 30
0.0
 11
4.199697
 21
-2.531833
 31
0.0
  0
TEXT
  5
4595C
100
AcDbEntity
  8
SCALE
100
AcDbText
 10
3.865419
 20
-2.486093
 30
0.0
 40
0.0625
  1
[10mm]
100
AcDbText
  0
TEXT
  5
4595D
100
AcDbEntity
  8
SCALE
100
AcDbText
 10
4.16928
 20
-2.162784
 30
0.0
 40
0.0625
  1
1 Inch
100
AcDbText
  0
TEXT
  5
4595E
100
AcDbEntity
  8
SCALE
100
AcDbText
 10
3.807528
 20
-1.956956
 30
0.0
 40
0.0625
  1
SCALE:
100
AcDbText
  0
LWPOLYLINE
  5
4595F
100
AcDbEntity
  8
SCALE
100
AcDbPolyline
 90
        4
 70
     1
 43
0.0
 10
3.747999
 20
-1.851754
 10
4.883627
 20
-1.851754
 10
4.883627
 20
-2.693364
 10
3.747999
 20
-2.693364
  0
ATTDEF
  5
46257
100
AcDbEntity
  8
ATTRIBUTES
100
AcDbText
 10
-2.5511
 20
-1.05572
 30
0.0
 40
0.09
  1
ALLEN-BRADLEY
100
AcDbAttributeDefinition
  3
MANUFACTURER NAME?
  2
AC_VND_LABEL
 70
     1
  0
ATTDEF
  5
46258
100
AcDbEntity
  8
ATTRIBUTES
100
AcDbText
 10
-2.5511
 20
-1.24322
 30
0.0
 40
0.09
  1
194L-HE13G/N-***
100
AcDbAttributeDefinition
  3
CATALOG NUMBER?
  2
AC_PART_NO
 70
     1
  0
ATTDEF
  5
46259
100
AcDbEntity
  8
ATTRIBUTES
100
AcDbText
 10
-2.5511
 20
-1.43072
 30
0.0
 40
0.09
  1
Control and Load Switch Actuator, Type G/N
100
AcDbAttributeDefinition
  3
PART DESCRIPTION?
  2
AC_DESCRIPTION
 70
     1
  0
ATTDEF
  5
4625A
100
AcDbEntity
  8
ATTRIBUTES
100
AcDbText
 10
-2.5511
 20
-1.61822
 30
0.0
 40
0.09
  1

100
AcDbAttributeDefinition
  3
DEVICE ID?
  2
DEVICE_ID
 70
     1
  0
ATTDEF
  5
4625B
100
AcDbEntity
  8
ATTRIBUTES
100
AcDbText
 10
-2.5511
 20
-1.80572
 30
0.0
 40
0.09
  1

100
AcDbAttributeDefinition
  3
CUSTOMER PART NUMBER?
  2
AC_CPART_NO
 70
     1
  0
ATTDEF
  5
4625C
100
AcDbEntity
  8
ATTRIBUTES
100
AcDbText
 10
-2.5511
 20
-1.99322
 30
0.0
 40
0.09
  1

100
AcDbAttributeDefinition
  3
CUSTOMER NOTE?
  2
AC_NOTE
 70
     1
  0
ATTDEF
  5
4625D
100
AcDbEntity
  8
ATTRIBUTES
100
AcDbText
 10
-2.5511
 20
-2.18072
 30
0.0
 40
0.09
  1

100
AcDbAttributeDefinition
  3
FASTENER DATA?
  2
FASTENER
 70
     1
  0
ATTDEF
  5
4625E
100
AcDbEntity
  8
ATTRIBUTES
100
AcDbText
 10
-2.5511
 20
-2.36822
 30
0.0
 40
0.09
  1
INCH
100
AcDbAttributeDefinition
  3
UNIT OF SCALE?
  2
AC_SCALE_UNIT
 70
     1
  0
ATTDEF
  5
4625F
100
AcDbEntity
  8
ATTRIBUTES
100
AcDbText
 10
-2.5511
 20
-2.55572
 30
0.0
 40
0.09
  1
0
100
AcDbAttributeDefinition
  3
VIEW CODE?
  2
AC_VIEW_CODE
 70
     1
  0
POLYLINE
  5
46260
100
AcDbEntity
  8
0
100
AcDbPolygonMesh
 66
     1
 10
0.0
 20
0.0
 30
0.0
 70
    16
 71
     6
 72
     3
  0
VERTEX
  5
46261
100
AcDbEntity
  8
0
100
AcDbVertex
100
AcDbPolygonMeshVertex
 10
2.6625
 20
-2.6625
 30
0.705
 70
    64
  0
VERTEX
  5
46262
100
AcDbEntity
  8
0
100
AcDbVertex
100
AcDbPolygonMeshVertex
 10
2.6625
 20
-2.6625
 30
0.0
 70
    64
  0
VERTEX
  5
46263
100
AcDbEntity
  8
0
100
AcDbVertex
100
AcDbPolygonMeshVertex
 10
2.6625
 20
-2.6625
 30
0.0
 70
    64
  0
VERTEX
  5
46264
100
AcDbEntity
  8
0
100
AcDbVertex
100
AcDbPolygonMeshVertex
 10
-2.6625
 20
-2.6625
 30
0.705
 70
    64
  0
VERTEX
  5
46265
100
AcDbEntity
  8
0
100
AcDbVertex
100
AcDbPolygonMeshVertex
 10
-2.6625
 20
-2.6625
 30
0.0
 70
    64
  0
VERTEX
  5
46266
100
AcDbEntity
  8
0
100
AcDbVertex
100
AcDbPolygonMeshVertex
 10
-2.6625
 20
-2.6625
 30
0.0
 70
    64
  0
VERTEX
  5
46267
100
AcDbEntity
  8
0
100
AcDbVertex
100
AcDbPolygonMeshVertex
 10
-2.6625
 20
2.6625
 30
0.705
 70
    64
  0
VERTEX
  5
46268
100
AcDbEntity
  8
0
100
AcDbVertex
100
AcDbPolygonMeshVertex
 10
-2.6625
 20
2.6625
 30
0.0
 70
    64
  0
VERTEX
  5
46269
100
AcDbEntity
  8
0
100
AcDbVertex
100
AcDbPolygonMeshVertex
 10
-2.6625
 20
-2.6625
 30
0.0
 70
    64
  0
VERTEX
  5
4626A
100
AcDbEntity
  8
0
100
AcDbVertex
100
AcDbPolygonMeshVertex
 10
2.6625
 20
2.6625
 30
0.705
 70
    64
  0
VERTEX
  5
4626B
100
AcDbEntity
  8
0
100
AcDbVertex
100
AcDbPolygonMeshVertex
 10
2.6625
 20
2.6625
 30
0.0
 70
    64
  0
VERTEX
  5
4626C
100
AcDbEntity
  8
0
100
AcDbVertex
100
AcDbPolygonMeshVertex
 10
2.6625
 20
-2.6625
 30
0.0
 70
    64
  0
VERTEX
  5
4626D
100
AcDbEntity
  8
0
100
AcDbVertex
100
AcDbPolygonMeshVertex
 10
2.6625
 20
2.6625
 30
0.705
 70
    64
  0
VERTEX
  5
4626E
100
AcDbEntity
  8
0
100
AcDbVertex
100
AcDbPolygonMeshVertex
 10
2.6625
 20
2.6625
 30
0.705
 70
    64
  0
VERTEX
  5
4626F
100
AcDbEntity
  8
0
100
AcDbVertex
100
AcDbPolygonMeshVertex
 10
2.6625
 20
-2.6625
 30
0.705
 70
    64
  0
VERTEX
  5
46270
100
AcDbEntity
  8
0
100
AcDbVertex
100
AcDbPolygonMeshVertex
 10
-2.6625
 20
2.6625
 30
0.705
 70
    64
  0
VERTEX
  5
46271
100
AcDbEntity
  8
0
100
AcDbVertex
100
AcDbPolygonMeshVertex
 10
-2.6625
 20
2.6625
 30
0.705
 70
    64
  0
VERTEX
  5
46272
100
AcDbEntity
  8
0
100
AcDbVertex
100
AcDbPolygonMeshVertex
 10
-2.6625
 20
-2.6625
 30
0.705
 70
    64
  0
SEQEND
  5
46273
100
AcDbEntity
  8
0
  0
CIRCLE
  5
46274
100
AcDbEntity
  8
0
100
AcDbCircle
 10
0.0
 20
0.0
 30
0.705
 40
2.58
  0
CIRCLE
  5
46275
100
AcDbEntity
  8
0
100
AcDbCircle
 10
0.0
 20
0.0
 30
0.705
 40
2.34
  0
POLYLINE
  5
46276
100
AcDbEntity
  8
0
100
AcDbPolygonMesh
 66
     1
 10
0.0
 20
0.0
 30
0.0
 70
    16
 71
     6
 72
     3
  0
VERTEX
  5
46277
100
AcDbEntity
  8
0
100
AcDbVertex
100
AcDbPolygonMeshVertex
 10
2.58
 20
-0.15
 30
2.01
 70
    64
  0
VERTEX
  5
46278
100
AcDbEntity
  8
0
100
AcDbVertex
100
AcDbPolygonMeshVertex
 10
2.58
 20
-0.15
 30
0.705
 70
    64
  0
VERTEX
  5
46279
100
AcDbEntity
  8
0
100
AcDbVertex
100
AcDbPolygonMeshVertex
 10
2.58
 20
-0.15
 30
0.705
 70
    64
  0
VERTEX
  5
4627A
100
AcDbEntity
  8
0
100
AcDbVertex
100
AcDbPolygonMeshVertex
 10
2.34
 20
-0.15
 30
2.01
 70
    64
  0
VERTEX
  5
4627B
100
AcDbEntity
  8
0
100
AcDbVertex
100
AcDbPolygonMeshVertex
 10
2.34
 20
-0.15
 30
0.705
 70
    64
  0
VERTEX
  5
4627C
100
AcDbEntity
  8
0
100
AcDbVertex
100
AcDbPolygonMeshVertex
 10
2.34
 20
-0.15
 30
0.705
 70
    64
  0
VERTEX
  5
4627D
100
AcDbEntity
  8
0
100
AcDbVertex
100
AcDbPolygonMeshVertex
 10
2.34
 20
0.15
 30
2.01
 70
    64
  0
VERTEX
  5
4627E
100
AcDbEntity
  8
0
100
AcDbVertex
100
AcDbPolygonMeshVertex
 10
2.34
 20
0.15
 30
0.705
 70
    64
  0
VERTEX
  5
4627F
100
AcDbEntity
  8
0
100
AcDbVertex
100
AcDbPolygonMeshVertex
 10
2.34
 20
-0.15
 30
0.705
 70
    64
  0
VERTEX
  5
46280
100
AcDbEntity
  8
0
100
AcDbVertex
100
AcDbPolygonMeshVertex
 10
2.58
 20
0.15
 30
2.01
 70
    64
  0
VERTEX
  5
46281
100
AcDbEntity
  8
0
100
AcDbVertex
100
AcDbPolygonMeshVertex
 10
2.58
 20
0.15
 30
0.705
 70
    64
  0
VERTEX
  5
46282
100
AcDbEntity
  8
0
100
AcDbVertex
100
AcDbPolygonMeshVertex
 10
2.58
 20
-0.15
 30
0.705
 70
    64
  0
VERTEX
  5
46283
100
AcDbEntity
  8
0
100
AcDbVertex
100
AcDbPolygonMeshVertex
 10
2.58
 20
0.15
 30
2.01
 70
    64
  0
VERTEX
  5
46284
100
AcDbEntity
  8
0
100
AcDbVertex
100
AcDbPolygonMeshVertex
 10
2.58
 20
0.15
 30
2.01
 70
    64
  0
VERTEX
  5
46285
100
AcDbEntity
  8
0
100
AcDbVertex
100
AcDbPolygonMeshVertex
 10
2.58
 20
-0.15
 30
2.01
 70
    64
  0
VERTEX
  5
46286
100
AcDbEntity
  8
0
100
AcDbVertex
100
AcDbPolygonMeshVertex
 10
2.34
 20
0.15
 30
2.01
 70
    64
  0
VERTEX
  5
46287
100
AcDbEntity
  8
0
100
AcDbVertex
100
AcDbPolygonMeshVertex
 10
2.34
 20
0.15
 30
2.01
 70
    64
  0
VERTEX
  5
46288
100
AcDbEntity
  8
0
100
AcDbVertex
100
AcDbPolygonMeshVertex
 10
2.34
 20
-0.15
 30
2.01
 70
    64
  0
SEQEND
  5
46289
100
AcDbEntity
  8
0
  0
POLYLINE
  5
4628A
100
AcDbEntity
  8
0
100
AcDbPolygonMesh
 66
     1
 10
0.0
 20
0.0
 30
0.0
 70
    16
 71
     6
 72
     3
  0
VERTEX
  5
4628B
100
AcDbEntity
  8
0
100
AcDbVertex
100
AcDbPolygonMeshVertex
 10
2.584328
 20
0.012296
 30
2.01
 70
    64
  0
VERTEX
  5
4628C
100
AcDbEntity
  8
0
100
AcDbVertex
100
AcDbPolygonMeshVertex
 10
2.584328
 20
0.012296
 30
0.705
 70
    64
  0
VERTEX
  5
4628D
100
AcDbEntity
  8
0
100
AcDbVertex
100
AcDbPolygonMeshVertex
 10
2.584328
 20
0.012296
 30
0.705
 70
    64
  0
VERTEX
  5
4628E
100
AcDbEntity
  8
0
100
AcDbVertex
100
AcDbPolygonMeshVertex
 10
2.344801
 20
-0.002774
 30
2.01
 70
    64
  0
VERTEX
  5
4628F
100
AcDbEntity
  8
0
100
AcDbVertex
100
AcDbPolygonMeshVertex
 10
2.344801
 20
-0.002774
 30
0.705
 70
    64
  0
VERTEX
  5
46290
100
AcDbEntity
  8
0
100
AcDbVertex
100
AcDbPolygonMeshVertex
 10
2.344801
 20
-0.002774
 30
0.705
 70
    64
  0
VERTEX
  5
46291
100
AcDbEntity
  8
0
100
AcDbVertex
100
AcDbPolygonMeshVertex
 10
2.325964
 20
0.296634
 30
2.01
 70
    64
  0
VERTEX
  5
46292
100
AcDbEntity
  8
0
100
AcDbVertex
100
AcDbPolygonMeshVertex
 10
2.325964
 20
0.296634
 30
0.705
 70
    64
  0
VERTEX
  5
46293
100
AcDbEntity
  8
0
100
AcDbVertex
100
AcDbPolygonMeshVertex
 10
2.344801
 20
-0.002774
 30
0.705
 70
    64
  0
VERTEX
  5
46294
100
AcDbEntity
  8
0
100
AcDbVertex
100
AcDbPolygonMeshVertex
 10
2.56549
 20
0.311704
 30
2.01
 70
    64
  0
VERTEX
  5
46295
100
AcDbEntity
  8
0
100
AcDbVertex
100
AcDbPolygonMeshVertex
 10
2.56549
 20
0.311704
 30
0.705
 70
    64
  0
VERTEX
  5
46296
100
AcDbEntity
  8
0
100
AcDbVertex
100
AcDbPolygonMeshVertex
 10
2.584328
 20
0.012296
 30
0.705
 70
    64
  0
VERTEX
  5
46297
100
AcDbEntity
  8
0
100
AcDbVertex
100
AcDbPolygonMeshVertex
 10
2.56549
 20
0.311704
 30
2.01
 70
    64
  0
VERTEX
  5
46298
100
AcDbEntity
  8
0
100
AcDbVertex
100
AcDbPolygonMeshVertex
 10
2.56549
 20
0.311704
 30
2.01
 70
    64
  0
VERTEX
  5
46299
100
AcDbEntity
  8
0
100
AcDbVertex
100
AcDbPolygonMeshVertex
 10
2.584328
 20
0.012296
 30
2.01
 70
    64
  0
VERTEX
  5
4629A
100
AcDbEntity
  8
0
100
AcDbVertex
100
AcDbPolygonMeshVertex
 10
2.325964
 20
0.296634
 30
2.01
 70
    64
  0
VERTEX
  5
4629B
100
AcDbEntity
  8
0
100
AcDbVertex
100
AcDbPolygonMeshVertex
 10
2.325964
 20
0.296634
 30
2.01
 70
    64
  0
VERTEX
  5
4629C
100
AcDbEntity
  8
0
100
AcDbVertex
100
AcDbPolygonMeshVertex
 10
2.344801
 20
-0.002774
 30
2.01
 70
    64
  0
SEQEND
  5
4629D
100
AcDbEntity
  8
0
  0
POLYLINE
  5
4629E
100
AcDbEntity
  8
0
100
AcDbPolygonMesh
 66
     1
 10
0.0
 20
0.0
 30
0.0
 70
    16
 71
     6
 72
     3
  0
VERTEX
  5
4629F
100
AcDbEntity
  8
0
100
AcDbVertex
100
AcDbPolygonMeshVertex
 10
2.578456
 20
0.174543
 30
2.01
 70
    64
  0
VERTEX
  5
462A0
100
AcDbEntity
  8
0
100
AcDbVertex
100
AcDbPolygonMeshVertex
 10
2.578456
 20
0.174543
 30
0.705
 70
    64
  0
VERTEX
  5
462A1
100
AcDbEntity
  8
0
100
AcDbVertex
100
AcDbPolygonMeshVertex
 10
2.578456
 20
0.174543
 30
0.705
 70
    64
  0
VERTEX
  5
462A2
100
AcDbEntity
  8
0
100
AcDbVertex
100
AcDbPolygonMeshVertex
 10
2.340348
 20
0.144463
 30
2.01
 70
    64
  0
VERTEX
  5
462A3
100
AcDbEntity
  8
0
100
AcDbVertex
100
AcDbPolygonMeshVertex
 10
2.340348
 20
0.144463
 30
0.705
 70
    64
  0
VERTEX
  5
462A4
100
AcDbEntity
  8
0
100
AcDbVertex
100
AcDbPolygonMeshVertex
 10
2.340348
 20
0.144463
 30
0.705
 70
    64
  0
VERTEX
  5
462A5
100
AcDbEntity
  8
0
100
AcDbVertex
100
AcDbPolygonMeshVertex
 10
2.302748
 20
0.442097
 30
2.01
 70
    64
  0
VERTEX
  5
462A6
100
AcDbEntity
  8
0
100
AcDbVertex
100
AcDbPolygonMeshVertex
 10
2.302748
 20
0.442097
 30
0.705
 70
    64
  0
VERTEX
  5
462A7
100
AcDbEntity
  8
0
100
AcDbVertex
100
AcDbPolygonMeshVertex
 10
2.340348
 20
0.144463
 30
0.705
 70
    64
  0
VERTEX
  5
462A8
100
AcDbEntity
  8
0
100
AcDbVertex
100
AcDbPolygonMeshVertex
 10
2.540856
 20
0.472177
 30
2.01
 70
    64
  0
VERTEX
  5
462A9
100
AcDbEntity
  8
0
100
AcDbVertex
100
AcDbPolygonMeshVertex
 10
2.540856
 20
0.472177
 30
0.705
 70
    64
  0
VERTEX
  5
462AA
100
AcDbEntity
  8
0
100
AcDbVertex
100
AcDbPolygonMeshVertex
 10
2.578456
 20
0.174543
 30
0.705
 70
    64
  0
VERTEX
  5
462AB
100
AcDbEntity
  8
0
100
AcDbVertex
100
AcDbPolygonMeshVertex
 10
2.540856
 20
0.472177
 30
2.01
 70
    64
  0
VERTEX
  5
462AC
100
AcDbEntity
  8
0
100
AcDbVertex
100
AcDbPolygonMeshVertex
 10
2.540856
 20
0.472177
 30
2.01
 70
    64
  0
VERTEX
  5
462AD
100
AcDbEntity
  8
0
100
AcDbVertex
100
AcDbPolygonMeshVertex
 10
2.578456
 20
0.174543
 30
2.01
 70
    64
  0
VERTEX
  5
462AE
100
AcDbEntity
  8
0
100
AcDbVertex
100
AcDbPolygonMeshVertex
 10
2.302748
 20
0.442097
 30
2.01
 70
    64
  0
VERTEX
  5
462AF
100
AcDbEntity
  8
0
100
AcDbVertex
100
AcDbPolygonMeshVertex
 10
2.302748
 20
0.442097
 30
2.01
 70
    64
  0
VERTEX
  5
462B0
100
AcDbEntity
  8
0
100
AcDbVertex
100
AcDbPolygonMeshVertex
 10
2.340348
 20
0.144463
 30
2.01
 70
    64
  0
SEQEND
  5
462B1
100
AcDbEntity
  8
0
  0
POLYLINE
  5
462B2
100
AcDbEntity
  8
0
100
AcDbPolygonMesh
 66
     1
 10
0.0
 20
0.0
 30
0.0
 70
    16
 71
     6
 72
     3
  0
VERTEX
  5
462B3
100
AcDbEntity
  8
0
100
AcDbVertex
100
AcDbPolygonMeshVertex
 10
2.562408
 20
0.336101
 30
2.01
 70
    64
  0
VERTEX
  5
462B4
100
AcDbEntity
  8
0
100
AcDbVertex
100
AcDbPolygonMeshVertex
 10
2.562408
 20
0.336101
 30
0.705
 70
    64
  0
VERTEX
  5
462B5
100
AcDbEntity
  8
0
100
AcDbVertex
100
AcDbPolygonMeshVertex
 10
2.562408
 20
0.336101
 30
0.705
 70
    64
  0
VERTEX
  5
462B6
100
AcDbEntity
  8
0
100
AcDbVertex
100
AcDbPolygonMeshVertex
 10
2.326659
 20
0.291129
 30
2.01
 70
    64
  0
VERTEX
  5
462B7
100
AcDbEntity
  8
0
100
AcDbVertex
100
AcDbPolygonMeshVertex
 10
2.326659
 20
0.291129
 30
0.705
 70
    64
  0
VERTEX
  5
462B8
100
AcDbEntity
  8
0
100
AcDbVertex
100
AcDbPolygonMeshVertex
 10
2.326659
 20
0.291129
 30
0.705
 70
    64
  0
VERTEX
  5
462B9
100
AcDbEntity
  8
0
100
AcDbVertex
100
AcDbPolygonMeshVertex
 10
2.270445
 20
0.585815
 30
2.01
 70
    64
  0
VERTEX
  5
462BA
100
AcDbEntity
  8
0
100
AcDbVertex
100
AcDbPolygonMeshVertex
 10
2.270445
 20
0.585815
 30
0.705
 70
    64
  0
VERTEX
  5
462BB
100
AcDbEntity
  8
0
100
AcDbVertex
100
AcDbPolygonMeshVertex
 10
2.326659
 20
0.291129
 30
0.705
 70
    64
  0
VERTEX
  5
462BC
100
AcDbEntity
  8
0
100
AcDbVertex
100
AcDbPolygonMeshVertex
 10
2.506194
 20
0.630787
 30
2.01
 70
    64
  0
VERTEX
  5
462BD
100
AcDbEntity
  8
0
100
AcDbVertex
100
AcDbPolygonMeshVertex
 10
2.506194
 20
0.630787
 30
0.705
 70
    64
  0
VERTEX
  5
462BE
100
AcDbEntity
  8
0
100
AcDbVertex
100
AcDbPolygonMeshVertex
 10
2.562408
 20
0.336101
 30
0.705
 70
    64
  0
VERTEX
  5
462BF
100
AcDbEntity
  8
0
100
AcDbVertex
100
AcDbPolygonMeshVertex
 10
2.506194
 20
0.630787
 30
2.01
 70
    64
  0
VERTEX
  5
462C0
100
AcDbEntity
  8
0
100
AcDbVertex
100
AcDbPolygonMeshVertex
 10
2.506194
 20
0.630787
 30
2.01
 70
    64
  0
VERTEX
  5
462C1
100
AcDbEntity
  8
0
100
AcDbVertex
100
AcDbPolygonMeshVertex
 10
2.562408
 20
0.336101
 30
2.01
 70
    64
  0
VERTEX
  5
462C2
100
AcDbEntity
  8
0
100
AcDbVertex
100
AcDbPolygonMeshVertex
 10
2.270445
 20
0.585815
 30
2.01
 70
    64
  0
VERTEX
  5
462C3
100
AcDbEntity
  8
0
100
AcDbVertex
100
AcDbPolygonMeshVertex
 10
2.270445
 20
0.585815
 30
2.01
 70
    64
  0
VERTEX
  5
462C4
100
AcDbEntity
  8
0
100
AcDbVertex
100
AcDbPolygonMeshVertex
 10
2.326659
 20
0.291129
 30
2.01
 70
    64
  0
SEQEND
  5
462C5
100
AcDbEntity
  8
0
  0
POLYLINE
  5
462C6
100
AcDbEntity
  8
0
100
AcDbPolygonMesh
 66
     1
 10
0.0
 20
0.0
 30
0.0
 70
    16
 71
     6
 72
     3
  0
VERTEX
  5
462C7
100
AcDbEntity
  8
0
100
AcDbVertex
100
AcDbPolygonMeshVertex
 10
2.536248
 20
0.496332
 30
2.01
 70
    64
  0
VERTEX
  5
462C8
100
AcDbEntity
  8
0
100
AcDbVertex
100
AcDbPolygonMeshVertex
 10
2.536248
 20
0.496332
 30
0.705
 70
    64
  0
VERTEX
  5
462C9
100
AcDbEntity
  8
0
100
AcDbVertex
100
AcDbPolygonMeshVertex
 10
2.536248
 20
0.496332
 30
0.705
 70
    64
  0
VERTEX
  5
462CA
100
AcDbEntity
  8
0
100
AcDbVertex
100
AcDbPolygonMeshVertex
 10
2.303788
 20
0.436647
 30
2.01
 70
    64
  0
VERTEX
  5
462CB
100
AcDbEntity
  8
0
100
AcDbVertex
100
AcDbPolygonMeshVertex
 10
2.303788
 20
0.436647
 30
0.705
 70
    64
  0
VERTEX
  5
462CC
100
AcDbEntity
  8
0
100
AcDbVertex
100
AcDbPolygonMeshVertex
 10
2.303788
 20
0.436647
 30
0.705
 70
    64
  0
VERTEX
  5
462CD
100
AcDbEntity
  8
0
100
AcDbVertex
100
AcDbPolygonMeshVertex
 10
2.229181
 20
0.727222
 30
2.01
 70
    64
  0
VERTEX
  5
462CE
100
AcDbEntity
  8
0
100
AcDbVertex
100
AcDbPolygonMeshVertex
 10
2.229181
 20
0.727222
 30
0.705
 70
    64
  0
VERTEX
  5
462CF
100
AcDbEntity
  8
0
100
AcDbVertex
100
AcDbPolygonMeshVertex
 10
2.303788
 20
0.436647
 30
0.705
 70
    64
  0
VERTEX
  5
462D0
100
AcDbEntity
  8
0
100
AcDbVertex
100
AcDbPolygonMeshVertex
 10
2.461641
 20
0.786907
 30
2.01
 70
    64
  0
VERTEX
  5
462D1
100
AcDbEntity
  8
0
100
AcDbVertex
100
AcDbPolygonMeshVertex
 10
2.461641
 20
0.786907
 30
0.705
 70
    64
  0
VERTEX
  5
462D2
100
AcDbEntity
  8
0
100
AcDbVertex
100
AcDbPolygonMeshVertex
 10
2.536248
 20
0.496332
 30
0.705
 70
    64
  0
VERTEX
  5
462D3
100
AcDbEntity
  8
0
100
AcDbVertex
100
AcDbPolygonMeshVertex
 10
2.461641
 20
0.786907
 30
2.01
 70
    64
  0
VERTEX
  5
462D4
100
AcDbEntity
  8
0
100
AcDbVertex
100
AcDbPolygonMeshVertex
 10
2.461641
 20
0.786907
 30
2.01
 70
    64
  0
VERTEX
  5
462D5
100
AcDbEntity
  8
0
100
AcDbVertex
100
AcDbPolygonMeshVertex
 10
2.536248
 20
0.496332
 30
2.01
 70
    64
  0
VERTEX
  5
462D6
100
AcDbEntity
  8
0
100
AcDbVertex
100
AcDbPolygonMeshVertex
 10
2.229181
 20
0.727222
 30
2.01
 70
    64
  0
VERTEX
  5
462D7
100
AcDbEntity
  8
0
100
AcDbVertex
100
AcDbPolygonMeshVertex
 10
2.229181
 20
0.727222
 30
2.01
 70
    64
  0
VERTEX
  5
462D8
100
AcDbEntity
  8
0
100
AcDbVertex
100
AcDbPolygonMeshVertex
 10
2.303788
 20
0.436647
 30
2.01
 70
    64
  0
SEQEND
  5
462D9
100
AcDbEntity
  8
0
  0
POLYLINE
  5
462DA
100
AcDbEntity
  8
0
100
AcDbPolygonMesh
 66
     1
 10
0.0
 20
0.0
 30
0.0
 70
    16
 71
     6
 72
     3
  0
VERTEX
  5
462DB
100
AcDbEntity
  8
0
100
AcDbVertex
100
AcDbPolygonMeshVertex
 10
2.500078
 20
0.654605
 30
2.01
 70
    64
  0
VERTEX
  5
462DC
100
AcDbEntity
  8
0
100
AcDbVertex
100
AcDbPolygonMeshVertex
 10
2.500078
 20
0.654605
 30
0.705
 70
    64
  0
VERTEX
  5
462DD
100
AcDbEntity
  8
0
100
AcDbVertex
100
AcDbPolygonMeshVertex
 10
2.500078
 20
0.654605
 30
0.705
 70
    64
  0
VERTEX
  5
462DE
100
AcDbEntity
  8
0
100
AcDbVertex
100
AcDbPolygonMeshVertex
 10
2.271825
 20
0.580441
 30
2.01
 70
    64
  0
VERTEX
  5
462DF
100
AcDbEntity
  8
0
100
AcDbVertex
100
AcDbPolygonMeshVertex
 10
2.271825
 20
0.580441
 30
0.705
 70
    64
  0
VERTEX
  5
462E0
100
AcDbEntity
  8
0
100
AcDbVertex
100
AcDbPolygonMeshVertex
 10
2.271825
 20
0.580441
 30
0.705
 70
    64
  0
VERTEX
  5
462E1
100
AcDbEntity
  8
0
100
AcDbVertex
100
AcDbPolygonMeshVertex
 10
2.17912
 20
0.865758
 30
2.01
 70
    64
  0
VERTEX
  5
462E2
100
AcDbEntity
  8
0
100
AcDbVertex
100
AcDbPolygonMeshVertex
 10
2.17912
 20
0.865758
 30
0.705
 70
    64
  0
VERTEX
  5
462E3
100
AcDbEntity
  8
0
100
AcDbVertex
100
AcDbPolygonMeshVertex
 10
2.271825
 20
0.580441
 30
0.705
 70
    64
  0
VERTEX
  5
462E4
100
AcDbEntity
  8
0
100
AcDbVertex
100
AcDbPolygonMeshVertex
 10
2.407373
 20
0.939922
 30
2.01
 70
    64
  0
VERTEX
  5
462E5
100
AcDbEntity
  8
0
100
AcDbVertex
100
AcDbPolygonMeshVertex
 10
2.407373
 20
0.939922
 30
0.705
 70
    64
  0
VERTEX
  5
462E6
100
AcDbEntity
  8
0
100
AcDbVertex
100
AcDbPolygonMeshVertex
 10
2.500078
 20
0.654605
 30
0.705
 70
    64
  0
VERTEX
  5
462E7
100
AcDbEntity
  8
0
100
AcDbVertex
100
AcDbPolygonMeshVertex
 10
2.407373
 20
0.939922
 30
2.01
 70
    64
  0
VERTEX
  5
462E8
100
AcDbEntity
  8
0
100
AcDbVertex
100
AcDbPolygonMeshVertex
 10
2.407373
 20
0.939922
 30
2.01
 70
    64
  0
VERTEX
  5
462E9
100
AcDbEntity
  8
0
100
AcDbVertex
100
AcDbPolygonMeshVertex
 10
2.500078
 20
0.654605
 30
2.01
 70
    64
  0
VERTEX
  5
462EA
100
AcDbEntity
  8
0
100
AcDbVertex
100
AcDbPolygonMeshVertex
 10
2.17912
 20
0.865758
 30
2.01
 70
    64
  0
VERTEX
  5
462EB
100
AcDbEntity
  8
0
100
AcDbVertex
100
AcDbPolygonMeshVertex
 10
2.17912
 20
0.865758
 30
2.01
 70
    64
  0
VERTEX
  5
462EC
100
AcDbEntity
  8
0
100
AcDbVertex
100
AcDbPolygonMeshVertex
 10
2.271825
 20
0.580441
 30
2.01
 70
    64
  0
SEQEND
  5
462ED
100
AcDbEntity
  8
0
  0
POLYLINE
  5
462EE
100
AcDbEntity
  8
0
100
AcDbPolygonMesh
 66
     1
 10
0.0
 20
0.0
 30
0.0
 70
    16
 71
     6
 72
     3
  0
VERTEX
  5
462EF
100
AcDbEntity
  8
0
100
AcDbVertex
100
AcDbPolygonMeshVertex
 10
2.454042
 20
0.810295
 30
2.01
 70
    64
  0
VERTEX
  5
462F0
100
AcDbEntity
  8
0
100
AcDbVertex
100
AcDbPolygonMeshVertex
 10
2.454042
 20
0.810295
 30
0.705
 70
    64
  0
VERTEX
  5
462F1
100
AcDbEntity
  8
0
100
AcDbVertex
100
AcDbPolygonMeshVertex
 10
2.454042
 20
0.810295
 30
0.705
 70
    64
  0
VERTEX
  5
462F2
100
AcDbEntity
  8
0
100
AcDbVertex
100
AcDbPolygonMeshVertex
 10
2.230896
 20
0.721945
 30
2.01
 70
    64
  0
VERTEX
  5
462F3
100
AcDbEntity
  8
0
100
AcDbVertex
100
AcDbPolygonMeshVertex
 10
2.230896
 20
0.721945
 30
0.705
 70
    64
  0
VERTEX
  5
462F4
100
AcDbEntity
  8
0
100
AcDbVertex
100
AcDbPolygonMeshVertex
 10
2.230896
 20
0.721945
 30
0.705
 70
    64
  0
VERTEX
  5
462F5
100
AcDbEntity
  8
0
100
AcDbVertex
100
AcDbPolygonMeshVertex
 10
2.120458
 20
1.000878
 30
2.01
 70
    64
  0
VERTEX
  5
462F6
100
AcDbEntity
  8
0
100
AcDbVertex
100
AcDbPolygonMeshVertex
 10
2.120458
 20
1.000878
 30
0.705
 70
    64
  0
VERTEX
  5
462F7
100
AcDbEntity
  8
0
100
AcDbVertex
100
AcDbPolygonMeshVertex
 10
2.230896
 20
0.721945
 30
0.705
 70
    64
  0
VERTEX
  5
462F8
100
AcDbEntity
  8
0
100
AcDbVertex
100
AcDbPolygonMeshVertex
 10
2.343605
 20
1.089228
 30
2.01
 70
    64
  0
VERTEX
  5
462F9
100
AcDbEntity
  8
0
100
AcDbVertex
100
AcDbPolygonMeshVertex
 10
2.343605
 20
1.089228
 30
0.705
 70
    64
  0
VERTEX
  5
462FA
100
AcDbEntity
  8
0
100
AcDbVertex
100
AcDbPolygonMeshVertex
 10
2.454042
 20
0.810295
 30
0.705
 70
    64
  0
VERTEX
  5
462FB
100
AcDbEntity
  8
0
100
AcDbVertex
100
AcDbPolygonMeshVertex
 10
2.343605
 20
1.089228
 30
2.01
 70
    64
  0
VERTEX
  5
462FC
100
AcDbEntity
  8
0
100
AcDbVertex
100
AcDbPolygonMeshVertex
 10
2.343605
 20
1.089228
 30
2.01
 70
    64
  0
VERTEX
  5
462FD
100
AcDbEntity
  8
0
100
AcDbVertex
100
AcDbPolygonMeshVertex
 10
2.454042
 20
0.810295
 30
2.01
 70
    64
  0
VERTEX
  5
462FE
100
AcDbEntity
  8
0
100
AcDbVertex
100
AcDbPolygonMeshVertex
 10
2.120458
 20
1.000878
 30
2.01
 70
    64
  0
VERTEX
  5
462FF
100
AcDbEntity
  8
0
100
AcDbVertex
100
AcDbPolygonMeshVertex
 10
2.120458
 20
1.000878
 30
2.01
 70
    64
  0
VERTEX
  5
46300
100
AcDbEntity
  8
0
100
AcDbVertex
100
AcDbPolygonMeshVertex
 10
2.230896
 20
0.721945
 30
2.01
 70
    64
  0
SEQEND
  5
46301
100
AcDbEntity
  8
0
  0
POLYLINE
  5
46302
100
AcDbEntity
  8
0
100
AcDbPolygonMesh
 66
     1
 10
0.0
 20
0.0
 30
0.0
 70
    16
 71
     6
 72
     3
  0
VERTEX
  5
46303
100
AcDbEntity
  8
0
100
AcDbVertex
100
AcDbPolygonMeshVertex
 10
2.398321
 20
0.962787
 30
2.01
 70
    64
  0
VERTEX
  5
46304
100
AcDbEntity
  8
0
100
AcDbVertex
100
AcDbPolygonMeshVertex
 10
2.398321
 20
0.962787
 30
0.705
 70
    64
  0
VERTEX
  5
46305
100
AcDbEntity
  8
0
100
AcDbVertex
100
AcDbPolygonMeshVertex
 10
2.398321
 20
0.962787
 30
0.705
 70
    64
  0
VERTEX
  5
46306
100
AcDbEntity
  8
0
100
AcDbVertex
100
AcDbPolygonMeshVertex
 10
2.181162
 20
0.860599
 30
2.01
 70
    64
  0
VERTEX
  5
46307
100
AcDbEntity
  8
0
100
AcDbVertex
100
AcDbPolygonMeshVertex
 10
2.181162
 20
0.860599
 30
0.705
 70
    64
  0
VERTEX
  5
46308
100
AcDbEntity
  8
0
100
AcDbVertex
100
AcDbPolygonMeshVertex
 10
2.181162
 20
0.860599
 30
0.705
 70
    64
  0
VERTEX
  5
46309
100
AcDbEntity
  8
0
100
AcDbVertex
100
AcDbPolygonMeshVertex
 10
2.053428
 20
1.132048
 30
2.01
 70
    64
  0
VERTEX
  5
4630A
100
AcDbEntity
  8
0
100
AcDbVertex
100
AcDbPolygonMeshVertex
 10
2.053428
 20
1.132048
 30
0.705
 70
    64
  0
VERTEX
  5
4630B
100
AcDbEntity
  8
0
100
AcDbVertex
100
AcDbPolygonMeshVertex
 10
2.181162
 20
0.860599
 30
0.705
 70
    64
  0
VERTEX
  5
4630C
100
AcDbEntity
  8
0
100
AcDbVertex
100
AcDbPolygonMeshVertex
 10
2.270587
 20
1.234235
 30
2.01
 70
    64
  0
VERTEX
  5
4630D
100
AcDbEntity
  8
0
100
AcDbVertex
100
AcDbPolygonMeshVertex
 10
2.270587
 20
1.234235
 30
0.705
 70
    64
  0
VERTEX
  5
4630E
100
AcDbEntity
  8
0
100
AcDbVertex
100
AcDbPolygonMeshVertex
 10
2.398321
 20
0.962787
 30
0.705
 70
    64
  0
VERTEX
  5
4630F
100
AcDbEntity
  8
0
100
AcDbVertex
100
AcDbPolygonMeshVertex
 10
2.270587
 20
1.234235
 30
2.01
 70
    64
  0
VERTEX
  5
46310
100
AcDbEntity
  8
0
100
AcDbVertex
100
AcDbPolygonMeshVertex
 10
2.270587
 20
1.234235
 30
2.01
 70
    64
  0
VERTEX
  5
46311
100
AcDbEntity
  8
0
100
AcDbVertex
100
AcDbPolygonMeshVertex
 10
2.398321
 20
0.962787
 30
2.01
 70
    64
  0
VERTEX
  5
46312
100
AcDbEntity
  8
0
100
AcDbVertex
100
AcDbPolygonMeshVertex
 10
2.053428
 20
1.132048
 30
2.01
 70
    64
  0
VERTEX
  5
46313
100
AcDbEntity
  8
0
100
AcDbVertex
100
AcDbPolygonMeshVertex
 10
2.053428
 20
1.132048
 30
2.01
 70
    64
  0
VERTEX
  5
46314
100
AcDbEntity
  8
0
100
AcDbVertex
100
AcDbPolygonMeshVertex
 10
2.181162
 20
0.860599
 30
2.01
 70
    64
  0
SEQEND
  5
46315
100
AcDbEntity
  8
0
  0
POLYLINE
  5
46316
100
AcDbEntity
  8
0
100
AcDbPolygonMesh
 66
     1
 10
0.0
 20
0.0
 30
0.0
 70
    16
 71
     6
 72
     3
  0
VERTEX
  5
46317
100
AcDbEntity
  8
0
100
AcDbVertex
100
AcDbPolygonMeshVertex
 10
2.333134
 20
1.111478
 30
2.01
 70
    64
  0
VERTEX
  5
46318
100
AcDbEntity
  8
0
100
AcDbVertex
100
AcDbPolygonMeshVertex
 10
2.333134
 20
1.111478
 30
0.705
 70
    64
  0
VERTEX
  5
46319
100
AcDbEntity
  8
0
100
AcDbVertex
100
AcDbPolygonMeshVertex
 10
2.333134
 20
1.111478
 30
0.705
 70
    64
  0
VERTEX
  5
4631A
100
AcDbEntity
  8
0
100
AcDbVertex
100
AcDbPolygonMeshVertex
 10
2.122821
 20
0.995858
 30
2.01
 70
    64
  0
VERTEX
  5
4631B
100
AcDbEntity
  8
0
100
AcDbVertex
100
AcDbPolygonMeshVertex
 10
2.122821
 20
0.995858
 30
0.705
 70
    64
  0
VERTEX
  5
4631C
100
AcDbEntity
  8
0
100
AcDbVertex
100
AcDbPolygonMeshVertex
 10
2.122821
 20
0.995858
 30
0.705
 70
    64
  0
VERTEX
  5
4631D
100
AcDbEntity
  8
0
100
AcDbVertex
100
AcDbPolygonMeshVertex
 10
1.978295
 20
1.25875
 30
2.01
 70
    64
  0
VERTEX
  5
4631E
100
AcDbEntity
  8
0
100
AcDbVertex
100
AcDbPolygonMeshVertex
 10
1.978295
 20
1.25875
 30
0.705
 70
    64
  0
VERTEX
  5
4631F
100
AcDbEntity
  8
0
100
AcDbVertex
100
AcDbPolygonMeshVertex
 10
2.122821
 20
0.995858
 30
0.705
 70
    64
  0
VERTEX
  5
46320
100
AcDbEntity
  8
0
100
AcDbVertex
100
AcDbPolygonMeshVertex
 10
2.188608
 20
1.37437
 30
2.01
 70
    64
  0
VERTEX
  5
46321
100
AcDbEntity
  8
0
100
AcDbVertex
100
AcDbPolygonMeshVertex
 10
2.188608
 20
1.37437
 30
0.705
 70
    64
  0
VERTEX
  5
46322
100
AcDbEntity
  8
0
100
AcDbVertex
100
AcDbPolygonMeshVertex
 10
2.333134
 20
1.111478
 30
0.705
 70
    64
  0
VERTEX
  5
46323
100
AcDbEntity
  8
0
100
AcDbVertex
100
AcDbPolygonMeshVertex
 10
2.188608
 20
1.37437
 30
2.01
 70
    64
  0
VERTEX
  5
46324
100
AcDbEntity
  8
0
100
AcDbVertex
100
AcDbPolygonMeshVertex
 10
2.188608
 20
1.37437
 30
2.01
 70
    64
  0
VERTEX
  5
46325
100
AcDbEntity
  8
0
100
AcDbVertex
100
AcDbPolygonMeshVertex
 10
2.333134
 20
1.111478
 30
2.01
 70
    64
  0
VERTEX
  5
46326
100
AcDbEntity
  8
0
100
AcDbVertex
100
AcDbPolygonMeshVertex
 10
1.978295
 20
1.25875
 30
2.01
 70
    64
  0
VERTEX
  5
46327
100
AcDbEntity
  8
0
100
AcDbVertex
100
AcDbPolygonMeshVertex
 10
1.978295
 20
1.25875
 30
2.01
 70
    64
  0
VERTEX
  5
46328
100
AcDbEntity
  8
0
100
AcDbVertex
100
AcDbPolygonMeshVertex
 10
2.122821
 20
0.995858
 30
2.01
 70
    64
  0
SEQEND
  5
46329
100
AcDbEntity
  8
0
  0
POLYLINE
  5
4632A
100
AcDbEntity
  8
0
100
AcDbPolygonMesh
 66
     1
 10
0.0
 20
0.0
 30
0.0
 70
    16
 71
     6
 72
     3
  0
VERTEX
  5
4632B
100
AcDbEntity
  8
0
100
AcDbVertex
100
AcDbPolygonMeshVertex
 10
2.25874
 20
1.255784
 30
2.01
 70
    64
  0
VERTEX
  5
4632C
100
AcDbEntity
  8
0
100
AcDbVertex
100
AcDbPolygonMeshVertex
 10
2.25874
 20
1.255784
 30
0.705
 70
    64
  0
VERTEX
  5
4632D
100
AcDbEntity
  8
0
100
AcDbVertex
100
AcDbPolygonMeshVertex
 10
2.25874
 20
1.255784
 30
0.705
 70
    64
  0
VERTEX
  5
4632E
100
AcDbEntity
  8
0
100
AcDbVertex
100
AcDbPolygonMeshVertex
 10
2.056101
 20
1.127186
 30
2.01
 70
    64
  0
VERTEX
  5
4632F
100
AcDbEntity
  8
0
100
AcDbVertex
100
AcDbPolygonMeshVertex
 10
2.056101
 20
1.127186
 30
0.705
 70
    64
  0
VERTEX
  5
46330
100
AcDbEntity
  8
0
100
AcDbVertex
100
AcDbPolygonMeshVertex
 10
2.056101
 20
1.127186
 30
0.705
 70
    64
  0
VERTEX
  5
46331
100
AcDbEntity
  8
0
100
AcDbVertex
100
AcDbPolygonMeshVertex
 10
1.895353
 20
1.380484
 30
2.01
 70
    64
  0
VERTEX
  5
46332
100
AcDbEntity
  8
0
100
AcDbVertex
100
AcDbPolygonMeshVertex
 10
1.895353
 20
1.380484
 30
0.705
 70
    64
  0
VERTEX
  5
46333
100
AcDbEntity
  8
0
100
AcDbVertex
100
AcDbPolygonMeshVertex
 10
2.056101
 20
1.127186
 30
0.705
 70
    64
  0
VERTEX
  5
46334
100
AcDbEntity
  8
0
100
AcDbVertex
100
AcDbPolygonMeshVertex
 10
2.097992
 20
1.509082
 30
2.01
 70
    64
  0
VERTEX
  5
46335
100
AcDbEntity
  8
0
100
AcDbVertex
100
AcDbPolygonMeshVertex
 10
2.097992
 20
1.509082
 30
0.705
 70
    64
  0
VERTEX
  5
46336
100
AcDbEntity
  8
0
100
AcDbVertex
100
AcDbPolygonMeshVertex
 10
2.25874
 20
1.255784
 30
0.705
 70
    64
  0
VERTEX
  5
46337
100
AcDbEntity
  8
0
100
AcDbVertex
100
AcDbPolygonMeshVertex
 10
2.097992
 20
1.509082
 30
2.01
 70
    64
  0
VERTEX
  5
46338
100
AcDbEntity
  8
0
100
AcDbVertex
100
AcDbPolygonMeshVertex
 10
2.097992
 20
1.509082
 30
2.01
 70
    64
  0
VERTEX
  5
46339
100
AcDbEntity
  8
0
100
AcDbVertex
100
AcDbPolygonMeshVertex
 10
2.25874
 20
1.255784
 30
2.01
 70
    64
  0
VERTEX
  5
4633A
100
AcDbEntity
  8
0
100
AcDbVertex
100
AcDbPolygonMeshVertex
 10
1.895353
 20
1.380484
 30
2.01
 70
    64
  0
VERTEX
  5
4633B
100
AcDbEntity
  8
0
100
AcDbVertex
100
AcDbPolygonMeshVertex
 10
1.895353
 20
1.380484
 30
2.01
 70
    64
  0
VERTEX
  5
4633C
100
AcDbEntity
  8
0
100
AcDbVertex
100
AcDbPolygonMeshVertex
 10
2.056101
 20
1.127186
 30
2.01
 70
    64
  0
SEQEND
  5
4633D
100
AcDbEntity
  8
0
  0
POLYLINE
  5
4633E
100
AcDbEntity
  8
0
100
AcDbPolygonMesh
 66
     1
 10
0.0
 20
0.0
 30
0.0
 70
    16
 71
     6
 72
     3
  0
VERTEX
  5
4633F
100
AcDbEntity
  8
0
100
AcDbVertex
100
AcDbPolygonMeshVertex
 10
2.175432
 20
1.395133
 30
2.01
 70
    64
  0
VERTEX
  5
46340
100
AcDbEntity
  8
0
100
AcDbVertex
100
AcDbPolygonMeshVertex
 10
2.175432
 20
1.395133
 30
0.705
 70
    64
  0
VERTEX
  5
46341
100
AcDbEntity
  8
0
100
AcDbVertex
100
AcDbPolygonMeshVertex
 10
2.175432
 20
1.395133
 30
0.705
 70
    64
  0
VERTEX
  5
46342
100
AcDbEntity
  8
0
100
AcDbVertex
100
AcDbPolygonMeshVertex
 10
1.981268
 20
1.254065
 30
2.01
 70
    64
  0
VERTEX
  5
46343
100
AcDbEntity
  8
0
100
AcDbVertex
100
AcDbPolygonMeshVertex
 10
1.981268
 20
1.254065
 30
0.705
 70
    64
  0
VERTEX
  5
46344
100
AcDbEntity
  8
0
100
AcDbVertex
100
AcDbPolygonMeshVertex
 10
1.981268
 20
1.254065
 30
0.705
 70
    64
  0
VERTEX
  5
46345
100
AcDbEntity
  8
0
100
AcDbVertex
100
AcDbPolygonMeshVertex
 10
1.804932
 20
1.49677
 30
2.01
 70
    64
  0
VERTEX
  5
46346
100
AcDbEntity
  8
0
100
AcDbVertex
100
AcDbPolygonMeshVertex
 10
1.804932
 20
1.49677
 30
0.705
 70
    64
  0
VERTEX
  5
46347
100
AcDbEntity
  8
0
100
AcDbVertex
100
AcDbPolygonMeshVertex
 10
1.981268
 20
1.254065
 30
0.705
 70
    64
  0
VERTEX
  5
46348
100
AcDbEntity
  8
0
100
AcDbVertex
100
AcDbPolygonMeshVertex
 10
1.999096
 20
1.637839
 30
2.01
 70
    64
  0
VERTEX
  5
46349
100
AcDbEntity
  8
0
100
AcDbVertex
100
AcDbPolygonMeshVertex
 10
1.999096
 20
1.637839
 30
0.705
 70
    64
  0
VERTEX
  5
4634A
100
AcDbEntity
  8
0
100
AcDbVertex
100
AcDbPolygonMeshVertex
 10
2.175432
 20
1.395133
 30
0.705
 70
    64
  0
VERTEX
  5
4634B
100
AcDbEntity
  8
0
100
AcDbVertex
100
AcDbPolygonMeshVertex
 10
1.999096
 20
1.637839
 30
2.01
 70
    64
  0
VERTEX
  5
4634C
100
AcDbEntity
  8
0
100
AcDbVertex
100
AcDbPolygonMeshVertex
 10
1.999096
 20
1.637839
 30
2.01
 70
    64
  0
VERTEX
  5
4634D
100
AcDbEntity
  8
0
100
AcDbVertex
100
AcDbPolygonMeshVertex
 10
2.175432
 20
1.395133
 30
2.01
 70
    64
  0
VERTEX
  5
4634E
100
AcDbEntity
  8
0
100
AcDbVertex
100
AcDbPolygonMeshVertex
 10
1.804932
 20
1.49677
 30
2.01
 70
    64
  0
VERTEX
  5
4634F
100
AcDbEntity
  8
0
100
AcDbVertex
100
AcDbPolygonMeshVertex
 10
1.804932
 20
1.49677
 30
2.01
 70
    64
  0
VERTEX
  5
46350
100
AcDbEntity
  8
0
100
AcDbVertex
100
AcDbPolygonMeshVertex
 10
1.981268
 20
1.254065
 30
2.01
 70
    64
  0
SEQEND
  5
46351
100
AcDbEntity
  8
0
  0
POLYLINE
  5
46352
100
AcDbEntity
  8
0
100
AcDbPolygonMesh
 66
     1
 10
0.0
 20
0.0
 30
0.0
 70
    16
 71
     6
 72
     3
  0
VERTEX
  5
46353
100
AcDbEntity
  8
0
100
AcDbVertex
100
AcDbPolygonMeshVertex
 10
2.083538
 20
1.528977
 30
2.01
 70
    64
  0
VERTEX
  5
46354
100
AcDbEntity
  8
0
100
AcDbVertex
100
AcDbPolygonMeshVertex
 10
2.083538
 20
1.528977
 30
0.705
 70
    64
  0
VERTEX
  5
46355
100
AcDbEntity
  8
0
100
AcDbVertex
100
AcDbPolygonMeshVertex
 10
2.083538
 20
1.528977
 30
0.705
 70
    64
  0
VERTEX
  5
46356
100
AcDbEntity
  8
0
100
AcDbVertex
100
AcDbPolygonMeshVertex
 10
1.898615
 20
1.375995
 30
2.01
 70
    64
  0
VERTEX
  5
46357
100
AcDbEntity
  8
0
100
AcDbVertex
100
AcDbPolygonMeshVertex
 10
1.898615
 20
1.375995
 30
0.705
 70
    64
  0
VERTEX
  5
46358
100
AcDbEntity
  8
0
100
AcDbVertex
100
AcDbPolygonMeshVertex
 10
1.898615
 20
1.375995
 30
0.705
 70
    64
  0
VERTEX
  5
46359
100
AcDbEntity
  8
0
100
AcDbVertex
100
AcDbPolygonMeshVertex
 10
1.707387
 20
1.607149
 30
2.01
 70
    64
  0
VERTEX
  5
4635A
100
AcDbEntity
  8
0
100
AcDbVertex
100
AcDbPolygonMeshVertex
 10
1.707387
 20
1.607149
 30
0.705
 70
    64
  0
VERTEX
  5
4635B
100
AcDbEntity
  8
0
100
AcDbVertex
100
AcDbPolygonMeshVertex
 10
1.898615
 20
1.375995
 30
0.705
 70
    64
  0
VERTEX
  5
4635C
100
AcDbEntity
  8
0
100
AcDbVertex
100
AcDbPolygonMeshVertex
 10
1.892311
 20
1.760131
 30
2.01
 70
    64
  0
VERTEX
  5
4635D
100
AcDbEntity
  8
0
100
AcDbVertex
100
AcDbPolygonMeshVertex
 10
1.892311
 20
1.760131
 30
0.705
 70
    64
  0
VERTEX
  5
4635E
100
AcDbEntity
  8
0
100
AcDbVertex
100
AcDbPolygonMeshVertex
 10
2.083538
 20
1.528977
 30
0.705
 70
    64
  0
VERTEX
  5
4635F
100
AcDbEntity
  8
0
100
AcDbVertex
100
AcDbPolygonMeshVertex
 10
1.892311
 20
1.760131
 30
2.01
 70
    64
  0
VERTEX
  5
46360
100
AcDbEntity
  8
0
100
AcDbVertex
100
AcDbPolygonMeshVertex
 10
1.892311
 20
1.760131
 30
2.01
 70
    64
  0
VERTEX
  5
46361
100
AcDbEntity
  8
0
100
AcDbVertex
100
AcDbPolygonMeshVertex
 10
2.083538
 20
1.528977
 30
2.01
 70
    64
  0
VERTEX
  5
46362
100
AcDbEntity
  8
0
100
AcDbVertex
100
AcDbPolygonMeshVertex
 10
1.707387
 20
1.607149
 30
2.01
 70
    64
  0
VERTEX
  5
46363
100
AcDbEntity
  8
0
100
AcDbVertex
100
AcDbPolygonMeshVertex
 10
1.707387
 20
1.607149
 30
2.01
 70
    64
  0
VERTEX
  5
46364
100
AcDbEntity
  8
0
100
AcDbVertex
100
AcDbPolygonMeshVertex
 10
1.898615
 20
1.375995
 30
2.01
 70
    64
  0
SEQEND
  5
46365
100
AcDbEntity
  8
0
  0
POLYLINE
  5
46366
100
AcDbEntity
  8
0
100
AcDbPolygonMesh
 66
     1
 10
0.0
 20
0.0
 30
0.0
 70
    16
 71
     6
 72
     3
  0
VERTEX
  5
46367
100
AcDbEntity
  8
0
100
AcDbVertex
100
AcDbPolygonMeshVertex
 10
1.983421
 20
1.656786
 30
2.01
 70
    64
  0
VERTEX
  5
46368
100
AcDbEntity
  8
0
100
AcDbVertex
100
AcDbPolygonMeshVertex
 10
1.983421
 20
1.656786
 30
0.705
 70
    64
  0
VERTEX
  5
46369
100
AcDbEntity
  8
0
100
AcDbVertex
100
AcDbPolygonMeshVertex
 10
1.983421
 20
1.656786
 30
0.705
 70
    64
  0
VERTEX
  5
4636A
100
AcDbEntity
  8
0
100
AcDbVertex
100
AcDbPolygonMeshVertex
 10
1.808469
 20
1.492495
 30
2.01
 70
    64
  0
VERTEX
  5
4636B
100
AcDbEntity
  8
0
100
AcDbVertex
100
AcDbPolygonMeshVertex
 10
1.808469
 20
1.492495
 30
0.705
 70
    64
  0
VERTEX
  5
4636C
100
AcDbEntity
  8
0
100
AcDbVertex
100
AcDbPolygonMeshVertex
 10
1.808469
 20
1.492495
 30
0.705
 70
    64
  0
VERTEX
  5
4636D
100
AcDbEntity
  8
0
100
AcDbVertex
100
AcDbPolygonMeshVertex
 10
1.603105
 20
1.711186
 30
2.01
 70
    64
  0
VERTEX
  5
4636E
100
AcDbEntity
  8
0
100
AcDbVertex
100
AcDbPolygonMeshVertex
 10
1.603105
 20
1.711186
 30
0.705
 70
    64
  0
VERTEX
  5
4636F
100
AcDbEntity
  8
0
100
AcDbVertex
100
AcDbPolygonMeshVertex
 10
1.808469
 20
1.492495
 30
0.705
 70
    64
  0
VERTEX
  5
46370
100
AcDbEntity
  8
0
100
AcDbVertex
100
AcDbPolygonMeshVertex
 10
1.778057
 20
1.875477
 30
2.01
 70
    64
  0
VERTEX
  5
46371
100
AcDbEntity
  8
0
100
AcDbVertex
100
AcDbPolygonMeshVertex
 10
1.778057
 20
1.875477
 30
0.705
 70
    64
  0
VERTEX
  5
46372
100
AcDbEntity
  8
0
100
AcDbVertex
100
AcDbPolygonMeshVertex
 10
1.983421
 20
1.656786
 30
0.705
 70
    64
  0
VERTEX
  5
46373
100
AcDbEntity
  8
0
100
AcDbVertex
100
AcDbPolygonMeshVertex
 10
1.778057
 20
1.875477
 30
2.01
 70
    64
  0
VERTEX
  5
46374
100
AcDbEntity
  8
0
100
AcDbVertex
100
AcDbPolygonMeshVertex
 10
1.778057
 20
1.875477
 30
2.01
 70
    64
  0
VERTEX
  5
46375
100
AcDbEntity
  8
0
100
AcDbVertex
100
AcDbPolygonMeshVertex
 10
1.983421
 20
1.656786
 30
2.01
 70
    64
  0
VERTEX
  5
46376
100
AcDbEntity
  8
0
100
AcDbVertex
100
AcDbPolygonMeshVertex
 10
1.603105
 20
1.711186
 30
2.01
 70
    64
  0
VERTEX
  5
46377
100
AcDbEntity
  8
0
100
AcDbVertex
100
AcDbPolygonMeshVertex
 10
1.603105
 20
1.711186
 30
2.01
 70
    64
  0
VERTEX
  5
46378
100
AcDbEntity
  8
0
100
AcDbVertex
100
AcDbPolygonMeshVertex
 10
1.808469
 20
1.492495
 30
2.01
 70
    64
  0
SEQEND
  5
46379
100
AcDbEntity
  8
0
  0
POLYLINE
  5
4637A
100
AcDbEntity
  8
0
100
AcDbPolygonMesh
 66
     1
 10
0.0
 20
0.0
 30
0.0
 70
    16
 71
     6
 72
     3
  0
VERTEX
  5
4637B
100
AcDbEntity
  8
0
100
AcDbVertex
100
AcDbPolygonMeshVertex
 10
1.875477
 20
1.778057
 30
2.01
 70
    64
  0
VERTEX
  5
4637C
100
AcDbEntity
  8
0
100
AcDbVertex
100
AcDbPolygonMeshVertex
 10
1.875477
 20
1.778057
 30
0.705
 70
    64
  0
VERTEX
  5
4637D
100
AcDbEntity
  8
0
100
AcDbVertex
100
AcDbPolygonMeshVertex
 10
1.875477
 20
1.778057
 30
0.705
 70
    64
  0
VERTEX
  5
4637E
100
AcDbEntity
  8
0
100
AcDbVertex
100
AcDbPolygonMeshVertex
 10
1.711186
 20
1.603105
 30
2.01
 70
    64
  0
VERTEX
  5
4637F
100
AcDbEntity
  8
0
100
AcDbVertex
100
AcDbPolygonMeshVertex
 10
1.711186
 20
1.603105
 30
0.705
 70
    64
  0
VERTEX
  5
46380
100
AcDbEntity
  8
0
100
AcDbVertex
100
AcDbPolygonMeshVertex
 10
1.711186
 20
1.603105
 30
0.705
 70
    64
  0
VERTEX
  5
46381
100
AcDbEntity
  8
0
100
AcDbVertex
100
AcDbPolygonMeshVertex
 10
1.492495
 20
1.808469
 30
2.01
 70
    64
  0
VERTEX
  5
46382
100
AcDbEntity
  8
0
100
AcDbVertex
100
AcDbPolygonMeshVertex
 10
1.492495
 20
1.808469
 30
0.705
 70
    64
  0
VERTEX
  5
46383
100
AcDbEntity
  8
0
100
AcDbVertex
100
AcDbPolygonMeshVertex
 10
1.711186
 20
1.603105
 30
0.705
 70
    64
  0
VERTEX
  5
46384
100
AcDbEntity
  8
0
100
AcDbVertex
100
AcDbPolygonMeshVertex
 10
1.656786
 20
1.983421
 30
2.01
 70
    64
  0
VERTEX
  5
46385
100
AcDbEntity
  8
0
100
AcDbVertex
100
AcDbPolygonMeshVertex
 10
1.656786
 20
1.983421
 30
0.705
 70
    64
  0
VERTEX
  5
46386
100
AcDbEntity
  8
0
100
AcDbVertex
100
AcDbPolygonMeshVertex
 10
1.875477
 20
1.778057
 30
0.705
 70
    64
  0
VERTEX
  5
46387
100
AcDbEntity
  8
0
100
AcDbVertex
100
AcDbPolygonMeshVertex
 10
1.656786
 20
1.983421
 30
2.01
 70
    64
  0
VERTEX
  5
46388
100
AcDbEntity
  8
0
100
AcDbVertex
100
AcDbPolygonMeshVertex
 10
1.656786
 20
1.983421
 30
2.01
 70
    64
  0
VERTEX
  5
46389
100
AcDbEntity
  8
0
100
AcDbVertex
100
AcDbPolygonMeshVertex
 10
1.875477
 20
1.778057
 30
2.01
 70
    64
  0
VERTEX
  5
4638A
100
AcDbEntity
  8
0
100
AcDbVertex
100
AcDbPolygonMeshVertex
 10
1.492495
 20
1.808469
 30
2.01
 70
    64
  0
VERTEX
  5
4638B
100
AcDbEntity
  8
0
100
AcDbVertex
100
AcDbPolygonMeshVertex
 10
1.492495
 20
1.808469
 30
2.01
 70
    64
  0
VERTEX
  5
4638C
100
AcDbEntity
  8
0
100
AcDbVertex
100
AcDbPolygonMeshVertex
 10
1.711186
 20
1.603105
 30
2.01
 70
    64
  0
SEQEND
  5
4638D
100
AcDbEntity
  8
0
  0
POLYLINE
  5
4638E
100
AcDbEntity
  8
0
100
AcDbPolygonMesh
 66
     1
 10
0.0
 20
0.0
 30
0.0
 70
    16
 71
     6
 72
     3
  0
VERTEX
  5
4638F
100
AcDbEntity
  8
0
100
AcDbVertex
100
AcDbPolygonMeshVertex
 10
1.760131
 20
1.892311
 30
2.01
 70
    64
  0
VERTEX
  5
46390
100
AcDbEntity
  8
0
100
AcDbVertex
100
AcDbPolygonMeshVertex
 10
1.760131
 20
1.892311
 30
0.705
 70
    64
  0
VERTEX
  5
46391
100
AcDbEntity
  8
0
100
AcDbVertex
100
AcDbPolygonMeshVertex
 10
1.760131
 20
1.892311
 30
0.705
 70
    64
  0
VERTEX
  5
46392
100
AcDbEntity
  8
0
100
AcDbVertex
100
AcDbPolygonMeshVertex
 10
1.607149
 20
1.707387
 30
2.01
 70
    64
  0
VERTEX
  5
46393
100
AcDbEntity
  8
0
100
AcDbVertex
100
AcDbPolygonMeshVertex
 10
1.607149
 20
1.707387
 30
0.705
 70
    64
  0
VERTEX
  5
46394
100
AcDbEntity
  8
0
100
AcDbVertex
100
AcDbPolygonMeshVertex
 10
1.607149
 20
1.707387
 30
0.705
 70
    64
  0
VERTEX
  5
46395
100
AcDbEntity
  8
0
100
AcDbVertex
100
AcDbPolygonMeshVertex
 10
1.375995
 20
1.898615
 30
2.01
 70
    64
  0
VERTEX
  5
46396
100
AcDbEntity
  8
0
100
AcDbVertex
100
AcDbPolygonMeshVertex
 10
1.375995
 20
1.898615
 30
0.705
 70
    64
  0
VERTEX
  5
46397
100
AcDbEntity
  8
0
100
AcDbVertex
100
AcDbPolygonMeshVertex
 10
1.607149
 20
1.707387
 30
0.705
 70
    64
  0
VERTEX
  5
46398
100
AcDbEntity
  8
0
100
AcDbVertex
100
AcDbPolygonMeshVertex
 10
1.528977
 20
2.083538
 30
2.01
 70
    64
  0
VERTEX
  5
46399
100
AcDbEntity
  8
0
100
AcDbVertex
100
AcDbPolygonMeshVertex
 10
1.528977
 20
2.083538
 30
0.705
 70
    64
  0
VERTEX
  5
4639A
100
AcDbEntity
  8
0
100
AcDbVertex
100
AcDbPolygonMeshVertex
 10
1.760131
 20
1.892311
 30
0.705
 70
    64
  0
VERTEX
  5
4639B
100
AcDbEntity
  8
0
100
AcDbVertex
100
AcDbPolygonMeshVertex
 10
1.528977
 20
2.083538
 30
2.01
 70
    64
  0
VERTEX
  5
4639C
100
AcDbEntity
  8
0
100
AcDbVertex
100
AcDbPolygonMeshVertex
 10
1.528977
 20
2.083538
 30
2.01
 70
    64
  0
VERTEX
  5
4639D
100
AcDbEntity
  8
0
100
AcDbVertex
100
AcDbPolygonMeshVertex
 10
1.760131
 20
1.892311
 30
2.01
 70
    64
  0
VERTEX
  5
4639E
100
AcDbEntity
  8
0
100
AcDbVertex
100
AcDbPolygonMeshVertex
 10
1.375995
 20
1.898615
 30
2.01
 70
    64
  0
VERTEX
  5
4639F
100
AcDbEntity
  8
0
100
AcDbVertex
100
AcDbPolygonMeshVertex
 10
1.375995
 20
1.898615
 30
2.01
 70
    64
  0
VERTEX
  5
463A0
100
AcDbEntity
  8
0
100
AcDbVertex
100
AcDbPolygonMeshVertex
 10
1.607149
 20
1.707387
 30
2.01
 70
    64
  0
SEQEND
  5
463A1
100
AcDbEntity
  8
0
  0
POLYLINE
  5
463A2
100
AcDbEntity
  8
0
100
AcDbPolygonMesh
 66
     1
 10
0.0
 20
0.0
 30
0.0
 70
    16
 71
     6
 72
     3
  0
VERTEX
  5
463A3
100
AcDbEntity
  8
0
100
AcDbVertex
100
AcDbPolygonMeshVertex
 10
1.637839
 20
1.999096
 30
2.01
 70
    64
  0
VERTEX
  5
463A4
100
AcDbEntity
  8
0
100
AcDbVertex
100
AcDbPolygonMeshVertex
 10
1.637839
 20
1.999096
 30
0.705
 70
    64
  0
VERTEX
  5
463A5
100
AcDbEntity
  8
0
100
AcDbVertex
100
AcDbPolygonMeshVertex
 10
1.637839
 20
1.999096
 30
0.705
 70
    64
  0
VERTEX
  5
463A6
100
AcDbEntity
  8
0
100
AcDbVertex
100
AcDbPolygonMeshVertex
 10
1.49677
 20
1.804932
 30
2.01
 70
    64
  0
VERTEX
  5
463A7
100
AcDbEntity
  8
0
100
AcDbVertex
100
AcDbPolygonMeshVertex
 10
1.49677
 20
1.804932
 30
0.705
 70
    64
  0
VERTEX
  5
463A8
100
AcDbEntity
  8
0
100
AcDbVertex
100
AcDbPolygonMeshVertex
 10
1.49677
 20
1.804932
 30
0.705
 70
    64
  0
VERTEX
  5
463A9
100
AcDbEntity
  8
0
100
AcDbVertex
100
AcDbPolygonMeshVertex
 10
1.254065
 20
1.981268
 30
2.01
 70
    64
  0
VERTEX
  5
463AA
100
AcDbEntity
  8
0
100
AcDbVertex
100
AcDbPolygonMeshVertex
 10
1.254065
 20
1.981268
 30
0.705
 70
    64
  0
VERTEX
  5
463AB
100
AcDbEntity
  8
0
100
AcDbVertex
100
AcDbPolygonMeshVertex
 10
1.49677
 20
1.804932
 30
0.705
 70
    64
  0
VERTEX
  5
463AC
100
AcDbEntity
  8
0
100
AcDbVertex
100
AcDbPolygonMeshVertex
 10
1.395133
 20
2.175432
 30
2.01
 70
    64
  0
VERTEX
  5
463AD
100
AcDbEntity
  8
0
100
AcDbVertex
100
AcDbPolygonMeshVertex
 10
1.395133
 20
2.175432
 30
0.705
 70
    64
  0
VERTEX
  5
463AE
100
AcDbEntity
  8
0
100
AcDbVertex
100
AcDbPolygonMeshVertex
 10
1.637839
 20
1.999096
 30
0.705
 70
    64
  0
VERTEX
  5
463AF
100
AcDbEntity
  8
0
100
AcDbVertex
100
AcDbPolygonMeshVertex
 10
1.395133
 20
2.175432
 30
2.01
 70
    64
  0
VERTEX
  5
463B0
100
AcDbEntity
  8
0
100
AcDbVertex
100
AcDbPolygonMeshVertex
 10
1.395133
 20
2.175432
 30
2.01
 70
    64
  0
VERTEX
  5
463B1
100
AcDbEntity
  8
0
100
AcDbVertex
100
AcDbPolygonMeshVertex
 10
1.637839
 20
1.999096
 30
2.01
 70
    64
  0
VERTEX
  5
463B2
100
AcDbEntity
  8
0
100
AcDbVertex
100
AcDbPolygonMeshVertex
 10
1.254065
 20
1.981268
 30
2.01
 70
    64
  0
VERTEX
  5
463B3
100
AcDbEntity
  8
0
100
AcDbVertex
100
AcDbPolygonMeshVertex
 10
1.254065
 20
1.981268
 30
2.01
 70
    64
  0
VERTEX
  5
463B4
100
AcDbEntity
  8
0
100
AcDbVertex
100
AcDbPolygonMeshVertex
 10
1.49677
 20
1.804932
 30
2.01
 70
    64
  0
SEQEND
  5
463B5
100
AcDbEntity
  8
0
  0
POLYLINE
  5
463B6
100
AcDbEntity
  8
0
100
AcDbPolygonMesh
 66
     1
 10
0.0
 20
0.0
 30
0.0
 70
    16
 71
     6
 72
     3
  0
VERTEX
  5
463B7
100
AcDbEntity
  8
0
100
AcDbVertex
100
AcDbPolygonMeshVertex
 10
1.509082
 20
2.097992
 30
2.01
 70
    64
  0
VERTEX
  5
463B8
100
AcDbEntity
  8
0
100
AcDbVertex
100
AcDbPolygonMeshVertex
 10
1.509082
 20
2.097992
 30
0.705
 70
    64
  0
VERTEX
  5
463B9
100
AcDbEntity
  8
0
100
AcDbVertex
100
AcDbPolygonMeshVertex
 10
1.509082
 20
2.097992
 30
0.705
 70
    64
  0
VERTEX
  5
463BA
100
AcDbEntity
  8
0
100
AcDbVertex
100
AcDbPolygonMeshVertex
 10
1.380484
 20
1.895353
 30
2.01
 70
    64
  0
VERTEX
  5
463BB
100
AcDbEntity
  8
0
100
AcDbVertex
100
AcDbPolygonMeshVertex
 10
1.380484
 20
1.895353
 30
0.705
 70
    64
  0
VERTEX
  5
463BC
100
AcDbEntity
  8
0
100
AcDbVertex
100
AcDbPolygonMeshVertex
 10
1.380484
 20
1.895353
 30
0.705
 70
    64
  0
VERTEX
  5
463BD
100
AcDbEntity
  8
0
100
AcDbVertex
100
AcDbPolygonMeshVertex
 10
1.127186
 20
2.056101
 30
2.01
 70
    64
  0
VERTEX
  5
463BE
100
AcDbEntity
  8
0
100
AcDbVertex
100
AcDbPolygonMeshVertex
 10
1.127186
 20
2.056101
 30
0.705
 70
    64
  0
VERTEX
  5
463BF
100
AcDbEntity
  8
0
100
AcDbVertex
100
AcDbPolygonMeshVertex
 10
1.380484
 20
1.895353
 30
0.705
 70
    64
  0
VERTEX
  5
463C0
100
AcDbEntity
  8
0
100
AcDbVertex
100
AcDbPolygonMeshVertex
 10
1.255784
 20
2.25874
 30
2.01
 70
    64
  0
VERTEX
  5
463C1
100
AcDbEntity
  8
0
100
AcDbVertex
100
AcDbPolygonMeshVertex
 10
1.255784
 20
2.25874
 30
0.705
 70
    64
  0
VERTEX
  5
463C2
100
AcDbEntity
  8
0
100
AcDbVertex
100
AcDbPolygonMeshVertex
 10
1.509082
 20
2.097992
 30
0.705
 70
    64
  0
VERTEX
  5
463C3
100
AcDbEntity
  8
0
100
AcDbVertex
100
AcDbPolygonMeshVertex
 10
1.255784
 20
2.25874
 30
2.01
 70
    64
  0
VERTEX
  5
463C4
100
AcDbEntity
  8
0
100
AcDbVertex
100
AcDbPolygonMeshVertex
 10
1.255784
 20
2.25874
 30
2.01
 70
    64
  0
VERTEX
  5
463C5
100
AcDbEntity
  8
0
100
AcDbVertex
100
AcDbPolygonMeshVertex
 10
1.509082
 20
2.097992
 30
2.01
 70
    64
  0
VERTEX
  5
463C6
100
AcDbEntity
  8
0
100
AcDbVertex
100
AcDbPolygonMeshVertex
 10
1.127186
 20
2.056101
 30
2.01
 70
    64
  0
VERTEX
  5
463C7
100
AcDbEntity
  8
0
100
AcDbVertex
100
AcDbPolygonMeshVertex
 10
1.127186
 20
2.056101
 30
2.01
 70
    64
  0
VERTEX
  5
463C8
100
AcDbEntity
  8
0
100
AcDbVertex
100
AcDbPolygonMeshVertex
 10
1.380484
 20
1.895353
 30
2.01
 70
    64
  0
SEQEND
  5
463C9
100
AcDbEntity
  8
0
  0
POLYLINE
  5
463CA
100
AcDbEntity
  8
0
100
AcDbPolygonMesh
 66
     1
 10
0.0
 20
0.0
 30
0.0
 70
    16
 71
     6
 72
     3
  0
VERTEX
  5
463CB
100
AcDbEntity
  8
0
100
AcDbVertex
100
AcDbPolygonMeshVertex
 10
1.37437
 20
2.188608
 30
2.01
 70
    64
  0
VERTEX
  5
463CC
100
AcDbEntity
  8
0
100
AcDbVertex
100
AcDbPolygonMeshVertex
 10
1.37437
 20
2.188608
 30
0.705
 70
    64
  0
VERTEX
  5
463CD
100
AcDbEntity
  8
0
100
AcDbVertex
100
AcDbPolygonMeshVertex
 10
1.37437
 20
2.188608
 30
0.705
 70
    64
  0
VERTEX
  5
463CE
100
AcDbEntity
  8
0
100
AcDbVertex
100
AcDbPolygonMeshVertex
 10
1.25875
 20
1.978295
 30
2.01
 70
    64
  0
VERTEX
  5
463CF
100
AcDbEntity
  8
0
100
AcDbVertex
100
AcDbPolygonMeshVertex
 10
1.25875
 20
1.978295
 30
0.705
 70
    64
  0
VERTEX
  5
463D0
100
AcDbEntity
  8
0
100
AcDbVertex
100
AcDbPolygonMeshVertex
 10
1.25875
 20
1.978295
 30
0.705
 70
    64
  0
VERTEX
  5
463D1
100
AcDbEntity
  8
0
100
AcDbVertex
100
AcDbPolygonMeshVertex
 10
0.995858
 20
2.122821
 30
2.01
 70
    64
  0
VERTEX
  5
463D2
100
AcDbEntity
  8
0
100
AcDbVertex
100
AcDbPolygonMeshVertex
 10
0.995858
 20
2.122821
 30
0.705
 70
    64
  0
VERTEX
  5
463D3
100
AcDbEntity
  8
0
100
AcDbVertex
100
AcDbPolygonMeshVertex
 10
1.25875
 20
1.978295
 30
0.705
 70
    64
  0
VERTEX
  5
463D4
100
AcDbEntity
  8
0
100
AcDbVertex
100
AcDbPolygonMeshVertex
 10
1.111478
 20
2.333134
 30
2.01
 70
    64
  0
VERTEX
  5
463D5
100
AcDbEntity
  8
0
100
AcDbVertex
100
AcDbPolygonMeshVertex
 10
1.111478
 20
2.333134
 30
0.705
 70
    64
  0
VERTEX
  5
463D6
100
AcDbEntity
  8
0
100
AcDbVertex
100
AcDbPolygonMeshVertex
 10
1.37437
 20
2.188608
 30
0.705
 70
    64
  0
VERTEX
  5
463D7
100
AcDbEntity
  8
0
100
AcDbVertex
100
AcDbPolygonMeshVertex
 10
1.111478
 20
2.333134
 30
2.01
 70
    64
  0
VERTEX
  5
463D8
100
AcDbEntity
  8
0
100
AcDbVertex
100
AcDbPolygonMeshVertex
 10
1.111478
 20
2.333134
 30
2.01
 70
    64
  0
VERTEX
  5
463D9
100
AcDbEntity
  8
0
100
AcDbVertex
100
AcDbPolygonMeshVertex
 10
1.37437
 20
2.188608
 30
2.01
 70
    64
  0
VERTEX
  5
463DA
100
AcDbEntity
  8
0
100
AcDbVertex
100
AcDbPolygonMeshVertex
 10
0.995858
 20
2.122821
 30
2.01
 70
    64
  0
VERTEX
  5
463DB
100
AcDbEntity
  8
0
100
AcDbVertex
100
AcDbPolygonMeshVertex
 10
0.995858
 20
2.122821
 30
2.01
 70
    64
  0
VERTEX
  5
463DC
100
AcDbEntity
  8
0
100
AcDbVertex
100
AcDbPolygonMeshVertex
 10
1.25875
 20
1.978295
 30
2.01
 70
    64
  0
SEQEND
  5
463DD
100
AcDbEntity
  8
0
  0
POLYLINE
  5
463DE
100
AcDbEntity
  8
0
100
AcDbPolygonMesh
 66
     1
 10
0.0
 20
0.0
 30
0.0
 70
    16
 71
     6
 72
     3
  0
VERTEX
  5
463DF
100
AcDbEntity
  8
0
100
AcDbVertex
100
AcDbPolygonMeshVertex
 10
1.234235
 20
2.270587
 30
2.01
 70
    64
  0
VERTEX
  5
463E0
100
AcDbEntity
  8
0
100
AcDbVertex
100
AcDbPolygonMeshVertex
 10
1.234235
 20
2.270587
 30
0.705
 70
    64
  0
VERTEX
  5
463E1
100
AcDbEntity
  8
0
100
AcDbVertex
100
AcDbPolygonMeshVertex
 10
1.234235
 20
2.270587
 30
0.705
 70
    64
  0
VERTEX
  5
463E2
100
AcDbEntity
  8
0
100
AcDbVertex
100
AcDbPolygonMeshVertex
 10
1.132048
 20
2.053428
 30
2.01
 70
    64
  0
VERTEX
  5
463E3
100
AcDbEntity
  8
0
100
AcDbVertex
100
AcDbPolygonMeshVertex
 10
1.132048
 20
2.053428
 30
0.705
 70
    64
  0
VERTEX
  5
463E4
100
AcDbEntity
  8
0
100
AcDbVertex
100
AcDbPolygonMeshVertex
 10
1.132048
 20
2.053428
 30
0.705
 70
    64
  0
VERTEX
  5
463E5
100
AcDbEntity
  8
0
100
AcDbVertex
100
AcDbPolygonMeshVertex
 10
0.860599
 20
2.181162
 30
2.01
 70
    64
  0
VERTEX
  5
463E6
100
AcDbEntity
  8
0
100
AcDbVertex
100
AcDbPolygonMeshVertex
 10
0.860599
 20
2.181162
 30
0.705
 70
    64
  0
VERTEX
  5
463E7
100
AcDbEntity
  8
0
100
AcDbVertex
100
AcDbPolygonMeshVertex
 10
1.132048
 20
2.053428
 30
0.705
 70
    64
  0
VERTEX
  5
463E8
100
AcDbEntity
  8
0
100
AcDbVertex
100
AcDbPolygonMeshVertex
 10
0.962787
 20
2.398321
 30
2.01
 70
    64
  0
VERTEX
  5
463E9
100
AcDbEntity
  8
0
100
AcDbVertex
100
AcDbPolygonMeshVertex
 10
0.962787
 20
2.398321
 30
0.705
 70
    64
  0
VERTEX
  5
463EA
100
AcDbEntity
  8
0
100
AcDbVertex
100
AcDbPolygonMeshVertex
 10
1.234235
 20
2.270587
 30
0.705
 70
    64
  0
VERTEX
  5
463EB
100
AcDbEntity
  8
0
100
AcDbVertex
100
AcDbPolygonMeshVertex
 10
0.962787
 20
2.398321
 30
2.01
 70
    64
  0
VERTEX
  5
463EC
100
AcDbEntity
  8
0
100
AcDbVertex
100
AcDbPolygonMeshVertex
 10
0.962787
 20
2.398321
 30
2.01
 70
    64
  0
VERTEX
  5
463ED
100
AcDbEntity
  8
0
100
AcDbVertex
100
AcDbPolygonMeshVertex
 10
1.234235
 20
2.270587
 30
2.01
 70
    64
  0
VERTEX
  5
463EE
100
AcDbEntity
  8
0
100
AcDbVertex
100
AcDbPolygonMeshVertex
 10
0.860599
 20
2.181162
 30
2.01
 70
    64
  0
VERTEX
  5
463EF
100
AcDbEntity
  8
0
100
AcDbVertex
100
AcDbPolygonMeshVertex
 10
0.860599
 20
2.181162
 30
2.01
 70
    64
  0
VERTEX
  5
463F0
100
AcDbEntity
  8
0
100
AcDbVertex
100
AcDbPolygonMeshVertex
 10
1.132048
 20
2.053428
 30
2.01
 70
    64
  0
SEQEND
  5
463F1
100
AcDbEntity
  8
0
  0
POLYLINE
  5
463F2
100
AcDbEntity
  8
0
100
AcDbPolygonMesh
 66
     1
 10
0.0
 20
0.0
 30
0.0
 70
    16
 71
     6
 72
     3
  0
VERTEX
  5
463F3
100
AcDbEntity
  8
0
100
AcDbVertex
100
AcDbPolygonMeshVertex
 10
1.089228
 20
2.343605
 30
2.01
 70
    64
  0
VERTEX
  5
463F4
100
AcDbEntity
  8
0
100
AcDbVertex
100
AcDbPolygonMeshVertex
 10
1.089228
 20
2.343605
 30
0.705
 70
    64
  0
VERTEX
  5
463F5
100
AcDbEntity
  8
0
100
AcDbVertex
100
AcDbPolygonMeshVertex
 10
1.089228
 20
2.343605
 30
0.705
 70
    64
  0
VERTEX
  5
463F6
100
AcDbEntity
  8
0
100
AcDbVertex
100
AcDbPolygonMeshVertex
 10
1.000878
 20
2.120458
 30
2.01
 70
    64
  0
VERTEX
  5
463F7
100
AcDbEntity
  8
0
100
AcDbVertex
100
AcDbPolygonMeshVertex
 10
1.000878
 20
2.120458
 30
0.705
 70
    64
  0
VERTEX
  5
463F8
100
AcDbEntity
  8
0
100
AcDbVertex
100
AcDbPolygonMeshVertex
 10
1.000878
 20
2.120458
 30
0.705
 70
    64
  0
VERTEX
  5
463F9
100
AcDbEntity
  8
0
100
AcDbVertex
100
AcDbPolygonMeshVertex
 10
0.721945
 20
2.230896
 30
2.01
 70
    64
  0
VERTEX
  5
463FA
100
AcDbEntity
  8
0
100
AcDbVertex
100
AcDbPolygonMeshVertex
 10
0.721945
 20
2.230896
 30
0.705
 70
    64
  0
VERTEX
  5
463FB
100
AcDbEntity
  8
0
100
AcDbVertex
100
AcDbPolygonMeshVertex
 10
1.000878
 20
2.120458
 30
0.705
 70
    64
  0
VERTEX
  5
463FC
100
AcDbEntity
  8
0
100
AcDbVertex
100
AcDbPolygonMeshVertex
 10
0.810295
 20
2.454042
 30
2.01
 70
    64
  0
VERTEX
  5
463FD
100
AcDbEntity
  8
0
100
AcDbVertex
100
AcDbPolygonMeshVertex
 10
0.810295
 20
2.454042
 30
0.705
 70
    64
  0
VERTEX
  5
463FE
100
AcDbEntity
  8
0
100
AcDbVertex
100
AcDbPolygonMeshVertex
 10
1.089228
 20
2.343605
 30
0.705
 70
    64
  0
VERTEX
  5
463FF
100
AcDbEntity
  8
0
100
AcDbVertex
100
AcDbPolygonMeshVertex
 10
0.810295
 20
2.454042
 30
2.01
 70
    64
  0
VERTEX
  5
46400
100
AcDbEntity
  8
0
100
AcDbVertex
100
AcDbPolygonMeshVertex
 10
0.810295
 20
2.454042
 30
2.01
 70
    64
  0
VERTEX
  5
46401
100
AcDbEntity
  8
0
100
AcDbVertex
100
AcDbPolygonMeshVertex
 10
1.089228
 20
2.343605
 30
2.01
 70
    64
  0
VERTEX
  5
46402
100
AcDbEntity
  8
0
100
AcDbVertex
100
AcDbPolygonMeshVertex
 10
0.721945
 20
2.230896
 30
2.01
 70
    64
  0
VERTEX
  5
46403
100
AcDbEntity
  8
0
100
AcDbVertex
100
AcDbPolygonMeshVertex
 10
0.721945
 20
2.230896
 30
2.01
 70
    64
  0
VERTEX
  5
46404
100
AcDbEntity
  8
0
100
AcDbVertex
100
AcDbPolygonMeshVertex
 10
1.000878
 20
2.120458
 30
2.01
 70
    64
  0
SEQEND
  5
46405
100
AcDbEntity
  8
0
  0
POLYLINE
  5
46406
100
AcDbEntity
  8
0
100
AcDbPolygonMesh
 66
     1
 10
0.0
 20
0.0
 30
0.0
 70
    16
 71
     6
 72
     3
  0
VERTEX
  5
46407
100
AcDbEntity
  8
0
100
AcDbVertex
100
AcDbPolygonMeshVertex
 10
0.939922
 20
2.407373
 30
2.01
 70
    64
  0
VERTEX
  5
46408
100
AcDbEntity
  8
0
100
AcDbVertex
100
AcDbPolygonMeshVertex
 10
0.939922
 20
2.407373
 30
0.705
 70
    64
  0
VERTEX
  5
46409
100
AcDbEntity
  8
0
100
AcDbVertex
100
AcDbPolygonMeshVertex
 10
0.939922
 20
2.407373
 30
0.705
 70
    64
  0
VERTEX
  5
4640A
100
AcDbEntity
  8
0
100
AcDbVertex
100
AcDbPolygonMeshVertex
 10
0.865758
 20
2.17912
 30
2.01
 70
    64
  0
VERTEX
  5
4640B
100
AcDbEntity
  8
0
100
AcDbVertex
100
AcDbPolygonMeshVertex
 10
0.865758
 20
2.17912
 30
0.705
 70
    64
  0
VERTEX
  5
4640C
100
AcDbEntity
  8
0
100
AcDbVertex
100
AcDbPolygonMeshVertex
 10
0.865758
 20
2.17912
 30
0.705
 70
    64
  0
VERTEX
  5
4640D
100
AcDbEntity
  8
0
100
AcDbVertex
100
AcDbPolygonMeshVertex
 10
0.580441
 20
2.271825
 30
2.01
 70
    64
  0
VERTEX
  5
4640E
100
AcDbEntity
  8
0
100
AcDbVertex
100
AcDbPolygonMeshVertex
 10
0.580441
 20
2.271825
 30
0.705
 70
    64
  0
VERTEX
  5
4640F
100
AcDbEntity
  8
0
100
AcDbVertex
100
AcDbPolygonMeshVertex
 10
0.865758
 20
2.17912
 30
0.705
 70
    64
  0
VERTEX
  5
46410
100
AcDbEntity
  8
0
100
AcDbVertex
100
AcDbPolygonMeshVertex
 10
0.654605
 20
2.500078
 30
2.01
 70
    64
  0
VERTEX
  5
46411
100
AcDbEntity
  8
0
100
AcDbVertex
100
AcDbPolygonMeshVertex
 10
0.654605
 20
2.500078
 30
0.705
 70
    64
  0
VERTEX
  5
46412
100
AcDbEntity
  8
0
100
AcDbVertex
100
AcDbPolygonMeshVertex
 10
0.939922
 20
2.407373
 30
0.705
 70
    64
  0
VERTEX
  5
46413
100
AcDbEntity
  8
0
100
AcDbVertex
100
AcDbPolygonMeshVertex
 10
0.654605
 20
2.500078
 30
2.01
 70
    64
  0
VERTEX
  5
46414
100
AcDbEntity
  8
0
100
AcDbVertex
100
AcDbPolygonMeshVertex
 10
0.654605
 20
2.500078
 30
2.01
 70
    64
  0
VERTEX
  5
46415
100
AcDbEntity
  8
0
100
AcDbVertex
100
AcDbPolygonMeshVertex
 10
0.939922
 20
2.407373
 30
2.01
 70
    64
  0
VERTEX
  5
46416
100
AcDbEntity
  8
0
100
AcDbVertex
100
AcDbPolygonMeshVertex
 10
0.580441
 20
2.271825
 30
2.01
 70
    64
  0
VERTEX
  5
46417
100
AcDbEntity
  8
0
100
AcDbVertex
100
AcDbPolygonMeshVertex
 10
0.580441
 20
2.271825
 30
2.01
 70
    64
  0
VERTEX
  5
46418
100
AcDbEntity
  8
0
100
AcDbVertex
100
AcDbPolygonMeshVertex
 10
0.865758
 20
2.17912
 30
2.01
 70
    64
  0
SEQEND
  5
46419
100
AcDbEntity
  8
0
  0
POLYLINE
  5
4641A
100
AcDbEntity
  8
0
100
AcDbPolygonMesh
 66
     1
 10
0.0
 20
0.0
 30
0.0
 70
    16
 71
     6
 72
     3
  0
VERTEX
  5
4641B
100
AcDbEntity
  8
0
100
AcDbVertex
100
AcDbPolygonMeshVertex
 10
0.786907
 20
2.461641
 30
2.01
 70
    64
  0
VERTEX
  5
4641C
100
AcDbEntity
  8
0
100
AcDbVertex
100
AcDbPolygonMeshVertex
 10
0.786907
 20
2.461641
 30
0.705
 70
    64
  0
VERTEX
  5
4641D
100
AcDbEntity
  8
0
100
AcDbVertex
100
AcDbPolygonMeshVertex
 10
0.786907
 20
2.461641
 30
0.705
 70
    64
  0
VERTEX
  5
4641E
100
AcDbEntity
  8
0
100
AcDbVertex
100
AcDbPolygonMeshVertex
 10
0.727222
 20
2.229181
 30
2.01
 70
    64
  0
VERTEX
  5
4641F
100
AcDbEntity
  8
0
100
AcDbVertex
100
AcDbPolygonMeshVertex
 10
0.727222
 20
2.229181
 30
0.705
 70
    64
  0
VERTEX
  5
46420
100
AcDbEntity
  8
0
100
AcDbVertex
100
AcDbPolygonMeshVertex
 10
0.727222
 20
2.229181
 30
0.705
 70
    64
  0
VERTEX
  5
46421
100
AcDbEntity
  8
0
100
AcDbVertex
100
AcDbPolygonMeshVertex
 10
0.436647
 20
2.303788
 30
2.01
 70
    64
  0
VERTEX
  5
46422
100
AcDbEntity
  8
0
100
AcDbVertex
100
AcDbPolygonMeshVertex
 10
0.436647
 20
2.303788
 30
0.705
 70
    64
  0
VERTEX
  5
46423
100
AcDbEntity
  8
0
100
AcDbVertex
100
AcDbPolygonMeshVertex
 10
0.727222
 20
2.229181
 30
0.705
 70
    64
  0
VERTEX
  5
46424
100
AcDbEntity
  8
0
100
AcDbVertex
100
AcDbPolygonMeshVertex
 10
0.496332
 20
2.536248
 30
2.01
 70
    64
  0
VERTEX
  5
46425
100
AcDbEntity
  8
0
100
AcDbVertex
100
AcDbPolygonMeshVertex
 10
0.496332
 20
2.536248
 30
0.705
 70
    64
  0
VERTEX
  5
46426
100
AcDbEntity
  8
0
100
AcDbVertex
100
AcDbPolygonMeshVertex
 10
0.786907
 20
2.461641
 30
0.705
 70
    64
  0
VERTEX
  5
46427
100
AcDbEntity
  8
0
100
AcDbVertex
100
AcDbPolygonMeshVertex
 10
0.496332
 20
2.536248
 30
2.01
 70
    64
  0
VERTEX
  5
46428
100
AcDbEntity
  8
0
100
AcDbVertex
100
AcDbPolygonMeshVertex
 10
0.496332
 20
2.536248
 30
2.01
 70
    64
  0
VERTEX
  5
46429
100
AcDbEntity
  8
0
100
AcDbVertex
100
AcDbPolygonMeshVertex
 10
0.786907
 20
2.461641
 30
2.01
 70
    64
  0
VERTEX
  5
4642A
100
AcDbEntity
  8
0
100
AcDbVertex
100
AcDbPolygonMeshVertex
 10
0.436647
 20
2.303788
 30
2.01
 70
    64
  0
VERTEX
  5
4642B
100
AcDbEntity
  8
0
100
AcDbVertex
100
AcDbPolygonMeshVertex
 10
0.436647
 20
2.303788
 30
2.01
 70
    64
  0
VERTEX
  5
4642C
100
AcDbEntity
  8
0
100
AcDbVertex
100
AcDbPolygonMeshVertex
 10
0.727222
 20
2.229181
 30
2.01
 70
    64
  0
SEQEND
  5
4642D
100
AcDbEntity
  8
0
  0
POLYLINE
  5
4642E
100
AcDbEntity
  8
0
100
AcDbPolygonMesh
 66
     1
 10
0.0
 20
0.0
 30
0.0
 70
    16
 71
     6
 72
     3
  0
VERTEX
  5
4642F
100
AcDbEntity
  8
0
100
AcDbVertex
100
AcDbPolygonMeshVertex
 10
0.630787
 20
2.506194
 30
2.01
 70
    64
  0
VERTEX
  5
46430
100
AcDbEntity
  8
0
100
AcDbVertex
100
AcDbPolygonMeshVertex
 10
0.630787
 20
2.506194
 30
0.705
 70
    64
  0
VERTEX
  5
46431
100
AcDbEntity
  8
0
100
AcDbVertex
100
AcDbPolygonMeshVertex
 10
0.630787
 20
2.506194
 30
0.705
 70
    64
  0
VERTEX
  5
46432
100
AcDbEntity
  8
0
100
AcDbVertex
100
AcDbPolygonMeshVertex
 10
0.585815
 20
2.270445
 30
2.01
 70
    64
  0
VERTEX
  5
46433
100
AcDbEntity
  8
0
100
AcDbVertex
100
AcDbPolygonMeshVertex
 10
0.585815
 20
2.270445
 30
0.705
 70
    64
  0
VERTEX
  5
46434
100
AcDbEntity
  8
0
100
AcDbVertex
100
AcDbPolygonMeshVertex
 10
0.585815
 20
2.270445
 30
0.705
 70
    64
  0
VERTEX
  5
46435
100
AcDbEntity
  8
0
100
AcDbVertex
100
AcDbPolygonMeshVertex
 10
0.291129
 20
2.326659
 30
2.01
 70
    64
  0
VERTEX
  5
46436
100
AcDbEntity
  8
0
100
AcDbVertex
100
AcDbPolygonMeshVertex
 10
0.291129
 20
2.326659
 30
0.705
 70
    64
  0
VERTEX
  5
46437
100
AcDbEntity
  8
0
100
AcDbVertex
100
AcDbPolygonMeshVertex
 10
0.585815
 20
2.270445
 30
0.705
 70
    64
  0
VERTEX
  5
46438
100
AcDbEntity
  8
0
100
AcDbVertex
100
AcDbPolygonMeshVertex
 10
0.336101
 20
2.562408
 30
2.01
 70
    64
  0
VERTEX
  5
46439
100
AcDbEntity
  8
0
100
AcDbVertex
100
AcDbPolygonMeshVertex
 10
0.336101
 20
2.562408
 30
0.705
 70
    64
  0
VERTEX
  5
4643A
100
AcDbEntity
  8
0
100
AcDbVertex
100
AcDbPolygonMeshVertex
 10
0.630787
 20
2.506194
 30
0.705
 70
    64
  0
VERTEX
  5
4643B
100
AcDbEntity
  8
0
100
AcDbVertex
100
AcDbPolygonMeshVertex
 10
0.336101
 20
2.562408
 30
2.01
 70
    64
  0
VERTEX
  5
4643C
100
AcDbEntity
  8
0
100
AcDbVertex
100
AcDbPolygonMeshVertex
 10
0.336101
 20
2.562408
 30
2.01
 70
    64
  0
VERTEX
  5
4643D
100
AcDbEntity
  8
0
100
AcDbVertex
100
AcDbPolygonMeshVertex
 10
0.630787
 20
2.506194
 30
2.01
 70
    64
  0
VERTEX
  5
4643E
100
AcDbEntity
  8
0
100
AcDbVertex
100
AcDbPolygonMeshVertex
 10
0.291129
 20
2.326659
 30
2.01
 70
    64
  0
VERTEX
  5
4643F
100
AcDbEntity
  8
0
100
AcDbVertex
100
AcDbPolygonMeshVertex
 10
0.291129
 20
2.326659
 30
2.01
 70
    64
  0
VERTEX
  5
46440
100
AcDbEntity
  8
0
100
AcDbVertex
100
AcDbPolygonMeshVertex
 10
0.585815
 20
2.270445
 30
2.01
 70
    64
  0
SEQEND
  5
46441
100
AcDbEntity
  8
0
  0
POLYLINE
  5
46442
100
AcDbEntity
  8
0
100
AcDbPolygonMesh
 66
     1
 10
0.0
 20
0.0
 30
0.0
 70
    16
 71
     6
 72
     3
  0
VERTEX
  5
46443
100
AcDbEntity
  8
0
100
AcDbVertex
100
AcDbPolygonMeshVertex
 10
0.472177
 20
2.540856
 30
2.01
 70
    64
  0
VERTEX
  5
46444
100
AcDbEntity
  8
0
100
AcDbVertex
100
AcDbPolygonMeshVertex
 10
0.472177
 20
2.540856
 30
0.705
 70
    64
  0
VERTEX
  5
46445
100
AcDbEntity
  8
0
100
AcDbVertex
100
AcDbPolygonMeshVertex
 10
0.472177
 20
2.540856
 30
0.705
 70
    64
  0
VERTEX
  5
46446
100
AcDbEntity
  8
0
100
AcDbVertex
100
AcDbPolygonMeshVertex
 10
0.442097
 20
2.302748
 30
2.01
 70
    64
  0
VERTEX
  5
46447
100
AcDbEntity
  8
0
100
AcDbVertex
100
AcDbPolygonMeshVertex
 10
0.442097
 20
2.302748
 30
0.705
 70
    64
  0
VERTEX
  5
46448
100
AcDbEntity
  8
0
100
AcDbVertex
100
AcDbPolygonMeshVertex
 10
0.442097
 20
2.302748
 30
0.705
 70
    64
  0
VERTEX
  5
46449
100
AcDbEntity
  8
0
100
AcDbVertex
100
AcDbPolygonMeshVertex
 10
0.144463
 20
2.340348
 30
2.01
 70
    64
  0
VERTEX
  5
4644A
100
AcDbEntity
  8
0
100
AcDbVertex
100
AcDbPolygonMeshVertex
 10
0.144463
 20
2.340348
 30
0.705
 70
    64
  0
VERTEX
  5
4644B
100
AcDbEntity
  8
0
100
AcDbVertex
100
AcDbPolygonMeshVertex
 10
0.442097
 20
2.302748
 30
0.705
 70
    64
  0
VERTEX
  5
4644C
100
AcDbEntity
  8
0
100
AcDbVertex
100
AcDbPolygonMeshVertex
 10
0.174543
 20
2.578456
 30
2.01
 70
    64
  0
VERTEX
  5
4644D
100
AcDbEntity
  8
0
100
AcDbVertex
100
AcDbPolygonMeshVertex
 10
0.174543
 20
2.578456
 30
0.705
 70
    64
  0
VERTEX
  5
4644E
100
AcDbEntity
  8
0
100
AcDbVertex
100
AcDbPolygonMeshVertex
 10
0.472177
 20
2.540856
 30
0.705
 70
    64
  0
VERTEX
  5
4644F
100
AcDbEntity
  8
0
100
AcDbVertex
100
AcDbPolygonMeshVertex
 10
0.174543
 20
2.578456
 30
2.01
 70
    64
  0
VERTEX
  5
46450
100
AcDbEntity
  8
0
100
AcDbVertex
100
AcDbPolygonMeshVertex
 10
0.174543
 20
2.578456
 30
2.01
 70
    64
  0
VERTEX
  5
46451
100
AcDbEntity
  8
0
100
AcDbVertex
100
AcDbPolygonMeshVertex
 10
0.472177
 20
2.540856
 30
2.01
 70
    64
  0
VERTEX
  5
46452
100
AcDbEntity
  8
0
100
AcDbVertex
100
AcDbPolygonMeshVertex
 10
0.144463
 20
2.340348
 30
2.01
 70
    64
  0
VERTEX
  5
46453
100
AcDbEntity
  8
0
100
AcDbVertex
100
AcDbPolygonMeshVertex
 10
0.144463
 20
2.340348
 30
2.01
 70
    64
  0
VERTEX
  5
46454
100
AcDbEntity
  8
0
100
AcDbVertex
100
AcDbPolygonMeshVertex
 10
0.442097
 20
2.302748
 30
2.01
 70
    64
  0
SEQEND
  5
46455
100
AcDbEntity
  8
0
  0
POLYLINE
  5
46456
100
AcDbEntity
  8
0
100
AcDbPolygonMesh
 66
     1
 10
0.0
 20
0.0
 30
0.0
 70
    16
 71
     6
 72
     3
  0
VERTEX
  5
46457
100
AcDbEntity
  8
0
100
AcDbVertex
100
AcDbPolygonMeshVertex
 10
0.311704
 20
2.56549
 30
2.01
 70
    64
  0
VERTEX
  5
46458
100
AcDbEntity
  8
0
100
AcDbVertex
100
AcDbPolygonMeshVertex
 10
0.311704
 20
2.56549
 30
0.705
 70
    64
  0
VERTEX
  5
46459
100
AcDbEntity
  8
0
100
AcDbVertex
100
AcDbPolygonMeshVertex
 10
0.311704
 20
2.56549
 30
0.705
 70
    64
  0
VERTEX
  5
4645A
100
AcDbEntity
  8
0
100
AcDbVertex
100
AcDbPolygonMeshVertex
 10
0.296634
 20
2.325964
 30
2.01
 70
    64
  0
VERTEX
  5
4645B
100
AcDbEntity
  8
0
100
AcDbVertex
100
AcDbPolygonMeshVertex
 10
0.296634
 20
2.325964
 30
0.705
 70
    64
  0
VERTEX
  5
4645C
100
AcDbEntity
  8
0
100
AcDbVertex
100
AcDbPolygonMeshVertex
 10
0.296634
 20
2.325964
 30
0.705
 70
    64
  0
VERTEX
  5
4645D
100
AcDbEntity
  8
0
100
AcDbVertex
100
AcDbPolygonMeshVertex
 10
-0.002774
 20
2.344801
 30
2.01
 70
    64
  0
VERTEX
  5
4645E
100
AcDbEntity
  8
0
100
AcDbVertex
100
AcDbPolygonMeshVertex
 10
-0.002774
 20
2.344801
 30
0.705
 70
    64
  0
VERTEX
  5
4645F
100
AcDbEntity
  8
0
100
AcDbVertex
100
AcDbPolygonMeshVertex
 10
0.296634
 20
2.325964
 30
0.705
 70
    64
  0
VERTEX
  5
46460
100
AcDbEntity
  8
0
100
AcDbVertex
100
AcDbPolygonMeshVertex
 10
0.012296
 20
2.584328
 30
2.01
 70
    64
  0
VERTEX
  5
46461
100
AcDbEntity
  8
0
100
AcDbVertex
100
AcDbPolygonMeshVertex
 10
0.012296
 20
2.584328
 30
0.705
 70
    64
  0
VERTEX
  5
46462
100
AcDbEntity
  8
0
100
AcDbVertex
100
AcDbPolygonMeshVertex
 10
0.311704
 20
2.56549
 30
0.705
 70
    64
  0
VERTEX
  5
46463
100
AcDbEntity
  8
0
100
AcDbVertex
100
AcDbPolygonMeshVertex
 10
0.012296
 20
2.584328
 30
2.01
 70
    64
  0
VERTEX
  5
46464
100
AcDbEntity
  8
0
100
AcDbVertex
100
AcDbPolygonMeshVertex
 10
0.012296
 20
2.584328
 30
2.01
 70
    64
  0
VERTEX
  5
46465
100
AcDbEntity
  8
0
100
AcDbVertex
100
AcDbPolygonMeshVertex
 10
0.311704
 20
2.56549
 30
2.01
 70
    64
  0
VERTEX
  5
46466
100
AcDbEntity
  8
0
100
AcDbVertex
100
AcDbPolygonMeshVertex
 10
-0.002774
 20
2.344801
 30
2.01
 70
    64
  0
VERTEX
  5
46467
100
AcDbEntity
  8
0
100
AcDbVertex
100
AcDbPolygonMeshVertex
 10
-0.002774
 20
2.344801
 30
2.01
 70
    64
  0
VERTEX
  5
46468
100
AcDbEntity
  8
0
100
AcDbVertex
100
AcDbPolygonMeshVertex
 10
0.296634
 20
2.325964
 30
2.01
 70
    64
  0
SEQEND
  5
46469
100
AcDbEntity
  8
0
  0
POLYLINE
  5
4646A
100
AcDbEntity
  8
0
100
AcDbPolygonMesh
 66
     1
 10
0.0
 20
0.0
 30
0.0
 70
    16
 71
     6
 72
     3
  0
VERTEX
  5
4646B
100
AcDbEntity
  8
0
100
AcDbVertex
100
AcDbPolygonMeshVertex
 10
0.15
 20
2.58
 30
2.01
 70
    64
  0
VERTEX
  5
4646C
100
AcDbEntity
  8
0
100
AcDbVertex
100
AcDbPolygonMeshVertex
 10
0.15
 20
2.58
 30
0.705
 70
    64
  0
VERTEX
  5
4646D
100
AcDbEntity
  8
0
100
AcDbVertex
100
AcDbPolygonMeshVertex
 10
0.15
 20
2.58
 30
0.705
 70
    64
  0
VERTEX
  5
4646E
100
AcDbEntity
  8
0
100
AcDbVertex
100
AcDbPolygonMeshVertex
 10
0.15
 20
2.34
 30
2.01
 70
    64
  0
VERTEX
  5
4646F
100
AcDbEntity
  8
0
100
AcDbVertex
100
AcDbPolygonMeshVertex
 10
0.15
 20
2.34
 30
0.705
 70
    64
  0
VERTEX
  5
46470
100
AcDbEntity
  8
0
100
AcDbVertex
100
AcDbPolygonMeshVertex
 10
0.15
 20
2.34
 30
0.705
 70
    64
  0
VERTEX
  5
46471
100
AcDbEntity
  8
0
100
AcDbVertex
100
AcDbPolygonMeshVertex
 10
-0.15
 20
2.34
 30
2.01
 70
    64
  0
VERTEX
  5
46472
100
AcDbEntity
  8
0
100
AcDbVertex
100
AcDbPolygonMeshVertex
 10
-0.15
 20
2.34
 30
0.705
 70
    64
  0
VERTEX
  5
46473
100
AcDbEntity
  8
0
100
AcDbVertex
100
AcDbPolygonMeshVertex
 10
0.15
 20
2.34
 30
0.705
 70
    64
  0
VERTEX
  5
46474
100
AcDbEntity
  8
0
100
AcDbVertex
100
AcDbPolygonMeshVertex
 10
-0.15
 20
2.58
 30
2.01
 70
    64
  0
VERTEX
  5
46475
100
AcDbEntity
  8
0
100
AcDbVertex
100
AcDbPolygonMeshVertex
 10
-0.15
 20
2.58
 30
0.705
 70
    64
  0
VERTEX
  5
46476
100
AcDbEntity
  8
0
100
AcDbVertex
100
AcDbPolygonMeshVertex
 10
0.15
 20
2.58
 30
0.705
 70
    64
  0
VERTEX
  5
46477
100
AcDbEntity
  8
0
100
AcDbVertex
100
AcDbPolygonMeshVertex
 10
-0.15
 20
2.58
 30
2.01
 70
    64
  0
VERTEX
  5
46478
100
AcDbEntity
  8
0
100
AcDbVertex
100
AcDbPolygonMeshVertex
 10
-0.15
 20
2.58
 30
2.01
 70
    64
  0
VERTEX
  5
46479
100
AcDbEntity
  8
0
100
AcDbVertex
100
AcDbPolygonMeshVertex
 10
0.15
 20
2.58
 30
2.01
 70
    64
  0
VERTEX
  5
4647A
100
AcDbEntity
  8
0
100
AcDbVertex
100
AcDbPolygonMeshVertex
 10
-0.15
 20
2.34
 30
2.01
 70
    64
  0
VERTEX
  5
4647B
100
AcDbEntity
  8
0
100
AcDbVertex
100
AcDbPolygonMeshVertex
 10
-0.15
 20
2.34
 30
2.01
 70
    64
  0
VERTEX
  5
4647C
100
AcDbEntity
  8
0
100
AcDbVertex
100
AcDbPolygonMeshVertex
 10
0.15
 20
2.34
 30
2.01
 70
    64
  0
SEQEND
  5
4647D
100
AcDbEntity
  8
0
  0
POLYLINE
  5
4647E
100
AcDbEntity
  8
0
100
AcDbPolygonMesh
 66
     1
 10
0.0
 20
0.0
 30
0.0
 70
    16
 71
     6
 72
     3
  0
VERTEX
  5
4647F
100
AcDbEntity
  8
0
100
AcDbVertex
100
AcDbPolygonMeshVertex
 10
-0.012296
 20
2.584328
 30
2.01
 70
    64
  0
VERTEX
  5
46480
100
AcDbEntity
  8
0
100
AcDbVertex
100
AcDbPolygonMeshVertex
 10
-0.012296
 20
2.584328
 30
0.705
 70
    64
  0
VERTEX
  5
46481
100
AcDbEntity
  8
0
100
AcDbVertex
100
AcDbPolygonMeshVertex
 10
-0.012296
 20
2.584328
 30
0.705
 70
    64
  0
VERTEX
  5
46482
100
AcDbEntity
  8
0
100
AcDbVertex
100
AcDbPolygonMeshVertex
 10
0.002774
 20
2.344801
 30
2.01
 70
    64
  0
VERTEX
  5
46483
100
AcDbEntity
  8
0
100
AcDbVertex
100
AcDbPolygonMeshVertex
 10
0.002774
 20
2.344801
 30
0.705
 70
    64
  0
VERTEX
  5
46484
100
AcDbEntity
  8
0
100
AcDbVertex
100
AcDbPolygonMeshVertex
 10
0.002774
 20
2.344801
 30
0.705
 70
    64
  0
VERTEX
  5
46485
100
AcDbEntity
  8
0
100
AcDbVertex
100
AcDbPolygonMeshVertex
 10
-0.296634
 20
2.325964
 30
2.01
 70
    64
  0
VERTEX
  5
46486
100
AcDbEntity
  8
0
100
AcDbVertex
100
AcDbPolygonMeshVertex
 10
-0.296634
 20
2.325964
 30
0.705
 70
    64
  0
VERTEX
  5
46487
100
AcDbEntity
  8
0
100
AcDbVertex
100
AcDbPolygonMeshVertex
 10
0.002774
 20
2.344801
 30
0.705
 70
    64
  0
VERTEX
  5
46488
100
AcDbEntity
  8
0
100
AcDbVertex
100
AcDbPolygonMeshVertex
 10
-0.311704
 20
2.56549
 30
2.01
 70
    64
  0
VERTEX
  5
46489
100
AcDbEntity
  8
0
100
AcDbVertex
100
AcDbPolygonMeshVertex
 10
-0.311704
 20
2.56549
 30
0.705
 70
    64
  0
VERTEX
  5
4648A
100
AcDbEntity
  8
0
100
AcDbVertex
100
AcDbPolygonMeshVertex
 10
-0.012296
 20
2.584328
 30
0.705
 70
    64
  0
VERTEX
  5
4648B
100
AcDbEntity
  8
0
100
AcDbVertex
100
AcDbPolygonMeshVertex
 10
-0.311704
 20
2.56549
 30
2.01
 70
    64
  0
VERTEX
  5
4648C
100
AcDbEntity
  8
0
100
AcDbVertex
100
AcDbPolygonMeshVertex
 10
-0.311704
 20
2.56549
 30
2.01
 70
    64
  0
VERTEX
  5
4648D
100
AcDbEntity
  8
0
100
AcDbVertex
100
AcDbPolygonMeshVertex
 10
-0.012296
 20
2.584328
 30
2.01
 70
    64
  0
VERTEX
  5
4648E
100
AcDbEntity
  8
0
100
AcDbVertex
100
AcDbPolygonMeshVertex
 10
-0.296634
 20
2.325964
 30
2.01
 70
    64
  0
VERTEX
  5
4648F
100
AcDbEntity
  8
0
100
AcDbVertex
100
AcDbPolygonMeshVertex
 10
-0.296634
 20
2.325964
 30
2.01
 70
    64
  0
VERTEX
  5
46490
100
AcDbEntity
  8
0
100
AcDbVertex
100
AcDbPolygonMeshVertex
 10
0.002774
 20
2.344801
 30
2.01
 70
    64
  0
SEQEND
  5
46491
100
AcDbEntity
  8
0
  0
POLYLINE
  5
46492
100
AcDbEntity
  8
0
100
AcDbPolygonMesh
 66
     1
 10
0.0
 20
0.0
 30
0.0
 70
    16
 71
     6
 72
     3
  0
VERTEX
  5
46493
100
AcDbEntity
  8
0
100
AcDbVertex
100
AcDbPolygonMeshVertex
 10
-0.174543
 20
2.578456
 30
2.01
 70
    64
  0
VERTEX
  5
46494
100
AcDbEntity
  8
0
100
AcDbVertex
100
AcDbPolygonMeshVertex
 10
-0.174543
 20
2.578456
 30
0.705
 70
    64
  0
VERTEX
  5
46495
100
AcDbEntity
  8
0
100
AcDbVertex
100
AcDbPolygonMeshVertex
 10
-0.174543
 20
2.578456
 30
0.705
 70
    64
  0
VERTEX
  5
46496
100
AcDbEntity
  8
0
100
AcDbVertex
100
AcDbPolygonMeshVertex
 10
-0.144463
 20
2.340348
 30
2.01
 70
    64
  0
VERTEX
  5
46497
100
AcDbEntity
  8
0
100
AcDbVertex
100
AcDbPolygonMeshVertex
 10
-0.144463
 20
2.340348
 30
0.705
 70
    64
  0
VERTEX
  5
46498
100
AcDbEntity
  8
0
100
AcDbVertex
100
AcDbPolygonMeshVertex
 10
-0.144463
 20
2.340348
 30
0.705
 70
    64
  0
VERTEX
  5
46499
100
AcDbEntity
  8
0
100
AcDbVertex
100
AcDbPolygonMeshVertex
 10
-0.442097
 20
2.302748
 30
2.01
 70
    64
  0
VERTEX
  5
4649A
100
AcDbEntity
  8
0
100
AcDbVertex
100
AcDbPolygonMeshVertex
 10
-0.442097
 20
2.302748
 30
0.705
 70
    64
  0
VERTEX
  5
4649B
100
AcDbEntity
  8
0
100
AcDbVertex
100
AcDbPolygonMeshVertex
 10
-0.144463
 20
2.340348
 30
0.705
 70
    64
  0
VERTEX
  5
4649C
100
AcDbEntity
  8
0
100
AcDbVertex
100
AcDbPolygonMeshVertex
 10
-0.472177
 20
2.540856
 30
2.01
 70
    64
  0
VERTEX
  5
4649D
100
AcDbEntity
  8
0
100
AcDbVertex
100
AcDbPolygonMeshVertex
 10
-0.472177
 20
2.540856
 30
0.705
 70
    64
  0
VERTEX
  5
4649E
100
AcDbEntity
  8
0
100
AcDbVertex
100
AcDbPolygonMeshVertex
 10
-0.174543
 20
2.578456
 30
0.705
 70
    64
  0
VERTEX
  5
4649F
100
AcDbEntity
  8
0
100
AcDbVertex
100
AcDbPolygonMeshVertex
 10
-0.472177
 20
2.540856
 30
2.01
 70
    64
  0
VERTEX
  5
464A0
100
AcDbEntity
  8
0
100
AcDbVertex
100
AcDbPolygonMeshVertex
 10
-0.472177
 20
2.540856
 30
2.01
 70
    64
  0
VERTEX
  5
464A1
100
AcDbEntity
  8
0
100
AcDbVertex
100
AcDbPolygonMeshVertex
 10
-0.174543
 20
2.578456
 30
2.01
 70
    64
  0
VERTEX
  5
464A2
100
AcDbEntity
  8
0
100
AcDbVertex
100
AcDbPolygonMeshVertex
 10
-0.442097
 20
2.302748
 30
2.01
 70
    64
  0
VERTEX
  5
464A3
100
AcDbEntity
  8
0
100
AcDbVertex
100
AcDbPolygonMeshVertex
 10
-0.442097
 20
2.302748
 30
2.01
 70
    64
  0
VERTEX
  5
464A4
100
AcDbEntity
  8
0
100
AcDbVertex
100
AcDbPolygonMeshVertex
 10
-0.144463
 20
2.340348
 30
2.01
 70
    64
  0
SEQEND
  5
464A5
100
AcDbEntity
  8
0
  0
POLYLINE
  5
464A6
100
AcDbEntity
  8
0
100
AcDbPolygonMesh
 66
     1
 10
0.0
 20
0.0
 30
0.0
 70
    16
 71
     6
 72
     3
  0
VERTEX
  5
464A7
100
AcDbEntity
  8
0
100
AcDbVertex
100
AcDbPolygonMeshVertex
 10
-0.336101
 20
2.562408
 30
2.01
 70
    64
  0
VERTEX
  5
464A8
100
AcDbEntity
  8
0
100
AcDbVertex
100
AcDbPolygonMeshVertex
 10
-0.336101
 20
2.562408
 30
0.705
 70
    64
  0
VERTEX
  5
464A9
100
AcDbEntity
  8
0
100
AcDbVertex
100
AcDbPolygonMeshVertex
 10
-0.336101
 20
2.562408
 30
0.705
 70
    64
  0
VERTEX
  5
464AA
100
AcDbEntity
  8
0
100
AcDbVertex
100
AcDbPolygonMeshVertex
 10
-0.291129
 20
2.326659
 30
2.01
 70
    64
  0
VERTEX
  5
464AB
100
AcDbEntity
  8
0
100
AcDbVertex
100
AcDbPolygonMeshVertex
 10
-0.291129
 20
2.326659
 30
0.705
 70
    64
  0
VERTEX
  5
464AC
100
AcDbEntity
  8
0
100
AcDbVertex
100
AcDbPolygonMeshVertex
 10
-0.291129
 20
2.326659
 30
0.705
 70
    64
  0
VERTEX
  5
464AD
100
AcDbEntity
  8
0
100
AcDbVertex
100
AcDbPolygonMeshVertex
 10
-0.585815
 20
2.270445
 30
2.01
 70
    64
  0
VERTEX
  5
464AE
100
AcDbEntity
  8
0
100
AcDbVertex
100
AcDbPolygonMeshVertex
 10
-0.585815
 20
2.270445
 30
0.705
 70
    64
  0
VERTEX
  5
464AF
100
AcDbEntity
  8
0
100
AcDbVertex
100
AcDbPolygonMeshVertex
 10
-0.291129
 20
2.326659
 30
0.705
 70
    64
  0
VERTEX
  5
464B0
100
AcDbEntity
  8
0
100
AcDbVertex
100
AcDbPolygonMeshVertex
 10
-0.630787
 20
2.506194
 30
2.01
 70
    64
  0
VERTEX
  5
464B1
100
AcDbEntity
  8
0
100
AcDbVertex
100
AcDbPolygonMeshVertex
 10
-0.630787
 20
2.506194
 30
0.705
 70
    64
  0
VERTEX
  5
464B2
100
AcDbEntity
  8
0
100
AcDbVertex
100
AcDbPolygonMeshVertex
 10
-0.336101
 20
2.562408
 30
0.705
 70
    64
  0
VERTEX
  5
464B3
100
AcDbEntity
  8
0
100
AcDbVertex
100
AcDbPolygonMeshVertex
 10
-0.630787
 20
2.506194
 30
2.01
 70
    64
  0
VERTEX
  5
464B4
100
AcDbEntity
  8
0
100
AcDbVertex
100
AcDbPolygonMeshVertex
 10
-0.630787
 20
2.506194
 30
2.01
 70
    64
  0
VERTEX
  5
464B5
100
AcDbEntity
  8
0
100
AcDbVertex
100
AcDbPolygonMeshVertex
 10
-0.336101
 20
2.562408
 30
2.01
 70
    64
  0
VERTEX
  5
464B6
100
AcDbEntity
  8
0
100
AcDbVertex
100
AcDbPolygonMeshVertex
 10
-0.585815
 20
2.270445
 30
2.01
 70
    64
  0
VERTEX
  5
464B7
100
AcDbEntity
  8
0
100
AcDbVertex
100
AcDbPolygonMeshVertex
 10
-0.585815
 20
2.270445
 30
2.01
 70
    64
  0
VERTEX
  5
464B8
100
AcDbEntity
  8
0
100
AcDbVertex
100
AcDbPolygonMeshVertex
 10
-0.291129
 20
2.326659
 30
2.01
 70
    64
  0
SEQEND
  5
464B9
100
AcDbEntity
  8
0
  0
POLYLINE
  5
464BA
100
AcDbEntity
  8
0
100
AcDbPolygonMesh
 66
     1
 10
0.0
 20
0.0
 30
0.0
 70
    16
 71
     6
 72
     3
  0
VERTEX
  5
464BB
100
AcDbEntity
  8
0
100
AcDbVertex
100
AcDbPolygonMeshVertex
 10
-0.496332
 20
2.536248
 30
2.01
 70
    64
  0
VERTEX
  5
464BC
100
AcDbEntity
  8
0
100
AcDbVertex
100
AcDbPolygonMeshVertex
 10
-0.496332
 20
2.536248
 30
0.705
 70
    64
  0
VERTEX
  5
464BD
100
AcDbEntity
  8
0
100
AcDbVertex
100
AcDbPolygonMeshVertex
 10
-0.496332
 20
2.536248
 30
0.705
 70
    64
  0
VERTEX
  5
464BE
100
AcDbEntity
  8
0
100
AcDbVertex
100
AcDbPolygonMeshVertex
 10
-0.436647
 20
2.303788
 30
2.01
 70
    64
  0
VERTEX
  5
464BF
100
AcDbEntity
  8
0
100
AcDbVertex
100
AcDbPolygonMeshVertex
 10
-0.436647
 20
2.303788
 30
0.705
 70
    64
  0
VERTEX
  5
464C0
100
AcDbEntity
  8
0
100
AcDbVertex
100
AcDbPolygonMeshVertex
 10
-0.436647
 20
2.303788
 30
0.705
 70
    64
  0
VERTEX
  5
464C1
100
AcDbEntity
  8
0
100
AcDbVertex
100
AcDbPolygonMeshVertex
 10
-0.727222
 20
2.229181
 30
2.01
 70
    64
  0
VERTEX
  5
464C2
100
AcDbEntity
  8
0
100
AcDbVertex
100
AcDbPolygonMeshVertex
 10
-0.727222
 20
2.229181
 30
0.705
 70
    64
  0
VERTEX
  5
464C3
100
AcDbEntity
  8
0
100
AcDbVertex
100
AcDbPolygonMeshVertex
 10
-0.436647
 20
2.303788
 30
0.705
 70
    64
  0
VERTEX
  5
464C4
100
AcDbEntity
  8
0
100
AcDbVertex
100
AcDbPolygonMeshVertex
 10
-0.786907
 20
2.461641
 30
2.01
 70
    64
  0
VERTEX
  5
464C5
100
AcDbEntity
  8
0
100
AcDbVertex
100
AcDbPolygonMeshVertex
 10
-0.786907
 20
2.461641
 30
0.705
 70
    64
  0
VERTEX
  5
464C6
100
AcDbEntity
  8
0
100
AcDbVertex
100
AcDbPolygonMeshVertex
 10
-0.496332
 20
2.536248
 30
0.705
 70
    64
  0
VERTEX
  5
464C7
100
AcDbEntity
  8
0
100
AcDbVertex
100
AcDbPolygonMeshVertex
 10
-0.786907
 20
2.461641
 30
2.01
 70
    64
  0
VERTEX
  5
464C8
100
AcDbEntity
  8
0
100
AcDbVertex
100
AcDbPolygonMeshVertex
 10
-0.786907
 20
2.461641
 30
2.01
 70
    64
  0
VERTEX
  5
464C9
100
AcDbEntity
  8
0
100
AcDbVertex
100
AcDbPolygonMeshVertex
 10
-0.496332
 20
2.536248
 30
2.01
 70
    64
  0
VERTEX
  5
464CA
100
AcDbEntity
  8
0
100
AcDbVertex
100
AcDbPolygonMeshVertex
 10
-0.727222
 20
2.229181
 30
2.01
 70
    64
  0
VERTEX
  5
464CB
100
AcDbEntity
  8
0
100
AcDbVertex
100
AcDbPolygonMeshVertex
 10
-0.727222
 20
2.229181
 30
2.01
 70
    64
  0
VERTEX
  5
464CC
100
AcDbEntity
  8
0
100
AcDbVertex
100
AcDbPolygonMeshVertex
 10
-0.436647
 20
2.303788
 30
2.01
 70
    64
  0
SEQEND
  5
464CD
100
AcDbEntity
  8
0
  0
POLYLINE
  5
464CE
100
AcDbEntity
  8
0
100
AcDbPolygonMesh
 66
     1
 10
0.0
 20
0.0
 30
0.0
 70
    16
 71
     6
 72
     3
  0
VERTEX
  5
464CF
100
AcDbEntity
  8
0
100
AcDbVertex
100
AcDbPolygonMeshVertex
 10
-0.654605
 20
2.500078
 30
2.01
 70
    64
  0
VERTEX
  5
464D0
100
AcDbEntity
  8
0
100
AcDbVertex
100
AcDbPolygonMeshVertex
 10
-0.654605
 20
2.500078
 30
0.705
 70
    64
  0
VERTEX
  5
464D1
100
AcDbEntity
  8
0
100
AcDbVertex
100
AcDbPolygonMeshVertex
 10
-0.654605
 20
2.500078
 30
0.705
 70
    64
  0
VERTEX
  5
464D2
100
AcDbEntity
  8
0
100
AcDbVertex
100
AcDbPolygonMeshVertex
 10
-0.580441
 20
2.271825
 30
2.01
 70
    64
  0
VERTEX
  5
464D3
100
AcDbEntity
  8
0
100
AcDbVertex
100
AcDbPolygonMeshVertex
 10
-0.580441
 20
2.271825
 30
0.705
 70
    64
  0
VERTEX
  5
464D4
100
AcDbEntity
  8
0
100
AcDbVertex
100
AcDbPolygonMeshVertex
 10
-0.580441
 20
2.271825
 30
0.705
 70
    64
  0
VERTEX
  5
464D5
100
AcDbEntity
  8
0
100
AcDbVertex
100
AcDbPolygonMeshVertex
 10
-0.865758
 20
2.17912
 30
2.01
 70
    64
  0
VERTEX
  5
464D6
100
AcDbEntity
  8
0
100
AcDbVertex
100
AcDbPolygonMeshVertex
 10
-0.865758
 20
2.17912
 30
0.705
 70
    64
  0
VERTEX
  5
464D7
100
AcDbEntity
  8
0
100
AcDbVertex
100
AcDbPolygonMeshVertex
 10
-0.580441
 20
2.271825
 30
0.705
 70
    64
  0
VERTEX
  5
464D8
100
AcDbEntity
  8
0
100
AcDbVertex
100
AcDbPolygonMeshVertex
 10
-0.939922
 20
2.407373
 30
2.01
 70
    64
  0
VERTEX
  5
464D9
100
AcDbEntity
  8
0
100
AcDbVertex
100
AcDbPolygonMeshVertex
 10
-0.939922
 20
2.407373
 30
0.705
 70
    64
  0
VERTEX
  5
464DA
100
AcDbEntity
  8
0
100
AcDbVertex
100
AcDbPolygonMeshVertex
 10
-0.654605
 20
2.500078
 30
0.705
 70
    64
  0
VERTEX
  5
464DB
100
AcDbEntity
  8
0
100
AcDbVertex
100
AcDbPolygonMeshVertex
 10
-0.939922
 20
2.407373
 30
2.01
 70
    64
  0
VERTEX
  5
464DC
100
AcDbEntity
  8
0
100
AcDbVertex
100
AcDbPolygonMeshVertex
 10
-0.939922
 20
2.407373
 30
2.01
 70
    64
  0
VERTEX
  5
464DD
100
AcDbEntity
  8
0
100
AcDbVertex
100
AcDbPolygonMeshVertex
 10
-0.654605
 20
2.500078
 30
2.01
 70
    64
  0
VERTEX
  5
464DE
100
AcDbEntity
  8
0
100
AcDbVertex
100
AcDbPolygonMeshVertex
 10
-0.865758
 20
2.17912
 30
2.01
 70
    64
  0
VERTEX
  5
464DF
100
AcDbEntity
  8
0
100
AcDbVertex
100
AcDbPolygonMeshVertex
 10
-0.865758
 20
2.17912
 30
2.01
 70
    64
  0
VERTEX
  5
464E0
100
AcDbEntity
  8
0
100
AcDbVertex
100
AcDbPolygonMeshVertex
 10
-0.580441
 20
2.271825
 30
2.01
 70
    64
  0
SEQEND
  5
464E1
100
AcDbEntity
  8
0
  0
POLYLINE
  5
464E2
100
AcDbEntity
  8
0
100
AcDbPolygonMesh
 66
     1
 10
0.0
 20
0.0
 30
0.0
 70
    16
 71
     6
 72
     3
  0
VERTEX
  5
464E3
100
AcDbEntity
  8
0
100
AcDbVertex
100
AcDbPolygonMeshVertex
 10
-0.810295
 20
2.454042
 30
2.01
 70
    64
  0
VERTEX
  5
464E4
100
AcDbEntity
  8
0
100
AcDbVertex
100
AcDbPolygonMeshVertex
 10
-0.810295
 20
2.454042
 30
0.705
 70
    64
  0
VERTEX
  5
464E5
100
AcDbEntity
  8
0
100
AcDbVertex
100
AcDbPolygonMeshVertex
 10
-0.810295
 20
2.454042
 30
0.705
 70
    64
  0
VERTEX
  5
464E6
100
AcDbEntity
  8
0
100
AcDbVertex
100
AcDbPolygonMeshVertex
 10
-0.721945
 20
2.230896
 30
2.01
 70
    64
  0
VERTEX
  5
464E7
100
AcDbEntity
  8
0
100
AcDbVertex
100
AcDbPolygonMeshVertex
 10
-0.721945
 20
2.230896
 30
0.705
 70
    64
  0
VERTEX
  5
464E8
100
AcDbEntity
  8
0
100
AcDbVertex
100
AcDbPolygonMeshVertex
 10
-0.721945
 20
2.230896
 30
0.705
 70
    64
  0
VERTEX
  5
464E9
100
AcDbEntity
  8
0
100
AcDbVertex
100
AcDbPolygonMeshVertex
 10
-1.000878
 20
2.120458
 30
2.01
 70
    64
  0
VERTEX
  5
464EA
100
AcDbEntity
  8
0
100
AcDbVertex
100
AcDbPolygonMeshVertex
 10
-1.000878
 20
2.120458
 30
0.705
 70
    64
  0
VERTEX
  5
464EB
100
AcDbEntity
  8
0
100
AcDbVertex
100
AcDbPolygonMeshVertex
 10
-0.721945
 20
2.230896
 30
0.705
 70
    64
  0
VERTEX
  5
464EC
100
AcDbEntity
  8
0
100
AcDbVertex
100
AcDbPolygonMeshVertex
 10
-1.089228
 20
2.343605
 30
2.01
 70
    64
  0
VERTEX
  5
464ED
100
AcDbEntity
  8
0
100
AcDbVertex
100
AcDbPolygonMeshVertex
 10
-1.089228
 20
2.343605
 30
0.705
 70
    64
  0
VERTEX
  5
464EE
100
AcDbEntity
  8
0
100
AcDbVertex
100
AcDbPolygonMeshVertex
 10
-0.810295
 20
2.454042
 30
0.705
 70
    64
  0
VERTEX
  5
464EF
100
AcDbEntity
  8
0
100
AcDbVertex
100
AcDbPolygonMeshVertex
 10
-1.089228
 20
2.343605
 30
2.01
 70
    64
  0
VERTEX
  5
464F0
100
AcDbEntity
  8
0
100
AcDbVertex
100
AcDbPolygonMeshVertex
 10
-1.089228
 20
2.343605
 30
2.01
 70
    64
  0
VERTEX
  5
464F1
100
AcDbEntity
  8
0
100
AcDbVertex
100
AcDbPolygonMeshVertex
 10
-0.810295
 20
2.454042
 30
2.01
 70
    64
  0
VERTEX
  5
464F2
100
AcDbEntity
  8
0
100
AcDbVertex
100
AcDbPolygonMeshVertex
 10
-1.000878
 20
2.120458
 30
2.01
 70
    64
  0
VERTEX
  5
464F3
100
AcDbEntity
  8
0
100
AcDbVertex
100
AcDbPolygonMeshVertex
 10
-1.000878
 20
2.120458
 30
2.01
 70
    64
  0
VERTEX
  5
464F4
100
AcDbEntity
  8
0
100
AcDbVertex
100
AcDbPolygonMeshVertex
 10
-0.721945
 20
2.230896
 30
2.01
 70
    64
  0
SEQEND
  5
464F5
100
AcDbEntity
  8
0
  0
POLYLINE
  5
464F6
100
AcDbEntity
  8
0
100
AcDbPolygonMesh
 66
     1
 10
0.0
 20
0.0
 30
0.0
 70
    16
 71
     6
 72
     3
  0
VERTEX
  5
464F7
100
AcDbEntity
  8
0
100
AcDbVertex
100
AcDbPolygonMeshVertex
 10
-0.962787
 20
2.398321
 30
2.01
 70
    64
  0
VERTEX
  5
464F8
100
AcDbEntity
  8
0
100
AcDbVertex
100
AcDbPolygonMeshVertex
 10
-0.962787
 20
2.398321
 30
0.705
 70
    64
  0
VERTEX
  5
464F9
100
AcDbEntity
  8
0
100
AcDbVertex
100
AcDbPolygonMeshVertex
 10
-0.962787
 20
2.398321
 30
0.705
 70
    64
  0
VERTEX
  5
464FA
100
AcDbEntity
  8
0
100
AcDbVertex
100
AcDbPolygonMeshVertex
 10
-0.860599
 20
2.181162
 30
2.01
 70
    64
  0
VERTEX
  5
464FB
100
AcDbEntity
  8
0
100
AcDbVertex
100
AcDbPolygonMeshVertex
 10
-0.860599
 20
2.181162
 30
0.705
 70
    64
  0
VERTEX
  5
464FC
100
AcDbEntity
  8
0
100
AcDbVertex
100
AcDbPolygonMeshVertex
 10
-0.860599
 20
2.181162
 30
0.705
 70
    64
  0
VERTEX
  5
464FD
100
AcDbEntity
  8
0
100
AcDbVertex
100
AcDbPolygonMeshVertex
 10
-1.132048
 20
2.053428
 30
2.01
 70
    64
  0
VERTEX
  5
464FE
100
AcDbEntity
  8
0
100
AcDbVertex
100
AcDbPolygonMeshVertex
 10
-1.132048
 20
2.053428
 30
0.705
 70
    64
  0
VERTEX
  5
464FF
100
AcDbEntity
  8
0
100
AcDbVertex
100
AcDbPolygonMeshVertex
 10
-0.860599
 20
2.181162
 30
0.705
 70
    64
  0
VERTEX
  5
46500
100
AcDbEntity
  8
0
100
AcDbVertex
100
AcDbPolygonMeshVertex
 10
-1.234235
 20
2.270587
 30
2.01
 70
    64
  0
VERTEX
  5
46501
100
AcDbEntity
  8
0
100
AcDbVertex
100
AcDbPolygonMeshVertex
 10
-1.234235
 20
2.270587
 30
0.705
 70
    64
  0
VERTEX
  5
46502
100
AcDbEntity
  8
0
100
AcDbVertex
100
AcDbPolygonMeshVertex
 10
-0.962787
 20
2.398321
 30
0.705
 70
    64
  0
VERTEX
  5
46503
100
AcDbEntity
  8
0
100
AcDbVertex
100
AcDbPolygonMeshVertex
 10
-1.234235
 20
2.270587
 30
2.01
 70
    64
  0
VERTEX
  5
46504
100
AcDbEntity
  8
0
100
AcDbVertex
100
AcDbPolygonMeshVertex
 10
-1.234235
 20
2.270587
 30
2.01
 70
    64
  0
VERTEX
  5
46505
100
AcDbEntity
  8
0
100
AcDbVertex
100
AcDbPolygonMeshVertex
 10
-0.962787
 20
2.398321
 30
2.01
 70
    64
  0
VERTEX
  5
46506
100
AcDbEntity
  8
0
100
AcDbVertex
100
AcDbPolygonMeshVertex
 10
-1.132048
 20
2.053428
 30
2.01
 70
    64
  0
VERTEX
  5
46507
100
AcDbEntity
  8
0
100
AcDbVertex
100
AcDbPolygonMeshVertex
 10
-1.132048
 20
2.053428
 30
2.01
 70
    64
  0
VERTEX
  5
46508
100
AcDbEntity
  8
0
100
AcDbVertex
100
AcDbPolygonMeshVertex
 10
-0.860599
 20
2.181162
 30
2.01
 70
    64
  0
SEQEND
  5
46509
100
AcDbEntity
  8
0
  0
POLYLINE
  5
4650A
100
AcDbEntity
  8
0
100
AcDbPolygonMesh
 66
     1
 10
0.0
 20
0.0
 30
0.0
 70
    16
 71
     6
 72
     3
  0
VERTEX
  5
4650B
100
AcDbEntity
  8
0
100
AcDbVertex
100
AcDbPolygonMeshVertex
 10
-1.111478
 20
2.333134
 30
2.01
 70
    64
  0
VERTEX
  5
4650C
100
AcDbEntity
  8
0
100
AcDbVertex
100
AcDbPolygonMeshVertex
 10
-1.111478
 20
2.333134
 30
0.705
 70
    64
  0
VERTEX
  5
4650D
100
AcDbEntity
  8
0
100
AcDbVertex
100
AcDbPolygonMeshVertex
 10
-1.111478
 20
2.333134
 30
0.705
 70
    64
  0
VERTEX
  5
4650E
100
AcDbEntity
  8
0
100
AcDbVertex
100
AcDbPolygonMeshVertex
 10
-0.995858
 20
2.122821
 30
2.01
 70
    64
  0
VERTEX
  5
4650F
100
AcDbEntity
  8
0
100
AcDbVertex
100
AcDbPolygonMeshVertex
 10
-0.995858
 20
2.122821
 30
0.705
 70
    64
  0
VERTEX
  5
46510
100
AcDbEntity
  8
0
100
AcDbVertex
100
AcDbPolygonMeshVertex
 10
-0.995858
 20
2.122821
 30
0.705
 70
    64
  0
VERTEX
  5
46511
100
AcDbEntity
  8
0
100
AcDbVertex
100
AcDbPolygonMeshVertex
 10
-1.25875
 20
1.978295
 30
2.01
 70
    64
  0
VERTEX
  5
46512
100
AcDbEntity
  8
0
100
AcDbVertex
100
AcDbPolygonMeshVertex
 10
-1.25875
 20
1.978295
 30
0.705
 70
    64
  0
VERTEX
  5
46513
100
AcDbEntity
  8
0
100
AcDbVertex
100
AcDbPolygonMeshVertex
 10
-0.995858
 20
2.122821
 30
0.705
 70
    64
  0
VERTEX
  5
46514
100
AcDbEntity
  8
0
100
AcDbVertex
100
AcDbPolygonMeshVertex
 10
-1.37437
 20
2.188608
 30
2.01
 70
    64
  0
VERTEX
  5
46515
100
AcDbEntity
  8
0
100
AcDbVertex
100
AcDbPolygonMeshVertex
 10
-1.37437
 20
2.188608
 30
0.705
 70
    64
  0
VERTEX
  5
46516
100
AcDbEntity
  8
0
100
AcDbVertex
100
AcDbPolygonMeshVertex
 10
-1.111478
 20
2.333134
 30
0.705
 70
    64
  0
VERTEX
  5
46517
100
AcDbEntity
  8
0
100
AcDbVertex
100
AcDbPolygonMeshVertex
 10
-1.37437
 20
2.188608
 30
2.01
 70
    64
  0
VERTEX
  5
46518
100
AcDbEntity
  8
0
100
AcDbVertex
100
AcDbPolygonMeshVertex
 10
-1.37437
 20
2.188608
 30
2.01
 70
    64
  0
VERTEX
  5
46519
100
AcDbEntity
  8
0
100
AcDbVertex
100
AcDbPolygonMeshVertex
 10
-1.111478
 20
2.333134
 30
2.01
 70
    64
  0
VERTEX
  5
4651A
100
AcDbEntity
  8
0
100
AcDbVertex
100
AcDbPolygonMeshVertex
 10
-1.25875
 20
1.978295
 30
2.01
 70
    64
  0
VERTEX
  5
4651B
100
AcDbEntity
  8
0
100
AcDbVertex
100
AcDbPolygonMeshVertex
 10
-1.25875
 20
1.978295
 30
2.01
 70
    64
  0
VERTEX
  5
4651C
100
AcDbEntity
  8
0
100
AcDbVertex
100
AcDbPolygonMeshVertex
 10
-0.995858
 20
2.122821
 30
2.01
 70
    64
  0
SEQEND
  5
4651D
100
AcDbEntity
  8
0
  0
POLYLINE
  5
4651E
100
AcDbEntity
  8
0
100
AcDbPolygonMesh
 66
     1
 10
0.0
 20
0.0
 30
0.0
 70
    16
 71
     6
 72
     3
  0
VERTEX
  5
4651F
100
AcDbEntity
  8
0
100
AcDbVertex
100
AcDbPolygonMeshVertex
 10
-1.255784
 20
2.25874
 30
2.01
 70
    64
  0
VERTEX
  5
46520
100
AcDbEntity
  8
0
100
AcDbVertex
100
AcDbPolygonMeshVertex
 10
-1.255784
 20
2.25874
 30
0.705
 70
    64
  0
VERTEX
  5
46521
100
AcDbEntity
  8
0
100
AcDbVertex
100
AcDbPolygonMeshVertex
 10
-1.255784
 20
2.25874
 30
0.705
 70
    64
  0
VERTEX
  5
46522
100
AcDbEntity
  8
0
100
AcDbVertex
100
AcDbPolygonMeshVertex
 10
-1.127186
 20
2.056101
 30
2.01
 70
    64
  0
VERTEX
  5
46523
100
AcDbEntity
  8
0
100
AcDbVertex
100
AcDbPolygonMeshVertex
 10
-1.127186
 20
2.056101
 30
0.705
 70
    64
  0
VERTEX
  5
46524
100
AcDbEntity
  8
0
100
AcDbVertex
100
AcDbPolygonMeshVertex
 10
-1.127186
 20
2.056101
 30
0.705
 70
    64
  0
VERTEX
  5
46525
100
AcDbEntity
  8
0
100
AcDbVertex
100
AcDbPolygonMeshVertex
 10
-1.380484
 20
1.895353
 30
2.01
 70
    64
  0
VERTEX
  5
46526
100
AcDbEntity
  8
0
100
AcDbVertex
100
AcDbPolygonMeshVertex
 10
-1.380484
 20
1.895353
 30
0.705
 70
    64
  0
VERTEX
  5
46527
100
AcDbEntity
  8
0
100
AcDbVertex
100
AcDbPolygonMeshVertex
 10
-1.127186
 20
2.056101
 30
0.705
 70
    64
  0
VERTEX
  5
46528
100
AcDbEntity
  8
0
100
AcDbVertex
100
AcDbPolygonMeshVertex
 10
-1.509082
 20
2.097992
 30
2.01
 70
    64
  0
VERTEX
  5
46529
100
AcDbEntity
  8
0
100
AcDbVertex
100
AcDbPolygonMeshVertex
 10
-1.509082
 20
2.097992
 30
0.705
 70
    64
  0
VERTEX
  5
4652A
100
AcDbEntity
  8
0
100
AcDbVertex
100
AcDbPolygonMeshVertex
 10
-1.255784
 20
2.25874
 30
0.705
 70
    64
  0
VERTEX
  5
4652B
100
AcDbEntity
  8
0
100
AcDbVertex
100
AcDbPolygonMeshVertex
 10
-1.509082
 20
2.097992
 30
2.01
 70
    64
  0
VERTEX
  5
4652C
100
AcDbEntity
  8
0
100
AcDbVertex
100
AcDbPolygonMeshVertex
 10
-1.509082
 20
2.097992
 30
2.01
 70
    64
  0
VERTEX
  5
4652D
100
AcDbEntity
  8
0
100
AcDbVertex
100
AcDbPolygonMeshVertex
 10
-1.255784
 20
2.25874
 30
2.01
 70
    64
  0
VERTEX
  5
4652E
100
AcDbEntity
  8
0
100
AcDbVertex
100
AcDbPolygonMeshVertex
 10
-1.380484
 20
1.895353
 30
2.01
 70
    64
  0
VERTEX
  5
4652F
100
AcDbEntity
  8
0
100
AcDbVertex
100
AcDbPolygonMeshVertex
 10
-1.380484
 20
1.895353
 30
2.01
 70
    64
  0
VERTEX
  5
46530
100
AcDbEntity
  8
0
100
AcDbVertex
100
AcDbPolygonMeshVertex
 10
-1.127186
 20
2.056101
 30
2.01
 70
    64
  0
SEQEND
  5
46531
100
AcDbEntity
  8
0
  0
POLYLINE
  5
46532
100
AcDbEntity
  8
0
100
AcDbPolygonMesh
 66
     1
 10
0.0
 20
0.0
 30
0.0
 70
    16
 71
     6
 72
     3
  0
VERTEX
  5
46533
100
AcDbEntity
  8
0
100
AcDbVertex
100
AcDbPolygonMeshVertex
 10
-1.395133
 20
2.175432
 30
2.01
 70
    64
  0
VERTEX
  5
46534
100
AcDbEntity
  8
0
100
AcDbVertex
100
AcDbPolygonMeshVertex
 10
-1.395133
 20
2.175432
 30
0.705
 70
    64
  0
VERTEX
  5
46535
100
AcDbEntity
  8
0
100
AcDbVertex
100
AcDbPolygonMeshVertex
 10
-1.395133
 20
2.175432
 30
0.705
 70
    64
  0
VERTEX
  5
46536
100
AcDbEntity
  8
0
100
AcDbVertex
100
AcDbPolygonMeshVertex
 10
-1.254065
 20
1.981268
 30
2.01
 70
    64
  0
VERTEX
  5
46537
100
AcDbEntity
  8
0
100
AcDbVertex
100
AcDbPolygonMeshVertex
 10
-1.254065
 20
1.981268
 30
0.705
 70
    64
  0
VERTEX
  5
46538
100
AcDbEntity
  8
0
100
AcDbVertex
100
AcDbPolygonMeshVertex
 10
-1.254065
 20
1.981268
 30
0.705
 70
    64
  0
VERTEX
  5
46539
100
AcDbEntity
  8
0
100
AcDbVertex
100
AcDbPolygonMeshVertex
 10
-1.49677
 20
1.804932
 30
2.01
 70
    64
  0
VERTEX
  5
4653A
100
AcDbEntity
  8
0
100
AcDbVertex
100
AcDbPolygonMeshVertex
 10
-1.49677
 20
1.804932
 30
0.705
 70
    64
  0
VERTEX
  5
4653B
100
AcDbEntity
  8
0
100
AcDbVertex
100
AcDbPolygonMeshVertex
 10
-1.254065
 20
1.981268
 30
0.705
 70
    64
  0
VERTEX
  5
4653C
100
AcDbEntity
  8
0
100
AcDbVertex
100
AcDbPolygonMeshVertex
 10
-1.637839
 20
1.999096
 30
2.01
 70
    64
  0
VERTEX
  5
4653D
100
AcDbEntity
  8
0
100
AcDbVertex
100
AcDbPolygonMeshVertex
 10
-1.637839
 20
1.999096
 30
0.705
 70
    64
  0
VERTEX
  5
4653E
100
AcDbEntity
  8
0
100
AcDbVertex
100
AcDbPolygonMeshVertex
 10
-1.395133
 20
2.175432
 30
0.705
 70
    64
  0
VERTEX
  5
4653F
100
AcDbEntity
  8
0
100
AcDbVertex
100
AcDbPolygonMeshVertex
 10
-1.637839
 20
1.999096
 30
2.01
 70
    64
  0
VERTEX
  5
46540
100
AcDbEntity
  8
0
100
AcDbVertex
100
AcDbPolygonMeshVertex
 10
-1.637839
 20
1.999096
 30
2.01
 70
    64
  0
VERTEX
  5
46541
100
AcDbEntity
  8
0
100
AcDbVertex
100
AcDbPolygonMeshVertex
 10
-1.395133
 20
2.175432
 30
2.01
 70
    64
  0
VERTEX
  5
46542
100
AcDbEntity
  8
0
100
AcDbVertex
100
AcDbPolygonMeshVertex
 10
-1.49677
 20
1.804932
 30
2.01
 70
    64
  0
VERTEX
  5
46543
100
AcDbEntity
  8
0
100
AcDbVertex
100
AcDbPolygonMeshVertex
 10
-1.49677
 20
1.804932
 30
2.01
 70
    64
  0
VERTEX
  5
46544
100
AcDbEntity
  8
0
100
AcDbVertex
100
AcDbPolygonMeshVertex
 10
-1.254065
 20
1.981268
 30
2.01
 70
    64
  0
SEQEND
  5
46545
100
AcDbEntity
  8
0
  0
POLYLINE
  5
46546
100
AcDbEntity
  8
0
100
AcDbPolygonMesh
 66
     1
 10
0.0
 20
0.0
 30
0.0
 70
    16
 71
     6
 72
     3
  0
VERTEX
  5
46547
100
AcDbEntity
  8
0
100
AcDbVertex
100
AcDbPolygonMeshVertex
 10
-1.528977
 20
2.083538
 30
2.01
 70
    64
  0
VERTEX
  5
46548
100
AcDbEntity
  8
0
100
AcDbVertex
100
AcDbPolygonMeshVertex
 10
-1.528977
 20
2.083538
 30
0.705
 70
    64
  0
VERTEX
  5
46549
100
AcDbEntity
  8
0
100
AcDbVertex
100
AcDbPolygonMeshVertex
 10
-1.528977
 20
2.083538
 30
0.705
 70
    64
  0
VERTEX
  5
4654A
100
AcDbEntity
  8
0
100
AcDbVertex
100
AcDbPolygonMeshVertex
 10
-1.375995
 20
1.898615
 30
2.01
 70
    64
  0
VERTEX
  5
4654B
100
AcDbEntity
  8
0
100
AcDbVertex
100
AcDbPolygonMeshVertex
 10
-1.375995
 20
1.898615
 30
0.705
 70
    64
  0
VERTEX
  5
4654C
100
AcDbEntity
  8
0
100
AcDbVertex
100
AcDbPolygonMeshVertex
 10
-1.375995
 20
1.898615
 30
0.705
 70
    64
  0
VERTEX
  5
4654D
100
AcDbEntity
  8
0
100
AcDbVertex
100
AcDbPolygonMeshVertex
 10
-1.607149
 20
1.707387
 30
2.01
 70
    64
  0
VERTEX
  5
4654E
100
AcDbEntity
  8
0
100
AcDbVertex
100
AcDbPolygonMeshVertex
 10
-1.607149
 20
1.707387
 30
0.705
 70
    64
  0
VERTEX
  5
4654F
100
AcDbEntity
  8
0
100
AcDbVertex
100
AcDbPolygonMeshVertex
 10
-1.375995
 20
1.898615
 30
0.705
 70
    64
  0
VERTEX
  5
46550
100
AcDbEntity
  8
0
100
AcDbVertex
100
AcDbPolygonMeshVertex
 10
-1.760131
 20
1.892311
 30
2.01
 70
    64
  0
VERTEX
  5
46551
100
AcDbEntity
  8
0
100
AcDbVertex
100
AcDbPolygonMeshVertex
 10
-1.760131
 20
1.892311
 30
0.705
 70
    64
  0
VERTEX
  5
46552
100
AcDbEntity
  8
0
100
AcDbVertex
100
AcDbPolygonMeshVertex
 10
-1.528977
 20
2.083538
 30
0.705
 70
    64
  0
VERTEX
  5
46553
100
AcDbEntity
  8
0
100
AcDbVertex
100
AcDbPolygonMeshVertex
 10
-1.760131
 20
1.892311
 30
2.01
 70
    64
  0
VERTEX
  5
46554
100
AcDbEntity
  8
0
100
AcDbVertex
100
AcDbPolygonMeshVertex
 10
-1.760131
 20
1.892311
 30
2.01
 70
    64
  0
VERTEX
  5
46555
100
AcDbEntity
  8
0
100
AcDbVertex
100
AcDbPolygonMeshVertex
 10
-1.528977
 20
2.083538
 30
2.01
 70
    64
  0
VERTEX
  5
46556
100
AcDbEntity
  8
0
100
AcDbVertex
100
AcDbPolygonMeshVertex
 10
-1.607149
 20
1.707387
 30
2.01
 70
    64
  0
VERTEX
  5
46557
100
AcDbEntity
  8
0
100
AcDbVertex
100
AcDbPolygonMeshVertex
 10
-1.607149
 20
1.707387
 30
2.01
 70
    64
  0
VERTEX
  5
46558
100
AcDbEntity
  8
0
100
AcDbVertex
100
AcDbPolygonMeshVertex
 10
-1.375995
 20
1.898615
 30
2.01
 70
    64
  0
SEQEND
  5
46559
100
AcDbEntity
  8
0
  0
POLYLINE
  5
4655A
100
AcDbEntity
  8
0
100
AcDbPolygonMesh
 66
     1
 10
0.0
 20
0.0
 30
0.0
 70
    16
 71
     6
 72
     3
  0
VERTEX
  5
4655B
100
AcDbEntity
  8
0
100
AcDbVertex
100
AcDbPolygonMeshVertex
 10
-1.656786
 20
1.983421
 30
2.01
 70
    64
  0
VERTEX
  5
4655C
100
AcDbEntity
  8
0
100
AcDbVertex
100
AcDbPolygonMeshVertex
 10
-1.656786
 20
1.983421
 30
0.705
 70
    64
  0
VERTEX
  5
4655D
100
AcDbEntity
  8
0
100
AcDbVertex
100
AcDbPolygonMeshVertex
 10
-1.656786
 20
1.983421
 30
0.705
 70
    64
  0
VERTEX
  5
4655E
100
AcDbEntity
  8
0
100
AcDbVertex
100
AcDbPolygonMeshVertex
 10
-1.492495
 20
1.808469
 30
2.01
 70
    64
  0
VERTEX
  5
4655F
100
AcDbEntity
  8
0
100
AcDbVertex
100
AcDbPolygonMeshVertex
 10
-1.492495
 20
1.808469
 30
0.705
 70
    64
  0
VERTEX
  5
46560
100
AcDbEntity
  8
0
100
AcDbVertex
100
AcDbPolygonMeshVertex
 10
-1.492495
 20
1.808469
 30
0.705
 70
    64
  0
VERTEX
  5
46561
100
AcDbEntity
  8
0
100
AcDbVertex
100
AcDbPolygonMeshVertex
 10
-1.711186
 20
1.603105
 30
2.01
 70
    64
  0
VERTEX
  5
46562
100
AcDbEntity
  8
0
100
AcDbVertex
100
AcDbPolygonMeshVertex
 10
-1.711186
 20
1.603105
 30
0.705
 70
    64
  0
VERTEX
  5
46563
100
AcDbEntity
  8
0
100
AcDbVertex
100
AcDbPolygonMeshVertex
 10
-1.492495
 20
1.808469
 30
0.705
 70
    64
  0
VERTEX
  5
46564
100
AcDbEntity
  8
0
100
AcDbVertex
100
AcDbPolygonMeshVertex
 10
-1.875477
 20
1.778057
 30
2.01
 70
    64
  0
VERTEX
  5
46565
100
AcDbEntity
  8
0
100
AcDbVertex
100
AcDbPolygonMeshVertex
 10
-1.875477
 20
1.778057
 30
0.705
 70
    64
  0
VERTEX
  5
46566
100
AcDbEntity
  8
0
100
AcDbVertex
100
AcDbPolygonMeshVertex
 10
-1.656786
 20
1.983421
 30
0.705
 70
    64
  0
VERTEX
  5
46567
100
AcDbEntity
  8
0
100
AcDbVertex
100
AcDbPolygonMeshVertex
 10
-1.875477
 20
1.778057
 30
2.01
 70
    64
  0
VERTEX
  5
46568
100
AcDbEntity
  8
0
100
AcDbVertex
100
AcDbPolygonMeshVertex
 10
-1.875477
 20
1.778057
 30
2.01
 70
    64
  0
VERTEX
  5
46569
100
AcDbEntity
  8
0
100
AcDbVertex
100
AcDbPolygonMeshVertex
 10
-1.656786
 20
1.983421
 30
2.01
 70
    64
  0
VERTEX
  5
4656A
100
AcDbEntity
  8
0
100
AcDbVertex
100
AcDbPolygonMeshVertex
 10
-1.711186
 20
1.603105
 30
2.01
 70
    64
  0
VERTEX
  5
4656B
100
AcDbEntity
  8
0
100
AcDbVertex
100
AcDbPolygonMeshVertex
 10
-1.711186
 20
1.603105
 30
2.01
 70
    64
  0
VERTEX
  5
4656C
100
AcDbEntity
  8
0
100
AcDbVertex
100
AcDbPolygonMeshVertex
 10
-1.492495
 20
1.808469
 30
2.01
 70
    64
  0
SEQEND
  5
4656D
100
AcDbEntity
  8
0
  0
POLYLINE
  5
4656E
100
AcDbEntity
  8
0
100
AcDbPolygonMesh
 66
     1
 10
0.0
 20
0.0
 30
0.0
 70
    16
 71
     6
 72
     3
  0
VERTEX
  5
4656F
100
AcDbEntity
  8
0
100
AcDbVertex
100
AcDbPolygonMeshVertex
 10
-1.778057
 20
1.875477
 30
2.01
 70
    64
  0
VERTEX
  5
46570
100
AcDbEntity
  8
0
100
AcDbVertex
100
AcDbPolygonMeshVertex
 10
-1.778057
 20
1.875477
 30
0.705
 70
    64
  0
VERTEX
  5
46571
100
AcDbEntity
  8
0
100
AcDbVertex
100
AcDbPolygonMeshVertex
 10
-1.778057
 20
1.875477
 30
0.705
 70
    64
  0
VERTEX
  5
46572
100
AcDbEntity
  8
0
100
AcDbVertex
100
AcDbPolygonMeshVertex
 10
-1.603105
 20
1.711186
 30
2.01
 70
    64
  0
VERTEX
  5
46573
100
AcDbEntity
  8
0
100
AcDbVertex
100
AcDbPolygonMeshVertex
 10
-1.603105
 20
1.711186
 30
0.705
 70
    64
  0
VERTEX
  5
46574
100
AcDbEntity
  8
0
100
AcDbVertex
100
AcDbPolygonMeshVertex
 10
-1.603105
 20
1.711186
 30
0.705
 70
    64
  0
VERTEX
  5
46575
100
AcDbEntity
  8
0
100
AcDbVertex
100
AcDbPolygonMeshVertex
 10
-1.808469
 20
1.492495
 30
2.01
 70
    64
  0
VERTEX
  5
46576
100
AcDbEntity
  8
0
100
AcDbVertex
100
AcDbPolygonMeshVertex
 10
-1.808469
 20
1.492495
 30
0.705
 70
    64
  0
VERTEX
  5
46577
100
AcDbEntity
  8
0
100
AcDbVertex
100
AcDbPolygonMeshVertex
 10
-1.603105
 20
1.711186
 30
0.705
 70
    64
  0
VERTEX
  5
46578
100
AcDbEntity
  8
0
100
AcDbVertex
100
AcDbPolygonMeshVertex
 10
-1.983421
 20
1.656786
 30
2.01
 70
    64
  0
VERTEX
  5
46579
100
AcDbEntity
  8
0
100
AcDbVertex
100
AcDbPolygonMeshVertex
 10
-1.983421
 20
1.656786
 30
0.705
 70
    64
  0
VERTEX
  5
4657A
100
AcDbEntity
  8
0
100
AcDbVertex
100
AcDbPolygonMeshVertex
 10
-1.778057
 20
1.875477
 30
0.705
 70
    64
  0
VERTEX
  5
4657B
100
AcDbEntity
  8
0
100
AcDbVertex
100
AcDbPolygonMeshVertex
 10
-1.983421
 20
1.656786
 30
2.01
 70
    64
  0
VERTEX
  5
4657C
100
AcDbEntity
  8
0
100
AcDbVertex
100
AcDbPolygonMeshVertex
 10
-1.983421
 20
1.656786
 30
2.01
 70
    64
  0
VERTEX
  5
4657D
100
AcDbEntity
  8
0
100
AcDbVertex
100
AcDbPolygonMeshVertex
 10
-1.778057
 20
1.875477
 30
2.01
 70
    64
  0
VERTEX
  5
4657E
100
AcDbEntity
  8
0
100
AcDbVertex
100
AcDbPolygonMeshVertex
 10
-1.808469
 20
1.492495
 30
2.01
 70
    64
  0
VERTEX
  5
4657F
100
AcDbEntity
  8
0
100
AcDbVertex
100
AcDbPolygonMeshVertex
 10
-1.808469
 20
1.492495
 30
2.01
 70
    64
  0
VERTEX
  5
46580
100
AcDbEntity
  8
0
100
AcDbVertex
100
AcDbPolygonMeshVertex
 10
-1.603105
 20
1.711186
 30
2.01
 70
    64
  0
SEQEND
  5
46581
100
AcDbEntity
  8
0
  0
POLYLINE
  5
46582
100
AcDbEntity
  8
0
100
AcDbPolygonMesh
 66
     1
 10
0.0
 20
0.0
 30
0.0
 70
    16
 71
     6
 72
     3
  0
VERTEX
  5
46583
100
AcDbEntity
  8
0
100
AcDbVertex
100
AcDbPolygonMeshVertex
 10
-1.892311
 20
1.760131
 30
2.01
 70
    64
  0
VERTEX
  5
46584
100
AcDbEntity
  8
0
100
AcDbVertex
100
AcDbPolygonMeshVertex
 10
-1.892311
 20
1.760131
 30
0.705
 70
    64
  0
VERTEX
  5
46585
100
AcDbEntity
  8
0
100
AcDbVertex
100
AcDbPolygonMeshVertex
 10
-1.892311
 20
1.760131
 30
0.705
 70
    64
  0
VERTEX
  5
46586
100
AcDbEntity
  8
0
100
AcDbVertex
100
AcDbPolygonMeshVertex
 10
-1.707387
 20
1.607149
 30
2.01
 70
    64
  0
VERTEX
  5
46587
100
AcDbEntity
  8
0
100
AcDbVertex
100
AcDbPolygonMeshVertex
 10
-1.707387
 20
1.607149
 30
0.705
 70
    64
  0
VERTEX
  5
46588
100
AcDbEntity
  8
0
100
AcDbVertex
100
AcDbPolygonMeshVertex
 10
-1.707387
 20
1.607149
 30
0.705
 70
    64
  0
VERTEX
  5
46589
100
AcDbEntity
  8
0
100
AcDbVertex
100
AcDbPolygonMeshVertex
 10
-1.898615
 20
1.375995
 30
2.01
 70
    64
  0
VERTEX
  5
4658A
100
AcDbEntity
  8
0
100
AcDbVertex
100
AcDbPolygonMeshVertex
 10
-1.898615
 20
1.375995
 30
0.705
 70
    64
  0
VERTEX
  5
4658B
100
AcDbEntity
  8
0
100
AcDbVertex
100
AcDbPolygonMeshVertex
 10
-1.707387
 20
1.607149
 30
0.705
 70
    64
  0
VERTEX
  5
4658C
100
AcDbEntity
  8
0
100
AcDbVertex
100
AcDbPolygonMeshVertex
 10
-2.083538
 20
1.528977
 30
2.01
 70
    64
  0
VERTEX
  5
4658D
100
AcDbEntity
  8
0
100
AcDbVertex
100
AcDbPolygonMeshVertex
 10
-2.083538
 20
1.528977
 30
0.705
 70
    64
  0
VERTEX
  5
4658E
100
AcDbEntity
  8
0
100
AcDbVertex
100
AcDbPolygonMeshVertex
 10
-1.892311
 20
1.760131
 30
0.705
 70
    64
  0
VERTEX
  5
4658F
100
AcDbEntity
  8
0
100
AcDbVertex
100
AcDbPolygonMeshVertex
 10
-2.083538
 20
1.528977
 30
2.01
 70
    64
  0
VERTEX
  5
46590
100
AcDbEntity
  8
0
100
AcDbVertex
100
AcDbPolygonMeshVertex
 10
-2.083538
 20
1.528977
 30
2.01
 70
    64
  0
VERTEX
  5
46591
100
AcDbEntity
  8
0
100
AcDbVertex
100
AcDbPolygonMeshVertex
 10
-1.892311
 20
1.760131
 30
2.01
 70
    64
  0
VERTEX
  5
46592
100
AcDbEntity
  8
0
100
AcDbVertex
100
AcDbPolygonMeshVertex
 10
-1.898615
 20
1.375995
 30
2.01
 70
    64
  0
VERTEX
  5
46593
100
AcDbEntity
  8
0
100
AcDbVertex
100
AcDbPolygonMeshVertex
 10
-1.898615
 20
1.375995
 30
2.01
 70
    64
  0
VERTEX
  5
46594
100
AcDbEntity
  8
0
100
AcDbVertex
100
AcDbPolygonMeshVertex
 10
-1.707387
 20
1.607149
 30
2.01
 70
    64
  0
SEQEND
  5
46595
100
AcDbEntity
  8
0
  0
POLYLINE
  5
46596
100
AcDbEntity
  8
0
100
AcDbPolygonMesh
 66
     1
 10
0.0
 20
0.0
 30
0.0
 70
    16
 71
     6
 72
     3
  0
VERTEX
  5
46597
100
AcDbEntity
  8
0
100
AcDbVertex
100
AcDbPolygonMeshVertex
 10
-1.999096
 20
1.637839
 30
2.01
 70
    64
  0
VERTEX
  5
46598
100
AcDbEntity
  8
0
100
AcDbVertex
100
AcDbPolygonMeshVertex
 10
-1.999096
 20
1.637839
 30
0.705
 70
    64
  0
VERTEX
  5
46599
100
AcDbEntity
  8
0
100
AcDbVertex
100
AcDbPolygonMeshVertex
 10
-1.999096
 20
1.637839
 30
0.705
 70
    64
  0
VERTEX
  5
4659A
100
AcDbEntity
  8
0
100
AcDbVertex
100
AcDbPolygonMeshVertex
 10
-1.804932
 20
1.49677
 30
2.01
 70
    64
  0
VERTEX
  5
4659B
100
AcDbEntity
  8
0
100
AcDbVertex
100
AcDbPolygonMeshVertex
 10
-1.804932
 20
1.49677
 30
0.705
 70
    64
  0
VERTEX
  5
4659C
100
AcDbEntity
  8
0
100
AcDbVertex
100
AcDbPolygonMeshVertex
 10
-1.804932
 20
1.49677
 30
0.705
 70
    64
  0
VERTEX
  5
4659D
100
AcDbEntity
  8
0
100
AcDbVertex
100
AcDbPolygonMeshVertex
 10
-1.981268
 20
1.254065
 30
2.01
 70
    64
  0
VERTEX
  5
4659E
100
AcDbEntity
  8
0
100
AcDbVertex
100
AcDbPolygonMeshVertex
 10
-1.981268
 20
1.254065
 30
0.705
 70
    64
  0
VERTEX
  5
4659F
100
AcDbEntity
  8
0
100
AcDbVertex
100
AcDbPolygonMeshVertex
 10
-1.804932
 20
1.49677
 30
0.705
 70
    64
  0
VERTEX
  5
465A0
100
AcDbEntity
  8
0
100
AcDbVertex
100
AcDbPolygonMeshVertex
 10
-2.175432
 20
1.395133
 30
2.01
 70
    64
  0
VERTEX
  5
465A1
100
AcDbEntity
  8
0
100
AcDbVertex
100
AcDbPolygonMeshVertex
 10
-2.175432
 20
1.395133
 30
0.705
 70
    64
  0
VERTEX
  5
465A2
100
AcDbEntity
  8
0
100
AcDbVertex
100
AcDbPolygonMeshVertex
 10
-1.999096
 20
1.637839
 30
0.705
 70
    64
  0
VERTEX
  5
465A3
100
AcDbEntity
  8
0
100
AcDbVertex
100
AcDbPolygonMeshVertex
 10
-2.175432
 20
1.395133
 30
2.01
 70
    64
  0
VERTEX
  5
465A4
100
AcDbEntity
  8
0
100
AcDbVertex
100
AcDbPolygonMeshVertex
 10
-2.175432
 20
1.395133
 30
2.01
 70
    64
  0
VERTEX
  5
465A5
100
AcDbEntity
  8
0
100
AcDbVertex
100
AcDbPolygonMeshVertex
 10
-1.999096
 20
1.637839
 30
2.01
 70
    64
  0
VERTEX
  5
465A6
100
AcDbEntity
  8
0
100
AcDbVertex
100
AcDbPolygonMeshVertex
 10
-1.981268
 20
1.254065
 30
2.01
 70
    64
  0
VERTEX
  5
465A7
100
AcDbEntity
  8
0
100
AcDbVertex
100
AcDbPolygonMeshVertex
 10
-1.981268
 20
1.254065
 30
2.01
 70
    64
  0
VERTEX
  5
465A8
100
AcDbEntity
  8
0
100
AcDbVertex
100
AcDbPolygonMeshVertex
 10
-1.804932
 20
1.49677
 30
2.01
 70
    64
  0
SEQEND
  5
465A9
100
AcDbEntity
  8
0
  0
POLYLINE
  5
465AA
100
AcDbEntity
  8
0
100
AcDbPolygonMesh
 66
     1
 10
0.0
 20
0.0
 30
0.0
 70
    16
 71
     6
 72
     3
  0
VERTEX
  5
465AB
100
AcDbEntity
  8
0
100
AcDbVertex
100
AcDbPolygonMeshVertex
 10
-2.097992
 20
1.509082
 30
2.01
 70
    64
  0
VERTEX
  5
465AC
100
AcDbEntity
  8
0
100
AcDbVertex
100
AcDbPolygonMeshVertex
 10
-2.097992
 20
1.509082
 30
0.705
 70
    64
  0
VERTEX
  5
465AD
100
AcDbEntity
  8
0
100
AcDbVertex
100
AcDbPolygonMeshVertex
 10
-2.097992
 20
1.509082
 30
0.705
 70
    64
  0
VERTEX
  5
465AE
100
AcDbEntity
  8
0
100
AcDbVertex
100
AcDbPolygonMeshVertex
 10
-1.895353
 20
1.380484
 30
2.01
 70
    64
  0
VERTEX
  5
465AF
100
AcDbEntity
  8
0
100
AcDbVertex
100
AcDbPolygonMeshVertex
 10
-1.895353
 20
1.380484
 30
0.705
 70
    64
  0
VERTEX
  5
465B0
100
AcDbEntity
  8
0
100
AcDbVertex
100
AcDbPolygonMeshVertex
 10
-1.895353
 20
1.380484
 30
0.705
 70
    64
  0
VERTEX
  5
465B1
100
AcDbEntity
  8
0
100
AcDbVertex
100
AcDbPolygonMeshVertex
 10
-2.056101
 20
1.127186
 30
2.01
 70
    64
  0
VERTEX
  5
465B2
100
AcDbEntity
  8
0
100
AcDbVertex
100
AcDbPolygonMeshVertex
 10
-2.056101
 20
1.127186
 30
0.705
 70
    64
  0
VERTEX
  5
465B3
100
AcDbEntity
  8
0
100
AcDbVertex
100
AcDbPolygonMeshVertex
 10
-1.895353
 20
1.380484
 30
0.705
 70
    64
  0
VERTEX
  5
465B4
100
AcDbEntity
  8
0
100
AcDbVertex
100
AcDbPolygonMeshVertex
 10
-2.25874
 20
1.255784
 30
2.01
 70
    64
  0
VERTEX
  5
465B5
100
AcDbEntity
  8
0
100
AcDbVertex
100
AcDbPolygonMeshVertex
 10
-2.25874
 20
1.255784
 30
0.705
 70
    64
  0
VERTEX
  5
465B6
100
AcDbEntity
  8
0
100
AcDbVertex
100
AcDbPolygonMeshVertex
 10
-2.097992
 20
1.509082
 30
0.705
 70
    64
  0
VERTEX
  5
465B7
100
AcDbEntity
  8
0
100
AcDbVertex
100
AcDbPolygonMeshVertex
 10
-2.25874
 20
1.255784
 30
2.01
 70
    64
  0
VERTEX
  5
465B8
100
AcDbEntity
  8
0
100
AcDbVertex
100
AcDbPolygonMeshVertex
 10
-2.25874
 20
1.255784
 30
2.01
 70
    64
  0
VERTEX
  5
465B9
100
AcDbEntity
  8
0
100
AcDbVertex
100
AcDbPolygonMeshVertex
 10
-2.097992
 20
1.509082
 30
2.01
 70
    64
  0
VERTEX
  5
465BA
100
AcDbEntity
  8
0
100
AcDbVertex
100
AcDbPolygonMeshVertex
 10
-2.056101
 20
1.127186
 30
2.01
 70
    64
  0
VERTEX
  5
465BB
100
AcDbEntity
  8
0
100
AcDbVertex
100
AcDbPolygonMeshVertex
 10
-2.056101
 20
1.127186
 30
2.01
 70
    64
  0
VERTEX
  5
465BC
100
AcDbEntity
  8
0
100
AcDbVertex
100
AcDbPolygonMeshVertex
 10
-1.895353
 20
1.380484
 30
2.01
 70
    64
  0
SEQEND
  5
465BD
100
AcDbEntity
  8
0
  0
POLYLINE
  5
465BE
100
AcDbEntity
  8
0
100
AcDbPolygonMesh
 66
     1
 10
0.0
 20
0.0
 30
0.0
 70
    16
 71
     6
 72
     3
  0
VERTEX
  5
465BF
100
AcDbEntity
  8
0
100
AcDbVertex
100
AcDbPolygonMeshVertex
 10
-2.188608
 20
1.37437
 30
2.01
 70
    64
  0
VERTEX
  5
465C0
100
AcDbEntity
  8
0
100
AcDbVertex
100
AcDbPolygonMeshVertex
 10
-2.188608
 20
1.37437
 30
0.705
 70
    64
  0
VERTEX
  5
465C1
100
AcDbEntity
  8
0
100
AcDbVertex
100
AcDbPolygonMeshVertex
 10
-2.188608
 20
1.37437
 30
0.705
 70
    64
  0
VERTEX
  5
465C2
100
AcDbEntity
  8
0
100
AcDbVertex
100
AcDbPolygonMeshVertex
 10
-1.978295
 20
1.25875
 30
2.01
 70
    64
  0
VERTEX
  5
465C3
100
AcDbEntity
  8
0
100
AcDbVertex
100
AcDbPolygonMeshVertex
 10
-1.978295
 20
1.25875
 30
0.705
 70
    64
  0
VERTEX
  5
465C4
100
AcDbEntity
  8
0
100
AcDbVertex
100
AcDbPolygonMeshVertex
 10
-1.978295
 20
1.25875
 30
0.705
 70
    64
  0
VERTEX
  5
465C5
100
AcDbEntity
  8
0
100
AcDbVertex
100
AcDbPolygonMeshVertex
 10
-2.122821
 20
0.995858
 30
2.01
 70
    64
  0
VERTEX
  5
465C6
100
AcDbEntity
  8
0
100
AcDbVertex
100
AcDbPolygonMeshVertex
 10
-2.122821
 20
0.995858
 30
0.705
 70
    64
  0
VERTEX
  5
465C7
100
AcDbEntity
  8
0
100
AcDbVertex
100
AcDbPolygonMeshVertex
 10
-1.978295
 20
1.25875
 30
0.705
 70
    64
  0
VERTEX
  5
465C8
100
AcDbEntity
  8
0
100
AcDbVertex
100
AcDbPolygonMeshVertex
 10
-2.333134
 20
1.111478
 30
2.01
 70
    64
  0
VERTEX
  5
465C9
100
AcDbEntity
  8
0
100
AcDbVertex
100
AcDbPolygonMeshVertex
 10
-2.333134
 20
1.111478
 30
0.705
 70
    64
  0
VERTEX
  5
465CA
100
AcDbEntity
  8
0
100
AcDbVertex
100
AcDbPolygonMeshVertex
 10
-2.188608
 20
1.37437
 30
0.705
 70
    64
  0
VERTEX
  5
465CB
100
AcDbEntity
  8
0
100
AcDbVertex
100
AcDbPolygonMeshVertex
 10
-2.333134
 20
1.111478
 30
2.01
 70
    64
  0
VERTEX
  5
465CC
100
AcDbEntity
  8
0
100
AcDbVertex
100
AcDbPolygonMeshVertex
 10
-2.333134
 20
1.111478
 30
2.01
 70
    64
  0
VERTEX
  5
465CD
100
AcDbEntity
  8
0
100
AcDbVertex
100
AcDbPolygonMeshVertex
 10
-2.188608
 20
1.37437
 30
2.01
 70
    64
  0
VERTEX
  5
465CE
100
AcDbEntity
  8
0
100
AcDbVertex
100
AcDbPolygonMeshVertex
 10
-2.122821
 20
0.995858
 30
2.01
 70
    64
  0
VERTEX
  5
465CF
100
AcDbEntity
  8
0
100
AcDbVertex
100
AcDbPolygonMeshVertex
 10
-2.122821
 20
0.995858
 30
2.01
 70
    64
  0
VERTEX
  5
465D0
100
AcDbEntity
  8
0
100
AcDbVertex
100
AcDbPolygonMeshVertex
 10
-1.978295
 20
1.25875
 30
2.01
 70
    64
  0
SEQEND
  5
465D1
100
AcDbEntity
  8
0
  0
POLYLINE
  5
465D2
100
AcDbEntity
  8
0
100
AcDbPolygonMesh
 66
     1
 10
0.0
 20
0.0
 30
0.0
 70
    16
 71
     6
 72
     3
  0
VERTEX
  5
465D3
100
AcDbEntity
  8
0
100
AcDbVertex
100
AcDbPolygonMeshVertex
 10
-2.270587
 20
1.234235
 30
2.01
 70
    64
  0
VERTEX
  5
465D4
100
AcDbEntity
  8
0
100
AcDbVertex
100
AcDbPolygonMeshVertex
 10
-2.270587
 20
1.234235
 30
0.705
 70
    64
  0
VERTEX
  5
465D5
100
AcDbEntity
  8
0
100
AcDbVertex
100
AcDbPolygonMeshVertex
 10
-2.270587
 20
1.234235
 30
0.705
 70
    64
  0
VERTEX
  5
465D6
100
AcDbEntity
  8
0
100
AcDbVertex
100
AcDbPolygonMeshVertex
 10
-2.053428
 20
1.132048
 30
2.01
 70
    64
  0
VERTEX
  5
465D7
100
AcDbEntity
  8
0
100
AcDbVertex
100
AcDbPolygonMeshVertex
 10
-2.053428
 20
1.132048
 30
0.705
 70
    64
  0
VERTEX
  5
465D8
100
AcDbEntity
  8
0
100
AcDbVertex
100
AcDbPolygonMeshVertex
 10
-2.053428
 20
1.132048
 30
0.705
 70
    64
  0
VERTEX
  5
465D9
100
AcDbEntity
  8
0
100
AcDbVertex
100
AcDbPolygonMeshVertex
 10
-2.181162
 20
0.860599
 30
2.01
 70
    64
  0
VERTEX
  5
465DA
100
AcDbEntity
  8
0
100
AcDbVertex
100
AcDbPolygonMeshVertex
 10
-2.181162
 20
0.860599
 30
0.705
 70
    64
  0
VERTEX
  5
465DB
100
AcDbEntity
  8
0
100
AcDbVertex
100
AcDbPolygonMeshVertex
 10
-2.053428
 20
1.132048
 30
0.705
 70
    64
  0
VERTEX
  5
465DC
100
AcDbEntity
  8
0
100
AcDbVertex
100
AcDbPolygonMeshVertex
 10
-2.398321
 20
0.962787
 30
2.01
 70
    64
  0
VERTEX
  5
465DD
100
AcDbEntity
  8
0
100
AcDbVertex
100
AcDbPolygonMeshVertex
 10
-2.398321
 20
0.962787
 30
0.705
 70
    64
  0
VERTEX
  5
465DE
100
AcDbEntity
  8
0
100
AcDbVertex
100
AcDbPolygonMeshVertex
 10
-2.270587
 20
1.234235
 30
0.705
 70
    64
  0
VERTEX
  5
465DF
100
AcDbEntity
  8
0
100
AcDbVertex
100
AcDbPolygonMeshVertex
 10
-2.398321
 20
0.962787
 30
2.01
 70
    64
  0
VERTEX
  5
465E0
100
AcDbEntity
  8
0
100
AcDbVertex
100
AcDbPolygonMeshVertex
 10
-2.398321
 20
0.962787
 30
2.01
 70
    64
  0
VERTEX
  5
465E1
100
AcDbEntity
  8
0
100
AcDbVertex
100
AcDbPolygonMeshVertex
 10
-2.270587
 20
1.234235
 30
2.01
 70
    64
  0
VERTEX
  5
465E2
100
AcDbEntity
  8
0
100
AcDbVertex
100
AcDbPolygonMeshVertex
 10
-2.181162
 20
0.860599
 30
2.01
 70
    64
  0
VERTEX
  5
465E3
100
AcDbEntity
  8
0
100
AcDbVertex
100
AcDbPolygonMeshVertex
 10
-2.181162
 20
0.860599
 30
2.01
 70
    64
  0
VERTEX
  5
465E4
100
AcDbEntity
  8
0
100
AcDbVertex
100
AcDbPolygonMeshVertex
 10
-2.053428
 20
1.132048
 30
2.01
 70
    64
  0
SEQEND
  5
465E5
100
AcDbEntity
  8
0
  0
POLYLINE
  5
465E6
100
AcDbEntity
  8
0
100
AcDbPolygonMesh
 66
     1
 10
0.0
 20
0.0
 30
0.0
 70
    16
 71
     6
 72
     3
  0
VERTEX
  5
465E7
100
AcDbEntity
  8
0
100
AcDbVertex
100
AcDbPolygonMeshVertex
 10
-2.343605
 20
1.089228
 30
2.01
 70
    64
  0
VERTEX
  5
465E8
100
AcDbEntity
  8
0
100
AcDbVertex
100
AcDbPolygonMeshVertex
 10
-2.343605
 20
1.089228
 30
0.705
 70
    64
  0
VERTEX
  5
465E9
100
AcDbEntity
  8
0
100
AcDbVertex
100
AcDbPolygonMeshVertex
 10
-2.343605
 20
1.089228
 30
0.705
 70
    64
  0
VERTEX
  5
465EA
100
AcDbEntity
  8
0
100
AcDbVertex
100
AcDbPolygonMeshVertex
 10
-2.120458
 20
1.000878
 30
2.01
 70
    64
  0
VERTEX
  5
465EB
100
AcDbEntity
  8
0
100
AcDbVertex
100
AcDbPolygonMeshVertex
 10
-2.120458
 20
1.000878
 30
0.705
 70
    64
  0
VERTEX
  5
465EC
100
AcDbEntity
  8
0
100
AcDbVertex
100
AcDbPolygonMeshVertex
 10
-2.120458
 20
1.000878
 30
0.705
 70
    64
  0
VERTEX
  5
465ED
100
AcDbEntity
  8
0
100
AcDbVertex
100
AcDbPolygonMeshVertex
 10
-2.230896
 20
0.721945
 30
2.01
 70
    64
  0
VERTEX
  5
465EE
100
AcDbEntity
  8
0
100
AcDbVertex
100
AcDbPolygonMeshVertex
 10
-2.230896
 20
0.721945
 30
0.705
 70
    64
  0
VERTEX
  5
465EF
100
AcDbEntity
  8
0
100
AcDbVertex
100
AcDbPolygonMeshVertex
 10
-2.120458
 20
1.000878
 30
0.705
 70
    64
  0
VERTEX
  5
465F0
100
AcDbEntity
  8
0
100
AcDbVertex
100
AcDbPolygonMeshVertex
 10
-2.454042
 20
0.810295
 30
2.01
 70
    64
  0
VERTEX
  5
465F1
100
AcDbEntity
  8
0
100
AcDbVertex
100
AcDbPolygonMeshVertex
 10
-2.454042
 20
0.810295
 30
0.705
 70
    64
  0
VERTEX
  5
465F2
100
AcDbEntity
  8
0
100
AcDbVertex
100
AcDbPolygonMeshVertex
 10
-2.343605
 20
1.089228
 30
0.705
 70
    64
  0
VERTEX
  5
465F3
100
AcDbEntity
  8
0
100
AcDbVertex
100
AcDbPolygonMeshVertex
 10
-2.454042
 20
0.810295
 30
2.01
 70
    64
  0
VERTEX
  5
465F4
100
AcDbEntity
  8
0
100
AcDbVertex
100
AcDbPolygonMeshVertex
 10
-2.454042
 20
0.810295
 30
2.01
 70
    64
  0
VERTEX
  5
465F5
100
AcDbEntity
  8
0
100
AcDbVertex
100
AcDbPolygonMeshVertex
 10
-2.343605
 20
1.089228
 30
2.01
 70
    64
  0
VERTEX
  5
465F6
100
AcDbEntity
  8
0
100
AcDbVertex
100
AcDbPolygonMeshVertex
 10
-2.230896
 20
0.721945
 30
2.01
 70
    64
  0
VERTEX
  5
465F7
100
AcDbEntity
  8
0
100
AcDbVertex
100
AcDbPolygonMeshVertex
 10
-2.230896
 20
0.721945
 30
2.01
 70
    64
  0
VERTEX
  5
465F8
100
AcDbEntity
  8
0
100
AcDbVertex
100
AcDbPolygonMeshVertex
 10
-2.120458
 20
1.000878
 30
2.01
 70
    64
  0
SEQEND
  5
465F9
100
AcDbEntity
  8
0
  0
POLYLINE
  5
465FA
100
AcDbEntity
  8
0
100
AcDbPolygonMesh
 66
     1
 10
0.0
 20
0.0
 30
0.0
 70
    16
 71
     6
 72
     3
  0
VERTEX
  5
465FB
100
AcDbEntity
  8
0
100
AcDbVertex
100
AcDbPolygonMeshVertex
 10
-2.407373
 20
0.939922
 30
2.01
 70
    64
  0
VERTEX
  5
465FC
100
AcDbEntity
  8
0
100
AcDbVertex
100
AcDbPolygonMeshVertex
 10
-2.407373
 20
0.939922
 30
0.705
 70
    64
  0
VERTEX
  5
465FD
100
AcDbEntity
  8
0
100
AcDbVertex
100
AcDbPolygonMeshVertex
 10
-2.407373
 20
0.939922
 30
0.705
 70
    64
  0
VERTEX
  5
465FE
100
AcDbEntity
  8
0
100
AcDbVertex
100
AcDbPolygonMeshVertex
 10
-2.17912
 20
0.865758
 30
2.01
 70
    64
  0
VERTEX
  5
465FF
100
AcDbEntity
  8
0
100
AcDbVertex
100
AcDbPolygonMeshVertex
 10
-2.17912
 20
0.865758
 30
0.705
 70
    64
  0
VERTEX
  5
46600
100
AcDbEntity
  8
0
100
AcDbVertex
100
AcDbPolygonMeshVertex
 10
-2.17912
 20
0.865758
 30
0.705
 70
    64
  0
VERTEX
  5
46601
100
AcDbEntity
  8
0
100
AcDbVertex
100
AcDbPolygonMeshVertex
 10
-2.271825
 20
0.580441
 30
2.01
 70
    64
  0
VERTEX
  5
46602
100
AcDbEntity
  8
0
100
AcDbVertex
100
AcDbPolygonMeshVertex
 10
-2.271825
 20
0.580441
 30
0.705
 70
    64
  0
VERTEX
  5
46603
100
AcDbEntity
  8
0
100
AcDbVertex
100
AcDbPolygonMeshVertex
 10
-2.17912
 20
0.865758
 30
0.705
 70
    64
  0
VERTEX
  5
46604
100
AcDbEntity
  8
0
100
AcDbVertex
100
AcDbPolygonMeshVertex
 10
-2.500078
 20
0.654605
 30
2.01
 70
    64
  0
VERTEX
  5
46605
100
AcDbEntity
  8
0
100
AcDbVertex
100
AcDbPolygonMeshVertex
 10
-2.500078
 20
0.654605
 30
0.705
 70
    64
  0
VERTEX
  5
46606
100
AcDbEntity
  8
0
100
AcDbVertex
100
AcDbPolygonMeshVertex
 10
-2.407373
 20
0.939922
 30
0.705
 70
    64
  0
VERTEX
  5
46607
100
AcDbEntity
  8
0
100
AcDbVertex
100
AcDbPolygonMeshVertex
 10
-2.500078
 20
0.654605
 30
2.01
 70
    64
  0
VERTEX
  5
46608
100
AcDbEntity
  8
0
100
AcDbVertex
100
AcDbPolygonMeshVertex
 10
-2.500078
 20
0.654605
 30
2.01
 70
    64
  0
VERTEX
  5
46609
100
AcDbEntity
  8
0
100
AcDbVertex
100
AcDbPolygonMeshVertex
 10
-2.407373
 20
0.939922
 30
2.01
 70
    64
  0
VERTEX
  5
4660A
100
AcDbEntity
  8
0
100
AcDbVertex
100
AcDbPolygonMeshVertex
 10
-2.271825
 20
0.580441
 30
2.01
 70
    64
  0
VERTEX
  5
4660B
100
AcDbEntity
  8
0
100
AcDbVertex
100
AcDbPolygonMeshVertex
 10
-2.271825
 20
0.580441
 30
2.01
 70
    64
  0
VERTEX
  5
4660C
100
AcDbEntity
  8
0
100
AcDbVertex
100
AcDbPolygonMeshVertex
 10
-2.17912
 20
0.865758
 30
2.01
 70
    64
  0
SEQEND
  5
4660D
100
AcDbEntity
  8
0
  0
POLYLINE
  5
4660E
100
AcDbEntity
  8
0
100
AcDbPolygonMesh
 66
     1
 10
0.0
 20
0.0
 30
0.0
 70
    16
 71
     6
 72
     3
  0
VERTEX
  5
4660F
100
AcDbEntity
  8
0
100
AcDbVertex
100
AcDbPolygonMeshVertex
 10
-2.461641
 20
0.786907
 30
2.01
 70
    64
  0
VERTEX
  5
46610
100
AcDbEntity
  8
0
100
AcDbVertex
100
AcDbPolygonMeshVertex
 10
-2.461641
 20
0.786907
 30
0.705
 70
    64
  0
VERTEX
  5
46611
100
AcDbEntity
  8
0
100
AcDbVertex
100
AcDbPolygonMeshVertex
 10
-2.461641
 20
0.786907
 30
0.705
 70
    64
  0
VERTEX
  5
46612
100
AcDbEntity
  8
0
100
AcDbVertex
100
AcDbPolygonMeshVertex
 10
-2.229181
 20
0.727222
 30
2.01
 70
    64
  0
VERTEX
  5
46613
100
AcDbEntity
  8
0
100
AcDbVertex
100
AcDbPolygonMeshVertex
 10
-2.229181
 20
0.727222
 30
0.705
 70
    64
  0
VERTEX
  5
46614
100
AcDbEntity
  8
0
100
AcDbVertex
100
AcDbPolygonMeshVertex
 10
-2.229181
 20
0.727222
 30
0.705
 70
    64
  0
VERTEX
  5
46615
100
AcDbEntity
  8
0
100
AcDbVertex
100
AcDbPolygonMeshVertex
 10
-2.303788
 20
0.436647
 30
2.01
 70
    64
  0
VERTEX
  5
46616
100
AcDbEntity
  8
0
100
AcDbVertex
100
AcDbPolygonMeshVertex
 10
-2.303788
 20
0.436647
 30
0.705
 70
    64
  0
VERTEX
  5
46617
100
AcDbEntity
  8
0
100
AcDbVertex
100
AcDbPolygonMeshVertex
 10
-2.229181
 20
0.727222
 30
0.705
 70
    64
  0
VERTEX
  5
46618
100
AcDbEntity
  8
0
100
AcDbVertex
100
AcDbPolygonMeshVertex
 10
-2.536248
 20
0.496332
 30
2.01
 70
    64
  0
VERTEX
  5
46619
100
AcDbEntity
  8
0
100
AcDbVertex
100
AcDbPolygonMeshVertex
 10
-2.536248
 20
0.496332
 30
0.705
 70
    64
  0
VERTEX
  5
4661A
100
AcDbEntity
  8
0
100
AcDbVertex
100
AcDbPolygonMeshVertex
 10
-2.461641
 20
0.786907
 30
0.705
 70
    64
  0
VERTEX
  5
4661B
100
AcDbEntity
  8
0
100
AcDbVertex
100
AcDbPolygonMeshVertex
 10
-2.536248
 20
0.496332
 30
2.01
 70
    64
  0
VERTEX
  5
4661C
100
AcDbEntity
  8
0
100
AcDbVertex
100
AcDbPolygonMeshVertex
 10
-2.536248
 20
0.496332
 30
2.01
 70
    64
  0
VERTEX
  5
4661D
100
AcDbEntity
  8
0
100
AcDbVertex
100
AcDbPolygonMeshVertex
 10
-2.461641
 20
0.786907
 30
2.01
 70
    64
  0
VERTEX
  5
4661E
100
AcDbEntity
  8
0
100
AcDbVertex
100
AcDbPolygonMeshVertex
 10
-2.303788
 20
0.436647
 30
2.01
 70
    64
  0
VERTEX
  5
4661F
100
AcDbEntity
  8
0
100
AcDbVertex
100
AcDbPolygonMeshVertex
 10
-2.303788
 20
0.436647
 30
2.01
 70
    64
  0
VERTEX
  5
46620
100
AcDbEntity
  8
0
100
AcDbVertex
100
AcDbPolygonMeshVertex
 10
-2.229181
 20
0.727222
 30
2.01
 70
    64
  0
SEQEND
  5
46621
100
AcDbEntity
  8
0
  0
POLYLINE
  5
46622
100
AcDbEntity
  8
0
100
AcDbPolygonMesh
 66
     1
 10
0.0
 20
0.0
 30
0.0
 70
    16
 71
     6
 72
     3
  0
VERTEX
  5
46623
100
AcDbEntity
  8
0
100
AcDbVertex
100
AcDbPolygonMeshVertex
 10
-2.506194
 20
0.630787
 30
2.01
 70
    64
  0
VERTEX
  5
46624
100
AcDbEntity
  8
0
100
AcDbVertex
100
AcDbPolygonMeshVertex
 10
-2.506194
 20
0.630787
 30
0.705
 70
    64
  0
VERTEX
  5
46625
100
AcDbEntity
  8
0
100
AcDbVertex
100
AcDbPolygonMeshVertex
 10
-2.506194
 20
0.630787
 30
0.705
 70
    64
  0
VERTEX
  5
46626
100
AcDbEntity
  8
0
100
AcDbVertex
100
AcDbPolygonMeshVertex
 10
-2.270445
 20
0.585815
 30
2.01
 70
    64
  0
VERTEX
  5
46627
100
AcDbEntity
  8
0
100
AcDbVertex
100
AcDbPolygonMeshVertex
 10
-2.270445
 20
0.585815
 30
0.705
 70
    64
  0
VERTEX
  5
46628
100
AcDbEntity
  8
0
100
AcDbVertex
100
AcDbPolygonMeshVertex
 10
-2.270445
 20
0.585815
 30
0.705
 70
    64
  0
VERTEX
  5
46629
100
AcDbEntity
  8
0
100
AcDbVertex
100
AcDbPolygonMeshVertex
 10
-2.326659
 20
0.291129
 30
2.01
 70
    64
  0
VERTEX
  5
4662A
100
AcDbEntity
  8
0
100
AcDbVertex
100
AcDbPolygonMeshVertex
 10
-2.326659
 20
0.291129
 30
0.705
 70
    64
  0
VERTEX
  5
4662B
100
AcDbEntity
  8
0
100
AcDbVertex
100
AcDbPolygonMeshVertex
 10
-2.270445
 20
0.585815
 30
0.705
 70
    64
  0
VERTEX
  5
4662C
100
AcDbEntity
  8
0
100
AcDbVertex
100
AcDbPolygonMeshVertex
 10
-2.562408
 20
0.336101
 30
2.01
 70
    64
  0
VERTEX
  5
4662D
100
AcDbEntity
  8
0
100
AcDbVertex
100
AcDbPolygonMeshVertex
 10
-2.562408
 20
0.336101
 30
0.705
 70
    64
  0
VERTEX
  5
4662E
100
AcDbEntity
  8
0
100
AcDbVertex
100
AcDbPolygonMeshVertex
 10
-2.506194
 20
0.630787
 30
0.705
 70
    64
  0
VERTEX
  5
4662F
100
AcDbEntity
  8
0
100
AcDbVertex
100
AcDbPolygonMeshVertex
 10
-2.562408
 20
0.336101
 30
2.01
 70
    64
  0
VERTEX
  5
46630
100
AcDbEntity
  8
0
100
AcDbVertex
100
AcDbPolygonMeshVertex
 10
-2.562408
 20
0.336101
 30
2.01
 70
    64
  0
VERTEX
  5
46631
100
AcDbEntity
  8
0
100
AcDbVertex
100
AcDbPolygonMeshVertex
 10
-2.506194
 20
0.630787
 30
2.01
 70
    64
  0
VERTEX
  5
46632
100
AcDbEntity
  8
0
100
AcDbVertex
100
AcDbPolygonMeshVertex
 10
-2.326659
 20
0.291129
 30
2.01
 70
    64
  0
VERTEX
  5
46633
100
AcDbEntity
  8
0
100
AcDbVertex
100
AcDbPolygonMeshVertex
 10
-2.326659
 20
0.291129
 30
2.01
 70
    64
  0
VERTEX
  5
46634
100
AcDbEntity
  8
0
100
AcDbVertex
100
AcDbPolygonMeshVertex
 10
-2.270445
 20
0.585815
 30
2.01
 70
    64
  0
SEQEND
  5
46635
100
AcDbEntity
  8
0
  0
POLYLINE
  5
46636
100
AcDbEntity
  8
0
100
AcDbPolygonMesh
 66
     1
 10
0.0
 20
0.0
 30
0.0
 70
    16
 71
     6
 72
     3
  0
VERTEX
  5
46637
100
AcDbEntity
  8
0
100
AcDbVertex
100
AcDbPolygonMeshVertex
 10
-2.540856
 20
0.472177
 30
2.01
 70
    64
  0
VERTEX
  5
46638
100
AcDbEntity
  8
0
100
AcDbVertex
100
AcDbPolygonMeshVertex
 10
-2.540856
 20
0.472177
 30
0.705
 70
    64
  0
VERTEX
  5
46639
100
AcDbEntity
  8
0
100
AcDbVertex
100
AcDbPolygonMeshVertex
 10
-2.540856
 20
0.472177
 30
0.705
 70
    64
  0
VERTEX
  5
4663A
100
AcDbEntity
  8
0
100
AcDbVertex
100
AcDbPolygonMeshVertex
 10
-2.302748
 20
0.442097
 30
2.01
 70
    64
  0
VERTEX
  5
4663B
100
AcDbEntity
  8
0
100
AcDbVertex
100
AcDbPolygonMeshVertex
 10
-2.302748
 20
0.442097
 30
0.705
 70
    64
  0
VERTEX
  5
4663C
100
AcDbEntity
  8
0
100
AcDbVertex
100
AcDbPolygonMeshVertex
 10
-2.302748
 20
0.442097
 30
0.705
 70
    64
  0
VERTEX
  5
4663D
100
AcDbEntity
  8
0
100
AcDbVertex
100
AcDbPolygonMeshVertex
 10
-2.340348
 20
0.144463
 30
2.01
 70
    64
  0
VERTEX
  5
4663E
100
AcDbEntity
  8
0
100
AcDbVertex
100
AcDbPolygonMeshVertex
 10
-2.340348
 20
0.144463
 30
0.705
 70
    64
  0
VERTEX
  5
4663F
100
AcDbEntity
  8
0
100
AcDbVertex
100
AcDbPolygonMeshVertex
 10
-2.302748
 20
0.442097
 30
0.705
 70
    64
  0
VERTEX
  5
46640
100
AcDbEntity
  8
0
100
AcDbVertex
100
AcDbPolygonMeshVertex
 10
-2.578456
 20
0.174543
 30
2.01
 70
    64
  0
VERTEX
  5
46641
100
AcDbEntity
  8
0
100
AcDbVertex
100
AcDbPolygonMeshVertex
 10
-2.578456
 20
0.174543
 30
0.705
 70
    64
  0
VERTEX
  5
46642
100
AcDbEntity
  8
0
100
AcDbVertex
100
AcDbPolygonMeshVertex
 10
-2.540856
 20
0.472177
 30
0.705
 70
    64
  0
VERTEX
  5
46643
100
AcDbEntity
  8
0
100
AcDbVertex
100
AcDbPolygonMeshVertex
 10
-2.578456
 20
0.174543
 30
2.01
 70
    64
  0
VERTEX
  5
46644
100
AcDbEntity
  8
0
100
AcDbVertex
100
AcDbPolygonMeshVertex
 10
-2.578456
 20
0.174543
 30
2.01
 70
    64
  0
VERTEX
  5
46645
100
AcDbEntity
  8
0
100
AcDbVertex
100
AcDbPolygonMeshVertex
 10
-2.540856
 20
0.472177
 30
2.01
 70
    64
  0
VERTEX
  5
46646
100
AcDbEntity
  8
0
100
AcDbVertex
100
AcDbPolygonMeshVertex
 10
-2.340348
 20
0.144463
 30
2.01
 70
    64
  0
VERTEX
  5
46647
100
AcDbEntity
  8
0
100
AcDbVertex
100
AcDbPolygonMeshVertex
 10
-2.340348
 20
0.144463
 30
2.01
 70
    64
  0
VERTEX
  5
46648
100
AcDbEntity
  8
0
100
AcDbVertex
100
AcDbPolygonMeshVertex
 10
-2.302748
 20
0.442097
 30
2.01
 70
    64
  0
SEQEND
  5
46649
100
AcDbEntity
  8
0
  0
POLYLINE
  5
4664A
100
AcDbEntity
  8
0
100
AcDbPolygonMesh
 66
     1
 10
0.0
 20
0.0
 30
0.0
 70
    16
 71
     6
 72
     3
  0
VERTEX
  5
4664B
100
AcDbEntity
  8
0
100
AcDbVertex
100
AcDbPolygonMeshVertex
 10
-2.56549
 20
0.311704
 30
2.01
 70
    64
  0
VERTEX
  5
4664C
100
AcDbEntity
  8
0
100
AcDbVertex
100
AcDbPolygonMeshVertex
 10
-2.56549
 20
0.311704
 30
0.705
 70
    64
  0
VERTEX
  5
4664D
100
AcDbEntity
  8
0
100
AcDbVertex
100
AcDbPolygonMeshVertex
 10
-2.56549
 20
0.311704
 30
0.705
 70
    64
  0
VERTEX
  5
4664E
100
AcDbEntity
  8
0
100
AcDbVertex
100
AcDbPolygonMeshVertex
 10
-2.325964
 20
0.296634
 30
2.01
 70
    64
  0
VERTEX
  5
4664F
100
AcDbEntity
  8
0
100
AcDbVertex
100
AcDbPolygonMeshVertex
 10
-2.325964
 20
0.296634
 30
0.705
 70
    64
  0
VERTEX
  5
46650
100
AcDbEntity
  8
0
100
AcDbVertex
100
AcDbPolygonMeshVertex
 10
-2.325964
 20
0.296634
 30
0.705
 70
    64
  0
VERTEX
  5
46651
100
AcDbEntity
  8
0
100
AcDbVertex
100
AcDbPolygonMeshVertex
 10
-2.344801
 20
-0.002774
 30
2.01
 70
    64
  0
VERTEX
  5
46652
100
AcDbEntity
  8
0
100
AcDbVertex
100
AcDbPolygonMeshVertex
 10
-2.344801
 20
-0.002774
 30
0.705
 70
    64
  0
VERTEX
  5
46653
100
AcDbEntity
  8
0
100
AcDbVertex
100
AcDbPolygonMeshVertex
 10
-2.325964
 20
0.296634
 30
0.705
 70
    64
  0
VERTEX
  5
46654
100
AcDbEntity
  8
0
100
AcDbVertex
100
AcDbPolygonMeshVertex
 10
-2.584328
 20
0.012296
 30
2.01
 70
    64
  0
VERTEX
  5
46655
100
AcDbEntity
  8
0
100
AcDbVertex
100
AcDbPolygonMeshVertex
 10
-2.584328
 20
0.012296
 30
0.705
 70
    64
  0
VERTEX
  5
46656
100
AcDbEntity
  8
0
100
AcDbVertex
100
AcDbPolygonMeshVertex
 10
-2.56549
 20
0.311704
 30
0.705
 70
    64
  0
VERTEX
  5
46657
100
AcDbEntity
  8
0
100
AcDbVertex
100
AcDbPolygonMeshVertex
 10
-2.584328
 20
0.012296
 30
2.01
 70
    64
  0
VERTEX
  5
46658
100
AcDbEntity
  8
0
100
AcDbVertex
100
AcDbPolygonMeshVertex
 10
-2.584328
 20
0.012296
 30
2.01
 70
    64
  0
VERTEX
  5
46659
100
AcDbEntity
  8
0
100
AcDbVertex
100
AcDbPolygonMeshVertex
 10
-2.56549
 20
0.311704
 30
2.01
 70
    64
  0
VERTEX
  5
4665A
100
AcDbEntity
  8
0
100
AcDbVertex
100
AcDbPolygonMeshVertex
 10
-2.344801
 20
-0.002774
 30
2.01
 70
    64
  0
VERTEX
  5
4665B
100
AcDbEntity
  8
0
100
AcDbVertex
100
AcDbPolygonMeshVertex
 10
-2.344801
 20
-0.002774
 30
2.01
 70
    64
  0
VERTEX
  5
4665C
100
AcDbEntity
  8
0
100
AcDbVertex
100
AcDbPolygonMeshVertex
 10
-2.325964
 20
0.296634
 30
2.01
 70
    64
  0
SEQEND
  5
4665D
100
AcDbEntity
  8
0
  0
POLYLINE
  5
4665E
100
AcDbEntity
  8
0
100
AcDbPolygonMesh
 66
     1
 10
0.0
 20
0.0
 30
0.0
 70
    16
 71
     6
 72
     3
  0
VERTEX
  5
4665F
100
AcDbEntity
  8
0
100
AcDbVertex
100
AcDbPolygonMeshVertex
 10
-2.58
 20
0.15
 30
2.01
 70
    64
  0
VERTEX
  5
46660
100
AcDbEntity
  8
0
100
AcDbVertex
100
AcDbPolygonMeshVertex
 10
-2.58
 20
0.15
 30
0.705
 70
    64
  0
VERTEX
  5
46661
100
AcDbEntity
  8
0
100
AcDbVertex
100
AcDbPolygonMeshVertex
 10
-2.58
 20
0.15
 30
0.705
 70
    64
  0
VERTEX
  5
46662
100
AcDbEntity
  8
0
100
AcDbVertex
100
AcDbPolygonMeshVertex
 10
-2.34
 20
0.15
 30
2.01
 70
    64
  0
VERTEX
  5
46663
100
AcDbEntity
  8
0
100
AcDbVertex
100
AcDbPolygonMeshVertex
 10
-2.34
 20
0.15
 30
0.705
 70
    64
  0
VERTEX
  5
46664
100
AcDbEntity
  8
0
100
AcDbVertex
100
AcDbPolygonMeshVertex
 10
-2.34
 20
0.15
 30
0.705
 70
    64
  0
VERTEX
  5
46665
100
AcDbEntity
  8
0
100
AcDbVertex
100
AcDbPolygonMeshVertex
 10
-2.34
 20
-0.15
 30
2.01
 70
    64
  0
VERTEX
  5
46666
100
AcDbEntity
  8
0
100
AcDbVertex
100
AcDbPolygonMeshVertex
 10
-2.34
 20
-0.15
 30
0.705
 70
    64
  0
VERTEX
  5
46667
100
AcDbEntity
  8
0
100
AcDbVertex
100
AcDbPolygonMeshVertex
 10
-2.34
 20
0.15
 30
0.705
 70
    64
  0
VERTEX
  5
46668
100
AcDbEntity
  8
0
100
AcDbVertex
100
AcDbPolygonMeshVertex
 10
-2.58
 20
-0.15
 30
2.01
 70
    64
  0
VERTEX
  5
46669
100
AcDbEntity
  8
0
100
AcDbVertex
100
AcDbPolygonMeshVertex
 10
-2.58
 20
-0.15
 30
0.705
 70
    64
  0
VERTEX
  5
4666A
100
AcDbEntity
  8
0
100
AcDbVertex
100
AcDbPolygonMeshVertex
 10
-2.58
 20
0.15
 30
0.705
 70
    64
  0
VERTEX
  5
4666B
100
AcDbEntity
  8
0
100
AcDbVertex
100
AcDbPolygonMeshVertex
 10
-2.58
 20
-0.15
 30
2.01
 70
    64
  0
VERTEX
  5
4666C
100
AcDbEntity
  8
0
100
AcDbVertex
100
AcDbPolygonMeshVertex
 10
-2.58
 20
-0.15
 30
2.01
 70
    64
  0
VERTEX
  5
4666D
100
AcDbEntity
  8
0
100
AcDbVertex
100
AcDbPolygonMeshVertex
 10
-2.58
 20
0.15
 30
2.01
 70
    64
  0
VERTEX
  5
4666E
100
AcDbEntity
  8
0
100
AcDbVertex
100
AcDbPolygonMeshVertex
 10
-2.34
 20
-0.15
 30
2.01
 70
    64
  0
VERTEX
  5
4666F
100
AcDbEntity
  8
0
100
AcDbVertex
100
AcDbPolygonMeshVertex
 10
-2.34
 20
-0.15
 30
2.01
 70
    64
  0
VERTEX
  5
46670
100
AcDbEntity
  8
0
100
AcDbVertex
100
AcDbPolygonMeshVertex
 10
-2.34
 20
0.15
 30
2.01
 70
    64
  0
SEQEND
  5
46671
100
AcDbEntity
  8
0
  0
POLYLINE
  5
46672
100
AcDbEntity
  8
0
100
AcDbPolygonMesh
 66
     1
 10
0.0
 20
0.0
 30
0.0
 70
    16
 71
     6
 72
     3
  0
VERTEX
  5
46673
100
AcDbEntity
  8
0
100
AcDbVertex
100
AcDbPolygonMeshVertex
 10
-2.584328
 20
-0.012296
 30
2.01
 70
    64
  0
VERTEX
  5
46674
100
AcDbEntity
  8
0
100
AcDbVertex
100
AcDbPolygonMeshVertex
 10
-2.584328
 20
-0.012296
 30
0.705
 70
    64
  0
VERTEX
  5
46675
100
AcDbEntity
  8
0
100
AcDbVertex
100
AcDbPolygonMeshVertex
 10
-2.584328
 20
-0.012296
 30
0.705
 70
    64
  0
VERTEX
  5
46676
100
AcDbEntity
  8
0
100
AcDbVertex
100
AcDbPolygonMeshVertex
 10
-2.344801
 20
0.002774
 30
2.01
 70
    64
  0
VERTEX
  5
46677
100
AcDbEntity
  8
0
100
AcDbVertex
100
AcDbPolygonMeshVertex
 10
-2.344801
 20
0.002774
 30
0.705
 70
    64
  0
VERTEX
  5
46678
100
AcDbEntity
  8
0
100
AcDbVertex
100
AcDbPolygonMeshVertex
 10
-2.344801
 20
0.002774
 30
0.705
 70
    64
  0
VERTEX
  5
46679
100
AcDbEntity
  8
0
100
AcDbVertex
100
AcDbPolygonMeshVertex
 10
-2.325964
 20
-0.296634
 30
2.01
 70
    64
  0
VERTEX
  5
4667A
100
AcDbEntity
  8
0
100
AcDbVertex
100
AcDbPolygonMeshVertex
 10
-2.325964
 20
-0.296634
 30
0.705
 70
    64
  0
VERTEX
  5
4667B
100
AcDbEntity
  8
0
100
AcDbVertex
100
AcDbPolygonMeshVertex
 10
-2.344801
 20
0.002774
 30
0.705
 70
    64
  0
VERTEX
  5
4667C
100
AcDbEntity
  8
0
100
AcDbVertex
100
AcDbPolygonMeshVertex
 10
-2.56549
 20
-0.311704
 30
2.01
 70
    64
  0
VERTEX
  5
4667D
100
AcDbEntity
  8
0
100
AcDbVertex
100
AcDbPolygonMeshVertex
 10
-2.56549
 20
-0.311704
 30
0.705
 70
    64
  0
VERTEX
  5
4667E
100
AcDbEntity
  8
0
100
AcDbVertex
100
AcDbPolygonMeshVertex
 10
-2.584328
 20
-0.012296
 30
0.705
 70
    64
  0
VERTEX
  5
4667F
100
AcDbEntity
  8
0
100
AcDbVertex
100
AcDbPolygonMeshVertex
 10
-2.56549
 20
-0.311704
 30
2.01
 70
    64
  0
VERTEX
  5
46680
100
AcDbEntity
  8
0
100
AcDbVertex
100
AcDbPolygonMeshVertex
 10
-2.56549
 20
-0.311704
 30
2.01
 70
    64
  0
VERTEX
  5
46681
100
AcDbEntity
  8
0
100
AcDbVertex
100
AcDbPolygonMeshVertex
 10
-2.584328
 20
-0.012296
 30
2.01
 70
    64
  0
VERTEX
  5
46682
100
AcDbEntity
  8
0
100
AcDbVertex
100
AcDbPolygonMeshVertex
 10
-2.325964
 20
-0.296634
 30
2.01
 70
    64
  0
VERTEX
  5
46683
100
AcDbEntity
  8
0
100
AcDbVertex
100
AcDbPolygonMeshVertex
 10
-2.325964
 20
-0.296634
 30
2.01
 70
    64
  0
VERTEX
  5
46684
100
AcDbEntity
  8
0
100
AcDbVertex
100
AcDbPolygonMeshVertex
 10
-2.344801
 20
0.002774
 30
2.01
 70
    64
  0
SEQEND
  5
46685
100
AcDbEntity
  8
0
  0
POLYLINE
  5
46686
100
AcDbEntity
  8
0
100
AcDbPolygonMesh
 66
     1
 10
0.0
 20
0.0
 30
0.0
 70
    16
 71
     6
 72
     3
  0
VERTEX
  5
46687
100
AcDbEntity
  8
0
100
AcDbVertex
100
AcDbPolygonMeshVertex
 10
-2.578456
 20
-0.174543
 30
2.01
 70
    64
  0
VERTEX
  5
46688
100
AcDbEntity
  8
0
100
AcDbVertex
100
AcDbPolygonMeshVertex
 10
-2.578456
 20
-0.174543
 30
0.705
 70
    64
  0
VERTEX
  5
46689
100
AcDbEntity
  8
0
100
AcDbVertex
100
AcDbPolygonMeshVertex
 10
-2.578456
 20
-0.174543
 30
0.705
 70
    64
  0
VERTEX
  5
4668A
100
AcDbEntity
  8
0
100
AcDbVertex
100
AcDbPolygonMeshVertex
 10
-2.340348
 20
-0.144463
 30
2.01
 70
    64
  0
VERTEX
  5
4668B
100
AcDbEntity
  8
0
100
AcDbVertex
100
AcDbPolygonMeshVertex
 10
-2.340348
 20
-0.144463
 30
0.705
 70
    64
  0
VERTEX
  5
4668C
100
AcDbEntity
  8
0
100
AcDbVertex
100
AcDbPolygonMeshVertex
 10
-2.340348
 20
-0.144463
 30
0.705
 70
    64
  0
VERTEX
  5
4668D
100
AcDbEntity
  8
0
100
AcDbVertex
100
AcDbPolygonMeshVertex
 10
-2.302748
 20
-0.442097
 30
2.01
 70
    64
  0
VERTEX
  5
4668E
100
AcDbEntity
  8
0
100
AcDbVertex
100
AcDbPolygonMeshVertex
 10
-2.302748
 20
-0.442097
 30
0.705
 70
    64
  0
VERTEX
  5
4668F
100
AcDbEntity
  8
0
100
AcDbVertex
100
AcDbPolygonMeshVertex
 10
-2.340348
 20
-0.144463
 30
0.705
 70
    64
  0
VERTEX
  5
46690
100
AcDbEntity
  8
0
100
AcDbVertex
100
AcDbPolygonMeshVertex
 10
-2.540856
 20
-0.472177
 30
2.01
 70
    64
  0
VERTEX
  5
46691
100
AcDbEntity
  8
0
100
AcDbVertex
100
AcDbPolygonMeshVertex
 10
-2.540856
 20
-0.472177
 30
0.705
 70
    64
  0
VERTEX
  5
46692
100
AcDbEntity
  8
0
100
AcDbVertex
100
AcDbPolygonMeshVertex
 10
-2.578456
 20
-0.174543
 30
0.705
 70
    64
  0
VERTEX
  5
46693
100
AcDbEntity
  8
0
100
AcDbVertex
100
AcDbPolygonMeshVertex
 10
-2.540856
 20
-0.472177
 30
2.01
 70
    64
  0
VERTEX
  5
46694
100
AcDbEntity
  8
0
100
AcDbVertex
100
AcDbPolygonMeshVertex
 10
-2.540856
 20
-0.472177
 30
2.01
 70
    64
  0
VERTEX
  5
46695
100
AcDbEntity
  8
0
100
AcDbVertex
100
AcDbPolygonMeshVertex
 10
-2.578456
 20
-0.174543
 30
2.01
 70
    64
  0
VERTEX
  5
46696
100
AcDbEntity
  8
0
100
AcDbVertex
100
AcDbPolygonMeshVertex
 10
-2.302748
 20
-0.442097
 30
2.01
 70
    64
  0
VERTEX
  5
46697
100
AcDbEntity
  8
0
100
AcDbVertex
100
AcDbPolygonMeshVertex
 10
-2.302748
 20
-0.442097
 30
2.01
 70
    64
  0
VERTEX
  5
46698
100
AcDbEntity
  8
0
100
AcDbVertex
100
AcDbPolygonMeshVertex
 10
-2.340348
 20
-0.144463
 30
2.01
 70
    64
  0
SEQEND
  5
46699
100
AcDbEntity
  8
0
  0
POLYLINE
  5
4669A
100
AcDbEntity
  8
0
100
AcDbPolygonMesh
 66
     1
 10
0.0
 20
0.0
 30
0.0
 70
    16
 71
     6
 72
     3
  0
VERTEX
  5
4669B
100
AcDbEntity
  8
0
100
AcDbVertex
100
AcDbPolygonMeshVertex
 10
-2.562408
 20
-0.336101
 30
2.01
 70
    64
  0
VERTEX
  5
4669C
100
AcDbEntity
  8
0
100
AcDbVertex
100
AcDbPolygonMeshVertex
 10
-2.562408
 20
-0.336101
 30
0.705
 70
    64
  0
VERTEX
  5
4669D
100
AcDbEntity
  8
0
100
AcDbVertex
100
AcDbPolygonMeshVertex
 10
-2.562408
 20
-0.336101
 30
0.705
 70
    64
  0
VERTEX
  5
4669E
100
AcDbEntity
  8
0
100
AcDbVertex
100
AcDbPolygonMeshVertex
 10
-2.326659
 20
-0.291129
 30
2.01
 70
    64
  0
VERTEX
  5
4669F
100
AcDbEntity
  8
0
100
AcDbVertex
100
AcDbPolygonMeshVertex
 10
-2.326659
 20
-0.291129
 30
0.705
 70
    64
  0
VERTEX
  5
466A0
100
AcDbEntity
  8
0
100
AcDbVertex
100
AcDbPolygonMeshVertex
 10
-2.326659
 20
-0.291129
 30
0.705
 70
    64
  0
VERTEX
  5
466A1
100
AcDbEntity
  8
0
100
AcDbVertex
100
AcDbPolygonMeshVertex
 10
-2.270445
 20
-0.585815
 30
2.01
 70
    64
  0
VERTEX
  5
466A2
100
AcDbEntity
  8
0
100
AcDbVertex
100
AcDbPolygonMeshVertex
 10
-2.270445
 20
-0.585815
 30
0.705
 70
    64
  0
VERTEX
  5
466A3
100
AcDbEntity
  8
0
100
AcDbVertex
100
AcDbPolygonMeshVertex
 10
-2.326659
 20
-0.291129
 30
0.705
 70
    64
  0
VERTEX
  5
466A4
100
AcDbEntity
  8
0
100
AcDbVertex
100
AcDbPolygonMeshVertex
 10
-2.506194
 20
-0.630787
 30
2.01
 70
    64
  0
VERTEX
  5
466A5
100
AcDbEntity
  8
0
100
AcDbVertex
100
AcDbPolygonMeshVertex
 10
-2.506194
 20
-0.630787
 30
0.705
 70
    64
  0
VERTEX
  5
466A6
100
AcDbEntity
  8
0
100
AcDbVertex
100
AcDbPolygonMeshVertex
 10
-2.562408
 20
-0.336101
 30
0.705
 70
    64
  0
VERTEX
  5
466A7
100
AcDbEntity
  8
0
100
AcDbVertex
100
AcDbPolygonMeshVertex
 10
-2.506194
 20
-0.630787
 30
2.01
 70
    64
  0
VERTEX
  5
466A8
100
AcDbEntity
  8
0
100
AcDbVertex
100
AcDbPolygonMeshVertex
 10
-2.506194
 20
-0.630787
 30
2.01
 70
    64
  0
VERTEX
  5
466A9
100
AcDbEntity
  8
0
100
AcDbVertex
100
AcDbPolygonMeshVertex
 10
-2.562408
 20
-0.336101
 30
2.01
 70
    64
  0
VERTEX
  5
466AA
100
AcDbEntity
  8
0
100
AcDbVertex
100
AcDbPolygonMeshVertex
 10
-2.270445
 20
-0.585815
 30
2.01
 70
    64
  0
VERTEX
  5
466AB
100
AcDbEntity
  8
0
100
AcDbVertex
100
AcDbPolygonMeshVertex
 10
-2.270445
 20
-0.585815
 30
2.01
 70
    64
  0
VERTEX
  5
466AC
100
AcDbEntity
  8
0
100
AcDbVertex
100
AcDbPolygonMeshVertex
 10
-2.326659
 20
-0.291129
 30
2.01
 70
    64
  0
SEQEND
  5
466AD
100
AcDbEntity
  8
0
  0
POLYLINE
  5
466AE
100
AcDbEntity
  8
0
100
AcDbPolygonMesh
 66
     1
 10
0.0
 20
0.0
 30
0.0
 70
    16
 71
     6
 72
     3
  0
VERTEX
  5
466AF
100
AcDbEntity
  8
0
100
AcDbVertex
100
AcDbPolygonMeshVertex
 10
-2.536248
 20
-0.496332
 30
2.01
 70
    64
  0
VERTEX
  5
466B0
100
AcDbEntity
  8
0
100
AcDbVertex
100
AcDbPolygonMeshVertex
 10
-2.536248
 20
-0.496332
 30
0.705
 70
    64
  0
VERTEX
  5
466B1
100
AcDbEntity
  8
0
100
AcDbVertex
100
AcDbPolygonMeshVertex
 10
-2.536248
 20
-0.496332
 30
0.705
 70
    64
  0
VERTEX
  5
466B2
100
AcDbEntity
  8
0
100
AcDbVertex
100
AcDbPolygonMeshVertex
 10
-2.303788
 20
-0.436647
 30
2.01
 70
    64
  0
VERTEX
  5
466B3
100
AcDbEntity
  8
0
100
AcDbVertex
100
AcDbPolygonMeshVertex
 10
-2.303788
 20
-0.436647
 30
0.705
 70
    64
  0
VERTEX
  5
466B4
100
AcDbEntity
  8
0
100
AcDbVertex
100
AcDbPolygonMeshVertex
 10
-2.303788
 20
-0.436647
 30
0.705
 70
    64
  0
VERTEX
  5
466B5
100
AcDbEntity
  8
0
100
AcDbVertex
100
AcDbPolygonMeshVertex
 10
-2.229181
 20
-0.727222
 30
2.01
 70
    64
  0
VERTEX
  5
466B6
100
AcDbEntity
  8
0
100
AcDbVertex
100
AcDbPolygonMeshVertex
 10
-2.229181
 20
-0.727222
 30
0.705
 70
    64
  0
VERTEX
  5
466B7
100
AcDbEntity
  8
0
100
AcDbVertex
100
AcDbPolygonMeshVertex
 10
-2.303788
 20
-0.436647
 30
0.705
 70
    64
  0
VERTEX
  5
466B8
100
AcDbEntity
  8
0
100
AcDbVertex
100
AcDbPolygonMeshVertex
 10
-2.461641
 20
-0.786907
 30
2.01
 70
    64
  0
VERTEX
  5
466B9
100
AcDbEntity
  8
0
100
AcDbVertex
100
AcDbPolygonMeshVertex
 10
-2.461641
 20
-0.786907
 30
0.705
 70
    64
  0
VERTEX
  5
466BA
100
AcDbEntity
  8
0
100
AcDbVertex
100
AcDbPolygonMeshVertex
 10
-2.536248
 20
-0.496332
 30
0.705
 70
    64
  0
VERTEX
  5
466BB
100
AcDbEntity
  8
0
100
AcDbVertex
100
AcDbPolygonMeshVertex
 10
-2.461641
 20
-0.786907
 30
2.01
 70
    64
  0
VERTEX
  5
466BC
100
AcDbEntity
  8
0
100
AcDbVertex
100
AcDbPolygonMeshVertex
 10
-2.461641
 20
-0.786907
 30
2.01
 70
    64
  0
VERTEX
  5
466BD
100
AcDbEntity
  8
0
100
AcDbVertex
100
AcDbPolygonMeshVertex
 10
-2.536248
 20
-0.496332
 30
2.01
 70
    64
  0
VERTEX
  5
466BE
100
AcDbEntity
  8
0
100
AcDbVertex
100
AcDbPolygonMeshVertex
 10
-2.229181
 20
-0.727222
 30
2.01
 70
    64
  0
VERTEX
  5
466BF
100
AcDbEntity
  8
0
100
AcDbVertex
100
AcDbPolygonMeshVertex
 10
-2.229181
 20
-0.727222
 30
2.01
 70
    64
  0
VERTEX
  5
466C0
100
AcDbEntity
  8
0
100
AcDbVertex
100
AcDbPolygonMeshVertex
 10
-2.303788
 20
-0.436647
 30
2.01
 70
    64
  0
SEQEND
  5
466C1
100
AcDbEntity
  8
0
  0
POLYLINE
  5
466C2
100
AcDbEntity
  8
0
100
AcDbPolygonMesh
 66
     1
 10
0.0
 20
0.0
 30
0.0
 70
    16
 71
     6
 72
     3
  0
VERTEX
  5
466C3
100
AcDbEntity
  8
0
100
AcDbVertex
100
AcDbPolygonMeshVertex
 10
-2.500078
 20
-0.654605
 30
2.01
 70
    64
  0
VERTEX
  5
466C4
100
AcDbEntity
  8
0
100
AcDbVertex
100
AcDbPolygonMeshVertex
 10
-2.500078
 20
-0.654605
 30
0.705
 70
    64
  0
VERTEX
  5
466C5
100
AcDbEntity
  8
0
100
AcDbVertex
100
AcDbPolygonMeshVertex
 10
-2.500078
 20
-0.654605
 30
0.705
 70
    64
  0
VERTEX
  5
466C6
100
AcDbEntity
  8
0
100
AcDbVertex
100
AcDbPolygonMeshVertex
 10
-2.271825
 20
-0.580441
 30
2.01
 70
    64
  0
VERTEX
  5
466C7
100
AcDbEntity
  8
0
100
AcDbVertex
100
AcDbPolygonMeshVertex
 10
-2.271825
 20
-0.580441
 30
0.705
 70
    64
  0
VERTEX
  5
466C8
100
AcDbEntity
  8
0
100
AcDbVertex
100
AcDbPolygonMeshVertex
 10
-2.271825
 20
-0.580441
 30
0.705
 70
    64
  0
VERTEX
  5
466C9
100
AcDbEntity
  8
0
100
AcDbVertex
100
AcDbPolygonMeshVertex
 10
-2.17912
 20
-0.865758
 30
2.01
 70
    64
  0
VERTEX
  5
466CA
100
AcDbEntity
  8
0
100
AcDbVertex
100
AcDbPolygonMeshVertex
 10
-2.17912
 20
-0.865758
 30
0.705
 70
    64
  0
VERTEX
  5
466CB
100
AcDbEntity
  8
0
100
AcDbVertex
100
AcDbPolygonMeshVertex
 10
-2.271825
 20
-0.580441
 30
0.705
 70
    64
  0
VERTEX
  5
466CC
100
AcDbEntity
  8
0
100
AcDbVertex
100
AcDbPolygonMeshVertex
 10
-2.407373
 20
-0.939922
 30
2.01
 70
    64
  0
VERTEX
  5
466CD
100
AcDbEntity
  8
0
100
AcDbVertex
100
AcDbPolygonMeshVertex
 10
-2.407373
 20
-0.939922
 30
0.705
 70
    64
  0
VERTEX
  5
466CE
100
AcDbEntity
  8
0
100
AcDbVertex
100
AcDbPolygonMeshVertex
 10
-2.500078
 20
-0.654605
 30
0.705
 70
    64
  0
VERTEX
  5
466CF
100
AcDbEntity
  8
0
100
AcDbVertex
100
AcDbPolygonMeshVertex
 10
-2.407373
 20
-0.939922
 30
2.01
 70
    64
  0
VERTEX
  5
466D0
100
AcDbEntity
  8
0
100
AcDbVertex
100
AcDbPolygonMeshVertex
 10
-2.407373
 20
-0.939922
 30
2.01
 70
    64
  0
VERTEX
  5
466D1
100
AcDbEntity
  8
0
100
AcDbVertex
100
AcDbPolygonMeshVertex
 10
-2.500078
 20
-0.654605
 30
2.01
 70
    64
  0
VERTEX
  5
466D2
100
AcDbEntity
  8
0
100
AcDbVertex
100
AcDbPolygonMeshVertex
 10
-2.17912
 20
-0.865758
 30
2.01
 70
    64
  0
VERTEX
  5
466D3
100
AcDbEntity
  8
0
100
AcDbVertex
100
AcDbPolygonMeshVertex
 10
-2.17912
 20
-0.865758
 30
2.01
 70
    64
  0
VERTEX
  5
466D4
100
AcDbEntity
  8
0
100
AcDbVertex
100
AcDbPolygonMeshVertex
 10
-2.271825
 20
-0.580441
 30
2.01
 70
    64
  0
SEQEND
  5
466D5
100
AcDbEntity
  8
0
  0
POLYLINE
  5
466D6
100
AcDbEntity
  8
0
100
AcDbPolygonMesh
 66
     1
 10
0.0
 20
0.0
 30
0.0
 70
    16
 71
     6
 72
     3
  0
VERTEX
  5
466D7
100
AcDbEntity
  8
0
100
AcDbVertex
100
AcDbPolygonMeshVertex
 10
-2.454042
 20
-0.810295
 30
2.01
 70
    64
  0
VERTEX
  5
466D8
100
AcDbEntity
  8
0
100
AcDbVertex
100
AcDbPolygonMeshVertex
 10
-2.454042
 20
-0.810295
 30
0.705
 70
    64
  0
VERTEX
  5
466D9
100
AcDbEntity
  8
0
100
AcDbVertex
100
AcDbPolygonMeshVertex
 10
-2.454042
 20
-0.810295
 30
0.705
 70
    64
  0
VERTEX
  5
466DA
100
AcDbEntity
  8
0
100
AcDbVertex
100
AcDbPolygonMeshVertex
 10
-2.230896
 20
-0.721945
 30
2.01
 70
    64
  0
VERTEX
  5
466DB
100
AcDbEntity
  8
0
100
AcDbVertex
100
AcDbPolygonMeshVertex
 10
-2.230896
 20
-0.721945
 30
0.705
 70
    64
  0
VERTEX
  5
466DC
100
AcDbEntity
  8
0
100
AcDbVertex
100
AcDbPolygonMeshVertex
 10
-2.230896
 20
-0.721945
 30
0.705
 70
    64
  0
VERTEX
  5
466DD
100
AcDbEntity
  8
0
100
AcDbVertex
100
AcDbPolygonMeshVertex
 10
-2.120458
 20
-1.000878
 30
2.01
 70
    64
  0
VERTEX
  5
466DE
100
AcDbEntity
  8
0
100
AcDbVertex
100
AcDbPolygonMeshVertex
 10
-2.120458
 20
-1.000878
 30
0.705
 70
    64
  0
VERTEX
  5
466DF
100
AcDbEntity
  8
0
100
AcDbVertex
100
AcDbPolygonMeshVertex
 10
-2.230896
 20
-0.721945
 30
0.705
 70
    64
  0
VERTEX
  5
466E0
100
AcDbEntity
  8
0
100
AcDbVertex
100
AcDbPolygonMeshVertex
 10
-2.343605
 20
-1.089228
 30
2.01
 70
    64
  0
VERTEX
  5
466E1
100
AcDbEntity
  8
0
100
AcDbVertex
100
AcDbPolygonMeshVertex
 10
-2.343605
 20
-1.089228
 30
0.705
 70
    64
  0
VERTEX
  5
466E2
100
AcDbEntity
  8
0
100
AcDbVertex
100
AcDbPolygonMeshVertex
 10
-2.454042
 20
-0.810295
 30
0.705
 70
    64
  0
VERTEX
  5
466E3
100
AcDbEntity
  8
0
100
AcDbVertex
100
AcDbPolygonMeshVertex
 10
-2.343605
 20
-1.089228
 30
2.01
 70
    64
  0
VERTEX
  5
466E4
100
AcDbEntity
  8
0
100
AcDbVertex
100
AcDbPolygonMeshVertex
 10
-2.343605
 20
-1.089228
 30
2.01
 70
    64
  0
VERTEX
  5
466E5
100
AcDbEntity
  8
0
100
AcDbVertex
100
AcDbPolygonMeshVertex
 10
-2.454042
 20
-0.810295
 30
2.01
 70
    64
  0
VERTEX
  5
466E6
100
AcDbEntity
  8
0
100
AcDbVertex
100
AcDbPolygonMeshVertex
 10
-2.120458
 20
-1.000878
 30
2.01
 70
    64
  0
VERTEX
  5
466E7
100
AcDbEntity
  8
0
100
AcDbVertex
100
AcDbPolygonMeshVertex
 10
-2.120458
 20
-1.000878
 30
2.01
 70
    64
  0
VERTEX
  5
466E8
100
AcDbEntity
  8
0
100
AcDbVertex
100
AcDbPolygonMeshVertex
 10
-2.230896
 20
-0.721945
 30
2.01
 70
    64
  0
SEQEND
  5
466E9
100
AcDbEntity
  8
0
  0
POLYLINE
  5
466EA
100
AcDbEntity
  8
0
100
AcDbPolygonMesh
 66
     1
 10
0.0
 20
0.0
 30
0.0
 70
    16
 71
     6
 72
     3
  0
VERTEX
  5
466EB
100
AcDbEntity
  8
0
100
AcDbVertex
100
AcDbPolygonMeshVertex
 10
-2.398321
 20
-0.962787
 30
2.01
 70
    64
  0
VERTEX
  5
466EC
100
AcDbEntity
  8
0
100
AcDbVertex
100
AcDbPolygonMeshVertex
 10
-2.398321
 20
-0.962787
 30
0.705
 70
    64
  0
VERTEX
  5
466ED
100
AcDbEntity
  8
0
100
AcDbVertex
100
AcDbPolygonMeshVertex
 10
-2.398321
 20
-0.962787
 30
0.705
 70
    64
  0
VERTEX
  5
466EE
100
AcDbEntity
  8
0
100
AcDbVertex
100
AcDbPolygonMeshVertex
 10
-2.181162
 20
-0.860599
 30
2.01
 70
    64
  0
VERTEX
  5
466EF
100
AcDbEntity
  8
0
100
AcDbVertex
100
AcDbPolygonMeshVertex
 10
-2.181162
 20
-0.860599
 30
0.705
 70
    64
  0
VERTEX
  5
466F0
100
AcDbEntity
  8
0
100
AcDbVertex
100
AcDbPolygonMeshVertex
 10
-2.181162
 20
-0.860599
 30
0.705
 70
    64
  0
VERTEX
  5
466F1
100
AcDbEntity
  8
0
100
AcDbVertex
100
AcDbPolygonMeshVertex
 10
-2.053428
 20
-1.132048
 30
2.01
 70
    64
  0
VERTEX
  5
466F2
100
AcDbEntity
  8
0
100
AcDbVertex
100
AcDbPolygonMeshVertex
 10
-2.053428
 20
-1.132048
 30
0.705
 70
    64
  0
VERTEX
  5
466F3
100
AcDbEntity
  8
0
100
AcDbVertex
100
AcDbPolygonMeshVertex
 10
-2.181162
 20
-0.860599
 30
0.705
 70
    64
  0
VERTEX
  5
466F4
100
AcDbEntity
  8
0
100
AcDbVertex
100
AcDbPolygonMeshVertex
 10
-2.270587
 20
-1.234235
 30
2.01
 70
    64
  0
VERTEX
  5
466F5
100
AcDbEntity
  8
0
100
AcDbVertex
100
AcDbPolygonMeshVertex
 10
-2.270587
 20
-1.234235
 30
0.705
 70
    64
  0
VERTEX
  5
466F6
100
AcDbEntity
  8
0
100
AcDbVertex
100
AcDbPolygonMeshVertex
 10
-2.398321
 20
-0.962787
 30
0.705
 70
    64
  0
VERTEX
  5
466F7
100
AcDbEntity
  8
0
100
AcDbVertex
100
AcDbPolygonMeshVertex
 10
-2.270587
 20
-1.234235
 30
2.01
 70
    64
  0
VERTEX
  5
466F8
100
AcDbEntity
  8
0
100
AcDbVertex
100
AcDbPolygonMeshVertex
 10
-2.270587
 20
-1.234235
 30
2.01
 70
    64
  0
VERTEX
  5
466F9
100
AcDbEntity
  8
0
100
AcDbVertex
100
AcDbPolygonMeshVertex
 10
-2.398321
 20
-0.962787
 30
2.01
 70
    64
  0
VERTEX
  5
466FA
100
AcDbEntity
  8
0
100
AcDbVertex
100
AcDbPolygonMeshVertex
 10
-2.053428
 20
-1.132048
 30
2.01
 70
    64
  0
VERTEX
  5
466FB
100
AcDbEntity
  8
0
100
AcDbVertex
100
AcDbPolygonMeshVertex
 10
-2.053428
 20
-1.132048
 30
2.01
 70
    64
  0
VERTEX
  5
466FC
100
AcDbEntity
  8
0
100
AcDbVertex
100
AcDbPolygonMeshVertex
 10
-2.181162
 20
-0.860599
 30
2.01
 70
    64
  0
SEQEND
  5
466FD
100
AcDbEntity
  8
0
  0
POLYLINE
  5
466FE
100
AcDbEntity
  8
0
100
AcDbPolygonMesh
 66
     1
 10
0.0
 20
0.0
 30
0.0
 70
    16
 71
     6
 72
     3
  0
VERTEX
  5
466FF
100
AcDbEntity
  8
0
100
AcDbVertex
100
AcDbPolygonMeshVertex
 10
-2.333134
 20
-1.111478
 30
2.01
 70
    64
  0
VERTEX
  5
46700
100
AcDbEntity
  8
0
100
AcDbVertex
100
AcDbPolygonMeshVertex
 10
-2.333134
 20
-1.111478
 30
0.705
 70
    64
  0
VERTEX
  5
46701
100
AcDbEntity
  8
0
100
AcDbVertex
100
AcDbPolygonMeshVertex
 10
-2.333134
 20
-1.111478
 30
0.705
 70
    64
  0
VERTEX
  5
46702
100
AcDbEntity
  8
0
100
AcDbVertex
100
AcDbPolygonMeshVertex
 10
-2.122821
 20
-0.995858
 30
2.01
 70
    64
  0
VERTEX
  5
46703
100
AcDbEntity
  8
0
100
AcDbVertex
100
AcDbPolygonMeshVertex
 10
-2.122821
 20
-0.995858
 30
0.705
 70
    64
  0
VERTEX
  5
46704
100
AcDbEntity
  8
0
100
AcDbVertex
100
AcDbPolygonMeshVertex
 10
-2.122821
 20
-0.995858
 30
0.705
 70
    64
  0
VERTEX
  5
46705
100
AcDbEntity
  8
0
100
AcDbVertex
100
AcDbPolygonMeshVertex
 10
-1.978295
 20
-1.25875
 30
2.01
 70
    64
  0
VERTEX
  5
46706
100
AcDbEntity
  8
0
100
AcDbVertex
100
AcDbPolygonMeshVertex
 10
-1.978295
 20
-1.25875
 30
0.705
 70
    64
  0
VERTEX
  5
46707
100
AcDbEntity
  8
0
100
AcDbVertex
100
AcDbPolygonMeshVertex
 10
-2.122821
 20
-0.995858
 30
0.705
 70
    64
  0
VERTEX
  5
46708
100
AcDbEntity
  8
0
100
AcDbVertex
100
AcDbPolygonMeshVertex
 10
-2.188608
 20
-1.37437
 30
2.01
 70
    64
  0
VERTEX
  5
46709
100
AcDbEntity
  8
0
100
AcDbVertex
100
AcDbPolygonMeshVertex
 10
-2.188608
 20
-1.37437
 30
0.705
 70
    64
  0
VERTEX
  5
4670A
100
AcDbEntity
  8
0
100
AcDbVertex
100
AcDbPolygonMeshVertex
 10
-2.333134
 20
-1.111478
 30
0.705
 70
    64
  0
VERTEX
  5
4670B
100
AcDbEntity
  8
0
100
AcDbVertex
100
AcDbPolygonMeshVertex
 10
-2.188608
 20
-1.37437
 30
2.01
 70
    64
  0
VERTEX
  5
4670C
100
AcDbEntity
  8
0
100
AcDbVertex
100
AcDbPolygonMeshVertex
 10
-2.188608
 20
-1.37437
 30
2.01
 70
    64
  0
VERTEX
  5
4670D
100
AcDbEntity
  8
0
100
AcDbVertex
100
AcDbPolygonMeshVertex
 10
-2.333134
 20
-1.111478
 30
2.01
 70
    64
  0
VERTEX
  5
4670E
100
AcDbEntity
  8
0
100
AcDbVertex
100
AcDbPolygonMeshVertex
 10
-1.978295
 20
-1.25875
 30
2.01
 70
    64
  0
VERTEX
  5
4670F
100
AcDbEntity
  8
0
100
AcDbVertex
100
AcDbPolygonMeshVertex
 10
-1.978295
 20
-1.25875
 30
2.01
 70
    64
  0
VERTEX
  5
46710
100
AcDbEntity
  8
0
100
AcDbVertex
100
AcDbPolygonMeshVertex
 10
-2.122821
 20
-0.995858
 30
2.01
 70
    64
  0
SEQEND
  5
46711
100
AcDbEntity
  8
0
  0
POLYLINE
  5
46712
100
AcDbEntity
  8
0
100
AcDbPolygonMesh
 66
     1
 10
0.0
 20
0.0
 30
0.0
 70
    16
 71
     6
 72
     3
  0
VERTEX
  5
46713
100
AcDbEntity
  8
0
100
AcDbVertex
100
AcDbPolygonMeshVertex
 10
-2.25874
 20
-1.255784
 30
2.01
 70
    64
  0
VERTEX
  5
46714
100
AcDbEntity
  8
0
100
AcDbVertex
100
AcDbPolygonMeshVertex
 10
-2.25874
 20
-1.255784
 30
0.705
 70
    64
  0
VERTEX
  5
46715
100
AcDbEntity
  8
0
100
AcDbVertex
100
AcDbPolygonMeshVertex
 10
-2.25874
 20
-1.255784
 30
0.705
 70
    64
  0
VERTEX
  5
46716
100
AcDbEntity
  8
0
100
AcDbVertex
100
AcDbPolygonMeshVertex
 10
-2.056101
 20
-1.127186
 30
2.01
 70
    64
  0
VERTEX
  5
46717
100
AcDbEntity
  8
0
100
AcDbVertex
100
AcDbPolygonMeshVertex
 10
-2.056101
 20
-1.127186
 30
0.705
 70
    64
  0
VERTEX
  5
46718
100
AcDbEntity
  8
0
100
AcDbVertex
100
AcDbPolygonMeshVertex
 10
-2.056101
 20
-1.127186
 30
0.705
 70
    64
  0
VERTEX
  5
46719
100
AcDbEntity
  8
0
100
AcDbVertex
100
AcDbPolygonMeshVertex
 10
-1.895353
 20
-1.380484
 30
2.01
 70
    64
  0
VERTEX
  5
4671A
100
AcDbEntity
  8
0
100
AcDbVertex
100
AcDbPolygonMeshVertex
 10
-1.895353
 20
-1.380484
 30
0.705
 70
    64
  0
VERTEX
  5
4671B
100
AcDbEntity
  8
0
100
AcDbVertex
100
AcDbPolygonMeshVertex
 10
-2.056101
 20
-1.127186
 30
0.705
 70
    64
  0
VERTEX
  5
4671C
100
AcDbEntity
  8
0
100
AcDbVertex
100
AcDbPolygonMeshVertex
 10
-2.097992
 20
-1.509082
 30
2.01
 70
    64
  0
VERTEX
  5
4671D
100
AcDbEntity
  8
0
100
AcDbVertex
100
AcDbPolygonMeshVertex
 10
-2.097992
 20
-1.509082
 30
0.705
 70
    64
  0
VERTEX
  5
4671E
100
AcDbEntity
  8
0
100
AcDbVertex
100
AcDbPolygonMeshVertex
 10
-2.25874
 20
-1.255784
 30
0.705
 70
    64
  0
VERTEX
  5
4671F
100
AcDbEntity
  8
0
100
AcDbVertex
100
AcDbPolygonMeshVertex
 10
-2.097992
 20
-1.509082
 30
2.01
 70
    64
  0
VERTEX
  5
46720
100
AcDbEntity
  8
0
100
AcDbVertex
100
AcDbPolygonMeshVertex
 10
-2.097992
 20
-1.509082
 30
2.01
 70
    64
  0
VERTEX
  5
46721
100
AcDbEntity
  8
0
100
AcDbVertex
100
AcDbPolygonMeshVertex
 10
-2.25874
 20
-1.255784
 30
2.01
 70
    64
  0
VERTEX
  5
46722
100
AcDbEntity
  8
0
100
AcDbVertex
100
AcDbPolygonMeshVertex
 10
-1.895353
 20
-1.380484
 30
2.01
 70
    64
  0
VERTEX
  5
46723
100
AcDbEntity
  8
0
100
AcDbVertex
100
AcDbPolygonMeshVertex
 10
-1.895353
 20
-1.380484
 30
2.01
 70
    64
  0
VERTEX
  5
46724
100
AcDbEntity
  8
0
100
AcDbVertex
100
AcDbPolygonMeshVertex
 10
-2.056101
 20
-1.127186
 30
2.01
 70
    64
  0
SEQEND
  5
46725
100
AcDbEntity
  8
0
  0
POLYLINE
  5
46726
100
AcDbEntity
  8
0
100
AcDbPolygonMesh
 66
     1
 10
0.0
 20
0.0
 30
0.0
 70
    16
 71
     6
 72
     3
  0
VERTEX
  5
46727
100
AcDbEntity
  8
0
100
AcDbVertex
100
AcDbPolygonMeshVertex
 10
-2.175432
 20
-1.395133
 30
2.01
 70
    64
  0
VERTEX
  5
46728
100
AcDbEntity
  8
0
100
AcDbVertex
100
AcDbPolygonMeshVertex
 10
-2.175432
 20
-1.395133
 30
0.705
 70
    64
  0
VERTEX
  5
46729
100
AcDbEntity
  8
0
100
AcDbVertex
100
AcDbPolygonMeshVertex
 10
-2.175432
 20
-1.395133
 30
0.705
 70
    64
  0
VERTEX
  5
4672A
100
AcDbEntity
  8
0
100
AcDbVertex
100
AcDbPolygonMeshVertex
 10
-1.981268
 20
-1.254065
 30
2.01
 70
    64
  0
VERTEX
  5
4672B
100
AcDbEntity
  8
0
100
AcDbVertex
100
AcDbPolygonMeshVertex
 10
-1.981268
 20
-1.254065
 30
0.705
 70
    64
  0
VERTEX
  5
4672C
100
AcDbEntity
  8
0
100
AcDbVertex
100
AcDbPolygonMeshVertex
 10
-1.981268
 20
-1.254065
 30
0.705
 70
    64
  0
VERTEX
  5
4672D
100
AcDbEntity
  8
0
100
AcDbVertex
100
AcDbPolygonMeshVertex
 10
-1.804932
 20
-1.49677
 30
2.01
 70
    64
  0
VERTEX
  5
4672E
100
AcDbEntity
  8
0
100
AcDbVertex
100
AcDbPolygonMeshVertex
 10
-1.804932
 20
-1.49677
 30
0.705
 70
    64
  0
VERTEX
  5
4672F
100
AcDbEntity
  8
0
100
AcDbVertex
100
AcDbPolygonMeshVertex
 10
-1.981268
 20
-1.254065
 30
0.705
 70
    64
  0
VERTEX
  5
46730
100
AcDbEntity
  8
0
100
AcDbVertex
100
AcDbPolygonMeshVertex
 10
-1.999096
 20
-1.637839
 30
2.01
 70
    64
  0
VERTEX
  5
46731
100
AcDbEntity
  8
0
100
AcDbVertex
100
AcDbPolygonMeshVertex
 10
-1.999096
 20
-1.637839
 30
0.705
 70
    64
  0
VERTEX
  5
46732
100
AcDbEntity
  8
0
100
AcDbVertex
100
AcDbPolygonMeshVertex
 10
-2.175432
 20
-1.395133
 30
0.705
 70
    64
  0
VERTEX
  5
46733
100
AcDbEntity
  8
0
100
AcDbVertex
100
AcDbPolygonMeshVertex
 10
-1.999096
 20
-1.637839
 30
2.01
 70
    64
  0
VERTEX
  5
46734
100
AcDbEntity
  8
0
100
AcDbVertex
100
AcDbPolygonMeshVertex
 10
-1.999096
 20
-1.637839
 30
2.01
 70
    64
  0
VERTEX
  5
46735
100
AcDbEntity
  8
0
100
AcDbVertex
100
AcDbPolygonMeshVertex
 10
-2.175432
 20
-1.395133
 30
2.01
 70
    64
  0
VERTEX
  5
46736
100
AcDbEntity
  8
0
100
AcDbVertex
100
AcDbPolygonMeshVertex
 10
-1.804932
 20
-1.49677
 30
2.01
 70
    64
  0
VERTEX
  5
46737
100
AcDbEntity
  8
0
100
AcDbVertex
100
AcDbPolygonMeshVertex
 10
-1.804932
 20
-1.49677
 30
2.01
 70
    64
  0
VERTEX
  5
46738
100
AcDbEntity
  8
0
100
AcDbVertex
100
AcDbPolygonMeshVertex
 10
-1.981268
 20
-1.254065
 30
2.01
 70
    64
  0
SEQEND
  5
46739
100
AcDbEntity
  8
0
  0
POLYLINE
  5
4673A
100
AcDbEntity
  8
0
100
AcDbPolygonMesh
 66
     1
 10
0.0
 20
0.0
 30
0.0
 70
    16
 71
     6
 72
     3
  0
VERTEX
  5
4673B
100
AcDbEntity
  8
0
100
AcDbVertex
100
AcDbPolygonMeshVertex
 10
-2.083538
 20
-1.528977
 30
2.01
 70
    64
  0
VERTEX
  5
4673C
100
AcDbEntity
  8
0
100
AcDbVertex
100
AcDbPolygonMeshVertex
 10
-2.083538
 20
-1.528977
 30
0.705
 70
    64
  0
VERTEX
  5
4673D
100
AcDbEntity
  8
0
100
AcDbVertex
100
AcDbPolygonMeshVertex
 10
-2.083538
 20
-1.528977
 30
0.705
 70
    64
  0
VERTEX
  5
4673E
100
AcDbEntity
  8
0
100
AcDbVertex
100
AcDbPolygonMeshVertex
 10
-1.898615
 20
-1.375995
 30
2.01
 70
    64
  0
VERTEX
  5
4673F
100
AcDbEntity
  8
0
100
AcDbVertex
100
AcDbPolygonMeshVertex
 10
-1.898615
 20
-1.375995
 30
0.705
 70
    64
  0
VERTEX
  5
46740
100
AcDbEntity
  8
0
100
AcDbVertex
100
AcDbPolygonMeshVertex
 10
-1.898615
 20
-1.375995
 30
0.705
 70
    64
  0
VERTEX
  5
46741
100
AcDbEntity
  8
0
100
AcDbVertex
100
AcDbPolygonMeshVertex
 10
-1.707387
 20
-1.607149
 30
2.01
 70
    64
  0
VERTEX
  5
46742
100
AcDbEntity
  8
0
100
AcDbVertex
100
AcDbPolygonMeshVertex
 10
-1.707387
 20
-1.607149
 30
0.705
 70
    64
  0
VERTEX
  5
46743
100
AcDbEntity
  8
0
100
AcDbVertex
100
AcDbPolygonMeshVertex
 10
-1.898615
 20
-1.375995
 30
0.705
 70
    64
  0
VERTEX
  5
46744
100
AcDbEntity
  8
0
100
AcDbVertex
100
AcDbPolygonMeshVertex
 10
-1.892311
 20
-1.760131
 30
2.01
 70
    64
  0
VERTEX
  5
46745
100
AcDbEntity
  8
0
100
AcDbVertex
100
AcDbPolygonMeshVertex
 10
-1.892311
 20
-1.760131
 30
0.705
 70
    64
  0
VERTEX
  5
46746
100
AcDbEntity
  8
0
100
AcDbVertex
100
AcDbPolygonMeshVertex
 10
-2.083538
 20
-1.528977
 30
0.705
 70
    64
  0
VERTEX
  5
46747
100
AcDbEntity
  8
0
100
AcDbVertex
100
AcDbPolygonMeshVertex
 10
-1.892311
 20
-1.760131
 30
2.01
 70
    64
  0
VERTEX
  5
46748
100
AcDbEntity
  8
0
100
AcDbVertex
100
AcDbPolygonMeshVertex
 10
-1.892311
 20
-1.760131
 30
2.01
 70
    64
  0
VERTEX
  5
46749
100
AcDbEntity
  8
0
100
AcDbVertex
100
AcDbPolygonMeshVertex
 10
-2.083538
 20
-1.528977
 30
2.01
 70
    64
  0
VERTEX
  5
4674A
100
AcDbEntity
  8
0
100
AcDbVertex
100
AcDbPolygonMeshVertex
 10
-1.707387
 20
-1.607149
 30
2.01
 70
    64
  0
VERTEX
  5
4674B
100
AcDbEntity
  8
0
100
AcDbVertex
100
AcDbPolygonMeshVertex
 10
-1.707387
 20
-1.607149
 30
2.01
 70
    64
  0
VERTEX
  5
4674C
100
AcDbEntity
  8
0
100
AcDbVertex
100
AcDbPolygonMeshVertex
 10
-1.898615
 20
-1.375995
 30
2.01
 70
    64
  0
SEQEND
  5
4674D
100
AcDbEntity
  8
0
  0
POLYLINE
  5
4674E
100
AcDbEntity
  8
0
100
AcDbPolygonMesh
 66
     1
 10
0.0
 20
0.0
 30
0.0
 70
    16
 71
     6
 72
     3
  0
VERTEX
  5
4674F
100
AcDbEntity
  8
0
100
AcDbVertex
100
AcDbPolygonMeshVertex
 10
-1.983421
 20
-1.656786
 30
2.01
 70
    64
  0
VERTEX
  5
46750
100
AcDbEntity
  8
0
100
AcDbVertex
100
AcDbPolygonMeshVertex
 10
-1.983421
 20
-1.656786
 30
0.705
 70
    64
  0
VERTEX
  5
46751
100
AcDbEntity
  8
0
100
AcDbVertex
100
AcDbPolygonMeshVertex
 10
-1.983421
 20
-1.656786
 30
0.705
 70
    64
  0
VERTEX
  5
46752
100
AcDbEntity
  8
0
100
AcDbVertex
100
AcDbPolygonMeshVertex
 10
-1.808469
 20
-1.492495
 30
2.01
 70
    64
  0
VERTEX
  5
46753
100
AcDbEntity
  8
0
100
AcDbVertex
100
AcDbPolygonMeshVertex
 10
-1.808469
 20
-1.492495
 30
0.705
 70
    64
  0
VERTEX
  5
46754
100
AcDbEntity
  8
0
100
AcDbVertex
100
AcDbPolygonMeshVertex
 10
-1.808469
 20
-1.492495
 30
0.705
 70
    64
  0
VERTEX
  5
46755
100
AcDbEntity
  8
0
100
AcDbVertex
100
AcDbPolygonMeshVertex
 10
-1.603105
 20
-1.711186
 30
2.01
 70
    64
  0
VERTEX
  5
46756
100
AcDbEntity
  8
0
100
AcDbVertex
100
AcDbPolygonMeshVertex
 10
-1.603105
 20
-1.711186
 30
0.705
 70
    64
  0
VERTEX
  5
46757
100
AcDbEntity
  8
0
100
AcDbVertex
100
AcDbPolygonMeshVertex
 10
-1.808469
 20
-1.492495
 30
0.705
 70
    64
  0
VERTEX
  5
46758
100
AcDbEntity
  8
0
100
AcDbVertex
100
AcDbPolygonMeshVertex
 10
-1.778057
 20
-1.875477
 30
2.01
 70
    64
  0
VERTEX
  5
46759
100
AcDbEntity
  8
0
100
AcDbVertex
100
AcDbPolygonMeshVertex
 10
-1.778057
 20
-1.875477
 30
0.705
 70
    64
  0
VERTEX
  5
4675A
100
AcDbEntity
  8
0
100
AcDbVertex
100
AcDbPolygonMeshVertex
 10
-1.983421
 20
-1.656786
 30
0.705
 70
    64
  0
VERTEX
  5
4675B
100
AcDbEntity
  8
0
100
AcDbVertex
100
AcDbPolygonMeshVertex
 10
-1.778057
 20
-1.875477
 30
2.01
 70
    64
  0
VERTEX
  5
4675C
100
AcDbEntity
  8
0
100
AcDbVertex
100
AcDbPolygonMeshVertex
 10
-1.778057
 20
-1.875477
 30
2.01
 70
    64
  0
VERTEX
  5
4675D
100
AcDbEntity
  8
0
100
AcDbVertex
100
AcDbPolygonMeshVertex
 10
-1.983421
 20
-1.656786
 30
2.01
 70
    64
  0
VERTEX
  5
4675E
100
AcDbEntity
  8
0
100
AcDbVertex
100
AcDbPolygonMeshVertex
 10
-1.603105
 20
-1.711186
 30
2.01
 70
    64
  0
VERTEX
  5
4675F
100
AcDbEntity
  8
0
100
AcDbVertex
100
AcDbPolygonMeshVertex
 10
-1.603105
 20
-1.711186
 30
2.01
 70
    64
  0
VERTEX
  5
46760
100
AcDbEntity
  8
0
100
AcDbVertex
100
AcDbPolygonMeshVertex
 10
-1.808469
 20
-1.492495
 30
2.01
 70
    64
  0
SEQEND
  5
46761
100
AcDbEntity
  8
0
  0
POLYLINE
  5
46762
100
AcDbEntity
  8
0
100
AcDbPolygonMesh
 66
     1
 10
0.0
 20
0.0
 30
0.0
 70
    16
 71
     6
 72
     3
  0
VERTEX
  5
46763
100
AcDbEntity
  8
0
100
AcDbVertex
100
AcDbPolygonMeshVertex
 10
-1.875477
 20
-1.778057
 30
2.01
 70
    64
  0
VERTEX
  5
46764
100
AcDbEntity
  8
0
100
AcDbVertex
100
AcDbPolygonMeshVertex
 10
-1.875477
 20
-1.778057
 30
0.705
 70
    64
  0
VERTEX
  5
46765
100
AcDbEntity
  8
0
100
AcDbVertex
100
AcDbPolygonMeshVertex
 10
-1.875477
 20
-1.778057
 30
0.705
 70
    64
  0
VERTEX
  5
46766
100
AcDbEntity
  8
0
100
AcDbVertex
100
AcDbPolygonMeshVertex
 10
-1.711186
 20
-1.603105
 30
2.01
 70
    64
  0
VERTEX
  5
46767
100
AcDbEntity
  8
0
100
AcDbVertex
100
AcDbPolygonMeshVertex
 10
-1.711186
 20
-1.603105
 30
0.705
 70
    64
  0
VERTEX
  5
46768
100
AcDbEntity
  8
0
100
AcDbVertex
100
AcDbPolygonMeshVertex
 10
-1.711186
 20
-1.603105
 30
0.705
 70
    64
  0
VERTEX
  5
46769
100
AcDbEntity
  8
0
100
AcDbVertex
100
AcDbPolygonMeshVertex
 10
-1.492495
 20
-1.808469
 30
2.01
 70
    64
  0
VERTEX
  5
4676A
100
AcDbEntity
  8
0
100
AcDbVertex
100
AcDbPolygonMeshVertex
 10
-1.492495
 20
-1.808469
 30
0.705
 70
    64
  0
VERTEX
  5
4676B
100
AcDbEntity
  8
0
100
AcDbVertex
100
AcDbPolygonMeshVertex
 10
-1.711186
 20
-1.603105
 30
0.705
 70
    64
  0
VERTEX
  5
4676C
100
AcDbEntity
  8
0
100
AcDbVertex
100
AcDbPolygonMeshVertex
 10
-1.656786
 20
-1.983421
 30
2.01
 70
    64
  0
VERTEX
  5
4676D
100
AcDbEntity
  8
0
100
AcDbVertex
100
AcDbPolygonMeshVertex
 10
-1.656786
 20
-1.983421
 30
0.705
 70
    64
  0
VERTEX
  5
4676E
100
AcDbEntity
  8
0
100
AcDbVertex
100
AcDbPolygonMeshVertex
 10
-1.875477
 20
-1.778057
 30
0.705
 70
    64
  0
VERTEX
  5
4676F
100
AcDbEntity
  8
0
100
AcDbVertex
100
AcDbPolygonMeshVertex
 10
-1.656786
 20
-1.983421
 30
2.01
 70
    64
  0
VERTEX
  5
46770
100
AcDbEntity
  8
0
100
AcDbVertex
100
AcDbPolygonMeshVertex
 10
-1.656786
 20
-1.983421
 30
2.01
 70
    64
  0
VERTEX
  5
46771
100
AcDbEntity
  8
0
100
AcDbVertex
100
AcDbPolygonMeshVertex
 10
-1.875477
 20
-1.778057
 30
2.01
 70
    64
  0
VERTEX
  5
46772
100
AcDbEntity
  8
0
100
AcDbVertex
100
AcDbPolygonMeshVertex
 10
-1.492495
 20
-1.808469
 30
2.01
 70
    64
  0
VERTEX
  5
46773
100
AcDbEntity
  8
0
100
AcDbVertex
100
AcDbPolygonMeshVertex
 10
-1.492495
 20
-1.808469
 30
2.01
 70
    64
  0
VERTEX
  5
46774
100
AcDbEntity
  8
0
100
AcDbVertex
100
AcDbPolygonMeshVertex
 10
-1.711186
 20
-1.603105
 30
2.01
 70
    64
  0
SEQEND
  5
46775
100
AcDbEntity
  8
0
  0
POLYLINE
  5
46776
100
AcDbEntity
  8
0
100
AcDbPolygonMesh
 66
     1
 10
0.0
 20
0.0
 30
0.0
 70
    16
 71
     6
 72
     3
  0
VERTEX
  5
46777
100
AcDbEntity
  8
0
100
AcDbVertex
100
AcDbPolygonMeshVertex
 10
-1.760131
 20
-1.892311
 30
2.01
 70
    64
  0
VERTEX
  5
46778
100
AcDbEntity
  8
0
100
AcDbVertex
100
AcDbPolygonMeshVertex
 10
-1.760131
 20
-1.892311
 30
0.705
 70
    64
  0
VERTEX
  5
46779
100
AcDbEntity
  8
0
100
AcDbVertex
100
AcDbPolygonMeshVertex
 10
-1.760131
 20
-1.892311
 30
0.705
 70
    64
  0
VERTEX
  5
4677A
100
AcDbEntity
  8
0
100
AcDbVertex
100
AcDbPolygonMeshVertex
 10
-1.607149
 20
-1.707387
 30
2.01
 70
    64
  0
VERTEX
  5
4677B
100
AcDbEntity
  8
0
100
AcDbVertex
100
AcDbPolygonMeshVertex
 10
-1.607149
 20
-1.707387
 30
0.705
 70
    64
  0
VERTEX
  5
4677C
100
AcDbEntity
  8
0
100
AcDbVertex
100
AcDbPolygonMeshVertex
 10
-1.607149
 20
-1.707387
 30
0.705
 70
    64
  0
VERTEX
  5
4677D
100
AcDbEntity
  8
0
100
AcDbVertex
100
AcDbPolygonMeshVertex
 10
-1.375995
 20
-1.898615
 30
2.01
 70
    64
  0
VERTEX
  5
4677E
100
AcDbEntity
  8
0
100
AcDbVertex
100
AcDbPolygonMeshVertex
 10
-1.375995
 20
-1.898615
 30
0.705
 70
    64
  0
VERTEX
  5
4677F
100
AcDbEntity
  8
0
100
AcDbVertex
100
AcDbPolygonMeshVertex
 10
-1.607149
 20
-1.707387
 30
0.705
 70
    64
  0
VERTEX
  5
46780
100
AcDbEntity
  8
0
100
AcDbVertex
100
AcDbPolygonMeshVertex
 10
-1.528977
 20
-2.083538
 30
2.01
 70
    64
  0
VERTEX
  5
46781
100
AcDbEntity
  8
0
100
AcDbVertex
100
AcDbPolygonMeshVertex
 10
-1.528977
 20
-2.083538
 30
0.705
 70
    64
  0
VERTEX
  5
46782
100
AcDbEntity
  8
0
100
AcDbVertex
100
AcDbPolygonMeshVertex
 10
-1.760131
 20
-1.892311
 30
0.705
 70
    64
  0
VERTEX
  5
46783
100
AcDbEntity
  8
0
100
AcDbVertex
100
AcDbPolygonMeshVertex
 10
-1.528977
 20
-2.083538
 30
2.01
 70
    64
  0
VERTEX
  5
46784
100
AcDbEntity
  8
0
100
AcDbVertex
100
AcDbPolygonMeshVertex
 10
-1.528977
 20
-2.083538
 30
2.01
 70
    64
  0
VERTEX
  5
46785
100
AcDbEntity
  8
0
100
AcDbVertex
100
AcDbPolygonMeshVertex
 10
-1.760131
 20
-1.892311
 30
2.01
 70
    64
  0
VERTEX
  5
46786
100
AcDbEntity
  8
0
100
AcDbVertex
100
AcDbPolygonMeshVertex
 10
-1.375995
 20
-1.898615
 30
2.01
 70
    64
  0
VERTEX
  5
46787
100
AcDbEntity
  8
0
100
AcDbVertex
100
AcDbPolygonMeshVertex
 10
-1.375995
 20
-1.898615
 30
2.01
 70
    64
  0
VERTEX
  5
46788
100
AcDbEntity
  8
0
100
AcDbVertex
100
AcDbPolygonMeshVertex
 10
-1.607149
 20
-1.707387
 30
2.01
 70
    64
  0
SEQEND
  5
46789
100
AcDbEntity
  8
0
  0
POLYLINE
  5
4678A
100
AcDbEntity
  8
0
100
AcDbPolygonMesh
 66
     1
 10
0.0
 20
0.0
 30
0.0
 70
    16
 71
     6
 72
     3
  0
VERTEX
  5
4678B
100
AcDbEntity
  8
0
100
AcDbVertex
100
AcDbPolygonMeshVertex
 10
-1.637839
 20
-1.999096
 30
2.01
 70
    64
  0
VERTEX
  5
4678C
100
AcDbEntity
  8
0
100
AcDbVertex
100
AcDbPolygonMeshVertex
 10
-1.637839
 20
-1.999096
 30
0.705
 70
    64
  0
VERTEX
  5
4678D
100
AcDbEntity
  8
0
100
AcDbVertex
100
AcDbPolygonMeshVertex
 10
-1.637839
 20
-1.999096
 30
0.705
 70
    64
  0
VERTEX
  5
4678E
100
AcDbEntity
  8
0
100
AcDbVertex
100
AcDbPolygonMeshVertex
 10
-1.49677
 20
-1.804932
 30
2.01
 70
    64
  0
VERTEX
  5
4678F
100
AcDbEntity
  8
0
100
AcDbVertex
100
AcDbPolygonMeshVertex
 10
-1.49677
 20
-1.804932
 30
0.705
 70
    64
  0
VERTEX
  5
46790
100
AcDbEntity
  8
0
100
AcDbVertex
100
AcDbPolygonMeshVertex
 10
-1.49677
 20
-1.804932
 30
0.705
 70
    64
  0
VERTEX
  5
46791
100
AcDbEntity
  8
0
100
AcDbVertex
100
AcDbPolygonMeshVertex
 10
-1.254065
 20
-1.981268
 30
2.01
 70
    64
  0
VERTEX
  5
46792
100
AcDbEntity
  8
0
100
AcDbVertex
100
AcDbPolygonMeshVertex
 10
-1.254065
 20
-1.981268
 30
0.705
 70
    64
  0
VERTEX
  5
46793
100
AcDbEntity
  8
0
100
AcDbVertex
100
AcDbPolygonMeshVertex
 10
-1.49677
 20
-1.804932
 30
0.705
 70
    64
  0
VERTEX
  5
46794
100
AcDbEntity
  8
0
100
AcDbVertex
100
AcDbPolygonMeshVertex
 10
-1.395133
 20
-2.175432
 30
2.01
 70
    64
  0
VERTEX
  5
46795
100
AcDbEntity
  8
0
100
AcDbVertex
100
AcDbPolygonMeshVertex
 10
-1.395133
 20
-2.175432
 30
0.705
 70
    64
  0
VERTEX
  5
46796
100
AcDbEntity
  8
0
100
AcDbVertex
100
AcDbPolygonMeshVertex
 10
-1.637839
 20
-1.999096
 30
0.705
 70
    64
  0
VERTEX
  5
46797
100
AcDbEntity
  8
0
100
AcDbVertex
100
AcDbPolygonMeshVertex
 10
-1.395133
 20
-2.175432
 30
2.01
 70
    64
  0
VERTEX
  5
46798
100
AcDbEntity
  8
0
100
AcDbVertex
100
AcDbPolygonMeshVertex
 10
-1.395133
 20
-2.175432
 30
2.01
 70
    64
  0
VERTEX
  5
46799
100
AcDbEntity
  8
0
100
AcDbVertex
100
AcDbPolygonMeshVertex
 10
-1.637839
 20
-1.999096
 30
2.01
 70
    64
  0
VERTEX
  5
4679A
100
AcDbEntity
  8
0
100
AcDbVertex
100
AcDbPolygonMeshVertex
 10
-1.254065
 20
-1.981268
 30
2.01
 70
    64
  0
VERTEX
  5
4679B
100
AcDbEntity
  8
0
100
AcDbVertex
100
AcDbPolygonMeshVertex
 10
-1.254065
 20
-1.981268
 30
2.01
 70
    64
  0
VERTEX
  5
4679C
100
AcDbEntity
  8
0
100
AcDbVertex
100
AcDbPolygonMeshVertex
 10
-1.49677
 20
-1.804932
 30
2.01
 70
    64
  0
SEQEND
  5
4679D
100
AcDbEntity
  8
0
  0
POLYLINE
  5
4679E
100
AcDbEntity
  8
0
100
AcDbPolygonMesh
 66
     1
 10
0.0
 20
0.0
 30
0.0
 70
    16
 71
     6
 72
     3
  0
VERTEX
  5
4679F
100
AcDbEntity
  8
0
100
AcDbVertex
100
AcDbPolygonMeshVertex
 10
-1.509082
 20
-2.097992
 30
2.01
 70
    64
  0
VERTEX
  5
467A0
100
AcDbEntity
  8
0
100
AcDbVertex
100
AcDbPolygonMeshVertex
 10
-1.509082
 20
-2.097992
 30
0.705
 70
    64
  0
VERTEX
  5
467A1
100
AcDbEntity
  8
0
100
AcDbVertex
100
AcDbPolygonMeshVertex
 10
-1.509082
 20
-2.097992
 30
0.705
 70
    64
  0
VERTEX
  5
467A2
100
AcDbEntity
  8
0
100
AcDbVertex
100
AcDbPolygonMeshVertex
 10
-1.380484
 20
-1.895353
 30
2.01
 70
    64
  0
VERTEX
  5
467A3
100
AcDbEntity
  8
0
100
AcDbVertex
100
AcDbPolygonMeshVertex
 10
-1.380484
 20
-1.895353
 30
0.705
 70
    64
  0
VERTEX
  5
467A4
100
AcDbEntity
  8
0
100
AcDbVertex
100
AcDbPolygonMeshVertex
 10
-1.380484
 20
-1.895353
 30
0.705
 70
    64
  0
VERTEX
  5
467A5
100
AcDbEntity
  8
0
100
AcDbVertex
100
AcDbPolygonMeshVertex
 10
-1.127186
 20
-2.056101
 30
2.01
 70
    64
  0
VERTEX
  5
467A6
100
AcDbEntity
  8
0
100
AcDbVertex
100
AcDbPolygonMeshVertex
 10
-1.127186
 20
-2.056101
 30
0.705
 70
    64
  0
VERTEX
  5
467A7
100
AcDbEntity
  8
0
100
AcDbVertex
100
AcDbPolygonMeshVertex
 10
-1.380484
 20
-1.895353
 30
0.705
 70
    64
  0
VERTEX
  5
467A8
100
AcDbEntity
  8
0
100
AcDbVertex
100
AcDbPolygonMeshVertex
 10
-1.255784
 20
-2.25874
 30
2.01
 70
    64
  0
VERTEX
  5
467A9
100
AcDbEntity
  8
0
100
AcDbVertex
100
AcDbPolygonMeshVertex
 10
-1.255784
 20
-2.25874
 30
0.705
 70
    64
  0
VERTEX
  5
467AA
100
AcDbEntity
  8
0
100
AcDbVertex
100
AcDbPolygonMeshVertex
 10
-1.509082
 20
-2.097992
 30
0.705
 70
    64
  0
VERTEX
  5
467AB
100
AcDbEntity
  8
0
100
AcDbVertex
100
AcDbPolygonMeshVertex
 10
-1.255784
 20
-2.25874
 30
2.01
 70
    64
  0
VERTEX
  5
467AC
100
AcDbEntity
  8
0
100
AcDbVertex
100
AcDbPolygonMeshVertex
 10
-1.255784
 20
-2.25874
 30
2.01
 70
    64
  0
VERTEX
  5
467AD
100
AcDbEntity
  8
0
100
AcDbVertex
100
AcDbPolygonMeshVertex
 10
-1.509082
 20
-2.097992
 30
2.01
 70
    64
  0
VERTEX
  5
467AE
100
AcDbEntity
  8
0
100
AcDbVertex
100
AcDbPolygonMeshVertex
 10
-1.127186
 20
-2.056101
 30
2.01
 70
    64
  0
VERTEX
  5
467AF
100
AcDbEntity
  8
0
100
AcDbVertex
100
AcDbPolygonMeshVertex
 10
-1.127186
 20
-2.056101
 30
2.01
 70
    64
  0
VERTEX
  5
467B0
100
AcDbEntity
  8
0
100
AcDbVertex
100
AcDbPolygonMeshVertex
 10
-1.380484
 20
-1.895353
 30
2.01
 70
    64
  0
SEQEND
  5
467B1
100
AcDbEntity
  8
0
  0
POLYLINE
  5
467B2
100
AcDbEntity
  8
0
100
AcDbPolygonMesh
 66
     1
 10
0.0
 20
0.0
 30
0.0
 70
    16
 71
     6
 72
     3
  0
VERTEX
  5
467B3
100
AcDbEntity
  8
0
100
AcDbVertex
100
AcDbPolygonMeshVertex
 10
-1.37437
 20
-2.188608
 30
2.01
 70
    64
  0
VERTEX
  5
467B4
100
AcDbEntity
  8
0
100
AcDbVertex
100
AcDbPolygonMeshVertex
 10
-1.37437
 20
-2.188608
 30
0.705
 70
    64
  0
VERTEX
  5
467B5
100
AcDbEntity
  8
0
100
AcDbVertex
100
AcDbPolygonMeshVertex
 10
-1.37437
 20
-2.188608
 30
0.705
 70
    64
  0
VERTEX
  5
467B6
100
AcDbEntity
  8
0
100
AcDbVertex
100
AcDbPolygonMeshVertex
 10
-1.25875
 20
-1.978295
 30
2.01
 70
    64
  0
VERTEX
  5
467B7
100
AcDbEntity
  8
0
100
AcDbVertex
100
AcDbPolygonMeshVertex
 10
-1.25875
 20
-1.978295
 30
0.705
 70
    64
  0
VERTEX
  5
467B8
100
AcDbEntity
  8
0
100
AcDbVertex
100
AcDbPolygonMeshVertex
 10
-1.25875
 20
-1.978295
 30
0.705
 70
    64
  0
VERTEX
  5
467B9
100
AcDbEntity
  8
0
100
AcDbVertex
100
AcDbPolygonMeshVertex
 10
-0.995858
 20
-2.122821
 30
2.01
 70
    64
  0
VERTEX
  5
467BA
100
AcDbEntity
  8
0
100
AcDbVertex
100
AcDbPolygonMeshVertex
 10
-0.995858
 20
-2.122821
 30
0.705
 70
    64
  0
VERTEX
  5
467BB
100
AcDbEntity
  8
0
100
AcDbVertex
100
AcDbPolygonMeshVertex
 10
-1.25875
 20
-1.978295
 30
0.705
 70
    64
  0
VERTEX
  5
467BC
100
AcDbEntity
  8
0
100
AcDbVertex
100
AcDbPolygonMeshVertex
 10
-1.111478
 20
-2.333134
 30
2.01
 70
    64
  0
VERTEX
  5
467BD
100
AcDbEntity
  8
0
100
AcDbVertex
100
AcDbPolygonMeshVertex
 10
-1.111478
 20
-2.333134
 30
0.705
 70
    64
  0
VERTEX
  5
467BE
100
AcDbEntity
  8
0
100
AcDbVertex
100
AcDbPolygonMeshVertex
 10
-1.37437
 20
-2.188608
 30
0.705
 70
    64
  0
VERTEX
  5
467BF
100
AcDbEntity
  8
0
100
AcDbVertex
100
AcDbPolygonMeshVertex
 10
-1.111478
 20
-2.333134
 30
2.01
 70
    64
  0
VERTEX
  5
467C0
100
AcDbEntity
  8
0
100
AcDbVertex
100
AcDbPolygonMeshVertex
 10
-1.111478
 20
-2.333134
 30
2.01
 70
    64
  0
VERTEX
  5
467C1
100
AcDbEntity
  8
0
100
AcDbVertex
100
AcDbPolygonMeshVertex
 10
-1.37437
 20
-2.188608
 30
2.01
 70
    64
  0
VERTEX
  5
467C2
100
AcDbEntity
  8
0
100
AcDbVertex
100
AcDbPolygonMeshVertex
 10
-0.995858
 20
-2.122821
 30
2.01
 70
    64
  0
VERTEX
  5
467C3
100
AcDbEntity
  8
0
100
AcDbVertex
100
AcDbPolygonMeshVertex
 10
-0.995858
 20
-2.122821
 30
2.01
 70
    64
  0
VERTEX
  5
467C4
100
AcDbEntity
  8
0
100
AcDbVertex
100
AcDbPolygonMeshVertex
 10
-1.25875
 20
-1.978295
 30
2.01
 70
    64
  0
SEQEND
  5
467C5
100
AcDbEntity
  8
0
  0
POLYLINE
  5
467C6
100
AcDbEntity
  8
0
100
AcDbPolygonMesh
 66
     1
 10
0.0
 20
0.0
 30
0.0
 70
    16
 71
     6
 72
     3
  0
VERTEX
  5
467C7
100
AcDbEntity
  8
0
100
AcDbVertex
100
AcDbPolygonMeshVertex
 10
-1.234235
 20
-2.270587
 30
2.01
 70
    64
  0
VERTEX
  5
467C8
100
AcDbEntity
  8
0
100
AcDbVertex
100
AcDbPolygonMeshVertex
 10
-1.234235
 20
-2.270587
 30
0.705
 70
    64
  0
VERTEX
  5
467C9
100
AcDbEntity
  8
0
100
AcDbVertex
100
AcDbPolygonMeshVertex
 10
-1.234235
 20
-2.270587
 30
0.705
 70
    64
  0
VERTEX
  5
467CA
100
AcDbEntity
  8
0
100
AcDbVertex
100
AcDbPolygonMeshVertex
 10
-1.132048
 20
-2.053428
 30
2.01
 70
    64
  0
VERTEX
  5
467CB
100
AcDbEntity
  8
0
100
AcDbVertex
100
AcDbPolygonMeshVertex
 10
-1.132048
 20
-2.053428
 30
0.705
 70
    64
  0
VERTEX
  5
467CC
100
AcDbEntity
  8
0
100
AcDbVertex
100
AcDbPolygonMeshVertex
 10
-1.132048
 20
-2.053428
 30
0.705
 70
    64
  0
VERTEX
  5
467CD
100
AcDbEntity
  8
0
100
AcDbVertex
100
AcDbPolygonMeshVertex
 10
-0.860599
 20
-2.181162
 30
2.01
 70
    64
  0
VERTEX
  5
467CE
100
AcDbEntity
  8
0
100
AcDbVertex
100
AcDbPolygonMeshVertex
 10
-0.860599
 20
-2.181162
 30
0.705
 70
    64
  0
VERTEX
  5
467CF
100
AcDbEntity
  8
0
100
AcDbVertex
100
AcDbPolygonMeshVertex
 10
-1.132048
 20
-2.053428
 30
0.705
 70
    64
  0
VERTEX
  5
467D0
100
AcDbEntity
  8
0
100
AcDbVertex
100
AcDbPolygonMeshVertex
 10
-0.962787
 20
-2.398321
 30
2.01
 70
    64
  0
VERTEX
  5
467D1
100
AcDbEntity
  8
0
100
AcDbVertex
100
AcDbPolygonMeshVertex
 10
-0.962787
 20
-2.398321
 30
0.705
 70
    64
  0
VERTEX
  5
467D2
100
AcDbEntity
  8
0
100
AcDbVertex
100
AcDbPolygonMeshVertex
 10
-1.234235
 20
-2.270587
 30
0.705
 70
    64
  0
VERTEX
  5
467D3
100
AcDbEntity
  8
0
100
AcDbVertex
100
AcDbPolygonMeshVertex
 10
-0.962787
 20
-2.398321
 30
2.01
 70
    64
  0
VERTEX
  5
467D4
100
AcDbEntity
  8
0
100
AcDbVertex
100
AcDbPolygonMeshVertex
 10
-0.962787
 20
-2.398321
 30
2.01
 70
    64
  0
VERTEX
  5
467D5
100
AcDbEntity
  8
0
100
AcDbVertex
100
AcDbPolygonMeshVertex
 10
-1.234235
 20
-2.270587
 30
2.01
 70
    64
  0
VERTEX
  5
467D6
100
AcDbEntity
  8
0
100
AcDbVertex
100
AcDbPolygonMeshVertex
 10
-0.860599
 20
-2.181162
 30
2.01
 70
    64
  0
VERTEX
  5
467D7
100
AcDbEntity
  8
0
100
AcDbVertex
100
AcDbPolygonMeshVertex
 10
-0.860599
 20
-2.181162
 30
2.01
 70
    64
  0
VERTEX
  5
467D8
100
AcDbEntity
  8
0
100
AcDbVertex
100
AcDbPolygonMeshVertex
 10
-1.132048
 20
-2.053428
 30
2.01
 70
    64
  0
SEQEND
  5
467D9
100
AcDbEntity
  8
0
  0
POLYLINE
  5
467DA
100
AcDbEntity
  8
0
100
AcDbPolygonMesh
 66
     1
 10
0.0
 20
0.0
 30
0.0
 70
    16
 71
     6
 72
     3
  0
VERTEX
  5
467DB
100
AcDbEntity
  8
0
100
AcDbVertex
100
AcDbPolygonMeshVertex
 10
-1.089228
 20
-2.343605
 30
2.01
 70
    64
  0
VERTEX
  5
467DC
100
AcDbEntity
  8
0
100
AcDbVertex
100
AcDbPolygonMeshVertex
 10
-1.089228
 20
-2.343605
 30
0.705
 70
    64
  0
VERTEX
  5
467DD
100
AcDbEntity
  8
0
100
AcDbVertex
100
AcDbPolygonMeshVertex
 10
-1.089228
 20
-2.343605
 30
0.705
 70
    64
  0
VERTEX
  5
467DE
100
AcDbEntity
  8
0
100
AcDbVertex
100
AcDbPolygonMeshVertex
 10
-1.000878
 20
-2.120458
 30
2.01
 70
    64
  0
VERTEX
  5
467DF
100
AcDbEntity
  8
0
100
AcDbVertex
100
AcDbPolygonMeshVertex
 10
-1.000878
 20
-2.120458
 30
0.705
 70
    64
  0
VERTEX
  5
467E0
100
AcDbEntity
  8
0
100
AcDbVertex
100
AcDbPolygonMeshVertex
 10
-1.000878
 20
-2.120458
 30
0.705
 70
    64
  0
VERTEX
  5
467E1
100
AcDbEntity
  8
0
100
AcDbVertex
100
AcDbPolygonMeshVertex
 10
-0.721945
 20
-2.230896
 30
2.01
 70
    64
  0
VERTEX
  5
467E2
100
AcDbEntity
  8
0
100
AcDbVertex
100
AcDbPolygonMeshVertex
 10
-0.721945
 20
-2.230896
 30
0.705
 70
    64
  0
VERTEX
  5
467E3
100
AcDbEntity
  8
0
100
AcDbVertex
100
AcDbPolygonMeshVertex
 10
-1.000878
 20
-2.120458
 30
0.705
 70
    64
  0
VERTEX
  5
467E4
100
AcDbEntity
  8
0
100
AcDbVertex
100
AcDbPolygonMeshVertex
 10
-0.810295
 20
-2.454042
 30
2.01
 70
    64
  0
VERTEX
  5
467E5
100
AcDbEntity
  8
0
100
AcDbVertex
100
AcDbPolygonMeshVertex
 10
-0.810295
 20
-2.454042
 30
0.705
 70
    64
  0
VERTEX
  5
467E6
100
AcDbEntity
  8
0
100
AcDbVertex
100
AcDbPolygonMeshVertex
 10
-1.089228
 20
-2.343605
 30
0.705
 70
    64
  0
VERTEX
  5
467E7
100
AcDbEntity
  8
0
100
AcDbVertex
100
AcDbPolygonMeshVertex
 10
-0.810295
 20
-2.454042
 30
2.01
 70
    64
  0
VERTEX
  5
467E8
100
AcDbEntity
  8
0
100
AcDbVertex
100
AcDbPolygonMeshVertex
 10
-0.810295
 20
-2.454042
 30
2.01
 70
    64
  0
VERTEX
  5
467E9
100
AcDbEntity
  8
0
100
AcDbVertex
100
AcDbPolygonMeshVertex
 10
-1.089228
 20
-2.343605
 30
2.01
 70
    64
  0
VERTEX
  5
467EA
100
AcDbEntity
  8
0
100
AcDbVertex
100
AcDbPolygonMeshVertex
 10
-0.721945
 20
-2.230896
 30
2.01
 70
    64
  0
VERTEX
  5
467EB
100
AcDbEntity
  8
0
100
AcDbVertex
100
AcDbPolygonMeshVertex
 10
-0.721945
 20
-2.230896
 30
2.01
 70
    64
  0
VERTEX
  5
467EC
100
AcDbEntity
  8
0
100
AcDbVertex
100
AcDbPolygonMeshVertex
 10
-1.000878
 20
-2.120458
 30
2.01
 70
    64
  0
SEQEND
  5
467ED
100
AcDbEntity
  8
0
  0
POLYLINE
  5
467EE
100
AcDbEntity
  8
0
100
AcDbPolygonMesh
 66
     1
 10
0.0
 20
0.0
 30
0.0
 70
    16
 71
     6
 72
     3
  0
VERTEX
  5
467EF
100
AcDbEntity
  8
0
100
AcDbVertex
100
AcDbPolygonMeshVertex
 10
-0.939922
 20
-2.407373
 30
2.01
 70
    64
  0
VERTEX
  5
467F0
100
AcDbEntity
  8
0
100
AcDbVertex
100
AcDbPolygonMeshVertex
 10
-0.939922
 20
-2.407373
 30
0.705
 70
    64
  0
VERTEX
  5
467F1
100
AcDbEntity
  8
0
100
AcDbVertex
100
AcDbPolygonMeshVertex
 10
-0.939922
 20
-2.407373
 30
0.705
 70
    64
  0
VERTEX
  5
467F2
100
AcDbEntity
  8
0
100
AcDbVertex
100
AcDbPolygonMeshVertex
 10
-0.865758
 20
-2.17912
 30
2.01
 70
    64
  0
VERTEX
  5
467F3
100
AcDbEntity
  8
0
100
AcDbVertex
100
AcDbPolygonMeshVertex
 10
-0.865758
 20
-2.17912
 30
0.705
 70
    64
  0
VERTEX
  5
467F4
100
AcDbEntity
  8
0
100
AcDbVertex
100
AcDbPolygonMeshVertex
 10
-0.865758
 20
-2.17912
 30
0.705
 70
    64
  0
VERTEX
  5
467F5
100
AcDbEntity
  8
0
100
AcDbVertex
100
AcDbPolygonMeshVertex
 10
-0.580441
 20
-2.271825
 30
2.01
 70
    64
  0
VERTEX
  5
467F6
100
AcDbEntity
  8
0
100
AcDbVertex
100
AcDbPolygonMeshVertex
 10
-0.580441
 20
-2.271825
 30
0.705
 70
    64
  0
VERTEX
  5
467F7
100
AcDbEntity
  8
0
100
AcDbVertex
100
AcDbPolygonMeshVertex
 10
-0.865758
 20
-2.17912
 30
0.705
 70
    64
  0
VERTEX
  5
467F8
100
AcDbEntity
  8
0
100
AcDbVertex
100
AcDbPolygonMeshVertex
 10
-0.654605
 20
-2.500078
 30
2.01
 70
    64
  0
VERTEX
  5
467F9
100
AcDbEntity
  8
0
100
AcDbVertex
100
AcDbPolygonMeshVertex
 10
-0.654605
 20
-2.500078
 30
0.705
 70
    64
  0
VERTEX
  5
467FA
100
AcDbEntity
  8
0
100
AcDbVertex
100
AcDbPolygonMeshVertex
 10
-0.939922
 20
-2.407373
 30
0.705
 70
    64
  0
VERTEX
  5
467FB
100
AcDbEntity
  8
0
100
AcDbVertex
100
AcDbPolygonMeshVertex
 10
-0.654605
 20
-2.500078
 30
2.01
 70
    64
  0
VERTEX
  5
467FC
100
AcDbEntity
  8
0
100
AcDbVertex
100
AcDbPolygonMeshVertex
 10
-0.654605
 20
-2.500078
 30
2.01
 70
    64
  0
VERTEX
  5
467FD
100
AcDbEntity
  8
0
100
AcDbVertex
100
AcDbPolygonMeshVertex
 10
-0.939922
 20
-2.407373
 30
2.01
 70
    64
  0
VERTEX
  5
467FE
100
AcDbEntity
  8
0
100
AcDbVertex
100
AcDbPolygonMeshVertex
 10
-0.580441
 20
-2.271825
 30
2.01
 70
    64
  0
VERTEX
  5
467FF
100
AcDbEntity
  8
0
100
AcDbVertex
100
AcDbPolygonMeshVertex
 10
-0.580441
 20
-2.271825
 30
2.01
 70
    64
  0
VERTEX
  5
46800
100
AcDbEntity
  8
0
100
AcDbVertex
100
AcDbPolygonMeshVertex
 10
-0.865758
 20
-2.17912
 30
2.01
 70
    64
  0
SEQEND
  5
46801
100
AcDbEntity
  8
0
  0
POLYLINE
  5
46802
100
AcDbEntity
  8
0
100
AcDbPolygonMesh
 66
     1
 10
0.0
 20
0.0
 30
0.0
 70
    16
 71
     6
 72
     3
  0
VERTEX
  5
46803
100
AcDbEntity
  8
0
100
AcDbVertex
100
AcDbPolygonMeshVertex
 10
-0.786907
 20
-2.461641
 30
2.01
 70
    64
  0
VERTEX
  5
46804
100
AcDbEntity
  8
0
100
AcDbVertex
100
AcDbPolygonMeshVertex
 10
-0.786907
 20
-2.461641
 30
0.705
 70
    64
  0
VERTEX
  5
46805
100
AcDbEntity
  8
0
100
AcDbVertex
100
AcDbPolygonMeshVertex
 10
-0.786907
 20
-2.461641
 30
0.705
 70
    64
  0
VERTEX
  5
46806
100
AcDbEntity
  8
0
100
AcDbVertex
100
AcDbPolygonMeshVertex
 10
-0.727222
 20
-2.229181
 30
2.01
 70
    64
  0
VERTEX
  5
46807
100
AcDbEntity
  8
0
100
AcDbVertex
100
AcDbPolygonMeshVertex
 10
-0.727222
 20
-2.229181
 30
0.705
 70
    64
  0
VERTEX
  5
46808
100
AcDbEntity
  8
0
100
AcDbVertex
100
AcDbPolygonMeshVertex
 10
-0.727222
 20
-2.229181
 30
0.705
 70
    64
  0
VERTEX
  5
46809
100
AcDbEntity
  8
0
100
AcDbVertex
100
AcDbPolygonMeshVertex
 10
-0.436647
 20
-2.303788
 30
2.01
 70
    64
  0
VERTEX
  5
4680A
100
AcDbEntity
  8
0
100
AcDbVertex
100
AcDbPolygonMeshVertex
 10
-0.436647
 20
-2.303788
 30
0.705
 70
    64
  0
VERTEX
  5
4680B
100
AcDbEntity
  8
0
100
AcDbVertex
100
AcDbPolygonMeshVertex
 10
-0.727222
 20
-2.229181
 30
0.705
 70
    64
  0
VERTEX
  5
4680C
100
AcDbEntity
  8
0
100
AcDbVertex
100
AcDbPolygonMeshVertex
 10
-0.496332
 20
-2.536248
 30
2.01
 70
    64
  0
VERTEX
  5
4680D
100
AcDbEntity
  8
0
100
AcDbVertex
100
AcDbPolygonMeshVertex
 10
-0.496332
 20
-2.536248
 30
0.705
 70
    64
  0
VERTEX
  5
4680E
100
AcDbEntity
  8
0
100
AcDbVertex
100
AcDbPolygonMeshVertex
 10
-0.786907
 20
-2.461641
 30
0.705
 70
    64
  0
VERTEX
  5
4680F
100
AcDbEntity
  8
0
100
AcDbVertex
100
AcDbPolygonMeshVertex
 10
-0.496332
 20
-2.536248
 30
2.01
 70
    64
  0
VERTEX
  5
46810
100
AcDbEntity
  8
0
100
AcDbVertex
100
AcDbPolygonMeshVertex
 10
-0.496332
 20
-2.536248
 30
2.01
 70
    64
  0
VERTEX
  5
46811
100
AcDbEntity
  8
0
100
AcDbVertex
100
AcDbPolygonMeshVertex
 10
-0.786907
 20
-2.461641
 30
2.01
 70
    64
  0
VERTEX
  5
46812
100
AcDbEntity
  8
0
100
AcDbVertex
100
AcDbPolygonMeshVertex
 10
-0.436647
 20
-2.303788
 30
2.01
 70
    64
  0
VERTEX
  5
46813
100
AcDbEntity
  8
0
100
AcDbVertex
100
AcDbPolygonMeshVertex
 10
-0.436647
 20
-2.303788
 30
2.01
 70
    64
  0
VERTEX
  5
46814
100
AcDbEntity
  8
0
100
AcDbVertex
100
AcDbPolygonMeshVertex
 10
-0.727222
 20
-2.229181
 30
2.01
 70
    64
  0
SEQEND
  5
46815
100
AcDbEntity
  8
0
  0
POLYLINE
  5
46816
100
AcDbEntity
  8
0
100
AcDbPolygonMesh
 66
     1
 10
0.0
 20
0.0
 30
0.0
 70
    16
 71
     6
 72
     3
  0
VERTEX
  5
46817
100
AcDbEntity
  8
0
100
AcDbVertex
100
AcDbPolygonMeshVertex
 10
-0.630787
 20
-2.506194
 30
2.01
 70
    64
  0
VERTEX
  5
46818
100
AcDbEntity
  8
0
100
AcDbVertex
100
AcDbPolygonMeshVertex
 10
-0.630787
 20
-2.506194
 30
0.705
 70
    64
  0
VERTEX
  5
46819
100
AcDbEntity
  8
0
100
AcDbVertex
100
AcDbPolygonMeshVertex
 10
-0.630787
 20
-2.506194
 30
0.705
 70
    64
  0
VERTEX
  5
4681A
100
AcDbEntity
  8
0
100
AcDbVertex
100
AcDbPolygonMeshVertex
 10
-0.585815
 20
-2.270445
 30
2.01
 70
    64
  0
VERTEX
  5
4681B
100
AcDbEntity
  8
0
100
AcDbVertex
100
AcDbPolygonMeshVertex
 10
-0.585815
 20
-2.270445
 30
0.705
 70
    64
  0
VERTEX
  5
4681C
100
AcDbEntity
  8
0
100
AcDbVertex
100
AcDbPolygonMeshVertex
 10
-0.585815
 20
-2.270445
 30
0.705
 70
    64
  0
VERTEX
  5
4681D
100
AcDbEntity
  8
0
100
AcDbVertex
100
AcDbPolygonMeshVertex
 10
-0.291129
 20
-2.326659
 30
2.01
 70
    64
  0
VERTEX
  5
4681E
100
AcDbEntity
  8
0
100
AcDbVertex
100
AcDbPolygonMeshVertex
 10
-0.291129
 20
-2.326659
 30
0.705
 70
    64
  0
VERTEX
  5
4681F
100
AcDbEntity
  8
0
100
AcDbVertex
100
AcDbPolygonMeshVertex
 10
-0.585815
 20
-2.270445
 30
0.705
 70
    64
  0
VERTEX
  5
46820
100
AcDbEntity
  8
0
100
AcDbVertex
100
AcDbPolygonMeshVertex
 10
-0.336101
 20
-2.562408
 30
2.01
 70
    64
  0
VERTEX
  5
46821
100
AcDbEntity
  8
0
100
AcDbVertex
100
AcDbPolygonMeshVertex
 10
-0.336101
 20
-2.562408
 30
0.705
 70
    64
  0
VERTEX
  5
46822
100
AcDbEntity
  8
0
100
AcDbVertex
100
AcDbPolygonMeshVertex
 10
-0.630787
 20
-2.506194
 30
0.705
 70
    64
  0
VERTEX
  5
46823
100
AcDbEntity
  8
0
100
AcDbVertex
100
AcDbPolygonMeshVertex
 10
-0.336101
 20
-2.562408
 30
2.01
 70
    64
  0
VERTEX
  5
46824
100
AcDbEntity
  8
0
100
AcDbVertex
100
AcDbPolygonMeshVertex
 10
-0.336101
 20
-2.562408
 30
2.01
 70
    64
  0
VERTEX
  5
46825
100
AcDbEntity
  8
0
100
AcDbVertex
100
AcDbPolygonMeshVertex
 10
-0.630787
 20
-2.506194
 30
2.01
 70
    64
  0
VERTEX
  5
46826
100
AcDbEntity
  8
0
100
AcDbVertex
100
AcDbPolygonMeshVertex
 10
-0.291129
 20
-2.326659
 30
2.01
 70
    64
  0
VERTEX
  5
46827
100
AcDbEntity
  8
0
100
AcDbVertex
100
AcDbPolygonMeshVertex
 10
-0.291129
 20
-2.326659
 30
2.01
 70
    64
  0
VERTEX
  5
46828
100
AcDbEntity
  8
0
100
AcDbVertex
100
AcDbPolygonMeshVertex
 10
-0.585815
 20
-2.270445
 30
2.01
 70
    64
  0
SEQEND
  5
46829
100
AcDbEntity
  8
0
  0
POLYLINE
  5
4682A
100
AcDbEntity
  8
0
100
AcDbPolygonMesh
 66
     1
 10
0.0
 20
0.0
 30
0.0
 70
    16
 71
     6
 72
     3
  0
VERTEX
  5
4682B
100
AcDbEntity
  8
0
100
AcDbVertex
100
AcDbPolygonMeshVertex
 10
-0.472177
 20
-2.540856
 30
2.01
 70
    64
  0
VERTEX
  5
4682C
100
AcDbEntity
  8
0
100
AcDbVertex
100
AcDbPolygonMeshVertex
 10
-0.472177
 20
-2.540856
 30
0.705
 70
    64
  0
VERTEX
  5
4682D
100
AcDbEntity
  8
0
100
AcDbVertex
100
AcDbPolygonMeshVertex
 10
-0.472177
 20
-2.540856
 30
0.705
 70
    64
  0
VERTEX
  5
4682E
100
AcDbEntity
  8
0
100
AcDbVertex
100
AcDbPolygonMeshVertex
 10
-0.442097
 20
-2.302748
 30
2.01
 70
    64
  0
VERTEX
  5
4682F
100
AcDbEntity
  8
0
100
AcDbVertex
100
AcDbPolygonMeshVertex
 10
-0.442097
 20
-2.302748
 30
0.705
 70
    64
  0
VERTEX
  5
46830
100
AcDbEntity
  8
0
100
AcDbVertex
100
AcDbPolygonMeshVertex
 10
-0.442097
 20
-2.302748
 30
0.705
 70
    64
  0
VERTEX
  5
46831
100
AcDbEntity
  8
0
100
AcDbVertex
100
AcDbPolygonMeshVertex
 10
-0.144463
 20
-2.340348
 30
2.01
 70
    64
  0
VERTEX
  5
46832
100
AcDbEntity
  8
0
100
AcDbVertex
100
AcDbPolygonMeshVertex
 10
-0.144463
 20
-2.340348
 30
0.705
 70
    64
  0
VERTEX
  5
46833
100
AcDbEntity
  8
0
100
AcDbVertex
100
AcDbPolygonMeshVertex
 10
-0.442097
 20
-2.302748
 30
0.705
 70
    64
  0
VERTEX
  5
46834
100
AcDbEntity
  8
0
100
AcDbVertex
100
AcDbPolygonMeshVertex
 10
-0.174543
 20
-2.578456
 30
2.01
 70
    64
  0
VERTEX
  5
46835
100
AcDbEntity
  8
0
100
AcDbVertex
100
AcDbPolygonMeshVertex
 10
-0.174543
 20
-2.578456
 30
0.705
 70
    64
  0
VERTEX
  5
46836
100
AcDbEntity
  8
0
100
AcDbVertex
100
AcDbPolygonMeshVertex
 10
-0.472177
 20
-2.540856
 30
0.705
 70
    64
  0
VERTEX
  5
46837
100
AcDbEntity
  8
0
100
AcDbVertex
100
AcDbPolygonMeshVertex
 10
-0.174543
 20
-2.578456
 30
2.01
 70
    64
  0
VERTEX
  5
46838
100
AcDbEntity
  8
0
100
AcDbVertex
100
AcDbPolygonMeshVertex
 10
-0.174543
 20
-2.578456
 30
2.01
 70
    64
  0
VERTEX
  5
46839
100
AcDbEntity
  8
0
100
AcDbVertex
100
AcDbPolygonMeshVertex
 10
-0.472177
 20
-2.540856
 30
2.01
 70
    64
  0
VERTEX
  5
4683A
100
AcDbEntity
  8
0
100
AcDbVertex
100
AcDbPolygonMeshVertex
 10
-0.144463
 20
-2.340348
 30
2.01
 70
    64
  0
VERTEX
  5
4683B
100
AcDbEntity
  8
0
100
AcDbVertex
100
AcDbPolygonMeshVertex
 10
-0.144463
 20
-2.340348
 30
2.01
 70
    64
  0
VERTEX
  5
4683C
100
AcDbEntity
  8
0
100
AcDbVertex
100
AcDbPolygonMeshVertex
 10
-0.442097
 20
-2.302748
 30
2.01
 70
    64
  0
SEQEND
  5
4683D
100
AcDbEntity
  8
0
  0
POLYLINE
  5
4683E
100
AcDbEntity
  8
0
100
AcDbPolygonMesh
 66
     1
 10
0.0
 20
0.0
 30
0.0
 70
    16
 71
     6
 72
     3
  0
VERTEX
  5
4683F
100
AcDbEntity
  8
0
100
AcDbVertex
100
AcDbPolygonMeshVertex
 10
-0.311704
 20
-2.56549
 30
2.01
 70
    64
  0
VERTEX
  5
46840
100
AcDbEntity
  8
0
100
AcDbVertex
100
AcDbPolygonMeshVertex
 10
-0.311704
 20
-2.56549
 30
0.705
 70
    64
  0
VERTEX
  5
46841
100
AcDbEntity
  8
0
100
AcDbVertex
100
AcDbPolygonMeshVertex
 10
-0.311704
 20
-2.56549
 30
0.705
 70
    64
  0
VERTEX
  5
46842
100
AcDbEntity
  8
0
100
AcDbVertex
100
AcDbPolygonMeshVertex
 10
-0.296634
 20
-2.325964
 30
2.01
 70
    64
  0
VERTEX
  5
46843
100
AcDbEntity
  8
0
100
AcDbVertex
100
AcDbPolygonMeshVertex
 10
-0.296634
 20
-2.325964
 30
0.705
 70
    64
  0
VERTEX
  5
46844
100
AcDbEntity
  8
0
100
AcDbVertex
100
AcDbPolygonMeshVertex
 10
-0.296634
 20
-2.325964
 30
0.705
 70
    64
  0
VERTEX
  5
46845
100
AcDbEntity
  8
0
100
AcDbVertex
100
AcDbPolygonMeshVertex
 10
0.002774
 20
-2.344801
 30
2.01
 70
    64
  0
VERTEX
  5
46846
100
AcDbEntity
  8
0
100
AcDbVertex
100
AcDbPolygonMeshVertex
 10
0.002774
 20
-2.344801
 30
0.705
 70
    64
  0
VERTEX
  5
46847
100
AcDbEntity
  8
0
100
AcDbVertex
100
AcDbPolygonMeshVertex
 10
-0.296634
 20
-2.325964
 30
0.705
 70
    64
  0
VERTEX
  5
46848
100
AcDbEntity
  8
0
100
AcDbVertex
100
AcDbPolygonMeshVertex
 10
-0.012296
 20
-2.584328
 30
2.01
 70
    64
  0
VERTEX
  5
46849
100
AcDbEntity
  8
0
100
AcDbVertex
100
AcDbPolygonMeshVertex
 10
-0.012296
 20
-2.584328
 30
0.705
 70
    64
  0
VERTEX
  5
4684A
100
AcDbEntity
  8
0
100
AcDbVertex
100
AcDbPolygonMeshVertex
 10
-0.311704
 20
-2.56549
 30
0.705
 70
    64
  0
VERTEX
  5
4684B
100
AcDbEntity
  8
0
100
AcDbVertex
100
AcDbPolygonMeshVertex
 10
-0.012296
 20
-2.584328
 30
2.01
 70
    64
  0
VERTEX
  5
4684C
100
AcDbEntity
  8
0
100
AcDbVertex
100
AcDbPolygonMeshVertex
 10
-0.012296
 20
-2.584328
 30
2.01
 70
    64
  0
VERTEX
  5
4684D
100
AcDbEntity
  8
0
100
AcDbVertex
100
AcDbPolygonMeshVertex
 10
-0.311704
 20
-2.56549
 30
2.01
 70
    64
  0
VERTEX
  5
4684E
100
AcDbEntity
  8
0
100
AcDbVertex
100
AcDbPolygonMeshVertex
 10
0.002774
 20
-2.344801
 30
2.01
 70
    64
  0
VERTEX
  5
4684F
100
AcDbEntity
  8
0
100
AcDbVertex
100
AcDbPolygonMeshVertex
 10
0.002774
 20
-2.344801
 30
2.01
 70
    64
  0
VERTEX
  5
46850
100
AcDbEntity
  8
0
100
AcDbVertex
100
AcDbPolygonMeshVertex
 10
-0.296634
 20
-2.325964
 30
2.01
 70
    64
  0
SEQEND
  5
46851
100
AcDbEntity
  8
0
  0
POLYLINE
  5
46852
100
AcDbEntity
  8
0
100
AcDbPolygonMesh
 66
     1
 10
0.0
 20
0.0
 30
0.0
 70
    16
 71
     6
 72
     3
  0
VERTEX
  5
46853
100
AcDbEntity
  8
0
100
AcDbVertex
100
AcDbPolygonMeshVertex
 10
-0.15
 20
-2.58
 30
2.01
 70
    64
  0
VERTEX
  5
46854
100
AcDbEntity
  8
0
100
AcDbVertex
100
AcDbPolygonMeshVertex
 10
-0.15
 20
-2.58
 30
0.705
 70
    64
  0
VERTEX
  5
46855
100
AcDbEntity
  8
0
100
AcDbVertex
100
AcDbPolygonMeshVertex
 10
-0.15
 20
-2.58
 30
0.705
 70
    64
  0
VERTEX
  5
46856
100
AcDbEntity
  8
0
100
AcDbVertex
100
AcDbPolygonMeshVertex
 10
-0.15
 20
-2.34
 30
2.01
 70
    64
  0
VERTEX
  5
46857
100
AcDbEntity
  8
0
100
AcDbVertex
100
AcDbPolygonMeshVertex
 10
-0.15
 20
-2.34
 30
0.705
 70
    64
  0
VERTEX
  5
46858
100
AcDbEntity
  8
0
100
AcDbVertex
100
AcDbPolygonMeshVertex
 10
-0.15
 20
-2.34
 30
0.705
 70
    64
  0
VERTEX
  5
46859
100
AcDbEntity
  8
0
100
AcDbVertex
100
AcDbPolygonMeshVertex
 10
0.15
 20
-2.34
 30
2.01
 70
    64
  0
VERTEX
  5
4685A
100
AcDbEntity
  8
0
100
AcDbVertex
100
AcDbPolygonMeshVertex
 10
0.15
 20
-2.34
 30
0.705
 70
    64
  0
VERTEX
  5
4685B
100
AcDbEntity
  8
0
100
AcDbVertex
100
AcDbPolygonMeshVertex
 10
-0.15
 20
-2.34
 30
0.705
 70
    64
  0
VERTEX
  5
4685C
100
AcDbEntity
  8
0
100
AcDbVertex
100
AcDbPolygonMeshVertex
 10
0.15
 20
-2.58
 30
2.01
 70
    64
  0
VERTEX
  5
4685D
100
AcDbEntity
  8
0
100
AcDbVertex
100
AcDbPolygonMeshVertex
 10
0.15
 20
-2.58
 30
0.705
 70
    64
  0
VERTEX
  5
4685E
100
AcDbEntity
  8
0
100
AcDbVertex
100
AcDbPolygonMeshVertex
 10
-0.15
 20
-2.58
 30
0.705
 70
    64
  0
VERTEX
  5
4685F
100
AcDbEntity
  8
0
100
AcDbVertex
100
AcDbPolygonMeshVertex
 10
0.15
 20
-2.58
 30
2.01
 70
    64
  0
VERTEX
  5
46860
100
AcDbEntity
  8
0
100
AcDbVertex
100
AcDbPolygonMeshVertex
 10
0.15
 20
-2.58
 30
2.01
 70
    64
  0
VERTEX
  5
46861
100
AcDbEntity
  8
0
100
AcDbVertex
100
AcDbPolygonMeshVertex
 10
-0.15
 20
-2.58
 30
2.01
 70
    64
  0
VERTEX
  5
46862
100
AcDbEntity
  8
0
100
AcDbVertex
100
AcDbPolygonMeshVertex
 10
0.15
 20
-2.34
 30
2.01
 70
    64
  0
VERTEX
  5
46863
100
AcDbEntity
  8
0
100
AcDbVertex
100
AcDbPolygonMeshVertex
 10
0.15
 20
-2.34
 30
2.01
 70
    64
  0
VERTEX
  5
46864
100
AcDbEntity
  8
0
100
AcDbVertex
100
AcDbPolygonMeshVertex
 10
-0.15
 20
-2.34
 30
2.01
 70
    64
  0
SEQEND
  5
46865
100
AcDbEntity
  8
0
  0
POLYLINE
  5
46866
100
AcDbEntity
  8
0
100
AcDbPolygonMesh
 66
     1
 10
0.0
 20
0.0
 30
0.0
 70
    16
 71
     6
 72
     3
  0
VERTEX
  5
46867
100
AcDbEntity
  8
0
100
AcDbVertex
100
AcDbPolygonMeshVertex
 10
0.012296
 20
-2.584328
 30
2.01
 70
    64
  0
VERTEX
  5
46868
100
AcDbEntity
  8
0
100
AcDbVertex
100
AcDbPolygonMeshVertex
 10
0.012296
 20
-2.584328
 30
0.705
 70
    64
  0
VERTEX
  5
46869
100
AcDbEntity
  8
0
100
AcDbVertex
100
AcDbPolygonMeshVertex
 10
0.012296
 20
-2.584328
 30
0.705
 70
    64
  0
VERTEX
  5
4686A
100
AcDbEntity
  8
0
100
AcDbVertex
100
AcDbPolygonMeshVertex
 10
-0.002774
 20
-2.344801
 30
2.01
 70
    64
  0
VERTEX
  5
4686B
100
AcDbEntity
  8
0
100
AcDbVertex
100
AcDbPolygonMeshVertex
 10
-0.002774
 20
-2.344801
 30
0.705
 70
    64
  0
VERTEX
  5
4686C
100
AcDbEntity
  8
0
100
AcDbVertex
100
AcDbPolygonMeshVertex
 10
-0.002774
 20
-2.344801
 30
0.705
 70
    64
  0
VERTEX
  5
4686D
100
AcDbEntity
  8
0
100
AcDbVertex
100
AcDbPolygonMeshVertex
 10
0.296634
 20
-2.325964
 30
2.01
 70
    64
  0
VERTEX
  5
4686E
100
AcDbEntity
  8
0
100
AcDbVertex
100
AcDbPolygonMeshVertex
 10
0.296634
 20
-2.325964
 30
0.705
 70
    64
  0
VERTEX
  5
4686F
100
AcDbEntity
  8
0
100
AcDbVertex
100
AcDbPolygonMeshVertex
 10
-0.002774
 20
-2.344801
 30
0.705
 70
    64
  0
VERTEX
  5
46870
100
AcDbEntity
  8
0
100
AcDbVertex
100
AcDbPolygonMeshVertex
 10
0.311704
 20
-2.56549
 30
2.01
 70
    64
  0
VERTEX
  5
46871
100
AcDbEntity
  8
0
100
AcDbVertex
100
AcDbPolygonMeshVertex
 10
0.311704
 20
-2.56549
 30
0.705
 70
    64
  0
VERTEX
  5
46872
100
AcDbEntity
  8
0
100
AcDbVertex
100
AcDbPolygonMeshVertex
 10
0.012296
 20
-2.584328
 30
0.705
 70
    64
  0
VERTEX
  5
46873
100
AcDbEntity
  8
0
100
AcDbVertex
100
AcDbPolygonMeshVertex
 10
0.311704
 20
-2.56549
 30
2.01
 70
    64
  0
VERTEX
  5
46874
100
AcDbEntity
  8
0
100
AcDbVertex
100
AcDbPolygonMeshVertex
 10
0.311704
 20
-2.56549
 30
2.01
 70
    64
  0
VERTEX
  5
46875
100
AcDbEntity
  8
0
100
AcDbVertex
100
AcDbPolygonMeshVertex
 10
0.012296
 20
-2.584328
 30
2.01
 70
    64
  0
VERTEX
  5
46876
100
AcDbEntity
  8
0
100
AcDbVertex
100
AcDbPolygonMeshVertex
 10
0.296634
 20
-2.325964
 30
2.01
 70
    64
  0
VERTEX
  5
46877
100
AcDbEntity
  8
0
100
AcDbVertex
100
AcDbPolygonMeshVertex
 10
0.296634
 20
-2.325964
 30
2.01
 70
    64
  0
VERTEX
  5
46878
100
AcDbEntity
  8
0
100
AcDbVertex
100
AcDbPolygonMeshVertex
 10
-0.002774
 20
-2.344801
 30
2.01
 70
    64
  0
SEQEND
  5
46879
100
AcDbEntity
  8
0
  0
POLYLINE
  5
4687A
100
AcDbEntity
  8
0
100
AcDbPolygonMesh
 66
     1
 10
0.0
 20
0.0
 30
0.0
 70
    16
 71
     6
 72
     3
  0
VERTEX
  5
4687B
100
AcDbEntity
  8
0
100
AcDbVertex
100
AcDbPolygonMeshVertex
 10
0.174543
 20
-2.578456
 30
2.01
 70
    64
  0
VERTEX
  5
4687C
100
AcDbEntity
  8
0
100
AcDbVertex
100
AcDbPolygonMeshVertex
 10
0.174543
 20
-2.578456
 30
0.705
 70
    64
  0
VERTEX
  5
4687D
100
AcDbEntity
  8
0
100
AcDbVertex
100
AcDbPolygonMeshVertex
 10
0.174543
 20
-2.578456
 30
0.705
 70
    64
  0
VERTEX
  5
4687E
100
AcDbEntity
  8
0
100
AcDbVertex
100
AcDbPolygonMeshVertex
 10
0.144463
 20
-2.340348
 30
2.01
 70
    64
  0
VERTEX
  5
4687F
100
AcDbEntity
  8
0
100
AcDbVertex
100
AcDbPolygonMeshVertex
 10
0.144463
 20
-2.340348
 30
0.705
 70
    64
  0
VERTEX
  5
46880
100
AcDbEntity
  8
0
100
AcDbVertex
100
AcDbPolygonMeshVertex
 10
0.144463
 20
-2.340348
 30
0.705
 70
    64
  0
VERTEX
  5
46881
100
AcDbEntity
  8
0
100
AcDbVertex
100
AcDbPolygonMeshVertex
 10
0.442097
 20
-2.302748
 30
2.01
 70
    64
  0
VERTEX
  5
46882
100
AcDbEntity
  8
0
100
AcDbVertex
100
AcDbPolygonMeshVertex
 10
0.442097
 20
-2.302748
 30
0.705
 70
    64
  0
VERTEX
  5
46883
100
AcDbEntity
  8
0
100
AcDbVertex
100
AcDbPolygonMeshVertex
 10
0.144463
 20
-2.340348
 30
0.705
 70
    64
  0
VERTEX
  5
46884
100
AcDbEntity
  8
0
100
AcDbVertex
100
AcDbPolygonMeshVertex
 10
0.472177
 20
-2.540856
 30
2.01
 70
    64
  0
VERTEX
  5
46885
100
AcDbEntity
  8
0
100
AcDbVertex
100
AcDbPolygonMeshVertex
 10
0.472177
 20
-2.540856
 30
0.705
 70
    64
  0
VERTEX
  5
46886
100
AcDbEntity
  8
0
100
AcDbVertex
100
AcDbPolygonMeshVertex
 10
0.174543
 20
-2.578456
 30
0.705
 70
    64
  0
VERTEX
  5
46887
100
AcDbEntity
  8
0
100
AcDbVertex
100
AcDbPolygonMeshVertex
 10
0.472177
 20
-2.540856
 30
2.01
 70
    64
  0
VERTEX
  5
46888
100
AcDbEntity
  8
0
100
AcDbVertex
100
AcDbPolygonMeshVertex
 10
0.472177
 20
-2.540856
 30
2.01
 70
    64
  0
VERTEX
  5
46889
100
AcDbEntity
  8
0
100
AcDbVertex
100
AcDbPolygonMeshVertex
 10
0.174543
 20
-2.578456
 30
2.01
 70
    64
  0
VERTEX
  5
4688A
100
AcDbEntity
  8
0
100
AcDbVertex
100
AcDbPolygonMeshVertex
 10
0.442097
 20
-2.302748
 30
2.01
 70
    64
  0
VERTEX
  5
4688B
100
AcDbEntity
  8
0
100
AcDbVertex
100
AcDbPolygonMeshVertex
 10
0.442097
 20
-2.302748
 30
2.01
 70
    64
  0
VERTEX
  5
4688C
100
AcDbEntity
  8
0
100
AcDbVertex
100
AcDbPolygonMeshVertex
 10
0.144463
 20
-2.340348
 30
2.01
 70
    64
  0
SEQEND
  5
4688D
100
AcDbEntity
  8
0
  0
POLYLINE
  5
4688E
100
AcDbEntity
  8
0
100
AcDbPolygonMesh
 66
     1
 10
0.0
 20
0.0
 30
0.0
 70
    16
 71
     6
 72
     3
  0
VERTEX
  5
4688F
100
AcDbEntity
  8
0
100
AcDbVertex
100
AcDbPolygonMeshVertex
 10
0.336101
 20
-2.562408
 30
2.01
 70
    64
  0
VERTEX
  5
46890
100
AcDbEntity
  8
0
100
AcDbVertex
100
AcDbPolygonMeshVertex
 10
0.336101
 20
-2.562408
 30
0.705
 70
    64
  0
VERTEX
  5
46891
100
AcDbEntity
  8
0
100
AcDbVertex
100
AcDbPolygonMeshVertex
 10
0.336101
 20
-2.562408
 30
0.705
 70
    64
  0
VERTEX
  5
46892
100
AcDbEntity
  8
0
100
AcDbVertex
100
AcDbPolygonMeshVertex
 10
0.291129
 20
-2.326659
 30
2.01
 70
    64
  0
VERTEX
  5
46893
100
AcDbEntity
  8
0
100
AcDbVertex
100
AcDbPolygonMeshVertex
 10
0.291129
 20
-2.326659
 30
0.705
 70
    64
  0
VERTEX
  5
46894
100
AcDbEntity
  8
0
100
AcDbVertex
100
AcDbPolygonMeshVertex
 10
0.291129
 20
-2.326659
 30
0.705
 70
    64
  0
VERTEX
  5
46895
100
AcDbEntity
  8
0
100
AcDbVertex
100
AcDbPolygonMeshVertex
 10
0.585815
 20
-2.270445
 30
2.01
 70
    64
  0
VERTEX
  5
46896
100
AcDbEntity
  8
0
100
AcDbVertex
100
AcDbPolygonMeshVertex
 10
0.585815
 20
-2.270445
 30
0.705
 70
    64
  0
VERTEX
  5
46897
100
AcDbEntity
  8
0
100
AcDbVertex
100
AcDbPolygonMeshVertex
 10
0.291129
 20
-2.326659
 30
0.705
 70
    64
  0
VERTEX
  5
46898
100
AcDbEntity
  8
0
100
AcDbVertex
100
AcDbPolygonMeshVertex
 10
0.630787
 20
-2.506194
 30
2.01
 70
    64
  0
VERTEX
  5
46899
100
AcDbEntity
  8
0
100
AcDbVertex
100
AcDbPolygonMeshVertex
 10
0.630787
 20
-2.506194
 30
0.705
 70
    64
  0
VERTEX
  5
4689A
100
AcDbEntity
  8
0
100
AcDbVertex
100
AcDbPolygonMeshVertex
 10
0.336101
 20
-2.562408
 30
0.705
 70
    64
  0
VERTEX
  5
4689B
100
AcDbEntity
  8
0
100
AcDbVertex
100
AcDbPolygonMeshVertex
 10
0.630787
 20
-2.506194
 30
2.01
 70
    64
  0
VERTEX
  5
4689C
100
AcDbEntity
  8
0
100
AcDbVertex
100
AcDbPolygonMeshVertex
 10
0.630787
 20
-2.506194
 30
2.01
 70
    64
  0
VERTEX
  5
4689D
100
AcDbEntity
  8
0
100
AcDbVertex
100
AcDbPolygonMeshVertex
 10
0.336101
 20
-2.562408
 30
2.01
 70
    64
  0
VERTEX
  5
4689E
100
AcDbEntity
  8
0
100
AcDbVertex
100
AcDbPolygonMeshVertex
 10
0.585815
 20
-2.270445
 30
2.01
 70
    64
  0
VERTEX
  5
4689F
100
AcDbEntity
  8
0
100
AcDbVertex
100
AcDbPolygonMeshVertex
 10
0.585815
 20
-2.270445
 30
2.01
 70
    64
  0
VERTEX
  5
468A0
100
AcDbEntity
  8
0
100
AcDbVertex
100
AcDbPolygonMeshVertex
 10
0.291129
 20
-2.326659
 30
2.01
 70
    64
  0
SEQEND
  5
468A1
100
AcDbEntity
  8
0
  0
POLYLINE
  5
468A2
100
AcDbEntity
  8
0
100
AcDbPolygonMesh
 66
     1
 10
0.0
 20
0.0
 30
0.0
 70
    16
 71
     6
 72
     3
  0
VERTEX
  5
468A3
100
AcDbEntity
  8
0
100
AcDbVertex
100
AcDbPolygonMeshVertex
 10
0.496332
 20
-2.536248
 30
2.01
 70
    64
  0
VERTEX
  5
468A4
100
AcDbEntity
  8
0
100
AcDbVertex
100
AcDbPolygonMeshVertex
 10
0.496332
 20
-2.536248
 30
0.705
 70
    64
  0
VERTEX
  5
468A5
100
AcDbEntity
  8
0
100
AcDbVertex
100
AcDbPolygonMeshVertex
 10
0.496332
 20
-2.536248
 30
0.705
 70
    64
  0
VERTEX
  5
468A6
100
AcDbEntity
  8
0
100
AcDbVertex
100
AcDbPolygonMeshVertex
 10
0.436647
 20
-2.303788
 30
2.01
 70
    64
  0
VERTEX
  5
468A7
100
AcDbEntity
  8
0
100
AcDbVertex
100
AcDbPolygonMeshVertex
 10
0.436647
 20
-2.303788
 30
0.705
 70
    64
  0
VERTEX
  5
468A8
100
AcDbEntity
  8
0
100
AcDbVertex
100
AcDbPolygonMeshVertex
 10
0.436647
 20
-2.303788
 30
0.705
 70
    64
  0
VERTEX
  5
468A9
100
AcDbEntity
  8
0
100
AcDbVertex
100
AcDbPolygonMeshVertex
 10
0.727222
 20
-2.229181
 30
2.01
 70
    64
  0
VERTEX
  5
468AA
100
AcDbEntity
  8
0
100
AcDbVertex
100
AcDbPolygonMeshVertex
 10
0.727222
 20
-2.229181
 30
0.705
 70
    64
  0
VERTEX
  5
468AB
100
AcDbEntity
  8
0
100
AcDbVertex
100
AcDbPolygonMeshVertex
 10
0.436647
 20
-2.303788
 30
0.705
 70
    64
  0
VERTEX
  5
468AC
100
AcDbEntity
  8
0
100
AcDbVertex
100
AcDbPolygonMeshVertex
 10
0.786907
 20
-2.461641
 30
2.01
 70
    64
  0
VERTEX
  5
468AD
100
AcDbEntity
  8
0
100
AcDbVertex
100
AcDbPolygonMeshVertex
 10
0.786907
 20
-2.461641
 30
0.705
 70
    64
  0
VERTEX
  5
468AE
100
AcDbEntity
  8
0
100
AcDbVertex
100
AcDbPolygonMeshVertex
 10
0.496332
 20
-2.536248
 30
0.705
 70
    64
  0
VERTEX
  5
468AF
100
AcDbEntity
  8
0
100
AcDbVertex
100
AcDbPolygonMeshVertex
 10
0.786907
 20
-2.461641
 30
2.01
 70
    64
  0
VERTEX
  5
468B0
100
AcDbEntity
  8
0
100
AcDbVertex
100
AcDbPolygonMeshVertex
 10
0.786907
 20
-2.461641
 30
2.01
 70
    64
  0
VERTEX
  5
468B1
100
AcDbEntity
  8
0
100
AcDbVertex
100
AcDbPolygonMeshVertex
 10
0.496332
 20
-2.536248
 30
2.01
 70
    64
  0
VERTEX
  5
468B2
100
AcDbEntity
  8
0
100
AcDbVertex
100
AcDbPolygonMeshVertex
 10
0.727222
 20
-2.229181
 30
2.01
 70
    64
  0
VERTEX
  5
468B3
100
AcDbEntity
  8
0
100
AcDbVertex
100
AcDbPolygonMeshVertex
 10
0.727222
 20
-2.229181
 30
2.01
 70
    64
  0
VERTEX
  5
468B4
100
AcDbEntity
  8
0
100
AcDbVertex
100
AcDbPolygonMeshVertex
 10
0.436647
 20
-2.303788
 30
2.01
 70
    64
  0
SEQEND
  5
468B5
100
AcDbEntity
  8
0
  0
POLYLINE
  5
468B6
100
AcDbEntity
  8
0
100
AcDbPolygonMesh
 66
     1
 10
0.0
 20
0.0
 30
0.0
 70
    16
 71
     6
 72
     3
  0
VERTEX
  5
468B7
100
AcDbEntity
  8
0
100
AcDbVertex
100
AcDbPolygonMeshVertex
 10
0.654605
 20
-2.500078
 30
2.01
 70
    64
  0
VERTEX
  5
468B8
100
AcDbEntity
  8
0
100
AcDbVertex
100
AcDbPolygonMeshVertex
 10
0.654605
 20
-2.500078
 30
0.705
 70
    64
  0
VERTEX
  5
468B9
100
AcDbEntity
  8
0
100
AcDbVertex
100
AcDbPolygonMeshVertex
 10
0.654605
 20
-2.500078
 30
0.705
 70
    64
  0
VERTEX
  5
468BA
100
AcDbEntity
  8
0
100
AcDbVertex
100
AcDbPolygonMeshVertex
 10
0.580441
 20
-2.271825
 30
2.01
 70
    64
  0
VERTEX
  5
468BB
100
AcDbEntity
  8
0
100
AcDbVertex
100
AcDbPolygonMeshVertex
 10
0.580441
 20
-2.271825
 30
0.705
 70
    64
  0
VERTEX
  5
468BC
100
AcDbEntity
  8
0
100
AcDbVertex
100
AcDbPolygonMeshVertex
 10
0.580441
 20
-2.271825
 30
0.705
 70
    64
  0
VERTEX
  5
468BD
100
AcDbEntity
  8
0
100
AcDbVertex
100
AcDbPolygonMeshVertex
 10
0.865758
 20
-2.17912
 30
2.01
 70
    64
  0
VERTEX
  5
468BE
100
AcDbEntity
  8
0
100
AcDbVertex
100
AcDbPolygonMeshVertex
 10
0.865758
 20
-2.17912
 30
0.705
 70
    64
  0
VERTEX
  5
468BF
100
AcDbEntity
  8
0
100
AcDbVertex
100
AcDbPolygonMeshVertex
 10
0.580441
 20
-2.271825
 30
0.705
 70
    64
  0
VERTEX
  5
468C0
100
AcDbEntity
  8
0
100
AcDbVertex
100
AcDbPolygonMeshVertex
 10
0.939922
 20
-2.407373
 30
2.01
 70
    64
  0
VERTEX
  5
468C1
100
AcDbEntity
  8
0
100
AcDbVertex
100
AcDbPolygonMeshVertex
 10
0.939922
 20
-2.407373
 30
0.705
 70
    64
  0
VERTEX
  5
468C2
100
AcDbEntity
  8
0
100
AcDbVertex
100
AcDbPolygonMeshVertex
 10
0.654605
 20
-2.500078
 30
0.705
 70
    64
  0
VERTEX
  5
468C3
100
AcDbEntity
  8
0
100
AcDbVertex
100
AcDbPolygonMeshVertex
 10
0.939922
 20
-2.407373
 30
2.01
 70
    64
  0
VERTEX
  5
468C4
100
AcDbEntity
  8
0
100
AcDbVertex
100
AcDbPolygonMeshVertex
 10
0.939922
 20
-2.407373
 30
2.01
 70
    64
  0
VERTEX
  5
468C5
100
AcDbEntity
  8
0
100
AcDbVertex
100
AcDbPolygonMeshVertex
 10
0.654605
 20
-2.500078
 30
2.01
 70
    64
  0
VERTEX
  5
468C6
100
AcDbEntity
  8
0
100
AcDbVertex
100
AcDbPolygonMeshVertex
 10
0.865758
 20
-2.17912
 30
2.01
 70
    64
  0
VERTEX
  5
468C7
100
AcDbEntity
  8
0
100
AcDbVertex
100
AcDbPolygonMeshVertex
 10
0.865758
 20
-2.17912
 30
2.01
 70
    64
  0
VERTEX
  5
468C8
100
AcDbEntity
  8
0
100
AcDbVertex
100
AcDbPolygonMeshVertex
 10
0.580441
 20
-2.271825
 30
2.01
 70
    64
  0
SEQEND
  5
468C9
100
AcDbEntity
  8
0
  0
POLYLINE
  5
468CA
100
AcDbEntity
  8
0
100
AcDbPolygonMesh
 66
     1
 10
0.0
 20
0.0
 30
0.0
 70
    16
 71
     6
 72
     3
  0
VERTEX
  5
468CB
100
AcDbEntity
  8
0
100
AcDbVertex
100
AcDbPolygonMeshVertex
 10
0.810295
 20
-2.454042
 30
2.01
 70
    64
  0
VERTEX
  5
468CC
100
AcDbEntity
  8
0
100
AcDbVertex
100
AcDbPolygonMeshVertex
 10
0.810295
 20
-2.454042
 30
0.705
 70
    64
  0
VERTEX
  5
468CD
100
AcDbEntity
  8
0
100
AcDbVertex
100
AcDbPolygonMeshVertex
 10
0.810295
 20
-2.454042
 30
0.705
 70
    64
  0
VERTEX
  5
468CE
100
AcDbEntity
  8
0
100
AcDbVertex
100
AcDbPolygonMeshVertex
 10
0.721945
 20
-2.230896
 30
2.01
 70
    64
  0
VERTEX
  5
468CF
100
AcDbEntity
  8
0
100
AcDbVertex
100
AcDbPolygonMeshVertex
 10
0.721945
 20
-2.230896
 30
0.705
 70
    64
  0
VERTEX
  5
468D0
100
AcDbEntity
  8
0
100
AcDbVertex
100
AcDbPolygonMeshVertex
 10
0.721945
 20
-2.230896
 30
0.705
 70
    64
  0
VERTEX
  5
468D1
100
AcDbEntity
  8
0
100
AcDbVertex
100
AcDbPolygonMeshVertex
 10
1.000878
 20
-2.120458
 30
2.01
 70
    64
  0
VERTEX
  5
468D2
100
AcDbEntity
  8
0
100
AcDbVertex
100
AcDbPolygonMeshVertex
 10
1.000878
 20
-2.120458
 30
0.705
 70
    64
  0
VERTEX
  5
468D3
100
AcDbEntity
  8
0
100
AcDbVertex
100
AcDbPolygonMeshVertex
 10
0.721945
 20
-2.230896
 30
0.705
 70
    64
  0
VERTEX
  5
468D4
100
AcDbEntity
  8
0
100
AcDbVertex
100
AcDbPolygonMeshVertex
 10
1.089228
 20
-2.343605
 30
2.01
 70
    64
  0
VERTEX
  5
468D5
100
AcDbEntity
  8
0
100
AcDbVertex
100
AcDbPolygonMeshVertex
 10
1.089228
 20
-2.343605
 30
0.705
 70
    64
  0
VERTEX
  5
468D6
100
AcDbEntity
  8
0
100
AcDbVertex
100
AcDbPolygonMeshVertex
 10
0.810295
 20
-2.454042
 30
0.705
 70
    64
  0
VERTEX
  5
468D7
100
AcDbEntity
  8
0
100
AcDbVertex
100
AcDbPolygonMeshVertex
 10
1.089228
 20
-2.343605
 30
2.01
 70
    64
  0
VERTEX
  5
468D8
100
AcDbEntity
  8
0
100
AcDbVertex
100
AcDbPolygonMeshVertex
 10
1.089228
 20
-2.343605
 30
2.01
 70
    64
  0
VERTEX
  5
468D9
100
AcDbEntity
  8
0
100
AcDbVertex
100
AcDbPolygonMeshVertex
 10
0.810295
 20
-2.454042
 30
2.01
 70
    64
  0
VERTEX
  5
468DA
100
AcDbEntity
  8
0
100
AcDbVertex
100
AcDbPolygonMeshVertex
 10
1.000878
 20
-2.120458
 30
2.01
 70
    64
  0
VERTEX
  5
468DB
100
AcDbEntity
  8
0
100
AcDbVertex
100
AcDbPolygonMeshVertex
 10
1.000878
 20
-2.120458
 30
2.01
 70
    64
  0
VERTEX
  5
468DC
100
AcDbEntity
  8
0
100
AcDbVertex
100
AcDbPolygonMeshVertex
 10
0.721945
 20
-2.230896
 30
2.01
 70
    64
  0
SEQEND
  5
468DD
100
AcDbEntity
  8
0
  0
POLYLINE
  5
468DE
100
AcDbEntity
  8
0
100
AcDbPolygonMesh
 66
     1
 10
0.0
 20
0.0
 30
0.0
 70
    16
 71
     6
 72
     3
  0
VERTEX
  5
468DF
100
AcDbEntity
  8
0
100
AcDbVertex
100
AcDbPolygonMeshVertex
 10
0.962787
 20
-2.398321
 30
2.01
 70
    64
  0
VERTEX
  5
468E0
100
AcDbEntity
  8
0
100
AcDbVertex
100
AcDbPolygonMeshVertex
 10
0.962787
 20
-2.398321
 30
0.705
 70
    64
  0
VERTEX
  5
468E1
100
AcDbEntity
  8
0
100
AcDbVertex
100
AcDbPolygonMeshVertex
 10
0.962787
 20
-2.398321
 30
0.705
 70
    64
  0
VERTEX
  5
468E2
100
AcDbEntity
  8
0
100
AcDbVertex
100
AcDbPolygonMeshVertex
 10
0.860599
 20
-2.181162
 30
2.01
 70
    64
  0
VERTEX
  5
468E3
100
AcDbEntity
  8
0
100
AcDbVertex
100
AcDbPolygonMeshVertex
 10
0.860599
 20
-2.181162
 30
0.705
 70
    64
  0
VERTEX
  5
468E4
100
AcDbEntity
  8
0
100
AcDbVertex
100
AcDbPolygonMeshVertex
 10
0.860599
 20
-2.181162
 30
0.705
 70
    64
  0
VERTEX
  5
468E5
100
AcDbEntity
  8
0
100
AcDbVertex
100
AcDbPolygonMeshVertex
 10
1.132048
 20
-2.053428
 30
2.01
 70
    64
  0
VERTEX
  5
468E6
100
AcDbEntity
  8
0
100
AcDbVertex
100
AcDbPolygonMeshVertex
 10
1.132048
 20
-2.053428
 30
0.705
 70
    64
  0
VERTEX
  5
468E7
100
AcDbEntity
  8
0
100
AcDbVertex
100
AcDbPolygonMeshVertex
 10
0.860599
 20
-2.181162
 30
0.705
 70
    64
  0
VERTEX
  5
468E8
100
AcDbEntity
  8
0
100
AcDbVertex
100
AcDbPolygonMeshVertex
 10
1.234235
 20
-2.270587
 30
2.01
 70
    64
  0
VERTEX
  5
468E9
100
AcDbEntity
  8
0
100
AcDbVertex
100
AcDbPolygonMeshVertex
 10
1.234235
 20
-2.270587
 30
0.705
 70
    64
  0
VERTEX
  5
468EA
100
AcDbEntity
  8
0
100
AcDbVertex
100
AcDbPolygonMeshVertex
 10
0.962787
 20
-2.398321
 30
0.705
 70
    64
  0
VERTEX
  5
468EB
100
AcDbEntity
  8
0
100
AcDbVertex
100
AcDbPolygonMeshVertex
 10
1.234235
 20
-2.270587
 30
2.01
 70
    64
  0
VERTEX
  5
468EC
100
AcDbEntity
  8
0
100
AcDbVertex
100
AcDbPolygonMeshVertex
 10
1.234235
 20
-2.270587
 30
2.01
 70
    64
  0
VERTEX
  5
468ED
100
AcDbEntity
  8
0
100
AcDbVertex
100
AcDbPolygonMeshVertex
 10
0.962787
 20
-2.398321
 30
2.01
 70
    64
  0
VERTEX
  5
468EE
100
AcDbEntity
  8
0
100
AcDbVertex
100
AcDbPolygonMeshVertex
 10
1.132048
 20
-2.053428
 30
2.01
 70
    64
  0
VERTEX
  5
468EF
100
AcDbEntity
  8
0
100
AcDbVertex
100
AcDbPolygonMeshVertex
 10
1.132048
 20
-2.053428
 30
2.01
 70
    64
  0
VERTEX
  5
468F0
100
AcDbEntity
  8
0
100
AcDbVertex
100
AcDbPolygonMeshVertex
 10
0.860599
 20
-2.181162
 30
2.01
 70
    64
  0
SEQEND
  5
468F1
100
AcDbEntity
  8
0
  0
POLYLINE
  5
468F2
100
AcDbEntity
  8
0
100
AcDbPolygonMesh
 66
     1
 10
0.0
 20
0.0
 30
0.0
 70
    16
 71
     6
 72
     3
  0
VERTEX
  5
468F3
100
AcDbEntity
  8
0
100
AcDbVertex
100
AcDbPolygonMeshVertex
 10
1.111478
 20
-2.333134
 30
2.01
 70
    64
  0
VERTEX
  5
468F4
100
AcDbEntity
  8
0
100
AcDbVertex
100
AcDbPolygonMeshVertex
 10
1.111478
 20
-2.333134
 30
0.705
 70
    64
  0
VERTEX
  5
468F5
100
AcDbEntity
  8
0
100
AcDbVertex
100
AcDbPolygonMeshVertex
 10
1.111478
 20
-2.333134
 30
0.705
 70
    64
  0
VERTEX
  5
468F6
100
AcDbEntity
  8
0
100
AcDbVertex
100
AcDbPolygonMeshVertex
 10
0.995858
 20
-2.122821
 30
2.01
 70
    64
  0
VERTEX
  5
468F7
100
AcDbEntity
  8
0
100
AcDbVertex
100
AcDbPolygonMeshVertex
 10
0.995858
 20
-2.122821
 30
0.705
 70
    64
  0
VERTEX
  5
468F8
100
AcDbEntity
  8
0
100
AcDbVertex
100
AcDbPolygonMeshVertex
 10
0.995858
 20
-2.122821
 30
0.705
 70
    64
  0
VERTEX
  5
468F9
100
AcDbEntity
  8
0
100
AcDbVertex
100
AcDbPolygonMeshVertex
 10
1.25875
 20
-1.978295
 30
2.01
 70
    64
  0
VERTEX
  5
468FA
100
AcDbEntity
  8
0
100
AcDbVertex
100
AcDbPolygonMeshVertex
 10
1.25875
 20
-1.978295
 30
0.705
 70
    64
  0
VERTEX
  5
468FB
100
AcDbEntity
  8
0
100
AcDbVertex
100
AcDbPolygonMeshVertex
 10
0.995858
 20
-2.122821
 30
0.705
 70
    64
  0
VERTEX
  5
468FC
100
AcDbEntity
  8
0
100
AcDbVertex
100
AcDbPolygonMeshVertex
 10
1.37437
 20
-2.188608
 30
2.01
 70
    64
  0
VERTEX
  5
468FD
100
AcDbEntity
  8
0
100
AcDbVertex
100
AcDbPolygonMeshVertex
 10
1.37437
 20
-2.188608
 30
0.705
 70
    64
  0
VERTEX
  5
468FE
100
AcDbEntity
  8
0
100
AcDbVertex
100
AcDbPolygonMeshVertex
 10
1.111478
 20
-2.333134
 30
0.705
 70
    64
  0
VERTEX
  5
468FF
100
AcDbEntity
  8
0
100
AcDbVertex
100
AcDbPolygonMeshVertex
 10
1.37437
 20
-2.188608
 30
2.01
 70
    64
  0
VERTEX
  5
46900
100
AcDbEntity
  8
0
100
AcDbVertex
100
AcDbPolygonMeshVertex
 10
1.37437
 20
-2.188608
 30
2.01
 70
    64
  0
VERTEX
  5
46901
100
AcDbEntity
  8
0
100
AcDbVertex
100
AcDbPolygonMeshVertex
 10
1.111478
 20
-2.333134
 30
2.01
 70
    64
  0
VERTEX
  5
46902
100
AcDbEntity
  8
0
100
AcDbVertex
100
AcDbPolygonMeshVertex
 10
1.25875
 20
-1.978295
 30
2.01
 70
    64
  0
VERTEX
  5
46903
100
AcDbEntity
  8
0
100
AcDbVertex
100
AcDbPolygonMeshVertex
 10
1.25875
 20
-1.978295
 30
2.01
 70
    64
  0
VERTEX
  5
46904
100
AcDbEntity
  8
0
100
AcDbVertex
100
AcDbPolygonMeshVertex
 10
0.995858
 20
-2.122821
 30
2.01
 70
    64
  0
SEQEND
  5
46905
100
AcDbEntity
  8
0
  0
POLYLINE
  5
46906
100
AcDbEntity
  8
0
100
AcDbPolygonMesh
 66
     1
 10
0.0
 20
0.0
 30
0.0
 70
    16
 71
     6
 72
     3
  0
VERTEX
  5
46907
100
AcDbEntity
  8
0
100
AcDbVertex
100
AcDbPolygonMeshVertex
 10
1.255784
 20
-2.25874
 30
2.01
 70
    64
  0
VERTEX
  5
46908
100
AcDbEntity
  8
0
100
AcDbVertex
100
AcDbPolygonMeshVertex
 10
1.255784
 20
-2.25874
 30
0.705
 70
    64
  0
VERTEX
  5
46909
100
AcDbEntity
  8
0
100
AcDbVertex
100
AcDbPolygonMeshVertex
 10
1.255784
 20
-2.25874
 30
0.705
 70
    64
  0
VERTEX
  5
4690A
100
AcDbEntity
  8
0
100
AcDbVertex
100
AcDbPolygonMeshVertex
 10
1.127186
 20
-2.056101
 30
2.01
 70
    64
  0
VERTEX
  5
4690B
100
AcDbEntity
  8
0
100
AcDbVertex
100
AcDbPolygonMeshVertex
 10
1.127186
 20
-2.056101
 30
0.705
 70
    64
  0
VERTEX
  5
4690C
100
AcDbEntity
  8
0
100
AcDbVertex
100
AcDbPolygonMeshVertex
 10
1.127186
 20
-2.056101
 30
0.705
 70
    64
  0
VERTEX
  5
4690D
100
AcDbEntity
  8
0
100
AcDbVertex
100
AcDbPolygonMeshVertex
 10
1.380484
 20
-1.895353
 30
2.01
 70
    64
  0
VERTEX
  5
4690E
100
AcDbEntity
  8
0
100
AcDbVertex
100
AcDbPolygonMeshVertex
 10
1.380484
 20
-1.895353
 30
0.705
 70
    64
  0
VERTEX
  5
4690F
100
AcDbEntity
  8
0
100
AcDbVertex
100
AcDbPolygonMeshVertex
 10
1.127186
 20
-2.056101
 30
0.705
 70
    64
  0
VERTEX
  5
46910
100
AcDbEntity
  8
0
100
AcDbVertex
100
AcDbPolygonMeshVertex
 10
1.509082
 20
-2.097992
 30
2.01
 70
    64
  0
VERTEX
  5
46911
100
AcDbEntity
  8
0
100
AcDbVertex
100
AcDbPolygonMeshVertex
 10
1.509082
 20
-2.097992
 30
0.705
 70
    64
  0
VERTEX
  5
46912
100
AcDbEntity
  8
0
100
AcDbVertex
100
AcDbPolygonMeshVertex
 10
1.255784
 20
-2.25874
 30
0.705
 70
    64
  0
VERTEX
  5
46913
100
AcDbEntity
  8
0
100
AcDbVertex
100
AcDbPolygonMeshVertex
 10
1.509082
 20
-2.097992
 30
2.01
 70
    64
  0
VERTEX
  5
46914
100
AcDbEntity
  8
0
100
AcDbVertex
100
AcDbPolygonMeshVertex
 10
1.509082
 20
-2.097992
 30
2.01
 70
    64
  0
VERTEX
  5
46915
100
AcDbEntity
  8
0
100
AcDbVertex
100
AcDbPolygonMeshVertex
 10
1.255784
 20
-2.25874
 30
2.01
 70
    64
  0
VERTEX
  5
46916
100
AcDbEntity
  8
0
100
AcDbVertex
100
AcDbPolygonMeshVertex
 10
1.380484
 20
-1.895353
 30
2.01
 70
    64
  0
VERTEX
  5
46917
100
AcDbEntity
  8
0
100
AcDbVertex
100
AcDbPolygonMeshVertex
 10
1.380484
 20
-1.895353
 30
2.01
 70
    64
  0
VERTEX
  5
46918
100
AcDbEntity
  8
0
100
AcDbVertex
100
AcDbPolygonMeshVertex
 10
1.127186
 20
-2.056101
 30
2.01
 70
    64
  0
SEQEND
  5
46919
100
AcDbEntity
  8
0
  0
POLYLINE
  5
4691A
100
AcDbEntity
  8
0
100
AcDbPolygonMesh
 66
     1
 10
0.0
 20
0.0
 30
0.0
 70
    16
 71
     6
 72
     3
  0
VERTEX
  5
4691B
100
AcDbEntity
  8
0
100
AcDbVertex
100
AcDbPolygonMeshVertex
 10
1.395133
 20
-2.175432
 30
2.01
 70
    64
  0
VERTEX
  5
4691C
100
AcDbEntity
  8
0
100
AcDbVertex
100
AcDbPolygonMeshVertex
 10
1.395133
 20
-2.175432
 30
0.705
 70
    64
  0
VERTEX
  5
4691D
100
AcDbEntity
  8
0
100
AcDbVertex
100
AcDbPolygonMeshVertex
 10
1.395133
 20
-2.175432
 30
0.705
 70
    64
  0
VERTEX
  5
4691E
100
AcDbEntity
  8
0
100
AcDbVertex
100
AcDbPolygonMeshVertex
 10
1.254065
 20
-1.981268
 30
2.01
 70
    64
  0
VERTEX
  5
4691F
100
AcDbEntity
  8
0
100
AcDbVertex
100
AcDbPolygonMeshVertex
 10
1.254065
 20
-1.981268
 30
0.705
 70
    64
  0
VERTEX
  5
46920
100
AcDbEntity
  8
0
100
AcDbVertex
100
AcDbPolygonMeshVertex
 10
1.254065
 20
-1.981268
 30
0.705
 70
    64
  0
VERTEX
  5
46921
100
AcDbEntity
  8
0
100
AcDbVertex
100
AcDbPolygonMeshVertex
 10
1.49677
 20
-1.804932
 30
2.01
 70
    64
  0
VERTEX
  5
46922
100
AcDbEntity
  8
0
100
AcDbVertex
100
AcDbPolygonMeshVertex
 10
1.49677
 20
-1.804932
 30
0.705
 70
    64
  0
VERTEX
  5
46923
100
AcDbEntity
  8
0
100
AcDbVertex
100
AcDbPolygonMeshVertex
 10
1.254065
 20
-1.981268
 30
0.705
 70
    64
  0
VERTEX
  5
46924
100
AcDbEntity
  8
0
100
AcDbVertex
100
AcDbPolygonMeshVertex
 10
1.637839
 20
-1.999096
 30
2.01
 70
    64
  0
VERTEX
  5
46925
100
AcDbEntity
  8
0
100
AcDbVertex
100
AcDbPolygonMeshVertex
 10
1.637839
 20
-1.999096
 30
0.705
 70
    64
  0
VERTEX
  5
46926
100
AcDbEntity
  8
0
100
AcDbVertex
100
AcDbPolygonMeshVertex
 10
1.395133
 20
-2.175432
 30
0.705
 70
    64
  0
VERTEX
  5
46927
100
AcDbEntity
  8
0
100
AcDbVertex
100
AcDbPolygonMeshVertex
 10
1.637839
 20
-1.999096
 30
2.01
 70
    64
  0
VERTEX
  5
46928
100
AcDbEntity
  8
0
100
AcDbVertex
100
AcDbPolygonMeshVertex
 10
1.637839
 20
-1.999096
 30
2.01
 70
    64
  0
VERTEX
  5
46929
100
AcDbEntity
  8
0
100
AcDbVertex
100
AcDbPolygonMeshVertex
 10
1.395133
 20
-2.175432
 30
2.01
 70
    64
  0
VERTEX
  5
4692A
100
AcDbEntity
  8
0
100
AcDbVertex
100
AcDbPolygonMeshVertex
 10
1.49677
 20
-1.804932
 30
2.01
 70
    64
  0
VERTEX
  5
4692B
100
AcDbEntity
  8
0
100
AcDbVertex
100
AcDbPolygonMeshVertex
 10
1.49677
 20
-1.804932
 30
2.01
 70
    64
  0
VERTEX
  5
4692C
100
AcDbEntity
  8
0
100
AcDbVertex
100
AcDbPolygonMeshVertex
 10
1.254065
 20
-1.981268
 30
2.01
 70
    64
  0
SEQEND
  5
4692D
100
AcDbEntity
  8
0
  0
POLYLINE
  5
4692E
100
AcDbEntity
  8
0
100
AcDbPolygonMesh
 66
     1
 10
0.0
 20
0.0
 30
0.0
 70
    16
 71
     6
 72
     3
  0
VERTEX
  5
4692F
100
AcDbEntity
  8
0
100
AcDbVertex
100
AcDbPolygonMeshVertex
 10
1.528977
 20
-2.083538
 30
2.01
 70
    64
  0
VERTEX
  5
46930
100
AcDbEntity
  8
0
100
AcDbVertex
100
AcDbPolygonMeshVertex
 10
1.528977
 20
-2.083538
 30
0.705
 70
    64
  0
VERTEX
  5
46931
100
AcDbEntity
  8
0
100
AcDbVertex
100
AcDbPolygonMeshVertex
 10
1.528977
 20
-2.083538
 30
0.705
 70
    64
  0
VERTEX
  5
46932
100
AcDbEntity
  8
0
100
AcDbVertex
100
AcDbPolygonMeshVertex
 10
1.375995
 20
-1.898615
 30
2.01
 70
    64
  0
VERTEX
  5
46933
100
AcDbEntity
  8
0
100
AcDbVertex
100
AcDbPolygonMeshVertex
 10
1.375995
 20
-1.898615
 30
0.705
 70
    64
  0
VERTEX
  5
46934
100
AcDbEntity
  8
0
100
AcDbVertex
100
AcDbPolygonMeshVertex
 10
1.375995
 20
-1.898615
 30
0.705
 70
    64
  0
VERTEX
  5
46935
100
AcDbEntity
  8
0
100
AcDbVertex
100
AcDbPolygonMeshVertex
 10
1.607149
 20
-1.707387
 30
2.01
 70
    64
  0
VERTEX
  5
46936
100
AcDbEntity
  8
0
100
AcDbVertex
100
AcDbPolygonMeshVertex
 10
1.607149
 20
-1.707387
 30
0.705
 70
    64
  0
VERTEX
  5
46937
100
AcDbEntity
  8
0
100
AcDbVertex
100
AcDbPolygonMeshVertex
 10
1.375995
 20
-1.898615
 30
0.705
 70
    64
  0
VERTEX
  5
46938
100
AcDbEntity
  8
0
100
AcDbVertex
100
AcDbPolygonMeshVertex
 10
1.760131
 20
-1.892311
 30
2.01
 70
    64
  0
VERTEX
  5
46939
100
AcDbEntity
  8
0
100
AcDbVertex
100
AcDbPolygonMeshVertex
 10
1.760131
 20
-1.892311
 30
0.705
 70
    64
  0
VERTEX
  5
4693A
100
AcDbEntity
  8
0
100
AcDbVertex
100
AcDbPolygonMeshVertex
 10
1.528977
 20
-2.083538
 30
0.705
 70
    64
  0
VERTEX
  5
4693B
100
AcDbEntity
  8
0
100
AcDbVertex
100
AcDbPolygonMeshVertex
 10
1.760131
 20
-1.892311
 30
2.01
 70
    64
  0
VERTEX
  5
4693C
100
AcDbEntity
  8
0
100
AcDbVertex
100
AcDbPolygonMeshVertex
 10
1.760131
 20
-1.892311
 30
2.01
 70
    64
  0
VERTEX
  5
4693D
100
AcDbEntity
  8
0
100
AcDbVertex
100
AcDbPolygonMeshVertex
 10
1.528977
 20
-2.083538
 30
2.01
 70
    64
  0
VERTEX
  5
4693E
100
AcDbEntity
  8
0
100
AcDbVertex
100
AcDbPolygonMeshVertex
 10
1.607149
 20
-1.707387
 30
2.01
 70
    64
  0
VERTEX
  5
4693F
100
AcDbEntity
  8
0
100
AcDbVertex
100
AcDbPolygonMeshVertex
 10
1.607149
 20
-1.707387
 30
2.01
 70
    64
  0
VERTEX
  5
46940
100
AcDbEntity
  8
0
100
AcDbVertex
100
AcDbPolygonMeshVertex
 10
1.375995
 20
-1.898615
 30
2.01
 70
    64
  0
SEQEND
  5
46941
100
AcDbEntity
  8
0
  0
POLYLINE
  5
46942
100
AcDbEntity
  8
0
100
AcDbPolygonMesh
 66
     1
 10
0.0
 20
0.0
 30
0.0
 70
    16
 71
     6
 72
     3
  0
VERTEX
  5
46943
100
AcDbEntity
  8
0
100
AcDbVertex
100
AcDbPolygonMeshVertex
 10
1.656786
 20
-1.983421
 30
2.01
 70
    64
  0
VERTEX
  5
46944
100
AcDbEntity
  8
0
100
AcDbVertex
100
AcDbPolygonMeshVertex
 10
1.656786
 20
-1.983421
 30
0.705
 70
    64
  0
VERTEX
  5
46945
100
AcDbEntity
  8
0
100
AcDbVertex
100
AcDbPolygonMeshVertex
 10
1.656786
 20
-1.983421
 30
0.705
 70
    64
  0
VERTEX
  5
46946
100
AcDbEntity
  8
0
100
AcDbVertex
100
AcDbPolygonMeshVertex
 10
1.492495
 20
-1.808469
 30
2.01
 70
    64
  0
VERTEX
  5
46947
100
AcDbEntity
  8
0
100
AcDbVertex
100
AcDbPolygonMeshVertex
 10
1.492495
 20
-1.808469
 30
0.705
 70
    64
  0
VERTEX
  5
46948
100
AcDbEntity
  8
0
100
AcDbVertex
100
AcDbPolygonMeshVertex
 10
1.492495
 20
-1.808469
 30
0.705
 70
    64
  0
VERTEX
  5
46949
100
AcDbEntity
  8
0
100
AcDbVertex
100
AcDbPolygonMeshVertex
 10
1.711186
 20
-1.603105
 30
2.01
 70
    64
  0
VERTEX
  5
4694A
100
AcDbEntity
  8
0
100
AcDbVertex
100
AcDbPolygonMeshVertex
 10
1.711186
 20
-1.603105
 30
0.705
 70
    64
  0
VERTEX
  5
4694B
100
AcDbEntity
  8
0
100
AcDbVertex
100
AcDbPolygonMeshVertex
 10
1.492495
 20
-1.808469
 30
0.705
 70
    64
  0
VERTEX
  5
4694C
100
AcDbEntity
  8
0
100
AcDbVertex
100
AcDbPolygonMeshVertex
 10
1.875477
 20
-1.778057
 30
2.01
 70
    64
  0
VERTEX
  5
4694D
100
AcDbEntity
  8
0
100
AcDbVertex
100
AcDbPolygonMeshVertex
 10
1.875477
 20
-1.778057
 30
0.705
 70
    64
  0
VERTEX
  5
4694E
100
AcDbEntity
  8
0
100
AcDbVertex
100
AcDbPolygonMeshVertex
 10
1.656786
 20
-1.983421
 30
0.705
 70
    64
  0
VERTEX
  5
4694F
100
AcDbEntity
  8
0
100
AcDbVertex
100
AcDbPolygonMeshVertex
 10
1.875477
 20
-1.778057
 30
2.01
 70
    64
  0
VERTEX
  5
46950
100
AcDbEntity
  8
0
100
AcDbVertex
100
AcDbPolygonMeshVertex
 10
1.875477
 20
-1.778057
 30
2.01
 70
    64
  0
VERTEX
  5
46951
100
AcDbEntity
  8
0
100
AcDbVertex
100
AcDbPolygonMeshVertex
 10
1.656786
 20
-1.983421
 30
2.01
 70
    64
  0
VERTEX
  5
46952
100
AcDbEntity
  8
0
100
AcDbVertex
100
AcDbPolygonMeshVertex
 10
1.711186
 20
-1.603105
 30
2.01
 70
    64
  0
VERTEX
  5
46953
100
AcDbEntity
  8
0
100
AcDbVertex
100
AcDbPolygonMeshVertex
 10
1.711186
 20
-1.603105
 30
2.01
 70
    64
  0
VERTEX
  5
46954
100
AcDbEntity
  8
0
100
AcDbVertex
100
AcDbPolygonMeshVertex
 10
1.492495
 20
-1.808469
 30
2.01
 70
    64
  0
SEQEND
  5
46955
100
AcDbEntity
  8
0
  0
POLYLINE
  5
46956
100
AcDbEntity
  8
0
100
AcDbPolygonMesh
 66
     1
 10
0.0
 20
0.0
 30
0.0
 70
    16
 71
     6
 72
     3
  0
VERTEX
  5
46957
100
AcDbEntity
  8
0
100
AcDbVertex
100
AcDbPolygonMeshVertex
 10
1.778057
 20
-1.875477
 30
2.01
 70
    64
  0
VERTEX
  5
46958
100
AcDbEntity
  8
0
100
AcDbVertex
100
AcDbPolygonMeshVertex
 10
1.778057
 20
-1.875477
 30
0.705
 70
    64
  0
VERTEX
  5
46959
100
AcDbEntity
  8
0
100
AcDbVertex
100
AcDbPolygonMeshVertex
 10
1.778057
 20
-1.875477
 30
0.705
 70
    64
  0
VERTEX
  5
4695A
100
AcDbEntity
  8
0
100
AcDbVertex
100
AcDbPolygonMeshVertex
 10
1.603105
 20
-1.711186
 30
2.01
 70
    64
  0
VERTEX
  5
4695B
100
AcDbEntity
  8
0
100
AcDbVertex
100
AcDbPolygonMeshVertex
 10
1.603105
 20
-1.711186
 30
0.705
 70
    64
  0
VERTEX
  5
4695C
100
AcDbEntity
  8
0
100
AcDbVertex
100
AcDbPolygonMeshVertex
 10
1.603105
 20
-1.711186
 30
0.705
 70
    64
  0
VERTEX
  5
4695D
100
AcDbEntity
  8
0
100
AcDbVertex
100
AcDbPolygonMeshVertex
 10
1.808469
 20
-1.492495
 30
2.01
 70
    64
  0
VERTEX
  5
4695E
100
AcDbEntity
  8
0
100
AcDbVertex
100
AcDbPolygonMeshVertex
 10
1.808469
 20
-1.492495
 30
0.705
 70
    64
  0
VERTEX
  5
4695F
100
AcDbEntity
  8
0
100
AcDbVertex
100
AcDbPolygonMeshVertex
 10
1.603105
 20
-1.711186
 30
0.705
 70
    64
  0
VERTEX
  5
46960
100
AcDbEntity
  8
0
100
AcDbVertex
100
AcDbPolygonMeshVertex
 10
1.983421
 20
-1.656786
 30
2.01
 70
    64
  0
VERTEX
  5
46961
100
AcDbEntity
  8
0
100
AcDbVertex
100
AcDbPolygonMeshVertex
 10
1.983421
 20
-1.656786
 30
0.705
 70
    64
  0
VERTEX
  5
46962
100
AcDbEntity
  8
0
100
AcDbVertex
100
AcDbPolygonMeshVertex
 10
1.778057
 20
-1.875477
 30
0.705
 70
    64
  0
VERTEX
  5
46963
100
AcDbEntity
  8
0
100
AcDbVertex
100
AcDbPolygonMeshVertex
 10
1.983421
 20
-1.656786
 30
2.01
 70
    64
  0
VERTEX
  5
46964
100
AcDbEntity
  8
0
100
AcDbVertex
100
AcDbPolygonMeshVertex
 10
1.983421
 20
-1.656786
 30
2.01
 70
    64
  0
VERTEX
  5
46965
100
AcDbEntity
  8
0
100
AcDbVertex
100
AcDbPolygonMeshVertex
 10
1.778057
 20
-1.875477
 30
2.01
 70
    64
  0
VERTEX
  5
46966
100
AcDbEntity
  8
0
100
AcDbVertex
100
AcDbPolygonMeshVertex
 10
1.808469
 20
-1.492495
 30
2.01
 70
    64
  0
VERTEX
  5
46967
100
AcDbEntity
  8
0
100
AcDbVertex
100
AcDbPolygonMeshVertex
 10
1.808469
 20
-1.492495
 30
2.01
 70
    64
  0
VERTEX
  5
46968
100
AcDbEntity
  8
0
100
AcDbVertex
100
AcDbPolygonMeshVertex
 10
1.603105
 20
-1.711186
 30
2.01
 70
    64
  0
SEQEND
  5
46969
100
AcDbEntity
  8
0
  0
POLYLINE
  5
4696A
100
AcDbEntity
  8
0
100
AcDbPolygonMesh
 66
     1
 10
0.0
 20
0.0
 30
0.0
 70
    16
 71
     6
 72
     3
  0
VERTEX
  5
4696B
100
AcDbEntity
  8
0
100
AcDbVertex
100
AcDbPolygonMeshVertex
 10
1.892311
 20
-1.760131
 30
2.01
 70
    64
  0
VERTEX
  5
4696C
100
AcDbEntity
  8
0
100
AcDbVertex
100
AcDbPolygonMeshVertex
 10
1.892311
 20
-1.760131
 30
0.705
 70
    64
  0
VERTEX
  5
4696D
100
AcDbEntity
  8
0
100
AcDbVertex
100
AcDbPolygonMeshVertex
 10
1.892311
 20
-1.760131
 30
0.705
 70
    64
  0
VERTEX
  5
4696E
100
AcDbEntity
  8
0
100
AcDbVertex
100
AcDbPolygonMeshVertex
 10
1.707387
 20
-1.607149
 30
2.01
 70
    64
  0
VERTEX
  5
4696F
100
AcDbEntity
  8
0
100
AcDbVertex
100
AcDbPolygonMeshVertex
 10
1.707387
 20
-1.607149
 30
0.705
 70
    64
  0
VERTEX
  5
46970
100
AcDbEntity
  8
0
100
AcDbVertex
100
AcDbPolygonMeshVertex
 10
1.707387
 20
-1.607149
 30
0.705
 70
    64
  0
VERTEX
  5
46971
100
AcDbEntity
  8
0
100
AcDbVertex
100
AcDbPolygonMeshVertex
 10
1.898615
 20
-1.375995
 30
2.01
 70
    64
  0
VERTEX
  5
46972
100
AcDbEntity
  8
0
100
AcDbVertex
100
AcDbPolygonMeshVertex
 10
1.898615
 20
-1.375995
 30
0.705
 70
    64
  0
VERTEX
  5
46973
100
AcDbEntity
  8
0
100
AcDbVertex
100
AcDbPolygonMeshVertex
 10
1.707387
 20
-1.607149
 30
0.705
 70
    64
  0
VERTEX
  5
46974
100
AcDbEntity
  8
0
100
AcDbVertex
100
AcDbPolygonMeshVertex
 10
2.083538
 20
-1.528977
 30
2.01
 70
    64
  0
VERTEX
  5
46975
100
AcDbEntity
  8
0
100
AcDbVertex
100
AcDbPolygonMeshVertex
 10
2.083538
 20
-1.528977
 30
0.705
 70
    64
  0
VERTEX
  5
46976
100
AcDbEntity
  8
0
100
AcDbVertex
100
AcDbPolygonMeshVertex
 10
1.892311
 20
-1.760131
 30
0.705
 70
    64
  0
VERTEX
  5
46977
100
AcDbEntity
  8
0
100
AcDbVertex
100
AcDbPolygonMeshVertex
 10
2.083538
 20
-1.528977
 30
2.01
 70
    64
  0
VERTEX
  5
46978
100
AcDbEntity
  8
0
100
AcDbVertex
100
AcDbPolygonMeshVertex
 10
2.083538
 20
-1.528977
 30
2.01
 70
    64
  0
VERTEX
  5
46979
100
AcDbEntity
  8
0
100
AcDbVertex
100
AcDbPolygonMeshVertex
 10
1.892311
 20
-1.760131
 30
2.01
 70
    64
  0
VERTEX
  5
4697A
100
AcDbEntity
  8
0
100
AcDbVertex
100
AcDbPolygonMeshVertex
 10
1.898615
 20
-1.375995
 30
2.01
 70
    64
  0
VERTEX
  5
4697B
100
AcDbEntity
  8
0
100
AcDbVertex
100
AcDbPolygonMeshVertex
 10
1.898615
 20
-1.375995
 30
2.01
 70
    64
  0
VERTEX
  5
4697C
100
AcDbEntity
  8
0
100
AcDbVertex
100
AcDbPolygonMeshVertex
 10
1.707387
 20
-1.607149
 30
2.01
 70
    64
  0
SEQEND
  5
4697D
100
AcDbEntity
  8
0
  0
POLYLINE
  5
4697E
100
AcDbEntity
  8
0
100
AcDbPolygonMesh
 66
     1
 10
0.0
 20
0.0
 30
0.0
 70
    16
 71
     6
 72
     3
  0
VERTEX
  5
4697F
100
AcDbEntity
  8
0
100
AcDbVertex
100
AcDbPolygonMeshVertex
 10
1.999096
 20
-1.637839
 30
2.01
 70
    64
  0
VERTEX
  5
46980
100
AcDbEntity
  8
0
100
AcDbVertex
100
AcDbPolygonMeshVertex
 10
1.999096
 20
-1.637839
 30
0.705
 70
    64
  0
VERTEX
  5
46981
100
AcDbEntity
  8
0
100
AcDbVertex
100
AcDbPolygonMeshVertex
 10
1.999096
 20
-1.637839
 30
0.705
 70
    64
  0
VERTEX
  5
46982
100
AcDbEntity
  8
0
100
AcDbVertex
100
AcDbPolygonMeshVertex
 10
1.804932
 20
-1.49677
 30
2.01
 70
    64
  0
VERTEX
  5
46983
100
AcDbEntity
  8
0
100
AcDbVertex
100
AcDbPolygonMeshVertex
 10
1.804932
 20
-1.49677
 30
0.705
 70
    64
  0
VERTEX
  5
46984
100
AcDbEntity
  8
0
100
AcDbVertex
100
AcDbPolygonMeshVertex
 10
1.804932
 20
-1.49677
 30
0.705
 70
    64
  0
VERTEX
  5
46985
100
AcDbEntity
  8
0
100
AcDbVertex
100
AcDbPolygonMeshVertex
 10
1.981268
 20
-1.254065
 30
2.01
 70
    64
  0
VERTEX
  5
46986
100
AcDbEntity
  8
0
100
AcDbVertex
100
AcDbPolygonMeshVertex
 10
1.981268
 20
-1.254065
 30
0.705
 70
    64
  0
VERTEX
  5
46987
100
AcDbEntity
  8
0
100
AcDbVertex
100
AcDbPolygonMeshVertex
 10
1.804932
 20
-1.49677
 30
0.705
 70
    64
  0
VERTEX
  5
46988
100
AcDbEntity
  8
0
100
AcDbVertex
100
AcDbPolygonMeshVertex
 10
2.175432
 20
-1.395133
 30
2.01
 70
    64
  0
VERTEX
  5
46989
100
AcDbEntity
  8
0
100
AcDbVertex
100
AcDbPolygonMeshVertex
 10
2.175432
 20
-1.395133
 30
0.705
 70
    64
  0
VERTEX
  5
4698A
100
AcDbEntity
  8
0
100
AcDbVertex
100
AcDbPolygonMeshVertex
 10
1.999096
 20
-1.637839
 30
0.705
 70
    64
  0
VERTEX
  5
4698B
100
AcDbEntity
  8
0
100
AcDbVertex
100
AcDbPolygonMeshVertex
 10
2.175432
 20
-1.395133
 30
2.01
 70
    64
  0
VERTEX
  5
4698C
100
AcDbEntity
  8
0
100
AcDbVertex
100
AcDbPolygonMeshVertex
 10
2.175432
 20
-1.395133
 30
2.01
 70
    64
  0
VERTEX
  5
4698D
100
AcDbEntity
  8
0
100
AcDbVertex
100
AcDbPolygonMeshVertex
 10
1.999096
 20
-1.637839
 30
2.01
 70
    64
  0
VERTEX
  5
4698E
100
AcDbEntity
  8
0
100
AcDbVertex
100
AcDbPolygonMeshVertex
 10
1.981268
 20
-1.254065
 30
2.01
 70
    64
  0
VERTEX
  5
4698F
100
AcDbEntity
  8
0
100
AcDbVertex
100
AcDbPolygonMeshVertex
 10
1.981268
 20
-1.254065
 30
2.01
 70
    64
  0
VERTEX
  5
46990
100
AcDbEntity
  8
0
100
AcDbVertex
100
AcDbPolygonMeshVertex
 10
1.804932
 20
-1.49677
 30
2.01
 70
    64
  0
SEQEND
  5
46991
100
AcDbEntity
  8
0
  0
POLYLINE
  5
46992
100
AcDbEntity
  8
0
100
AcDbPolygonMesh
 66
     1
 10
0.0
 20
0.0
 30
0.0
 70
    16
 71
     6
 72
     3
  0
VERTEX
  5
46993
100
AcDbEntity
  8
0
100
AcDbVertex
100
AcDbPolygonMeshVertex
 10
2.097992
 20
-1.509082
 30
2.01
 70
    64
  0
VERTEX
  5
46994
100
AcDbEntity
  8
0
100
AcDbVertex
100
AcDbPolygonMeshVertex
 10
2.097992
 20
-1.509082
 30
0.705
 70
    64
  0
VERTEX
  5
46995
100
AcDbEntity
  8
0
100
AcDbVertex
100
AcDbPolygonMeshVertex
 10
2.097992
 20
-1.509082
 30
0.705
 70
    64
  0
VERTEX
  5
46996
100
AcDbEntity
  8
0
100
AcDbVertex
100
AcDbPolygonMeshVertex
 10
1.895353
 20
-1.380484
 30
2.01
 70
    64
  0
VERTEX
  5
46997
100
AcDbEntity
  8
0
100
AcDbVertex
100
AcDbPolygonMeshVertex
 10
1.895353
 20
-1.380484
 30
0.705
 70
    64
  0
VERTEX
  5
46998
100
AcDbEntity
  8
0
100
AcDbVertex
100
AcDbPolygonMeshVertex
 10
1.895353
 20
-1.380484
 30
0.705
 70
    64
  0
VERTEX
  5
46999
100
AcDbEntity
  8
0
100
AcDbVertex
100
AcDbPolygonMeshVertex
 10
2.056101
 20
-1.127186
 30
2.01
 70
    64
  0
VERTEX
  5
4699A
100
AcDbEntity
  8
0
100
AcDbVertex
100
AcDbPolygonMeshVertex
 10
2.056101
 20
-1.127186
 30
0.705
 70
    64
  0
VERTEX
  5
4699B
100
AcDbEntity
  8
0
100
AcDbVertex
100
AcDbPolygonMeshVertex
 10
1.895353
 20
-1.380484
 30
0.705
 70
    64
  0
VERTEX
  5
4699C
100
AcDbEntity
  8
0
100
AcDbVertex
100
AcDbPolygonMeshVertex
 10
2.25874
 20
-1.255784
 30
2.01
 70
    64
  0
VERTEX
  5
4699D
100
AcDbEntity
  8
0
100
AcDbVertex
100
AcDbPolygonMeshVertex
 10
2.25874
 20
-1.255784
 30
0.705
 70
    64
  0
VERTEX
  5
4699E
100
AcDbEntity
  8
0
100
AcDbVertex
100
AcDbPolygonMeshVertex
 10
2.097992
 20
-1.509082
 30
0.705
 70
    64
  0
VERTEX
  5
4699F
100
AcDbEntity
  8
0
100
AcDbVertex
100
AcDbPolygonMeshVertex
 10
2.25874
 20
-1.255784
 30
2.01
 70
    64
  0
VERTEX
  5
469A0
100
AcDbEntity
  8
0
100
AcDbVertex
100
AcDbPolygonMeshVertex
 10
2.25874
 20
-1.255784
 30
2.01
 70
    64
  0
VERTEX
  5
469A1
100
AcDbEntity
  8
0
100
AcDbVertex
100
AcDbPolygonMeshVertex
 10
2.097992
 20
-1.509082
 30
2.01
 70
    64
  0
VERTEX
  5
469A2
100
AcDbEntity
  8
0
100
AcDbVertex
100
AcDbPolygonMeshVertex
 10
2.056101
 20
-1.127186
 30
2.01
 70
    64
  0
VERTEX
  5
469A3
100
AcDbEntity
  8
0
100
AcDbVertex
100
AcDbPolygonMeshVertex
 10
2.056101
 20
-1.127186
 30
2.01
 70
    64
  0
VERTEX
  5
469A4
100
AcDbEntity
  8
0
100
AcDbVertex
100
AcDbPolygonMeshVertex
 10
1.895353
 20
-1.380484
 30
2.01
 70
    64
  0
SEQEND
  5
469A5
100
AcDbEntity
  8
0
  0
POLYLINE
  5
469A6
100
AcDbEntity
  8
0
100
AcDbPolygonMesh
 66
     1
 10
0.0
 20
0.0
 30
0.0
 70
    16
 71
     6
 72
     3
  0
VERTEX
  5
469A7
100
AcDbEntity
  8
0
100
AcDbVertex
100
AcDbPolygonMeshVertex
 10
2.188608
 20
-1.37437
 30
2.01
 70
    64
  0
VERTEX
  5
469A8
100
AcDbEntity
  8
0
100
AcDbVertex
100
AcDbPolygonMeshVertex
 10
2.188608
 20
-1.37437
 30
0.705
 70
    64
  0
VERTEX
  5
469A9
100
AcDbEntity
  8
0
100
AcDbVertex
100
AcDbPolygonMeshVertex
 10
2.188608
 20
-1.37437
 30
0.705
 70
    64
  0
VERTEX
  5
469AA
100
AcDbEntity
  8
0
100
AcDbVertex
100
AcDbPolygonMeshVertex
 10
1.978295
 20
-1.25875
 30
2.01
 70
    64
  0
VERTEX
  5
469AB
100
AcDbEntity
  8
0
100
AcDbVertex
100
AcDbPolygonMeshVertex
 10
1.978295
 20
-1.25875
 30
0.705
 70
    64
  0
VERTEX
  5
469AC
100
AcDbEntity
  8
0
100
AcDbVertex
100
AcDbPolygonMeshVertex
 10
1.978295
 20
-1.25875
 30
0.705
 70
    64
  0
VERTEX
  5
469AD
100
AcDbEntity
  8
0
100
AcDbVertex
100
AcDbPolygonMeshVertex
 10
2.122821
 20
-0.995858
 30
2.01
 70
    64
  0
VERTEX
  5
469AE
100
AcDbEntity
  8
0
100
AcDbVertex
100
AcDbPolygonMeshVertex
 10
2.122821
 20
-0.995858
 30
0.705
 70
    64
  0
VERTEX
  5
469AF
100
AcDbEntity
  8
0
100
AcDbVertex
100
AcDbPolygonMeshVertex
 10
1.978295
 20
-1.25875
 30
0.705
 70
    64
  0
VERTEX
  5
469B0
100
AcDbEntity
  8
0
100
AcDbVertex
100
AcDbPolygonMeshVertex
 10
2.333134
 20
-1.111478
 30
2.01
 70
    64
  0
VERTEX
  5
469B1
100
AcDbEntity
  8
0
100
AcDbVertex
100
AcDbPolygonMeshVertex
 10
2.333134
 20
-1.111478
 30
0.705
 70
    64
  0
VERTEX
  5
469B2
100
AcDbEntity
  8
0
100
AcDbVertex
100
AcDbPolygonMeshVertex
 10
2.188608
 20
-1.37437
 30
0.705
 70
    64
  0
VERTEX
  5
469B3
100
AcDbEntity
  8
0
100
AcDbVertex
100
AcDbPolygonMeshVertex
 10
2.333134
 20
-1.111478
 30
2.01
 70
    64
  0
VERTEX
  5
469B4
100
AcDbEntity
  8
0
100
AcDbVertex
100
AcDbPolygonMeshVertex
 10
2.333134
 20
-1.111478
 30
2.01
 70
    64
  0
VERTEX
  5
469B5
100
AcDbEntity
  8
0
100
AcDbVertex
100
AcDbPolygonMeshVertex
 10
2.188608
 20
-1.37437
 30
2.01
 70
    64
  0
VERTEX
  5
469B6
100
AcDbEntity
  8
0
100
AcDbVertex
100
AcDbPolygonMeshVertex
 10
2.122821
 20
-0.995858
 30
2.01
 70
    64
  0
VERTEX
  5
469B7
100
AcDbEntity
  8
0
100
AcDbVertex
100
AcDbPolygonMeshVertex
 10
2.122821
 20
-0.995858
 30
2.01
 70
    64
  0
VERTEX
  5
469B8
100
AcDbEntity
  8
0
100
AcDbVertex
100
AcDbPolygonMeshVertex
 10
1.978295
 20
-1.25875
 30
2.01
 70
    64
  0
SEQEND
  5
469B9
100
AcDbEntity
  8
0
  0
POLYLINE
  5
469BA
100
AcDbEntity
  8
0
100
AcDbPolygonMesh
 66
     1
 10
0.0
 20
0.0
 30
0.0
 70
    16
 71
     6
 72
     3
  0
VERTEX
  5
469BB
100
AcDbEntity
  8
0
100
AcDbVertex
100
AcDbPolygonMeshVertex
 10
2.270587
 20
-1.234235
 30
2.01
 70
    64
  0
VERTEX
  5
469BC
100
AcDbEntity
  8
0
100
AcDbVertex
100
AcDbPolygonMeshVertex
 10
2.270587
 20
-1.234235
 30
0.705
 70
    64
  0
VERTEX
  5
469BD
100
AcDbEntity
  8
0
100
AcDbVertex
100
AcDbPolygonMeshVertex
 10
2.270587
 20
-1.234235
 30
0.705
 70
    64
  0
VERTEX
  5
469BE
100
AcDbEntity
  8
0
100
AcDbVertex
100
AcDbPolygonMeshVertex
 10
2.053428
 20
-1.132048
 30
2.01
 70
    64
  0
VERTEX
  5
469BF
100
AcDbEntity
  8
0
100
AcDbVertex
100
AcDbPolygonMeshVertex
 10
2.053428
 20
-1.132048
 30
0.705
 70
    64
  0
VERTEX
  5
469C0
100
AcDbEntity
  8
0
100
AcDbVertex
100
AcDbPolygonMeshVertex
 10
2.053428
 20
-1.132048
 30
0.705
 70
    64
  0
VERTEX
  5
469C1
100
AcDbEntity
  8
0
100
AcDbVertex
100
AcDbPolygonMeshVertex
 10
2.181162
 20
-0.860599
 30
2.01
 70
    64
  0
VERTEX
  5
469C2
100
AcDbEntity
  8
0
100
AcDbVertex
100
AcDbPolygonMeshVertex
 10
2.181162
 20
-0.860599
 30
0.705
 70
    64
  0
VERTEX
  5
469C3
100
AcDbEntity
  8
0
100
AcDbVertex
100
AcDbPolygonMeshVertex
 10
2.053428
 20
-1.132048
 30
0.705
 70
    64
  0
VERTEX
  5
469C4
100
AcDbEntity
  8
0
100
AcDbVertex
100
AcDbPolygonMeshVertex
 10
2.398321
 20
-0.962787
 30
2.01
 70
    64
  0
VERTEX
  5
469C5
100
AcDbEntity
  8
0
100
AcDbVertex
100
AcDbPolygonMeshVertex
 10
2.398321
 20
-0.962787
 30
0.705
 70
    64
  0
VERTEX
  5
469C6
100
AcDbEntity
  8
0
100
AcDbVertex
100
AcDbPolygonMeshVertex
 10
2.270587
 20
-1.234235
 30
0.705
 70
    64
  0
VERTEX
  5
469C7
100
AcDbEntity
  8
0
100
AcDbVertex
100
AcDbPolygonMeshVertex
 10
2.398321
 20
-0.962787
 30
2.01
 70
    64
  0
VERTEX
  5
469C8
100
AcDbEntity
  8
0
100
AcDbVertex
100
AcDbPolygonMeshVertex
 10
2.398321
 20
-0.962787
 30
2.01
 70
    64
  0
VERTEX
  5
469C9
100
AcDbEntity
  8
0
100
AcDbVertex
100
AcDbPolygonMeshVertex
 10
2.270587
 20
-1.234235
 30
2.01
 70
    64
  0
VERTEX
  5
469CA
100
AcDbEntity
  8
0
100
AcDbVertex
100
AcDbPolygonMeshVertex
 10
2.181162
 20
-0.860599
 30
2.01
 70
    64
  0
VERTEX
  5
469CB
100
AcDbEntity
  8
0
100
AcDbVertex
100
AcDbPolygonMeshVertex
 10
2.181162
 20
-0.860599
 30
2.01
 70
    64
  0
VERTEX
  5
469CC
100
AcDbEntity
  8
0
100
AcDbVertex
100
AcDbPolygonMeshVertex
 10
2.053428
 20
-1.132048
 30
2.01
 70
    64
  0
SEQEND
  5
469CD
100
AcDbEntity
  8
0
  0
POLYLINE
  5
469CE
100
AcDbEntity
  8
0
100
AcDbPolygonMesh
 66
     1
 10
0.0
 20
0.0
 30
0.0
 70
    16
 71
     6
 72
     3
  0
VERTEX
  5
469CF
100
AcDbEntity
  8
0
100
AcDbVertex
100
AcDbPolygonMeshVertex
 10
2.343605
 20
-1.089228
 30
2.01
 70
    64
  0
VERTEX
  5
469D0
100
AcDbEntity
  8
0
100
AcDbVertex
100
AcDbPolygonMeshVertex
 10
2.343605
 20
-1.089228
 30
0.705
 70
    64
  0
VERTEX
  5
469D1
100
AcDbEntity
  8
0
100
AcDbVertex
100
AcDbPolygonMeshVertex
 10
2.343605
 20
-1.089228
 30
0.705
 70
    64
  0
VERTEX
  5
469D2
100
AcDbEntity
  8
0
100
AcDbVertex
100
AcDbPolygonMeshVertex
 10
2.120458
 20
-1.000878
 30
2.01
 70
    64
  0
VERTEX
  5
469D3
100
AcDbEntity
  8
0
100
AcDbVertex
100
AcDbPolygonMeshVertex
 10
2.120458
 20
-1.000878
 30
0.705
 70
    64
  0
VERTEX
  5
469D4
100
AcDbEntity
  8
0
100
AcDbVertex
100
AcDbPolygonMeshVertex
 10
2.120458
 20
-1.000878
 30
0.705
 70
    64
  0
VERTEX
  5
469D5
100
AcDbEntity
  8
0
100
AcDbVertex
100
AcDbPolygonMeshVertex
 10
2.230896
 20
-0.721945
 30
2.01
 70
    64
  0
VERTEX
  5
469D6
100
AcDbEntity
  8
0
100
AcDbVertex
100
AcDbPolygonMeshVertex
 10
2.230896
 20
-0.721945
 30
0.705
 70
    64
  0
VERTEX
  5
469D7
100
AcDbEntity
  8
0
100
AcDbVertex
100
AcDbPolygonMeshVertex
 10
2.120458
 20
-1.000878
 30
0.705
 70
    64
  0
VERTEX
  5
469D8
100
AcDbEntity
  8
0
100
AcDbVertex
100
AcDbPolygonMeshVertex
 10
2.454042
 20
-0.810295
 30
2.01
 70
    64
  0
VERTEX
  5
469D9
100
AcDbEntity
  8
0
100
AcDbVertex
100
AcDbPolygonMeshVertex
 10
2.454042
 20
-0.810295
 30
0.705
 70
    64
  0
VERTEX
  5
469DA
100
AcDbEntity
  8
0
100
AcDbVertex
100
AcDbPolygonMeshVertex
 10
2.343605
 20
-1.089228
 30
0.705
 70
    64
  0
VERTEX
  5
469DB
100
AcDbEntity
  8
0
100
AcDbVertex
100
AcDbPolygonMeshVertex
 10
2.454042
 20
-0.810295
 30
2.01
 70
    64
  0
VERTEX
  5
469DC
100
AcDbEntity
  8
0
100
AcDbVertex
100
AcDbPolygonMeshVertex
 10
2.454042
 20
-0.810295
 30
2.01
 70
    64
  0
VERTEX
  5
469DD
100
AcDbEntity
  8
0
100
AcDbVertex
100
AcDbPolygonMeshVertex
 10
2.343605
 20
-1.089228
 30
2.01
 70
    64
  0
VERTEX
  5
469DE
100
AcDbEntity
  8
0
100
AcDbVertex
100
AcDbPolygonMeshVertex
 10
2.230896
 20
-0.721945
 30
2.01
 70
    64
  0
VERTEX
  5
469DF
100
AcDbEntity
  8
0
100
AcDbVertex
100
AcDbPolygonMeshVertex
 10
2.230896
 20
-0.721945
 30
2.01
 70
    64
  0
VERTEX
  5
469E0
100
AcDbEntity
  8
0
100
AcDbVertex
100
AcDbPolygonMeshVertex
 10
2.120458
 20
-1.000878
 30
2.01
 70
    64
  0
SEQEND
  5
469E1
100
AcDbEntity
  8
0
  0
POLYLINE
  5
469E2
100
AcDbEntity
  8
0
100
AcDbPolygonMesh
 66
     1
 10
0.0
 20
0.0
 30
0.0
 70
    16
 71
     6
 72
     3
  0
VERTEX
  5
469E3
100
AcDbEntity
  8
0
100
AcDbVertex
100
AcDbPolygonMeshVertex
 10
2.407373
 20
-0.939922
 30
2.01
 70
    64
  0
VERTEX
  5
469E4
100
AcDbEntity
  8
0
100
AcDbVertex
100
AcDbPolygonMeshVertex
 10
2.407373
 20
-0.939922
 30
0.705
 70
    64
  0
VERTEX
  5
469E5
100
AcDbEntity
  8
0
100
AcDbVertex
100
AcDbPolygonMeshVertex
 10
2.407373
 20
-0.939922
 30
0.705
 70
    64
  0
VERTEX
  5
469E6
100
AcDbEntity
  8
0
100
AcDbVertex
100
AcDbPolygonMeshVertex
 10
2.17912
 20
-0.865758
 30
2.01
 70
    64
  0
VERTEX
  5
469E7
100
AcDbEntity
  8
0
100
AcDbVertex
100
AcDbPolygonMeshVertex
 10
2.17912
 20
-0.865758
 30
0.705
 70
    64
  0
VERTEX
  5
469E8
100
AcDbEntity
  8
0
100
AcDbVertex
100
AcDbPolygonMeshVertex
 10
2.17912
 20
-0.865758
 30
0.705
 70
    64
  0
VERTEX
  5
469E9
100
AcDbEntity
  8
0
100
AcDbVertex
100
AcDbPolygonMeshVertex
 10
2.271825
 20
-0.580441
 30
2.01
 70
    64
  0
VERTEX
  5
469EA
100
AcDbEntity
  8
0
100
AcDbVertex
100
AcDbPolygonMeshVertex
 10
2.271825
 20
-0.580441
 30
0.705
 70
    64
  0
VERTEX
  5
469EB
100
AcDbEntity
  8
0
100
AcDbVertex
100
AcDbPolygonMeshVertex
 10
2.17912
 20
-0.865758
 30
0.705
 70
    64
  0
VERTEX
  5
469EC
100
AcDbEntity
  8
0
100
AcDbVertex
100
AcDbPolygonMeshVertex
 10
2.500078
 20
-0.654605
 30
2.01
 70
    64
  0
VERTEX
  5
469ED
100
AcDbEntity
  8
0
100
AcDbVertex
100
AcDbPolygonMeshVertex
 10
2.500078
 20
-0.654605
 30
0.705
 70
    64
  0
VERTEX
  5
469EE
100
AcDbEntity
  8
0
100
AcDbVertex
100
AcDbPolygonMeshVertex
 10
2.407373
 20
-0.939922
 30
0.705
 70
    64
  0
VERTEX
  5
469EF
100
AcDbEntity
  8
0
100
AcDbVertex
100
AcDbPolygonMeshVertex
 10
2.500078
 20
-0.654605
 30
2.01
 70
    64
  0
VERTEX
  5
469F0
100
AcDbEntity
  8
0
100
AcDbVertex
100
AcDbPolygonMeshVertex
 10
2.500078
 20
-0.654605
 30
2.01
 70
    64
  0
VERTEX
  5
469F1
100
AcDbEntity
  8
0
100
AcDbVertex
100
AcDbPolygonMeshVertex
 10
2.407373
 20
-0.939922
 30
2.01
 70
    64
  0
VERTEX
  5
469F2
100
AcDbEntity
  8
0
100
AcDbVertex
100
AcDbPolygonMeshVertex
 10
2.271825
 20
-0.580441
 30
2.01
 70
    64
  0
VERTEX
  5
469F3
100
AcDbEntity
  8
0
100
AcDbVertex
100
AcDbPolygonMeshVertex
 10
2.271825
 20
-0.580441
 30
2.01
 70
    64
  0
VERTEX
  5
469F4
100
AcDbEntity
  8
0
100
AcDbVertex
100
AcDbPolygonMeshVertex
 10
2.17912
 20
-0.865758
 30
2.01
 70
    64
  0
SEQEND
  5
469F5
100
AcDbEntity
  8
0
  0
POLYLINE
  5
469F6
100
AcDbEntity
  8
0
100
AcDbPolygonMesh
 66
     1
 10
0.0
 20
0.0
 30
0.0
 70
    16
 71
     6
 72
     3
  0
VERTEX
  5
469F7
100
AcDbEntity
  8
0
100
AcDbVertex
100
AcDbPolygonMeshVertex
 10
2.461641
 20
-0.786907
 30
2.01
 70
    64
  0
VERTEX
  5
469F8
100
AcDbEntity
  8
0
100
AcDbVertex
100
AcDbPolygonMeshVertex
 10
2.461641
 20
-0.786907
 30
0.705
 70
    64
  0
VERTEX
  5
469F9
100
AcDbEntity
  8
0
100
AcDbVertex
100
AcDbPolygonMeshVertex
 10
2.461641
 20
-0.786907
 30
0.705
 70
    64
  0
VERTEX
  5
469FA
100
AcDbEntity
  8
0
100
AcDbVertex
100
AcDbPolygonMeshVertex
 10
2.229181
 20
-0.727222
 30
2.01
 70
    64
  0
VERTEX
  5
469FB
100
AcDbEntity
  8
0
100
AcDbVertex
100
AcDbPolygonMeshVertex
 10
2.229181
 20
-0.727222
 30
0.705
 70
    64
  0
VERTEX
  5
469FC
100
AcDbEntity
  8
0
100
AcDbVertex
100
AcDbPolygonMeshVertex
 10
2.229181
 20
-0.727222
 30
0.705
 70
    64
  0
VERTEX
  5
469FD
100
AcDbEntity
  8
0
100
AcDbVertex
100
AcDbPolygonMeshVertex
 10
2.303788
 20
-0.436647
 30
2.01
 70
    64
  0
VERTEX
  5
469FE
100
AcDbEntity
  8
0
100
AcDbVertex
100
AcDbPolygonMeshVertex
 10
2.303788
 20
-0.436647
 30
0.705
 70
    64
  0
VERTEX
  5
469FF
100
AcDbEntity
  8
0
100
AcDbVertex
100
AcDbPolygonMeshVertex
 10
2.229181
 20
-0.727222
 30
0.705
 70
    64
  0
VERTEX
  5
46A00
100
AcDbEntity
  8
0
100
AcDbVertex
100
AcDbPolygonMeshVertex
 10
2.536248
 20
-0.496332
 30
2.01
 70
    64
  0
VERTEX
  5
46A01
100
AcDbEntity
  8
0
100
AcDbVertex
100
AcDbPolygonMeshVertex
 10
2.536248
 20
-0.496332
 30
0.705
 70
    64
  0
VERTEX
  5
46A02
100
AcDbEntity
  8
0
100
AcDbVertex
100
AcDbPolygonMeshVertex
 10
2.461641
 20
-0.786907
 30
0.705
 70
    64
  0
VERTEX
  5
46A03
100
AcDbEntity
  8
0
100
AcDbVertex
100
AcDbPolygonMeshVertex
 10
2.536248
 20
-0.496332
 30
2.01
 70
    64
  0
VERTEX
  5
46A04
100
AcDbEntity
  8
0
100
AcDbVertex
100
AcDbPolygonMeshVertex
 10
2.536248
 20
-0.496332
 30
2.01
 70
    64
  0
VERTEX
  5
46A05
100
AcDbEntity
  8
0
100
AcDbVertex
100
AcDbPolygonMeshVertex
 10
2.461641
 20
-0.786907
 30
2.01
 70
    64
  0
VERTEX
  5
46A06
100
AcDbEntity
  8
0
100
AcDbVertex
100
AcDbPolygonMeshVertex
 10
2.303788
 20
-0.436647
 30
2.01
 70
    64
  0
VERTEX
  5
46A07
100
AcDbEntity
  8
0
100
AcDbVertex
100
AcDbPolygonMeshVertex
 10
2.303788
 20
-0.436647
 30
2.01
 70
    64
  0
VERTEX
  5
46A08
100
AcDbEntity
  8
0
100
AcDbVertex
100
AcDbPolygonMeshVertex
 10
2.229181
 20
-0.727222
 30
2.01
 70
    64
  0
SEQEND
  5
46A09
100
AcDbEntity
  8
0
  0
POLYLINE
  5
46A0A
100
AcDbEntity
  8
0
100
AcDbPolygonMesh
 66
     1
 10
0.0
 20
0.0
 30
0.0
 70
    16
 71
     6
 72
     3
  0
VERTEX
  5
46A0B
100
AcDbEntity
  8
0
100
AcDbVertex
100
AcDbPolygonMeshVertex
 10
2.506194
 20
-0.630787
 30
2.01
 70
    64
  0
VERTEX
  5
46A0C
100
AcDbEntity
  8
0
100
AcDbVertex
100
AcDbPolygonMeshVertex
 10
2.506194
 20
-0.630787
 30
0.705
 70
    64
  0
VERTEX
  5
46A0D
100
AcDbEntity
  8
0
100
AcDbVertex
100
AcDbPolygonMeshVertex
 10
2.506194
 20
-0.630787
 30
0.705
 70
    64
  0
VERTEX
  5
46A0E
100
AcDbEntity
  8
0
100
AcDbVertex
100
AcDbPolygonMeshVertex
 10
2.270445
 20
-0.585815
 30
2.01
 70
    64
  0
VERTEX
  5
46A0F
100
AcDbEntity
  8
0
100
AcDbVertex
100
AcDbPolygonMeshVertex
 10
2.270445
 20
-0.585815
 30
0.705
 70
    64
  0
VERTEX
  5
46A10
100
AcDbEntity
  8
0
100
AcDbVertex
100
AcDbPolygonMeshVertex
 10
2.270445
 20
-0.585815
 30
0.705
 70
    64
  0
VERTEX
  5
46A11
100
AcDbEntity
  8
0
100
AcDbVertex
100
AcDbPolygonMeshVertex
 10
2.326659
 20
-0.291129
 30
2.01
 70
    64
  0
VERTEX
  5
46A12
100
AcDbEntity
  8
0
100
AcDbVertex
100
AcDbPolygonMeshVertex
 10
2.326659
 20
-0.291129
 30
0.705
 70
    64
  0
VERTEX
  5
46A13
100
AcDbEntity
  8
0
100
AcDbVertex
100
AcDbPolygonMeshVertex
 10
2.270445
 20
-0.585815
 30
0.705
 70
    64
  0
VERTEX
  5
46A14
100
AcDbEntity
  8
0
100
AcDbVertex
100
AcDbPolygonMeshVertex
 10
2.562408
 20
-0.336101
 30
2.01
 70
    64
  0
VERTEX
  5
46A15
100
AcDbEntity
  8
0
100
AcDbVertex
100
AcDbPolygonMeshVertex
 10
2.562408
 20
-0.336101
 30
0.705
 70
    64
  0
VERTEX
  5
46A16
100
AcDbEntity
  8
0
100
AcDbVertex
100
AcDbPolygonMeshVertex
 10
2.506194
 20
-0.630787
 30
0.705
 70
    64
  0
VERTEX
  5
46A17
100
AcDbEntity
  8
0
100
AcDbVertex
100
AcDbPolygonMeshVertex
 10
2.562408
 20
-0.336101
 30
2.01
 70
    64
  0
VERTEX
  5
46A18
100
AcDbEntity
  8
0
100
AcDbVertex
100
AcDbPolygonMeshVertex
 10
2.562408
 20
-0.336101
 30
2.01
 70
    64
  0
VERTEX
  5
46A19
100
AcDbEntity
  8
0
100
AcDbVertex
100
AcDbPolygonMeshVertex
 10
2.506194
 20
-0.630787
 30
2.01
 70
    64
  0
VERTEX
  5
46A1A
100
AcDbEntity
  8
0
100
AcDbVertex
100
AcDbPolygonMeshVertex
 10
2.326659
 20
-0.291129
 30
2.01
 70
    64
  0
VERTEX
  5
46A1B
100
AcDbEntity
  8
0
100
AcDbVertex
100
AcDbPolygonMeshVertex
 10
2.326659
 20
-0.291129
 30
2.01
 70
    64
  0
VERTEX
  5
46A1C
100
AcDbEntity
  8
0
100
AcDbVertex
100
AcDbPolygonMeshVertex
 10
2.270445
 20
-0.585815
 30
2.01
 70
    64
  0
SEQEND
  5
46A1D
100
AcDbEntity
  8
0
  0
POLYLINE
  5
46A1E
100
AcDbEntity
  8
0
100
AcDbPolygonMesh
 66
     1
 10
0.0
 20
0.0
 30
0.0
 70
    16
 71
     6
 72
     3
  0
VERTEX
  5
46A1F
100
AcDbEntity
  8
0
100
AcDbVertex
100
AcDbPolygonMeshVertex
 10
2.540856
 20
-0.472177
 30
2.01
 70
    64
  0
VERTEX
  5
46A20
100
AcDbEntity
  8
0
100
AcDbVertex
100
AcDbPolygonMeshVertex
 10
2.540856
 20
-0.472177
 30
0.705
 70
    64
  0
VERTEX
  5
46A21
100
AcDbEntity
  8
0
100
AcDbVertex
100
AcDbPolygonMeshVertex
 10
2.540856
 20
-0.472177
 30
0.705
 70
    64
  0
VERTEX
  5
46A22
100
AcDbEntity
  8
0
100
AcDbVertex
100
AcDbPolygonMeshVertex
 10
2.302748
 20
-0.442097
 30
2.01
 70
    64
  0
VERTEX
  5
46A23
100
AcDbEntity
  8
0
100
AcDbVertex
100
AcDbPolygonMeshVertex
 10
2.302748
 20
-0.442097
 30
0.705
 70
    64
  0
VERTEX
  5
46A24
100
AcDbEntity
  8
0
100
AcDbVertex
100
AcDbPolygonMeshVertex
 10
2.302748
 20
-0.442097
 30
0.705
 70
    64
  0
VERTEX
  5
46A25
100
AcDbEntity
  8
0
100
AcDbVertex
100
AcDbPolygonMeshVertex
 10
2.340348
 20
-0.144463
 30
2.01
 70
    64
  0
VERTEX
  5
46A26
100
AcDbEntity
  8
0
100
AcDbVertex
100
AcDbPolygonMeshVertex
 10
2.340348
 20
-0.144463
 30
0.705
 70
    64
  0
VERTEX
  5
46A27
100
AcDbEntity
  8
0
100
AcDbVertex
100
AcDbPolygonMeshVertex
 10
2.302748
 20
-0.442097
 30
0.705
 70
    64
  0
VERTEX
  5
46A28
100
AcDbEntity
  8
0
100
AcDbVertex
100
AcDbPolygonMeshVertex
 10
2.578456
 20
-0.174543
 30
2.01
 70
    64
  0
VERTEX
  5
46A29
100
AcDbEntity
  8
0
100
AcDbVertex
100
AcDbPolygonMeshVertex
 10
2.578456
 20
-0.174543
 30
0.705
 70
    64
  0
VERTEX
  5
46A2A
100
AcDbEntity
  8
0
100
AcDbVertex
100
AcDbPolygonMeshVertex
 10
2.540856
 20
-0.472177
 30
0.705
 70
    64
  0
VERTEX
  5
46A2B
100
AcDbEntity
  8
0
100
AcDbVertex
100
AcDbPolygonMeshVertex
 10
2.578456
 20
-0.174543
 30
2.01
 70
    64
  0
VERTEX
  5
46A2C
100
AcDbEntity
  8
0
100
AcDbVertex
100
AcDbPolygonMeshVertex
 10
2.578456
 20
-0.174543
 30
2.01
 70
    64
  0
VERTEX
  5
46A2D
100
AcDbEntity
  8
0
100
AcDbVertex
100
AcDbPolygonMeshVertex
 10
2.540856
 20
-0.472177
 30
2.01
 70
    64
  0
VERTEX
  5
46A2E
100
AcDbEntity
  8
0
100
AcDbVertex
100
AcDbPolygonMeshVertex
 10
2.340348
 20
-0.144463
 30
2.01
 70
    64
  0
VERTEX
  5
46A2F
100
AcDbEntity
  8
0
100
AcDbVertex
100
AcDbPolygonMeshVertex
 10
2.340348
 20
-0.144463
 30
2.01
 70
    64
  0
VERTEX
  5
46A30
100
AcDbEntity
  8
0
100
AcDbVertex
100
AcDbPolygonMeshVertex
 10
2.302748
 20
-0.442097
 30
2.01
 70
    64
  0
SEQEND
  5
46A31
100
AcDbEntity
  8
0
  0
POLYLINE
  5
46A32
100
AcDbEntity
  8
0
100
AcDbPolygonMesh
 66
     1
 10
0.0
 20
0.0
 30
0.0
 70
    16
 71
     6
 72
     3
  0
VERTEX
  5
46A33
100
AcDbEntity
  8
0
100
AcDbVertex
100
AcDbPolygonMeshVertex
 10
2.56549
 20
-0.311704
 30
2.01
 70
    64
  0
VERTEX
  5
46A34
100
AcDbEntity
  8
0
100
AcDbVertex
100
AcDbPolygonMeshVertex
 10
2.56549
 20
-0.311704
 30
0.705
 70
    64
  0
VERTEX
  5
46A35
100
AcDbEntity
  8
0
100
AcDbVertex
100
AcDbPolygonMeshVertex
 10
2.56549
 20
-0.311704
 30
0.705
 70
    64
  0
VERTEX
  5
46A36
100
AcDbEntity
  8
0
100
AcDbVertex
100
AcDbPolygonMeshVertex
 10
2.325964
 20
-0.296634
 30
2.01
 70
    64
  0
VERTEX
  5
46A37
100
AcDbEntity
  8
0
100
AcDbVertex
100
AcDbPolygonMeshVertex
 10
2.325964
 20
-0.296634
 30
0.705
 70
    64
  0
VERTEX
  5
46A38
100
AcDbEntity
  8
0
100
AcDbVertex
100
AcDbPolygonMeshVertex
 10
2.325964
 20
-0.296634
 30
0.705
 70
    64
  0
VERTEX
  5
46A39
100
AcDbEntity
  8
0
100
AcDbVertex
100
AcDbPolygonMeshVertex
 10
2.344801
 20
0.002774
 30
2.01
 70
    64
  0
VERTEX
  5
46A3A
100
AcDbEntity
  8
0
100
AcDbVertex
100
AcDbPolygonMeshVertex
 10
2.344801
 20
0.002774
 30
0.705
 70
    64
  0
VERTEX
  5
46A3B
100
AcDbEntity
  8
0
100
AcDbVertex
100
AcDbPolygonMeshVertex
 10
2.325964
 20
-0.296634
 30
0.705
 70
    64
  0
VERTEX
  5
46A3C
100
AcDbEntity
  8
0
100
AcDbVertex
100
AcDbPolygonMeshVertex
 10
2.584328
 20
-0.012296
 30
2.01
 70
    64
  0
VERTEX
  5
46A3D
100
AcDbEntity
  8
0
100
AcDbVertex
100
AcDbPolygonMeshVertex
 10
2.584328
 20
-0.012296
 30
0.705
 70
    64
  0
VERTEX
  5
46A3E
100
AcDbEntity
  8
0
100
AcDbVertex
100
AcDbPolygonMeshVertex
 10
2.56549
 20
-0.311704
 30
0.705
 70
    64
  0
VERTEX
  5
46A3F
100
AcDbEntity
  8
0
100
AcDbVertex
100
AcDbPolygonMeshVertex
 10
2.584328
 20
-0.012296
 30
2.01
 70
    64
  0
VERTEX
  5
46A40
100
AcDbEntity
  8
0
100
AcDbVertex
100
AcDbPolygonMeshVertex
 10
2.584328
 20
-0.012296
 30
2.01
 70
    64
  0
VERTEX
  5
46A41
100
AcDbEntity
  8
0
100
AcDbVertex
100
AcDbPolygonMeshVertex
 10
2.56549
 20
-0.311704
 30
2.01
 70
    64
  0
VERTEX
  5
46A42
100
AcDbEntity
  8
0
100
AcDbVertex
100
AcDbPolygonMeshVertex
 10
2.344801
 20
0.002774
 30
2.01
 70
    64
  0
VERTEX
  5
46A43
100
AcDbEntity
  8
0
100
AcDbVertex
100
AcDbPolygonMeshVertex
 10
2.344801
 20
0.002774
 30
2.01
 70
    64
  0
VERTEX
  5
46A44
100
AcDbEntity
  8
0
100
AcDbVertex
100
AcDbPolygonMeshVertex
 10
2.325964
 20
-0.296634
 30
2.01
 70
    64
  0
SEQEND
  5
46A45
100
AcDbEntity
  8
0
  0
POLYLINE
  5
46A46
100
AcDbEntity
  8
0
100
AcDbPolygonMesh
 66
     1
 10
0.0
 20
0.0
 30
0.0
 70
    16
 71
     6
 72
     3
  0
VERTEX
  5
46A47
100
AcDbEntity
  8
0
100
AcDbVertex
100
AcDbPolygonMeshVertex
 10
0.6
 20
1.7775
 30
2.685
 70
    64
  0
VERTEX
  5
46A48
100
AcDbEntity
  8
0
100
AcDbVertex
100
AcDbPolygonMeshVertex
 10
0.6
 20
1.7775
 30
0.705
 70
    64
  0
VERTEX
  5
46A49
100
AcDbEntity
  8
0
100
AcDbVertex
100
AcDbPolygonMeshVertex
 10
0.6
 20
1.7775
 30
0.705
 70
    64
  0
VERTEX
  5
46A4A
100
AcDbEntity
  8
0
100
AcDbVertex
100
AcDbPolygonMeshVertex
 10
-0.6
 20
1.7775
 30
2.685
 70
    64
  0
VERTEX
  5
46A4B
100
AcDbEntity
  8
0
100
AcDbVertex
100
AcDbPolygonMeshVertex
 10
-0.6
 20
1.7775
 30
0.705
 70
    64
  0
VERTEX
  5
46A4C
100
AcDbEntity
  8
0
100
AcDbVertex
100
AcDbPolygonMeshVertex
 10
-0.6
 20
1.7775
 30
0.705
 70
    64
  0
VERTEX
  5
46A4D
100
AcDbEntity
  8
0
100
AcDbVertex
100
AcDbPolygonMeshVertex
 10
-0.6
 20
-2.3775
 30
2.685
 70
    64
  0
VERTEX
  5
46A4E
100
AcDbEntity
  8
0
100
AcDbVertex
100
AcDbPolygonMeshVertex
 10
-0.6
 20
-2.3775
 30
0.705
 70
    64
  0
VERTEX
  5
46A4F
100
AcDbEntity
  8
0
100
AcDbVertex
100
AcDbPolygonMeshVertex
 10
-0.6
 20
1.7775
 30
0.705
 70
    64
  0
VERTEX
  5
46A50
100
AcDbEntity
  8
0
100
AcDbVertex
100
AcDbPolygonMeshVertex
 10
0.6
 20
-2.3775
 30
2.685
 70
    64
  0
VERTEX
  5
46A51
100
AcDbEntity
  8
0
100
AcDbVertex
100
AcDbPolygonMeshVertex
 10
0.6
 20
-2.3775
 30
0.705
 70
    64
  0
VERTEX
  5
46A52
100
AcDbEntity
  8
0
100
AcDbVertex
100
AcDbPolygonMeshVertex
 10
0.6
 20
1.7775
 30
0.705
 70
    64
  0
VERTEX
  5
46A53
100
AcDbEntity
  8
0
100
AcDbVertex
100
AcDbPolygonMeshVertex
 10
0.6
 20
-2.3775
 30
2.685
 70
    64
  0
VERTEX
  5
46A54
100
AcDbEntity
  8
0
100
AcDbVertex
100
AcDbPolygonMeshVertex
 10
0.6
 20
-2.3775
 30
2.685
 70
    64
  0
VERTEX
  5
46A55
100
AcDbEntity
  8
0
100
AcDbVertex
100
AcDbPolygonMeshVertex
 10
0.6
 20
1.7775
 30
2.685
 70
    64
  0
VERTEX
  5
46A56
100
AcDbEntity
  8
0
100
AcDbVertex
100
AcDbPolygonMeshVertex
 10
-0.6
 20
-2.3775
 30
2.685
 70
    64
  0
VERTEX
  5
46A57
100
AcDbEntity
  8
0
100
AcDbVertex
100
AcDbPolygonMeshVertex
 10
-0.6
 20
-2.3775
 30
2.685
 70
    64
  0
VERTEX
  5
46A58
100
AcDbEntity
  8
0
100
AcDbVertex
100
AcDbPolygonMeshVertex
 10
-0.6
 20
1.7775
 30
2.685
 70
    64
  0
SEQEND
  5
46A59
100
AcDbEntity
  8
0
  0
POINT
  5
46A5A
100
AcDbEntity
  8
SNAP_POINTS
100
AcDbPoint
 10
0.0
 20
0.0
 30
0.0
  0
DIMENSION
  5
46A5B
100
AcDbEntity
  8
AREA1
100
AcDbDimension
  2
*D0
 10
2.6625
 20
2.994136
 30
0.0
 11
-0.090633
 21
2.994136
 31
0.0
 70
   160
  3
ABECAD_3D
100
AcDbAlignedDimension
 13
-2.6625
 23
2.6625
 33
0.0
 14
2.6625
 24
2.6625
 34
0.0
100
AcDbRotatedDimension
  0
DIMENSION
  5
46A69
100
AcDbEntity
  8
AREA1
100
AcDbDimension
  2
*D1
 10
3.100605
 20
-2.6625
 30
0.0
 11
3.100605
 21
-0.003489
 31
0.0
 70
   160
  3
ABECAD_3D
100
AcDbAlignedDimension
 13
2.6625
 23
2.6625
 33
0.0
 14
2.6625
 24
-2.6625
 34
0.0
 50
90.0
100
AcDbRotatedDimension
  0
ENDSEC
  0
SECTION
  2
OBJECTS
  0
DICTIONARY
  5
458CB
100
AcDbDictionary
  3
ACAD_GROUP
350
458CC
  3
ACAD_LAYOUT
350
458FB
  3
ACAD_MLINESTYLE
350
458D9
  3
ACAD_PLOTSETTINGS
350
458FC
  3
ACAD_PLOTSTYLENAME
350
458F9
  3
ACDBHEADERROUNDTRIPXREC
350
46ADE
  3
ACDBVARIABLEDICTIONARY
350
458E1
  3
DWGPROPS
350
45901
  0
DICTIONARY
  5
46ADC
100
AcDbDictionary
280
     1
  3
ACAD_XREC_ROUNDTRIP
360
46ADD
  0
DICTIONARY
  5
46B05
100
AcDbDictionary
280
     1
  3
ACAD_XREC_ROUNDTRIP
360
46B06
  0
DICTIONARY
  5
46ADA
100
AcDbDictionary
280
     1
  3
ACAD_XREC_ROUNDTRIP
360
46ADB
  0
DICTIONARY
  5
46B01
100
AcDbDictionary
280
     1
  3
ACAD_XREC_ROUNDTRIP
360
46B02
  0
DICTIONARY
  5
4592C
100
AcDbDictionary
280
     1
  3
ACAD_LAYOUTSELFREF
360
46B00
  0
DICTIONARY
  5
4592A
100
AcDbDictionary
280
     1
  3
ACAD_LAYOUTSELFREF
360
46AFF
  0
DICTIONARY
  5
458CC
102
{ACAD_REACTORS
330
458CB
102
}
100
AcDbDictionary
  0
DICTIONARY
  5
458FB
102
{ACAD_XDICTIONARY
360
46B03
102
}
102
{ACAD_REACTORS
330
458CB
102
}
100
AcDbDictionary
  3
LAYOUT1
350
458FE
  3
MODEL
350
458FD
  0
DICTIONARY
  5
458D9
102
{ACAD_REACTORS
330
458CB
102
}
100
AcDbDictionary
  3
STANDARD
350
458DA
  0
DICTIONARY
  5
458FC
102
{ACAD_REACTORS
330
458CB
102
}
100
AcDbDictionary
  0
ACAD_PROXY_OBJECT
  5
458F9
102
{ACAD_REACTORS
330
458CB
102
}
100
AcDbProxyObject
 90
      499
 91
      501
 93
       86
310
405010041939BDC9B585B0
350
458FA
340
458FA
 94
        0
  0
DICTIONARY
  5
46ADE
102
{ACAD_REACTORS
330
458CB
102
}
100
AcDbDictionary
  3
CEPSNTYPE
350
46AE8
  3
DIMSTYLEDATA
350
46AEC
  3
FINGERPRINTGUID
350
46AE9
  3
HYPERLINKBASE
350
46AE1
  3
INSUNITS
350
46AE7
  3
LAYOUTDICT
350
46AE3
  3
LWETCUNION
350
46AE6
  3
PLOTSETDICT
350
46AE4
  3
PLOTSTYLNAMDICT
350
46AE5
  3
PSVPSCALE
350
46AEB
  3
PUCSBASE
350
46AEF
  3
PUCSORGBACK
350
46AF5
  3
PUCSORGBOTTOM
350
46AF1
  3
PUCSORGFRONT
350
46AF4
  3
PUCSORGLEFT
350
46AF2
  3
PUCSORGRIGHT
350
46AF3
  3
PUCSORGTOP
350
46AF0
  3
PUCSORTHOREF
350
46AED
  3
PUCSORTHOVIEW
350
46AEE
  3
STYLESHEET
350
46AE2
  3
TSTACKALIGN
350
46ADF
  3
TSTACKSIZE
350
46AE0
  3
UCSBASE
350
46AF8
  3
UCSORGBACK
350
46AFE
  3
UCSORGBOTTOM
350
46AFA
  3
UCSORGFRONT
350
46AFD
  3
UCSORGLEFT
350
46AFB
  3
UCSORGRIGHT
350
46AFC
  3
UCSORGTOP
350
46AF9
  3
UCSORTHOREF
350
46AF6
  3
UCSORTHOVIEW
350
46AF7
  3
VERSIONGUID
350
46AEA
  0
DICTIONARY
  5
458E1
102
{ACAD_REACTORS
330
458CB
102
}
100
AcDbDictionary
  3
DIMADEC
350
458E2
  0
XRECORD
  5
45901
102
{ACAD_REACTORS
330
458CB
102
}
100
AcDbXrecord
  1
DWGPROPS COOKIE
  2

  3

  4

  6

  7

  8
colin
  9

300
=
301
=
302
=
303
=
304
=
305
=
306
=
307
=
308
=
309
=
 40
0.000599
 41
2451670.444777
 42
2451670.445376
  1

 90
        0
  0
XRECORD
  5
46ADD
102
{ACAD_REACTORS
330
46ADC
102
}
100
AcDbXrecord
102
EXTNAMES
  1
*ACTIVE
  2
*Active
102
UCS
 74
     0
 71
     1
 10
0.0
 20
0.0
 30
0.0
 10
1.0
 20
0.0
 30
0.0
 10
0.0
 20
1.0
 30
0.0
146
0.0
 79
     1
102
VIEW
281
     0
  0
XRECORD
  5
46B06
102
{ACAD_REACTORS
330
46B05
102
}
100
AcDbXrecord
102
PLOTBIT
280
     0
  0
XRECORD
  5
46ADB
102
{ACAD_REACTORS
330
46ADA
102
}
100
AcDbXrecord
102
EXTNAMES
  1
DEFPOINTS
  2
Defpoints
102
PLOTBIT
280
     0
  0
XRECORD
  5
46B02
102
{ACAD_REACTORS
330
46B01
102
}
100
AcDbXrecord
102
ACADR14ROUNDTRIP
1000
DSTYLE
1002
{
1070
   276
 70
     2
1070
   277
 70
     5
1070
   279
 70
     2
1070
   289
 70
     2
1002
}
  0
XRECORD
  5
46B00
102
{ACAD_REACTORS
330
4592C
102
}
100
AcDbXrecord
340
458D6
  0
XRECORD
  5
46AFF
102
{ACAD_REACTORS
330
4592A
102
}
100
AcDbXrecord
340
458D3
  0
DICTIONARY
  5
46B03
100
AcDbDictionary
280
     1
  3
ACAD_XREC_ROUNDTRIP
360
46B04
  0
ACAD_PROXY_OBJECT
  5
458FE
102
{ACAD_REACTORS
330
458FB
102
}
100
AcDbProxyObject
 90
      499
 91
      503
 93
     1348
310
91D4850204C617365724A65742035303030205365726965732050434C20362C00AAAAAA416AA547D11959985D5B1D08148C4D081C195B88185CDCDA59DB9B595B9D1CCB98DD1891069074C61796F75743140501A800000000000000000000000000000000000000000000A1000000000000008902A6A6A10232D5E076BC551
310
0408CB5781DAF154410232D5E076BC5510408CB5781DAF15C410232D5E076BC5710408CB5781DAF15C48
330
458D3
330
0
340
0
340
0
 94
        0
  0
ACAD_PROXY_OBJECT
  5
458FD
102
{ACAD_REACTORS
330
458FB
102
}
100
AcDbProxyObject
 90
      499
 91
      503
 93
      924
310
91D4850204C617365724A65742035303030205365726965732050434C20362C01AAAAAAAAA547D11959985D5B1D08148C4D081C195B88185CDCDA59DB9B595B9D1CCB98DD18A69054D6F64656C901A800000000000000000000000000000000000000000000A1000000000000008902A6A6AAAA3
330
458D6
330
0
340
0
340
0
 94
        0
  0
MLINESTYLE
  5
458DA
102
{ACAD_REACTORS
330
458D9
102
}
100
AcDbMlineStyle
  2
STANDARD
 70
     0
  3

 62
   256
 51
90.0
 52
90.0
 71
     2
 49
0.5
 62
   256
  6
BYLAYER
 49
-0.5
 62
   256
  6
BYLAYER
  0
ACAD_PROXY_OBJECT
  5
458FA
102
{ACAD_REACTORS
330
458F9
102
}
100
AcDbProxyObject
 90
      499
 91
      502
 93
        0
 94
        0
  0
XRECORD
  5
46AE8
102
{ACAD_REACTORS
330
46ADE
102
}
100
AcDbXrecord
 90
        0
  0
XRECORD
  5
46AEC
102
{ACAD_REACTORS
330
46ADE
102
}
100
AcDbXrecord
1000
DSTYLE
1002
{
1070
   276
 70
     2
1070
   277
 70
     5
1070
   279
 70
     2
1070
   289
 70
     2
1002
}
  0
XRECORD
  5
46AE9
102
{ACAD_REACTORS
330
46ADE
102
}
100
AcDbXrecord
  1
{6E0CF4B8-225E-11D4-A150-00A0CC3303EC}
  0
XRECORD
  5
46AE1
102
{ACAD_REACTORS
330
46ADE
102
}
100
AcDbXrecord
  1

  0
XRECORD
  5
46AE7
102
{ACAD_REACTORS
330
46ADE
102
}
100
AcDbXrecord
 90
        0
  0
XRECORD
  5
46AE3
102
{ACAD_REACTORS
330
46ADE
102
}
100
AcDbXrecord
340
458FB
  0
XRECORD
  5
46AE6
102
{ACAD_REACTORS
330
46ADE
102
}
100
AcDbXrecord
 90
    14877
  0
XRECORD
  5
46AE4
102
{ACAD_REACTORS
330
46ADE
102
}
100
AcDbXrecord
340
458FC
  0
XRECORD
  5
46AE5
102
{ACAD_REACTORS
330
46ADE
102
}
100
AcDbXrecord
340
458F9
  0
XRECORD
  5
46AEB
102
{ACAD_REACTORS
330
46ADE
102
}
100
AcDbXrecord
 40
0.0
  0
XRECORD
  5
46AEF
102
{ACAD_REACTORS
330
46ADE
102
}
100
AcDbXrecord
340
0
  0
XRECORD
  5
46AF5
102
{ACAD_REACTORS
330
46ADE
102
}
100
AcDbXrecord
 10
0.0
 20
0.0
 30
0.0
  0
XRECORD
  5
46AF1
102
{ACAD_REACTORS
330
46ADE
102
}
100
AcDbXrecord
 10
0.0
 20
0.0
 30
0.0
  0
XRECORD
  5
46AF4
102
{ACAD_REACTORS
330
46ADE
102
}
100
AcDbXrecord
 10
0.0
 20
0.0
 30
0.0
  0
XRECORD
  5
46AF2
102
{ACAD_REACTORS
330
46ADE
102
}
100
AcDbXrecord
 10
0.0
 20
0.0
 30
0.0
  0
XRECORD
  5
46AF3
102
{ACAD_REACTORS
330
46ADE
102
}
100
AcDbXrecord
 10
0.0
 20
0.0
 30
0.0
  0
XRECORD
  5
46AF0
102
{ACAD_REACTORS
330
46ADE
102
}
100
AcDbXrecord
 10
0.0
 20
0.0
 30
0.0
  0
XRECORD
  5
46AED
102
{ACAD_REACTORS
330
46ADE
102
}
100
AcDbXrecord
340
0
  0
XRECORD
  5
46AEE
102
{ACAD_REACTORS
330
46ADE
102
}
100
AcDbXrecord
 70
     0
  0
XRECORD
  5
46AE2
102
{ACAD_REACTORS
330
46ADE
102
}
100
AcDbXrecord
  1

  0
XRECORD
  5
46ADF
102
{ACAD_REACTORS
330
46ADE
102
}
100
AcDbXrecord
 90
        1
  0
XRECORD
  5
46AE0
102
{ACAD_REACTORS
330
46ADE
102
}
100
AcDbXrecord
 90
       70
  0
XRECORD
  5
46AF8
102
{ACAD_REACTORS
330
46ADE
102
}
100
AcDbXrecord
340
0
  0
XRECORD
  5
46AFE
102
{ACAD_REACTORS
330
46ADE
102
}
100
AcDbXrecord
 10
0.0
 20
0.0
 30
0.0
  0
XRECORD
  5
46AFA
102
{ACAD_REACTORS
330
46ADE
102
}
100
AcDbXrecord
 10
0.0
 20
0.0
 30
0.0
  0
XRECORD
  5
46AFD
102
{ACAD_REACTORS
330
46ADE
102
}
100
AcDbXrecord
 10
0.0
 20
0.0
 30
0.0
  0
XRECORD
  5
46AFB
102
{ACAD_REACTORS
330
46ADE
102
}
100
AcDbXrecord
 10
0.0
 20
0.0
 30
0.0
  0
XRECORD
  5
46AFC
102
{ACAD_REACTORS
330
46ADE
102
}
100
AcDbXrecord
 10
0.0
 20
0.0
 30
0.0
  0
XRECORD
  5
46AF9
102
{ACAD_REACTORS
330
46ADE
102
}
100
AcDbXrecord
 10
0.0
 20
0.0
 30
0.0
  0
XRECORD
  5
46AF6
102
{ACAD_REACTORS
330
46ADE
102
}
100
AcDbXrecord
340
0
  0
XRECORD
  5
46AF7
102
{ACAD_REACTORS
330
46ADE
102
}
100
AcDbXrecord
 70
     1
  0
XRECORD
  5
46AEA
102
{ACAD_REACTORS
330
46ADE
102
}
100
AcDbXrecord
  1
{BCB78A54-55BA-4FCA-BE59-92C9B6353F75}
  0
DICTIONARYVAR
  5
458E2
102
{ACAD_REACTORS
330
458E1
102
}
100
DictionaryVariables
280
     0
  1
0
  0
XRECORD
  5
46B04
102
{ACAD_REACTORS
330
46B03
102
}
100
AcDbXrecord
102
EXTNAMES
  1
LAYOUT1
  2
Layout1
  1
MODEL
  2
Model
  0
ENDSEC
  0
EOF
