  0
SECTION
  2
HEADER
  9
$ACADVER
  1
AC1014
  9
$ACADMAINTVER
 70
     8
  9
$DWGCODEPAGE
  3
ANSI_1252
  9
$INSBASE
 10
0.0
 20
0.0
 30
0.0
  9
$EXTMIN
 10
-2.559375
 20
-2.572917
 30
0.0
  9
$EXTMAX
 10
4.643007
 20
3.011391
 30
2.952084
  9
$LIMMIN
 10
0.0
 20
0.0
  9
$LIMMAX
 10
12.0
 20
9.0
  9
$ORTHOMODE
 70
     0
  9
$REGENMODE
 70
     1
  9
$FILLMODE
 70
     1
  9
$QTEXTMODE
 70
     0
  9
$MIRRTEXT
 70
     1
  9
$DRAGMODE
 70
     2
  9
$LTSCALE
 40
1.0
  9
$OSMODE
 70
    37
  9
$ATTMODE
 70
     0
  9
$TEXTSIZE
 40
0.2
  9
$TRACEWID
 40
0.05
  9
$TEXTSTYLE
  7
STANDARD
  9
$CLAYER
  8
0
  9
$CELTYPE
  6
BYLAYER
  9
$CECOLOR
 62
   256
  9
$CELTSCALE
 40
1.0
  9
$DELOBJ
 70
     1
  9
$DISPSILH
 70
     0
  9
$DIMSCALE
 40
0.0
  9
$DIMASZ
 40
0.18
  9
$DIMEXO
 40
0.0625
  9
$DIMDLI
 40
0.375
  9
$DIMRND
 40
0.0
  9
$DIMDLE
 40
0.0
  9
$DIMEXE
 40
0.18
  9
$DIMTP
 40
0.0
  9
$DIMTM
 40
0.0
  9
$DIMTXT
 40
0.09
  9
$DIMCEN
 40
0.09
  9
$DIMTSZ
 40
0.0
  9
$DIMTOL
 70
     0
  9
$DIMLIM
 70
     0
  9
$DIMTIH
 70
     0
  9
$DIMTOH
 70
     1
  9
$DIMSE1
 70
     0
  9
$DIMSE2
 70
     0
  9
$DIMTAD
 70
     0
  9
$DIMZIN
 70
     4
  9
$DIMBLK
  1

  9
$DIMASO
 70
     1
  9
$DIMSHO
 70
     1
  9
$DIMPOST
  1

  9
$DIMAPOST
  1

  9
$DIMALT
 70
     1
  9
$DIMALTD
 70
     2
  9
$DIMALTF
 40
25.4
  9
$DIMLFAC
 40
1.0
  9
$DIMTOFL
 70
     0
  9
$DIMTVP
 40
0.0
  9
$DIMTIX
 70
     0
  9
$DIMSOXD
 70
     0
  9
$DIMSAH
 70
     0
  9
$DIMBLK1
  1

  9
$DIMBLK2
  1

  9
$DIMSTYLE
  2
ABECAD_3V
  9
$DIMCLRD
 70
     0
  9
$DIMCLRE
 70
     0
  9
$DIMCLRT
 70
     0
  9
$DIMTFAC
 40
1.5
  9
$DIMGAP
 40
0.09
  9
$DIMJUST
 70
     0
  9
$DIMSD1
 70
     0
  9
$DIMSD2
 70
     0
  9
$DIMTOLJ
 70
     1
  9
$DIMTZIN
 70
     4
  9
$DIMALTZ
 70
     4
  9
$DIMALTTZ
 70
     4
  9
$DIMFIT
 70
     5
  9
$DIMUPT
 70
     1
  9
$DIMUNIT
 70
     7
  9
$DIMDEC
 70
     6
  9
$DIMTDEC
 70
     6
  9
$DIMALTU
 70
     2
  9
$DIMALTTD
 70
     2
  9
$DIMTXSTY
  7
STANDARD
  9
$DIMAUNIT
 70
     0
  9
$LUNITS
 70
     2
  9
$LUPREC
 70
     6
  9
$SKETCHINC
 40
0.1
  9
$FILLETRAD
 40
0.0
  9
$AUNITS
 70
     0
  9
$AUPREC
 70
     0
  9
$MENU
  1
acad
  9
$ELEVATION
 40
0.0
  9
$PELEVATION
 40
0.0
  9
$THICKNESS
 40
0.0
  9
$LIMCHECK
 70
     0
  9
$BLIPMODE
 70
     0
  9
$CHAMFERA
 40
0.0
  9
$CHAMFERB
 40
0.0
  9
$CHAMFERC
 40
0.0
  9
$CHAMFERD
 40
0.0
  9
$SKPOLY
 70
     0
  9
$TDCREATE
 40
2451726.480029051
  9
$TDUPDATE
 40
2452010.730827546
  9
$TDINDWG
 40
0.1351307870
  9
$TDUSRTIMER
 40
0.1351307870
  9
$USRTIMER
 70
     1
  9
$ANGBASE
 50
0.0
  9
$ANGDIR
 70
     0
  9
$PDMODE
 70
     3
  9
$PDSIZE
 40
0.18
  9
$PLINEWID
 40
0.0
  9
$COORDS
 70
     1
  9
$SPLFRAME
 70
     0
  9
$SPLINETYPE
 70
     6
  9
$SPLINESEGS
 70
     8
  9
$ATTDIA
 70
     0
  9
$ATTREQ
 70
     1
  9
$HANDLING
 70
     1
  9
$HANDSEED
  5
3217
  9
$SURFTAB1
 70
     6
  9
$SURFTAB2
 70
     6
  9
$SURFTYPE
 70
     6
  9
$SURFU
 70
     6
  9
$SURFV
 70
     6
  9
$UCSNAME
  2

  9
$UCSORG
 10
0.0
 20
0.0
 30
0.0
  9
$UCSXDIR
 10
1.0
 20
0.0
 30
0.0
  9
$UCSYDIR
 10
0.0
 20
1.0
 30
0.0
  9
$PUCSNAME
  2

  9
$PUCSORG
 10
0.0
 20
0.0
 30
0.0
  9
$PUCSXDIR
 10
1.0
 20
0.0
 30
0.0
  9
$PUCSYDIR
 10
0.0
 20
1.0
 30
0.0
  9
$USERI1
 70
     0
  9
$USERI2
 70
     0
  9
$USERI3
 70
     0
  9
$USERI4
 70
     0
  9
$USERI5
 70
     0
  9
$USERR1
 40
0.0
  9
$USERR2
 40
0.0
  9
$USERR3
 40
0.0
  9
$USERR4
 40
0.0
  9
$USERR5
 40
0.0
  9
$WORLDVIEW
 70
     1
  9
$SHADEDGE
 70
     3
  9
$SHADEDIF
 70
    70
  9
$TILEMODE
 70
     0
  9
$MAXACTVP
 70
    16
  9
$PINSBASE
 10
0.0
 20
0.0
 30
0.0
  9
$PLIMCHECK
 70
     0
  9
$PEXTMIN
 10
0.0
 20
0.0
 30
0.0
  9
$PEXTMAX
 10
10.0
 20
7.5
 30
0.0
  9
$PLIMMIN
 10
-0.187029
 20
-0.186938
  9
$PLIMMAX
 10
10.187518
 20
7.829757
  9
$UNITMODE
 70
     0
  9
$VISRETAIN
 70
     0
  9
$PLINEGEN
 70
     0
  9
$PSLTSCALE
 70
     1
  9
$TREEDEPTH
 70
  3020
  9
$PICKSTYLE
 70
     1
  9
$CMLSTYLE
  2
STANDARD
  9
$CMLJUST
 70
     0
  9
$CMLSCALE
 40
1.0
  9
$PROXYGRAPHICS
 70
     1
  9
$MEASUREMENT
 70
     0
  0
ENDSEC
  0
SECTION
  2
CLASSES
  0
CLASS
  1
DICTIONARYVAR
  2
AcDbDictionaryVar
  3
"AutoCAD"
 90
        0
280
     0
281
     0
  0
CLASS
  1
ACDBDICTIONARYWDFLT
  2
AcDbDictionaryWithDefault
  3
AutoCAD 2000
 90
        0
280
     0
281
     0
  0
CLASS
  1
ACDBPLACEHOLDER
  2
AcDbPlaceHolder
  3
AutoCAD 2000
 90
        0
280
     0
281
     0
  0
CLASS
  1
LAYOUT
  2
AcDbLayout
  3
AutoCAD 2000
 90
        0
280
     0
281
     0
  0
CLASS
  1
LONG_TRANSACTION
  2
AcDbLongTransaction
  3
AutoCAD 2000
 90
        0
280
     0
281
     0
  0
CLASS
  1
LWPOLYLINE
  2
AcDbPolyline
  3
"AutoCAD"
 90
        0
280
     0
281
     1
  0
CLASS
  1
HATCH
  2
AcDbHatch
  3
"ACAD_SEDONA"
 90
        0
280
     0
281
     1
  0
CLASS
  1
XRECORD
  2
AcDbXrecord
  3
"<Built In>"
 90
        0
280
     0
281
     0
  0
CLASS
  1
LONG_TRANSACTION
  2
AcDbLongTransaction
  3
AutoCAD 2000
 90
        0
280
     0
281
     0
  0
CLASS
  1
LWPOLYLINE
  2
AcDbPolyline
  3
"AutoCAD"
 90
        0
280
     0
281
     1
  0
CLASS
  1
HATCH
  2
AcDbHatch
  3
"ACAD_SEDONA"
 90
        0
280
     0
281
     1
  0
CLASS
  1
XRECORD
  2
AcDbXrecord
  3
"<Built In>"
 90
        0
280
     0
281
     0
  0
CLASS
  1
LONG_TRANSACTION
  2
AcDbLongTransaction
  3
AutoCAD 2000
 90
        0
280
     0
281
     0
  0
CLASS
  1
LWPOLYLINE
  2
AcDbPolyline
  3
"AutoCAD"
 90
        0
280
     0
281
     1
  0
CLASS
  1
HATCH
  2
AcDbHatch
  3
"ACAD_SEDONA"
 90
        0
280
     0
281
     1
  0
CLASS
  1
XRECORD
  2
AcDbXrecord
  3
"<Built In>"
 90
        0
280
     0
281
     0
  0
CLASS
  1
LONG_TRANSACTION
  2
AcDbLongTransaction
  3
AutoCAD 2000
 90
        0
280
     0
281
     0
  0
CLASS
  1
LWPOLYLINE
  2
AcDbPolyline
  3
"AutoCAD"
 90
        0
280
     0
281
     1
  0
CLASS
  1
HATCH
  2
AcDbHatch
  3
"ACAD_SEDONA"
 90
        0
280
     0
281
     1
  0
CLASS
  1
XRECORD
  2
AcDbXrecord
  3
"<Built In>"
 90
        0
280
     0
281
     0
  0
CLASS
  1
LONG_TRANSACTION
  2
AcDbLongTransaction
  3
AutoCAD 2000
 90
        0
280
     0
281
     0
  0
CLASS
  1
LWPOLYLINE
  2
AcDbPolyline
  3
"AutoCAD"
 90
        0
280
     0
281
     1
  0
CLASS
  1
HATCH
  2
AcDbHatch
  3
"ACAD_SEDONA"
 90
        0
280
     0
281
     1
  0
CLASS
  1
XRECORD
  2
AcDbXrecord
  3
"<Built In>"
 90
        0
280
     0
281
     0
  0
CLASS
  1
LONG_TRANSACTION
  2
AcDbLongTransaction
  3
AutoCAD 2000
 90
        0
280
     0
281
     0
  0
CLASS
  1
LWPOLYLINE
  2
AcDbPolyline
  3
"AutoCAD"
 90
        0
280
     0
281
     1
  0
CLASS
  1
HATCH
  2
AcDbHatch
  3
"ACAD_SEDONA"
 90
        0
280
     0
281
     1
  0
CLASS
  1
XRECORD
  2
AcDbXrecord
  3
"<Built In>"
 90
        0
280
     0
281
     0
  0
ENDSEC
  0
SECTION
  2
TABLES
  0
TABLE
  2
VPORT
  5
469
100
AcDbSymbolTable
 70
     1
  0
VPORT
  5
312D
102
{ACAD_XDICTIONARY
360
31DF
102
}
100
AcDbSymbolTableRecord
100
AcDbViewportTableRecord
  2
*ACTIVE
 70
     0
 10
0.0
 20
0.0
 11
1.0
 21
1.0
 12
1.041816
 22
1.476042
 13
0.0
 23
0.0
 14
1.0
 24
1.0
 15
0.0
 25
0.0
 16
0.0
 26
-1.0
 36
0.0
 17
0.0
 27
0.0
 37
0.0
 40
3.966376
 41
1.826316
 42
50.0
 43
0.0
 44
0.0
 50
0.0
 51
0.0
 71
     0
 72
   100
 73
     1
 74
     1
 75
     0
 76
     0
 77
     0
 78
     0
  0
ENDTAB
  0
TABLE
  2
LTYPE
  5
466
100
AcDbSymbolTable
 70
     1
  0
LTYPE
  5
472
100
AcDbSymbolTableRecord
100
AcDbLinetypeTableRecord
  2
BYBLOCK
 70
     0
  3

 72
    65
 73
     0
 40
0.0
  0
LTYPE
  5
473
100
AcDbSymbolTableRecord
100
AcDbLinetypeTableRecord
  2
BYLAYER
 70
     0
  3

 72
    65
 73
     0
 40
0.0
  0
LTYPE
  5
474
100
AcDbSymbolTableRecord
100
AcDbLinetypeTableRecord
  2
CONTINUOUS
 70
     0
  3
Solid line
 72
    65
 73
     0
 40
0.0
  0
ENDTAB
  0
TABLE
  2
LAYER
  5
463
100
AcDbSymbolTable
 70
     8
  0
LAYER
  5
46F
100
AcDbSymbolTableRecord
100
AcDbLayerTableRecord
  2
0
 70
     0
 62
     7
  6
CONTINUOUS
  0
LAYER
  5
485
100
AcDbSymbolTableRecord
100
AcDbLayerTableRecord
  2
AREA1
 70
     0
 62
     7
  6
CONTINUOUS
  0
LAYER
  5
486
100
AcDbSymbolTableRecord
100
AcDbLayerTableRecord
  2
AREA2
 70
     0
 62
     7
  6
CONTINUOUS
  0
LAYER
  5
494
102
{ACAD_XDICTIONARY
360
320C
102
}
100
AcDbSymbolTableRecord
100
AcDbLayerTableRecord
  2
DEFPOINTS
 70
     0
 62
    -7
  6
CONTINUOUS
  0
LAYER
  5
495
100
AcDbSymbolTableRecord
100
AcDbLayerTableRecord
  2
DIMS-MTG-HOLES
 70
     0
 62
    -1
  6
CONTINUOUS
  0
LAYER
  5
4E6
100
AcDbSymbolTableRecord
100
AcDbLayerTableRecord
  2
SCALE
 70
     0
 62
    -7
  6
CONTINUOUS
  0
LAYER
  5
4ED
100
AcDbSymbolTableRecord
100
AcDbLayerTableRecord
  2
SNAP_POINTS
 70
     0
 62
    -1
  6
CONTINUOUS
  0
LAYER
  5
4F1
100
AcDbSymbolTableRecord
100
AcDbLayerTableRecord
  2
ATTRIBUTES
 70
     0
 62
    -7
  6
CONTINUOUS
  0
ENDTAB
  0
TABLE
  2
STYLE
  5
464
100
AcDbSymbolTable
 70
     1
  0
STYLE
  5
470
100
AcDbSymbolTableRecord
100
AcDbTextStyleTableRecord
  2
STANDARD
 70
     0
 40
0.0
 41
1.0
 50
0.0
 71
     0
 42
0.2
  3
txt
  4

  0
ENDTAB
  0
TABLE
  2
VIEW
  5
467
100
AcDbSymbolTable
 70
     0
  0
ENDTAB
  0
TABLE
  2
UCS
  5
468
100
AcDbSymbolTable
 70
     0
  0
ENDTAB
  0
TABLE
  2
APPID
  5
46A
100
AcDbSymbolTable
 70
     2
  0
APPID
  5
471
100
AcDbSymbolTableRecord
100
AcDbRegAppTableRecord
  2
ACAD
 70
     0
  0
APPID
  5
47E
100
AcDbSymbolTableRecord
100
AcDbRegAppTableRecord
  2
AVE_RENDER
 70
     0
  0
ENDTAB
  0
TABLE
  2
DIMSTYLE
  5
46B
100
AcDbSymbolTable
 70
     2
  0
DIMSTYLE
105
49A
102
{ACAD_XDICTIONARY
360
320E
102
}
102
{ACAD_REACTORS
330
311F
102
}
100
AcDbSymbolTableRecord
100
AcDbDimStyleTableRecord
  2
ABECAD_3V
 70
     0
  3

  4

  5

  6

  7

 40
0.0
 41
0.18
 42
0.0625
 43
0.375
 44
0.18
 45
0.0
 46
0.0
 47
0.0
 48
0.0
140
0.09
141
0.09
142
0.0
143
25.4
144
1.0
145
0.0
146
1.5
147
0.09
 71
     0
 72
     0
 73
     0
 74
     1
 75
     0
 76
     0
 77
     0
 78
     4
170
     1
171
     2
172
     0
173
     0
174
     0
175
     0
176
     0
177
     0
178
     0
270
     7
271
     6
272
     6
273
     2
274
     2
340
470
275
     0
280
     0
281
     0
282
     0
283
     1
284
     4
285
     4
286
     4
287
     5
288
     1
  0
DIMSTYLE
105
545
102
{ACAD_XDICTIONARY
360
3212
102
}
100
AcDbSymbolTableRecord
100
AcDbDimStyleTableRecord
  2
ABECAD_3D
 70
     0
  3

  4

  5

  6

  7

 40
1.0
 41
0.09
 42
0.0625
 43
0.375
 44
0.18
 45
0.0
 46
0.0
 47
0.0
 48
0.0
140
0.09
141
0.09
142
0.0
143
25.4
144
1.0
145
0.0
146
1.5
147
0.09
 71
     0
 72
     0
 73
     0
 74
     1
 75
     0
 76
     0
 77
     0
 78
     4
170
     1
171
     2
172
     0
173
     0
174
     0
175
     0
176
     0
177
     0
178
     0
270
     7
271
     6
272
     6
273
     2
274
     2
340
470
275
     0
280
     0
281
     0
282
     0
283
     1
284
     4
285
     4
286
     4
287
     5
288
     1
  0
ENDTAB
  0
TABLE
  2
BLOCK_RECORD
  5
462
100
AcDbSymbolTable
 70
     4
  0
BLOCK_RECORD
  5
478
102
{ACAD_XDICTIONARY
360
4D2
102
}
100
AcDbSymbolTableRecord
100
AcDbBlockTableRecord
  2
*MODEL_SPACE
  0
BLOCK_RECORD
  5
475
102
{ACAD_XDICTIONARY
360
4D0
102
}
100
AcDbSymbolTableRecord
100
AcDbBlockTableRecord
  2
*PAPER_SPACE
  0
BLOCK_RECORD
  5
30C0
100
AcDbSymbolTableRecord
100
AcDbBlockTableRecord
  2
*D0
  0
BLOCK_RECORD
  5
30CD
100
AcDbSymbolTableRecord
100
AcDbBlockTableRecord
  2
*D1
  0
BLOCK_RECORD
  5
30DB
102
{ACAD_XDICTIONARY
360
31DD
102
}
100
AcDbSymbolTableRecord
100
AcDbBlockTableRecord
  2
ABDSB490
  0
BLOCK_RECORD
  5
3120
100
AcDbSymbolTableRecord
100
AcDbBlockTableRecord
  2
*D3
  0
ENDTAB
  0
ENDSEC
  0
SECTION
  2
BLOCKS
  0
BLOCK
  5
48B
100
AcDbEntity
  8
0
100
AcDbBlockBegin
  2
*MODEL_SPACE
 70
     0
 10
0.0
 20
0.0
 30
0.0
  3
*MODEL_SPACE
  1

  0
ENDBLK
  5
48C
100
AcDbEntity
  8
0
100
AcDbBlockEnd
  0
BLOCK
  5
489
100
AcDbEntity
 67
     1
  8
0
100
AcDbBlockBegin
  2
*PAPER_SPACE
 70
     0
 10
0.0
 20
0.0
 30
0.0
  3
*PAPER_SPACE
  1

  0
ENDBLK
  5
48A
100
AcDbEntity
 67
     1
  8
0
100
AcDbBlockEnd
  0
BLOCK
  5
30CB
100
AcDbEntity
  8
0
100
AcDbBlockBegin
  2
*D0
 70
     1
 10
0.0
 20
0.0
 30
0.0
  3
*D0
  1

  0
LINE
  5
30C1
100
AcDbEntity
  8
AREA1
 62
     0
100
AcDbLine
 10
-2.559375
 20
2.621875
 30
0.0
 11
-2.559375
 21
3.011391
 31
0.0
1001
ACAD
1000
RTLwPs
1070
   158
  0
LINE
  5
30C2
100
AcDbEntity
  8
AREA1
 62
     0
100
AcDbLine
 10
2.559375
 20
2.621875
 30
0.0
 11
2.559375
 21
3.011391
 31
0.0
1001
ACAD
1000
RTLwPs
1070
   158
  0
LINE
  5
30C3
100
AcDbEntity
  8
AREA1
 62
     0
100
AcDbLine
 10
-2.469375
 20
2.831391
 30
0.0
 11
-0.640519
 21
2.831391
 31
0.0
1001
ACAD
1000
RTLwPs
1070
   158
  0
LINE
  5
30C4
100
AcDbEntity
  8
AREA1
 62
     0
100
AcDbLine
 10
2.469375
 20
2.831391
 30
0.0
 11
0.559481
 21
2.831391
 31
0.0
1001
ACAD
1000
RTLwPs
1070
   158
  0
MTEXT
  5
30C5
100
AcDbEntity
  8
AREA1
 62
     0
100
AcDbMText
 10
-0.040519
 20
2.831391
 30
0.0
 40
0.09
 41
0.0
 71
     5
 72
     1
  1
\A1;5 1/8 [130.02]
1001
ACAD
1000
MTEXTBEGIN
1070
    73
1070
     1
1070
    44
1040
1.0
1070
    74
1070
     0
1000
MTEXTEND
1000
MTEXTBEGIN
1070
    73
1070
     1
1070
    44
1040
1.0
1070
    74
1070
     0
1000
MTEXTEND
1000
MTEXTBEGIN
1070
    73
1070
     1
1070
    44
1040
1.0
1070
    74
1070
     0
1000
MTEXTEND
1000
MTEXTBEGIN
1070
    73
1070
     1
1070
    44
1040
1.0
1070
    74
1070
     0
1000
MTEXTEND
1000
MTEXTBEGIN
1070
    73
1070
     1
1070
    44
1040
1.0
1070
    74
1070
     0
1000
MTEXTEND
  0
SOLID
  5
30C6
100
AcDbEntity
  8
AREA1
 62
     0
100
AcDbTrace
 10
-2.469375
 20
2.846391
 30
0.0
 11
-2.469375
 21
2.816391
 31
0.0
 12
-2.559375
 22
2.831391
 32
0.0
 13
-2.559375
 23
2.831391
 33
0.0
  0
SOLID
  5
30C7
100
AcDbEntity
  8
AREA1
 62
     0
100
AcDbTrace
 10
2.469375
 20
2.846391
 30
0.0
 11
2.469375
 21
2.816391
 31
0.0
 12
2.559375
 22
2.831391
 32
0.0
 13
2.559375
 23
2.831391
 33
0.0
  0
POINT
  5
30C8
100
AcDbEntity
  8
DEFPOINTS
 62
     0
100
AcDbPoint
 10
-2.559375
 20
2.559375
 30
0.0
  0
POINT
  5
30C9
100
AcDbEntity
  8
DEFPOINTS
 62
     0
100
AcDbPoint
 10
2.559375
 20
2.559375
 30
0.0
  0
POINT
  5
30CA
100
AcDbEntity
  8
DEFPOINTS
 62
     0
100
AcDbPoint
 10
2.559375
 20
2.831391
 30
0.0
  0
ENDBLK
  5
30CC
100
AcDbEntity
  8
0
100
AcDbBlockEnd
  0
BLOCK
  5
30D8
100
AcDbEntity
  8
0
100
AcDbBlockBegin
  2
*D1
 70
     1
 10
0.0
 20
0.0
 30
0.0
  3
*D1
  1

  0
LINE
  5
30CE
100
AcDbEntity
  8
AREA1
 62
     0
100
AcDbLine
 10
2.621875
 20
2.559375
 30
0.0
 11
3.060067
 21
2.559375
 31
0.0
1001
ACAD
1000
RTLwPs
1070
   158
  0
LINE
  5
30CF
100
AcDbEntity
  8
AREA1
 62
     0
100
AcDbLine
 10
2.621875
 20
-2.559375
 30
0.0
 11
3.060067
 21
-2.559375
 31
0.0
1001
ACAD
1000
RTLwPs
1070
   158
  0
LINE
  5
30D0
100
AcDbEntity
  8
AREA1
 62
     0
100
AcDbLine
 10
2.880067
 20
2.469375
 30
0.0
 11
2.880067
 21
0.444455
 31
0.0
1001
ACAD
1000
RTLwPs
1070
   158
  0
LINE
  5
30D1
100
AcDbEntity
  8
AREA1
 62
     0
100
AcDbLine
 10
2.880067
 20
-2.469375
 30
0.0
 11
2.880067
 21
-0.755545
 31
0.0
1001
ACAD
1000
RTLwPs
1070
   158
  0
MTEXT
  5
30D2
100
AcDbEntity
  8
AREA1
 62
     0
100
AcDbMText
 10
2.880067
 20
-0.155545
 30
0.0
 40
0.09
 41
0.0
 71
     5
 72
     1
  1
\A1;5 1/8 [130.02]
 11
0.0
 21
1.0
 31
0.0
1001
ACAD
1000
MTEXTBEGIN
1070
    73
1070
     1
1070
    44
1040
1.0
1070
    74
1070
     0
1000
MTEXTEND
1000
MTEXTBEGIN
1070
    73
1070
     1
1070
    44
1040
1.0
1070
    74
1070
     0
1000
MTEXTEND
1000
MTEXTBEGIN
1070
    73
1070
     1
1070
    44
1040
1.0
1070
    74
1070
     0
1000
MTEXTEND
1000
MTEXTBEGIN
1070
    73
1070
     1
1070
    44
1040
1.0
1070
    74
1070
     0
1000
MTEXTEND
1000
MTEXTBEGIN
1070
    73
1070
     1
1070
    44
1040
1.0
1070
    74
1070
     0
1000
MTEXTEND
  0
SOLID
  5
30D3
100
AcDbEntity
  8
AREA1
 62
     0
100
AcDbTrace
 10
2.865067
 20
2.469375
 30
0.0
 11
2.895067
 21
2.469375
 31
0.0
 12
2.880067
 22
2.559375
 32
0.0
 13
2.880067
 23
2.559375
 33
0.0
  0
SOLID
  5
30D4
100
AcDbEntity
  8
AREA1
 62
     0
100
AcDbTrace
 10
2.865067
 20
-2.469375
 30
0.0
 11
2.895067
 21
-2.469375
 31
0.0
 12
2.880067
 22
-2.559375
 32
0.0
 13
2.880067
 23
-2.559375
 33
0.0
  0
POINT
  5
30D5
100
AcDbEntity
  8
DEFPOINTS
 62
     0
100
AcDbPoint
 10
2.559375
 20
2.559375
 30
0.0
  0
POINT
  5
30D6
100
AcDbEntity
  8
DEFPOINTS
 62
     0
100
AcDbPoint
 10
2.559375
 20
-2.559375
 30
0.0
  0
POINT
  5
30D7
100
AcDbEntity
  8
DEFPOINTS
 62
     0
100
AcDbPoint
 10
2.880067
 20
-2.559375
 30
0.0
  0
ENDBLK
  5
30D9
100
AcDbEntity
  8
0
100
AcDbBlockEnd
  0
BLOCK
  5
3112
100
AcDbEntity
  8
0
100
AcDbBlockBegin
  2
ABDSB490
 70
     2
 10
0.0
 20
0.0
 30
0.0
  3
ABDSB490
  1

  0
LINE
  5
30DC
100
AcDbEntity
  8
SCALE
100
AcDbLine
 10
3.565377
 20
-2.099477
 30
0.0
 11
4.565377
 21
-2.099477
 31
0.0
  0
LINE
  5
30DD
100
AcDbEntity
  8
SCALE
100
AcDbLine
 10
4.565377
 20
-2.099477
 30
0.0
 11
4.565377
 21
-2.199477
 31
0.0
  0
LINE
  5
30DE
100
AcDbEntity
  8
SCALE
100
AcDbLine
 10
4.565377
 20
-2.199477
 30
0.0
 11
4.565377
 21
-1.999477
 31
0.0
  0
LINE
  5
30DF
100
AcDbEntity
  8
SCALE
100
AcDbLine
 10
3.565377
 20
-2.199477
 30
0.0
 11
3.565377
 21
-1.999477
 31
0.0
  0
LINE
  5
30E0
100
AcDbEntity
  8
SCALE
100
AcDbLine
 10
3.565377
 20
-2.499477
 30
0.0
 11
3.565377
 21
-2.299477
 31
0.0
  0
LINE
  5
30E1
100
AcDbEntity
  8
SCALE
100
AcDbLine
 10
3.959077
 20
-2.499477
 30
0.0
 11
3.959077
 21
-2.299477
 31
0.0
  0
LINE
  5
30E2
100
AcDbEntity
  8
SCALE
100
AcDbLine
 10
3.565377
 20
-2.399477
 30
0.0
 11
3.959077
 21
-2.399477
 31
0.0
  0
TEXT
  5
30E3
100
AcDbEntity
  8
SCALE
100
AcDbText
 10
3.624799
 20
-2.353737
 30
0.0
 40
0.0625
  1
[10mm]
100
AcDbText
  0
TEXT
  5
30E4
100
AcDbEntity
  8
SCALE
100
AcDbText
 10
3.92866
 20
-2.030428
 30
0.0
 40
0.0625
  1
1 Inch
100
AcDbText
  0
TEXT
  5
30E5
100
AcDbEntity
  8
SCALE
100
AcDbText
 10
3.566907
 20
-1.8246
 30
0.0
 40
0.0625
  1
SCALE:
100
AcDbText
  0
LWPOLYLINE
  5
30E6
100
AcDbEntity
  8
SCALE
100
AcDbPolyline
 90
        4
 70
     1
 43
0.0
 10
3.507378
 20
-1.719399
 10
4.643007
 20
-1.719399
 10
4.643007
 20
-2.561008
 10
3.507378
 20
-2.561008
  0
POLYLINE
  5
30E7
100
AcDbEntity
  8
0
100
AcDbPolygonMesh
 66
     1
 10
0.0
 20
0.0
 30
0.0
 70
    16
 71
     6
 72
     3
  0
VERTEX
  5
30E8
100
AcDbEntity
  8
0
100
AcDbVertex
100
AcDbPolygonMeshVertex
 10
0.609375
 20
-2.572917
 30
2.952084
 70
    64
  0
VERTEX
  5
30E9
100
AcDbEntity
  8
0
100
AcDbVertex
100
AcDbPolygonMeshVertex
 10
0.609375
 20
-2.572917
 30
0.839583
 70
    64
  0
VERTEX
  5
30EA
100
AcDbEntity
  8
0
100
AcDbVertex
100
AcDbPolygonMeshVertex
 10
0.609375
 20
-2.572917
 30
0.839583
 70
    64
  0
VERTEX
  5
30EB
100
AcDbEntity
  8
0
100
AcDbVertex
100
AcDbPolygonMeshVertex
 10
-0.609375
 20
-2.572917
 30
2.952084
 70
    64
  0
VERTEX
  5
30EC
100
AcDbEntity
  8
0
100
AcDbVertex
100
AcDbPolygonMeshVertex
 10
-0.609375
 20
-2.572917
 30
0.839583
 70
    64
  0
VERTEX
  5
30ED
100
AcDbEntity
  8
0
100
AcDbVertex
100
AcDbPolygonMeshVertex
 10
-0.609375
 20
-2.572917
 30
0.839583
 70
    64
  0
VERTEX
  5
30EE
100
AcDbEntity
  8
0
100
AcDbVertex
100
AcDbPolygonMeshVertex
 10
-0.609375
 20
1.4625
 30
2.952084
 70
    64
  0
VERTEX
  5
30EF
100
AcDbEntity
  8
0
100
AcDbVertex
100
AcDbPolygonMeshVertex
 10
-0.609375
 20
1.4625
 30
0.839583
 70
    64
  0
VERTEX
  5
30F0
100
AcDbEntity
  8
0
100
AcDbVertex
100
AcDbPolygonMeshVertex
 10
-0.609375
 20
-2.572917
 30
0.839583
 70
    64
  0
VERTEX
  5
30F1
100
AcDbEntity
  8
0
100
AcDbVertex
100
AcDbPolygonMeshVertex
 10
0.609375
 20
1.4625
 30
2.952084
 70
    64
  0
VERTEX
  5
30F2
100
AcDbEntity
  8
0
100
AcDbVertex
100
AcDbPolygonMeshVertex
 10
0.609375
 20
1.4625
 30
0.839583
 70
    64
  0
VERTEX
  5
30F3
100
AcDbEntity
  8
0
100
AcDbVertex
100
AcDbPolygonMeshVertex
 10
0.609375
 20
-2.572917
 30
0.839583
 70
    64
  0
VERTEX
  5
30F4
100
AcDbEntity
  8
0
100
AcDbVertex
100
AcDbPolygonMeshVertex
 10
0.609375
 20
1.4625
 30
2.952084
 70
    64
  0
VERTEX
  5
30F5
100
AcDbEntity
  8
0
100
AcDbVertex
100
AcDbPolygonMeshVertex
 10
0.609375
 20
1.4625
 30
2.952084
 70
    64
  0
VERTEX
  5
30F6
100
AcDbEntity
  8
0
100
AcDbVertex
100
AcDbPolygonMeshVertex
 10
0.609375
 20
-2.572917
 30
2.952084
 70
    64
  0
VERTEX
  5
30F7
100
AcDbEntity
  8
0
100
AcDbVertex
100
AcDbPolygonMeshVertex
 10
-0.609375
 20
1.4625
 30
2.952084
 70
    64
  0
VERTEX
  5
30F8
100
AcDbEntity
  8
0
100
AcDbVertex
100
AcDbPolygonMeshVertex
 10
-0.609375
 20
1.4625
 30
2.952084
 70
    64
  0
VERTEX
  5
30F9
100
AcDbEntity
  8
0
100
AcDbVertex
100
AcDbPolygonMeshVertex
 10
-0.609375
 20
-2.572917
 30
2.952084
 70
    64
  0
SEQEND
  5
30FA
100
AcDbEntity
  8
0
  0
LINE
  5
30FB
100
AcDbEntity
  8
0
100
AcDbLine
 10
-0.609375
 20
-1.024076
 30
1.232292
 11
-0.609375
 21
1.024076
 31
1.232292
  0
LINE
  5
30FC
100
AcDbEntity
  8
0
100
AcDbLine
 10
0.609375
 20
1.024076
 30
1.232292
 11
0.609375
 21
-1.024076
 31
1.232292
  0
ARC
  5
30FD
100
AcDbEntity
  8
0
100
AcDbCircle
 39
0.392708
 10
0.0
 20
0.0
 30
0.839583
 40
1.191667
100
AcDbArc
 50
120.754704
 51
239.245296
  0
ARC
  5
30FE
100
AcDbEntity
  8
0
100
AcDbCircle
 39
0.392708
 10
0.0
 20
0.0
 30
0.839583
 40
1.191667
100
AcDbArc
 50
300.754704
 51
59.245296
  0
LINE
  5
30FF
100
AcDbEntity
  8
0
100
AcDbLine
 10
-0.101563
 20
1.4625
 30
2.952084
 11
-0.101563
 21
0.555208
 31
2.952084
  0
LINE
  5
3100
100
AcDbEntity
  8
0
100
AcDbLine
 10
0.101563
 20
0.555208
 30
2.952084
 11
0.101563
 21
1.4625
 31
2.952084
  0
LINE
  5
3101
100
AcDbEntity
  8
0
100
AcDbLine
 10
-0.101563
 20
0.555208
 30
2.952084
 11
0.101563
 21
0.555208
 31
2.952084
  0
CIRCLE
  5
3102
100
AcDbEntity
  8
0
100
AcDbCircle
 10
0.0
 20
0.0
 30
1.232292
 40
1.191667
  0
POINT
  5
3103
100
AcDbEntity
  8
SNAP_POINTS
100
AcDbPoint
 10
0.0
 20
0.0
 30
0.0
  0
ATTDEF
  5
3104
100
AcDbEntity
  8
ATTRIBUTES
100
AcDbText
 10
-2.34415
 20
-0.121937
 30
0.0
 40
0.139691
  1
ALLEN-BRADLEY
100
AcDbAttributeDefinition
  3
MANUFACTURER NAME?
  2
AC_VND_LABEL
 70
     0
  0
ATTDEF
  5
3105
100
AcDbEntity
  8
ATTRIBUTES
100
AcDbText
 10
-2.34415
 20
-0.412961
 30
0.0
 40
0.139691
  1
194E-HE13A/I-***
100
AcDbAttributeDefinition
  3
CATALOG NUMBER?
  2
AC_PART_NO
 70
     0
  0
ATTDEF
  5
3106
100
AcDbEntity
  8
ATTRIBUTES
100
AcDbText
 10
-2.34415
 20
-0.703984
 30
0.0
 40
0.139691
  1
Control and Load Switch Actuator; Type A/I
100
AcDbAttributeDefinition
  3
PART DESCRIPTION?
  2
AC_DESCRIPTION
 70
     0
  0
ATTDEF
  5
3107
100
AcDbEntity
  8
ATTRIBUTES
100
AcDbText
 10
-2.34415
 20
-0.995008
 30
0.0
 40
0.139691
  1

100
AcDbAttributeDefinition
  3
DEVICE ID?
  2
DEVICE_ID
 70
     0
  0
ATTDEF
  5
3108
100
AcDbEntity
  8
ATTRIBUTES
100
AcDbText
 10
-2.34415
 20
-1.286031
 30
0.0
 40
0.139691
  1

100
AcDbAttributeDefinition
  3
CUSTOMER PART NUMBER?
  2
AC_CPART_NO
 70
     0
  0
ATTDEF
  5
3109
100
AcDbEntity
  8
ATTRIBUTES
100
AcDbText
 10
-2.34415
 20
-1.577055
 30
0.0
 40
0.139691
  1

100
AcDbAttributeDefinition
  3
CUSTOMER NOTE?
  2
AC_NOTE
 70
     0
  0
ATTDEF
  5
310A
100
AcDbEntity
  8
ATTRIBUTES
100
AcDbText
 10
-2.34415
 20
-1.868079
 30
0.0
 40
0.139691
  1

100
AcDbAttributeDefinition
  3
FASTENER DATA?
  2
FASTENER
 70
     0
  0
ATTDEF
  5
310B
100
AcDbEntity
  8
ATTRIBUTES
100
AcDbText
 10
-2.34415
 20
-2.159102
 30
0.0
 40
0.139691
  1
INCH
100
AcDbAttributeDefinition
  3
UNIT OF SCALE?
  2
AC_SCALE_UNIT
 70
     0
  0
ATTDEF
  5
310C
100
AcDbEntity
  8
ATTRIBUTES
100
AcDbText
 10
-2.34415
 20
-2.450126
 30
0.0
 40
0.139691
  1
0
100
AcDbAttributeDefinition
  3
VIEW CODE?
  2
AC_VIEW_CODE
 70
     0
  0
TEXT
  5
310D
100
AcDbEntity
  8
0
100
AcDbText
 10
-0.691956
 20
-0.105845
 30
0.31
 40
0.15
  1

100
AcDbText
  0
TEXT
  5
310E
100
AcDbEntity
  8
0
100
AcDbText
 10
-0.026265
 20
0.638799
 30
0.31
 40
0.15
  1

100
AcDbText
  0
3DSOLID
  5
310F
100
AcDbEntity
  8
0
100
AcDbModelerGeometry
 70
     1
  1
noi mni n o         
  1
=0;& {n {m {rn {rn |
  1
-:9@)+r3(;r>++-6= {rn {rn {rn {o {l {k |
  1
3*2/ {j {rn {i {o |
  1
-:961:2:1+ {rn o o o o oqooggfklilkngmmnkhlh lo o k m o o o o o o o o |
  1
):-+:'@+:2/3>+: {rn l o n g |
  1
-:9@)+r3(;r>++-6= {rn {rn {rn {m {l {k |
  1
,7:33 {h {rn {rn {g {m |
  1
-:9@)+r3(;r>++-6= {rn {rn {rn {i {l {k |
  1
9><: {f {no {nn {i {rn {nm -:):-,:; ,6183: |
  1
92:,7r3(;r>++-6= {rn {nl {rn {g |
  1
9><: {nk {nj {ni {i {rn {nh -:):-,:; ,6183: |
  1
300/ {rn {rn {ng {g |
  1
/3>1:r,*-9><: {rn mqkikjglhggllllll mqkikjglhggllllll oqimmfnihgniiiiiijl n o o o o rmqhoglllglllllllln o V V V V |
  1
-:9@)+r3(;r>++-6= {rn {rn {f {g {l {k |
  1
92:,7r3(;r>++-6= {rn {nf {rn {no |
  1
9><: {mo {mn {mm {i {rn {ml -:):-,:; ,6183: |
  1
300/ {rn {rn {mk {no |
  1
/3>1:r,*-9><: {rn mqkikjglhggllllll rmqkikjglhggllllll oqimmfnihgniiiiiijl o rn o o o rmqhoglllglllllllln o V V V V |
  1
<0:;8: {rn {mj {mi {mh {mg n {nn {rn |
  1
-:9@)+r3(;r>++-6= {rn {rn {nk {no {l {k |
  1
92:,7r3(;r>++-6= {rn {mf {rn {nj |
  1
9><: {lo {ln {lm {i {rn {ll -:):-,:; ,6183: |
  1
300/ {rn {rn {lk {nj |
  1
/3>1:r,*-9><: {rn rmqkikjglhggllllll rmqkikjglhggllllll oqimmfnihgniiiiiijl rn o o o o mqhoglllglllllllln o V V V V |
  1
<0:;8: {rn {lj {li {lh {lg n {ni {rn |
  1
<0:;8: {rn {lf {ng {ko {kn n {nn {rn |
  1
<0:;8: {rn {ng {lf {lj {km o {nn {rn |
  1
<0:;8: {rn {lh {kl {ng {mg o {kk {rn |
  1
:;8: {kj {ki {kh {mh {kg o |
  1
-:9@)+r3(;r>++-6= {rn {rn {mo {nj {l {k |
  1
92:,7r3(;r>++-6= {rn {kf {rn {mn |
  1
9><: {jo {jn {jm {i {rn {jl -:):-,:; ,6183: |
  1
300/ {rn {rn {jk {mn |
  1
/3>1:r,*-9><: {rn rmqkikjglhggllllll mqkikjglhggllllll oqimmfnihgniiiiiijl o n o o o mqhoglllglllllllln o V V V V |
  1
<0:;8: {rn {jj {ji {jh {jg n {mm {rn |
  1
<0:;8: {rn {jf {mk {mi {km n {ni {rn |
  1
<0:;8: {rn {mk {jf {jj {io o {ni {rn |
  1
<0:;8: {rn {jh {mh {mk {lg o {kk {rn |
  1
:;8: {in {kh {im {lh {il o |
  1
<0:;8: {rn {mi {mj {ik {ij n {nn {rn |
  1
<0:;8: {rn {jk {ii {mj {kn o {lm {rn |
  1
:;8: {ih {ig {ki {mj {if o |
  1
:;8: {ho {hn {kh {lj {hm o |
  1
<0:;8: {rn {mh {jh {jk {hl o {kk {rn |
  1
300/ {rn {hk {mh {hj |
  1
/+36,+r3(;r>++-6= {rn {rn {rn {mg |
  1
):-+:' {rn {mg {hi |
  1
):-+:' {rn {mg {hh |
  1
,+->687+r<*-): {rn mqkikjglhggllllll nqmlmmfngfkniiiiij oqglfjglkggllllllmf o rmqhoglllglllllllln o V V |
  1
-:9@)+r3(;r>++-6= {rn {rn {lo {mn {l {k |
  1
92:,7r3(;r>++-6= {rn {hg {rn {ln |
  1
9><: {hf {go {gn {i {rn {gm 90-(>-; ,6183: |
  1
300/ {rn {rn {gl {ln |
  1
/3>1:r,*-9><: {rn o o oqimmfnihgniiiiiijl o o rn rmqhoglllglllllllln o o o V V V V |
  1
<0:;8: {rn {gk {ko {kl {hl n {lm {rn |
  1
<0:;8: {rn {gj {lk {li {io n {mm {rn |
  1
<0:;8: {rn {lk {gj {gk {gi o {mm {rn |
  1
<0:;8: {rn {kl {lh {lk {jg o {kk {rn |
  1
:;8: {gh {im {gg {jh {gf o |
  1
<0:;8: {rn {li {lj {fo {fn n {ni {rn |
  1
:;8: {fm {fl {im {jj {fk o |
  1
/+36,+r3(;r>++-6= {rn {rn {rn {lg |
  1
):-+:' {rn {lg {fj |
  1
,+->687+r<*-): {rn nqmlmmfngfkniiiiij rmqkikjglhggllllll oqglfjglkggllllllmf rmqhoglllglllllllln o o V V |
  1
<0:;8: {rn {gl {fo {lf {ij o {jm {rn |
  1
:;8: {fi {hn {ig {lf {fh o |
  1
<0:;8: {rn {ko {gk {gl {fg n {lm {rn |
  1
/+36,+r3(;r>++-6= {rn {rn {rn {kn |
  1
):-+:' {rn {fg {ff |
  1
,+->687+r<*-): {rn mqkikjglhggllllll mqkikjglhggllllll oqimmfnihgniiiiiijl o o mqhoglllglllllllln V V |
  1
/+36,+r3(;r>++-6= {rn {rn {rn {km |
  1
):-+:' {rn {fn {noo |
  1
,+->687+r<*-): {rn mqkikjglhggllllll rmqkikjglhggllllll oqimmfnihgniiiiiijl o o mqhoglllglllllllln V V |
  1
:;8: {non {gg {ki {kl {nom o |
  1
300/ {rn {rn {nol {hj |
  1
9><: {nok {noj {kk {i {rn {noi 90-(>-; ,6183: |
  1
/061+ {rn mqkikjglhggllllll mqkikjglhggllllll oqglfjglkggllllllmf |
  1
/061+ {rn mqkikjglhggllllll rmqkikjglhggllllll oqglfjglkggllllllmf |
  1
-:9@)+r3(;r>++-6= {rn {rn {jo {ln {l {k |
  1
92:,7r3(;r>++-6= {rn {noh {rn {jn |
  1
9><: {nog {nof {nno {i {rn {nnn 90-(>-; ,6183: |
  1
300/ {rn {rn {nnm {jn |
  1
/3>1:r,*-9><: {rn rmqjjflhjkhmkfffffl mqjjflhjkhmkfffffl oqglfjglkggllllllmf rn o o o o mqhoglllglllllllln o V V V V |
  1
<0:;8: {rn {nnl {ik {ii {fg o {jm {rn |
  1
<0:;8: {rn {ii {jk {ji {gi n {lm {rn |
  1
<0:;8: {rn {ji {jj {nnl {nnk n {mm {rn |
  1
:;8: {nnj {nni {gg {gk {nnh o |
  1
/+36,+r3(;r>++-6= {rn {rn {rn {jg |
  1
):-+:' {rn {jg {nng |
  1
,+->687+r<*-): {rn rmqkikjglhggllllll rnqmlmmfngfkniiiiij oqglfjglkggllllllmf o mqhoglllglllllllln o V V |
  1
<0:;8: {rn {ik {nnl {jf {fn o {jm {rn |
  1
:;8: {nnf {fl {hn {jf {nmo o |
  1
/+36,+r3(;r>++-6= {rn {rn {rn {io |
  1
):-+:' {rn {nnk {nmn |
  1
,+->687+r<*-): {rn rmqkikjglhggllllll rmqkikjglhggllllll oqimmfnihgniiiiiijl o o mqhoglllglllllllln V V |
  1
/061+ {rn rmqkikjglhggllllll rmqkikjglhggllllll oqglfjglkggllllllmf |
  1
/+36,+r3(;r>++-6= {rn {rn {rn {ij |
  1
,+->687+r<*-): {rn mqkikjglhggllllll rmqkikjglhggllllll oqimmfnihgniiiiiijl o mqhoglllglllllllln o V V |
  1
:;8: {nmm {ig {nni {ii {nml o |
  1
/061+ {rn mqkikjglhggllllll mqkikjglhggllllll oqimmfnihgniiiiiijl |
  1
/061+ {rn mqkikjglhggllllll rmqkikjglhggllllll oqimmfnihgniiiiiijl |
  1
/+36,+r3(;r>++-6= {rn {rn {rn {hl |
  1
,+->687+r<*-): {rn rnqmlmmfngfkniiiiij mqkikjglhggllllll oqglfjglkggllllllmf mqhoglllglllllllln o o V V |
  1
<0:;8: {rn {nmk {nmj {nmi {nmh n {hk {rn |
  1
92:,7r3(;r>++-6= {rn {nmg {rn {hj |
  1
9><: {nmf {rn {nlo {i {rn {nln -:):-,:; ,6183: |
  1
/3>1:r,*-9><: {rn o o oqglfjglkggllllllmf o o n mqhoglllglllllllln o o o V V V V |
  1
-:9@)+r3(;r>++-6= {rn {rn {hf {jn {l {k |
  1
92:,7r3(;r>++-6= {rn {nlm {rn {go |
  1
9><: {nll {nlk {nlj {i {rn {nli 90-(>-; ,6183: |
  1
300/ {rn {rn {nlh {go |
  1
/3>1:r,*-9><: {rn rmqjjflhjkhmkfffffl rmqjjflhjkhmkfffffl oqglfjglkggllllllmf o rn o o o rmqhoglllglllllllln o V V V V |
  1
<0:;8: {rn {nlg {nlf {nko {nkn o {gn {rn |
  1
<0:;8: {rn {fo {gl {gj {nnk o {jm {rn |
  1
:;8: {nkm {nni {fl {gj {nkl o |
  1
/+36,+r3(;r>++-6= {rn {rn {rn {gi |
  1
):-+:' {rn {fg {nkk |
  1
,+->687+r<*-): {rn rmqkikjglhggllllll mqkikjglhggllllll oqimmfnihgniiiiiijl o o mqhoglllglllllllln V V |
  1
/061+ {rn rmqkikjglhggllllll mqkikjglhggllllll oqglfjglkggllllllmf |
  1
/+36,+r3(;r>++-6= {rn {rn {rn {fn |
  1
,+->687+r<*-): {rn rmqkikjglhggllllll rmqkikjglhggllllll oqimmfnihgniiiiiijl mqhoglllglllllllln o o V V |
  1
/061+ {rn rmqkikjglhggllllll rmqkikjglhggllllll oqimmfnihgniiiiiijl |
  1
/+36,+r3(;r>++-6= {rn {rn {rn {fg |
  1
,+->687+r<*-): {rn mqkikjglhggllllll mqkikjglhggllllll oqimmfnihgniiiiiijl rmqhoglllglllllllln o o V V |
  1
<0:;8: {rn {nkj {nol {nki {nkh n {hk {rn |
  1
<0:;8: {rn {nol {nkj {nkg {nkf n {hk {rn |
  1
<0:;8: {rn {njo {njn {nol {nmh o {njm {rn |
  1
:;8: {njl {njk {njj {nmi {nji o |
  1
-:9@)+r3(;r>++-6= {rn {rn {nok {hj {l {k |
  1
92:,7r3(;r>++-6= {rn {njh {rn {noj |
  1
300/ {rn {rn {nko {noj |
  1
/3>1:r,*-9><: {rn rmqjjflhjkhmkfffffl mqjjflhjkhmkfffffl o o o n mqhoglllglllllllln o o o V V V V |
  1
-:9@)+r3(;r>++-6= {rn {rn {nog {go {l {k |
  1
92:,7r3(;r>++-6= {rn {njg {rn {nof |
  1
9><: {njf {hj {njm {i {rn {nio 90-(>-; ,6183: |
  1
300/ {rn {rn {nin {nof |
  1
/3>1:r,*-9><: {rn mqjjflhjkhmkfffffl rmqjjflhjkhmkfffffl oqglfjglkggllllllmf n o o o o rmqhoglllglllllllln o V V V V |
  1
<0:;8: {rn {nim {nil {nik {nij o {nno {rn |
  1
<0:;8: {rn {nki {nnm {nil {nii n {gn {rn |
  1
<0:;8: {rn {nnm {nki {njn {nih o {gn {rn |
  1
<0:;8: {rn {nig {nik {nnm {nkn n {nlo {rn |
  1
:;8: {nif {nho {nhn {nnm {nhm o |
  1
/+36,+r3(;r>++-6= {rn {rn {rn {nnk |
  1
,+->687+r<*-): {rn rmqkikjglhggllllll mqkikjglhggllllll oqimmfnihgniiiiiijl o rmqhoglllglllllllln o V V |
  1
/061+ {rn rmqkikjglhggllllll mqkikjglhggllllll oqimmfnihgniiiiiijl |
  1
<0:;8: {rn {nmj {nmk {nhl {nhk n {hk {rn |
  1
<0:;8: {rn {nlf {nlg {nmk {nkh o {gn {rn |
  1
:;8: {nhj {nhi {njk {nki {nhh o |
  1
<0:;8: {rn {nhg {nhf {nmj {nkf o {nlj {rn |
  1
:;8: {ngo {njj {ngn {nkg {ngm o |
  1
<0:;8: {rn {ngl {nmi {nhf {ngk o {njm {rn |
  1
<0:;8: {rn {nmi {ngl {nlf {nih n {njm {rn |
  1
300/ {rn {rn {ngl {nlk |
  1
/+36,+r3(;r>++-6= {rn {rn {rn {nmh |
  1
):-+:' {rn {nmh {ngj |
  1
):-+:' {rn {nmh {ngi |
  1
,+->687+r<*-): {rn rmqjjflhjkhmkfffffl mqjjflhjkhmkfffffl oqglfjglkggllllllmf mqhoglllglllllllln o o V V |
  1
-:9@)+r3(;r>++-6= {rn {rn {nmf {noj {l {k |
  1
-:9@)+r3(;r>++-6= {rn {rn {nll {nof {l {k |
  1
92:,7r3(;r>++-6= {rn {ngh {rn {nlk |
  1
/3>1:r,*-9><: {rn mqjjflhjkhmkfffffl mqjjflhjkhmkfffffl oqglfjglkggllllllmf o n o o o mqhoglllglllllllln o V V V V |
  1
<0:;8: {rn {nhf {nhg {ngg {ngf o {nlj {rn |
  1
<0:;8: {rn {nhl {nlh {nhg {nfo n {nno {rn |
  1
<0:;8: {rn {nlh {nhl {nlg {nii o {nno {rn |
  1
<0:;8: {rn {nko {ngg {nlh {nij n {nlo {rn |
  1
:;8: {nfn {nhn {nfm {nlh {nfl o |
  1
:;8: {nfk {nhi {nhn {nil {nfj o |
  1
:;8: {nfi {njk {nho {nlf {nfh o |
  1
<0:;8: {rn {ngg {nko {ngl {nfg n {nlo {rn |
  1
/+36,+r3(;r>++-6= {rn {rn {rn {nkn |
  1
):-+:' {rn {nih {nff |
  1
):-+:' {rn {nii {moo |
  1
,+->687+r<*-): {rn rmqjjflhjkhmkfffffl rmqjjflhjkhmkfffffl o o rmqhoglllglllllllln o V V |
  1
<0:;8: {rn {nil {nim {nkj {nhk o {nno {rn |
  1
:;8: {mon {ngn {nhi {nhl {mom o |
  1
/+36,+r3(;r>++-6= {rn {rn {rn {nkh |
  1
):-+:' {rn {nhk {mol |
  1
,+->687+r<*-): {rn rmqjjflhjkhmkfffffl rmqjjflhjkhmkfffffl oqglfjglkggllllllmf o mqhoglllglllllllln o V V |
  1
<0:;8: {rn {nin {nkg {nim {nfo o {nlj {rn |
  1
<0:;8: {rn {nkg {nin {njo {ngk n {nlj {rn |
  1
/+36,+r3(;r>++-6= {rn {rn {rn {nkf |
  1
):-+:' {rn {nkf {mok |
  1
,+->687+r<*-): {rn mqjjflhjkhmkfffffl mqjjflhjkhmkfffffl oqglfjglkggllllllmf o rmqhoglllglllllllln o V V |
  1
<0:;8: {rn {njn {njo {nig {nfg o {njm {rn |
  1
:;8: {moj {njj {moi {njo {moh o |
  1
/061+ {rn rmqjjflhjkhmkfffffl mqjjflhjkhmkfffffl oqglfjglkggllllllmf |
  1
/061+ {rn mqjjflhjkhmkfffffl mqjjflhjkhmkfffffl oqglfjglkggllllllmf |
  1
-:9@)+r3(;r>++-6= {rn {rn {njf {nlk {l {k |
  1
<0:;8: {rn {nik {nig {nin {ngf n {nlo {rn |
  1
:;8: {mog {nfm {moi {nin {mof o |
  1
:;8: {mno {ngn {nfm {nhg {mnn o |
  1
/+36,+r3(;r>++-6= {rn {rn {rn {nij |
  1
):-+:' {rn {nfo {mnm |
  1
,+->687+r<*-): {rn mqjjflhjkhmkfffffl rmqjjflhjkhmkfffffl o mqhoglllglllllllln o o V V |
  1
/+36,+r3(;r>++-6= {rn {rn {rn {nii |
  1
,+->687+r<*-): {rn rmqjjflhjkhmkfffffl rmqjjflhjkhmkfffffl oqglfjglkggllllllmf o o rmqhoglllglllllllln V V |
  1
/+36,+r3(;r>++-6= {rn {rn {rn {nih |
  1
,+->687+r<*-): {rn rmqjjflhjkhmkfffffl mqjjflhjkhmkfffffl oqglfjglkggllllllmf o o rmqhoglllglllllllln V V |
  1
:;8: {mnl {moi {nho {ngl {mnk o |
  1
/061+ {rn rmqjjflhjkhmkfffffl mqjjflhjkhmkfffffl o |
  1
/061+ {rn rmqjjflhjkhmkfffffl rmqjjflhjkhmkfffffl o |
  1
/+36,+r3(;r>++-6= {rn {rn {rn {nhk |
  1
,+->687+r<*-): {rn mqjjflhjkhmkfffffl rmqjjflhjkhmkfffffl oqglfjglkggllllllmf rmqhoglllglllllllln o o V V |
  1
/061+ {rn rmqjjflhjkhmkfffffl rmqjjflhjkhmkfffffl oqglfjglkggllllllmf |
  1
/061+ {rn mqjjflhjkhmkfffffl rmqjjflhjkhmkfffffl oqglfjglkggllllllmf |
  1
/+36,+r3(;r>++-6= {rn {rn {rn {ngk |
  1
):-+:' {rn {ngk {mnj |
  1
,+->687+r<*-): {rn mqjjflhjkhmkfffffl mqjjflhjkhmkfffffl oqglfjglkggllllllmf o o rmqhoglllglllllllln V V |
  1
/+36,+r3(;r>++-6= {rn {rn {rn {ngf |
  1
,+->687+r<*-): {rn mqjjflhjkhmkfffffl mqjjflhjkhmkfffffl o o mqhoglllglllllllln o V V |
  1
/+36,+r3(;r>++-6= {rn {rn {rn {nfo |
  1
,+->687+r<*-): {rn mqjjflhjkhmkfffffl rmqjjflhjkhmkfffffl oqglfjglkggllllllmf o o rmqhoglllglllllllln V V |
  1
/061+ {rn mqjjflhjkhmkfffffl rmqjjflhjkhmkfffffl o |
  1
/+36,+r3(;r>++-6= {rn {rn {rn {nfg |
  1
,+->687+r<*-): {rn rmqjjflhjkhmkfffffl mqjjflhjkhmkfffffl o rmqhoglllglllllllln o o V V |
  1
/061+ {rn mqjjflhjkhmkfffffl mqjjflhjkhmkfffffl o |
  0
DIMENSION
  5
3110
100
AcDbEntity
  8
AREA1
100
AcDbDimension
  2
*D0
 10
2.559375
 20
2.831391
 30
0.0
 11
-0.040519
 21
2.831391
 31
0.0
 70
   160
  3
ABECAD_3D
100
AcDbAlignedDimension
 13
-2.559375
 23
2.559375
 33
0.0
 14
2.559375
 24
2.559375
 34
0.0
100
AcDbRotatedDimension
  0
DIMENSION
  5
3111
100
AcDbEntity
  8
AREA1
100
AcDbDimension
  2
*D1
 10
2.880067
 20
-2.559375
 30
0.0
 11
2.880067
 21
-0.155545
 31
0.0
 70
   160
  3
ABECAD_3D
100
AcDbAlignedDimension
 13
2.559375
 23
2.559375
 33
0.0
 14
2.559375
 24
-2.559375
 34
0.0
 50
90.0
100
AcDbRotatedDimension
  0
ENDBLK
  5
3113
100
AcDbEntity
  8
0
100
AcDbBlockEnd
  0
BLOCK
  5
312B
100
AcDbEntity
  8
0
100
AcDbBlockBegin
  2
*D3
 70
     1
 10
0.0
 20
0.0
 30
0.0
  3
*D3
  1

  0
LINE
  5
3121
100
AcDbEntity
  8
AREA2
 62
     0
100
AcDbLine
 10
0.164063
 20
2.952084
 30
0.0
 11
3.14401
 21
2.952084
 31
0.0
1001
ACAD
1000
RTLwPs
1070
   158
  0
LINE
  5
3122
100
AcDbEntity
  8
AREA2
 62
     0
100
AcDbLine
 10
2.621875
 20
0.0
 30
0.0
 11
3.14401
 21
0.0
 31
0.0
1001
ACAD
1000
RTLwPs
1070
   158
  0
LINE
  5
3123
100
AcDbEntity
  8
AREA2
 62
     0
100
AcDbLine
 10
2.96401
 20
2.772084
 30
0.0
 11
2.96401
 21
2.123256
 31
0.0
1001
ACAD
1000
RTLwPs
1070
   158
  0
LINE
  5
3124
100
AcDbEntity
  8
AREA2
 62
     0
100
AcDbLine
 10
2.96401
 20
0.18
 30
0.0
 11
2.96401
 21
0.773256
 31
0.0
1001
ACAD
1000
RTLwPs
1070
   158
  0
MTEXT
  5
3125
100
AcDbEntity
  8
AREA2
 62
     0
100
AcDbMText
 10
2.96401
 20
1.448256
 30
0.0
 40
0.09
 41
0.0
 71
     5
 72
     1
  1
\A1;2 61/64 [74.98]
 11
0.0
 21
1.0
 31
0.0
1001
ACAD
1000
MTEXTBEGIN
1070
    73
1070
     1
1070
    44
1040
1.0
1070
    74
1070
     0
1000
MTEXTEND
1000
MTEXTBEGIN
1070
    73
1070
     1
1070
    44
1040
1.0
1070
    74
1070
     0
1000
MTEXTEND
1000
MTEXTBEGIN
1070
    73
1070
     1
1070
    44
1040
1.0
1070
    74
1070
     0
1000
MTEXTEND
1000
MTEXTBEGIN
1070
    73
1070
     1
1070
    44
1040
1.0
1070
    74
1070
     0
1000
MTEXTEND
  0
SOLID
  5
3126
100
AcDbEntity
  8
AREA2
 62
     0
100
AcDbTrace
 10
2.93401
 20
2.772084
 30
0.0
 11
2.99401
 21
2.772084
 31
0.0
 12
2.96401
 22
2.952084
 32
0.0
 13
2.96401
 23
2.952084
 33
0.0
  0
SOLID
  5
3127
100
AcDbEntity
  8
AREA2
 62
     0
100
AcDbTrace
 10
2.93401
 20
0.18
 30
0.0
 11
2.99401
 21
0.18
 31
0.0
 12
2.96401
 22
0.0
 32
0.0
 13
2.96401
 23
0.0
 33
0.0
  0
POINT
  5
3128
100
AcDbEntity
  8
DEFPOINTS
 62
     0
100
AcDbPoint
 10
0.101563
 20
2.952084
 30
-0.555208
  0
POINT
  5
3129
100
AcDbEntity
  8
DEFPOINTS
 62
     0
100
AcDbPoint
 10
2.559375
 20
0.0
 30
2.559375
  0
POINT
  5
312A
100
AcDbEntity
  8
DEFPOINTS
 62
     0
100
AcDbPoint
 10
2.96401
 20
0.0
 30
0.0
  0
ENDBLK
  5
312C
100
AcDbEntity
  8
0
100
AcDbBlockEnd
  0
ENDSEC
  0
SECTION
  2
ENTITIES
  0
INSERT
  5
3114
100
AcDbEntity
  8
0
100
AcDbBlockReference
 66
     1
  2
ABDSB490
 10
0.0
 20
0.0
 30
0.0
  0
ATTRIB
  5
3116
100
AcDbEntity
  8
ATTRIBUTES
100
AcDbText
 10
-2.34415
 20
-0.121937
 30
0.0
 40
0.139691
  1
ALLEN-BRADLEY
100
AcDbAttribute
  2
AC_VND_LABEL
 70
     0
  0
ATTRIB
  5
3117
100
AcDbEntity
  8
ATTRIBUTES
100
AcDbText
 10
-2.34415
 20
-0.412961
 30
0.0
 40
0.139691
  1
194E-HE13A/I-***
100
AcDbAttribute
  2
AC_PART_NO
 70
     0
  0
ATTRIB
  5
3118
100
AcDbEntity
  8
ATTRIBUTES
100
AcDbText
 10
-2.34415
 20
-0.703984
 30
0.0
 40
0.139691
  1
Control and Load Switch Actuator; Type A/I
100
AcDbAttribute
  2
AC_DESCRIPTION
 70
     0
  0
ATTRIB
  5
3119
100
AcDbEntity
  8
ATTRIBUTES
100
AcDbText
 10
-2.34415
 20
-0.995008
 30
0.0
 40
0.139691
  1

100
AcDbAttribute
  2
DEVICE_ID
 70
     0
  0
ATTRIB
  5
311A
100
AcDbEntity
  8
ATTRIBUTES
100
AcDbText
 10
-2.34415
 20
-1.286031
 30
0.0
 40
0.139691
  1

100
AcDbAttribute
  2
AC_CPART_NO
 70
     0
  0
ATTRIB
  5
311B
100
AcDbEntity
  8
ATTRIBUTES
100
AcDbText
 10
-2.34415
 20
-1.577055
 30
0.0
 40
0.139691
  1

100
AcDbAttribute
  2
AC_NOTE
 70
     0
  0
ATTRIB
  5
311C
100
AcDbEntity
  8
ATTRIBUTES
100
AcDbText
 10
-2.34415
 20
-1.868079
 30
0.0
 40
0.139691
  1

100
AcDbAttribute
  2
FASTENER
 70
     0
  0
ATTRIB
  5
311D
100
AcDbEntity
  8
ATTRIBUTES
100
AcDbText
 10
-2.34415
 20
-2.159102
 30
0.0
 40
0.139691
  1
INCH
100
AcDbAttribute
  2
AC_SCALE_UNIT
 70
     0
  0
ATTRIB
  5
311E
100
AcDbEntity
  8
ATTRIBUTES
100
AcDbText
 10
-2.34415
 20
-2.450126
 30
0.0
 40
0.139691
  1
0
100
AcDbAttribute
  2
AC_VIEW_CODE
 70
     0
  0
SEQEND
  5
3115
100
AcDbEntity
  8
0
  0
DIMENSION
  5
311F
100
AcDbEntity
  8
AREA2
100
AcDbDimension
  2
*D3
 10
2.96401
 20
0.0
 30
0.0
 11
2.96401
 21
1.448256
 31
0.0
 70
   160
210
0.0
220
-1.0
230
0.0
  3
ABECAD_3V
100
AcDbAlignedDimension
 13
0.101563
 23
0.555208
 33
2.952084
 14
2.559375
 24
-2.559375
 34
0.0
 50
90.0
100
AcDbRotatedDimension
1001
ACAD
1000
DSTYLE
1002
{
1070
    40
1040
1.0
1002
}
  0
VIEWPORT
  5
2C
102
{ACAD_XDICTIONARY
360
3202
102
}
100
AcDbEntity
 67
     1
  8
0
100
AcDbViewport
 10
4.999849
 20
3.750155
 30
0.0
 40
15.925225
 41
7.624676
 68
     1
 69
     1
1001
ACAD
1000
MVIEW
1002
{
1070
    16
1010
0.0
1020
0.0
1030
0.0
1010
0.0
1020
0.0
1030
1.0
1040
0.0
1040
7.624676
1040
4.999849
1040
3.750155
1040
50.0
1040
0.0
1040
0.0
1070
     0
1070
   100
1070
     1
1070
     1
1070
     0
1070
     0
1070
     0
1070
     0
1040
0.0
1040
0.0
1040
0.0
1040
1.0
1040
1.0
1040
0.0
1040
0.0
1070
     0
1002
{
1002
}
1002
}
  0
VIEWPORT
  5
2D
102
{ACAD_XDICTIONARY
360
3204
102
}
100
AcDbEntity
 67
     1
  8
0
100
AcDbViewport
 10
2.5
 20
5.625
 30
0.0
 40
5.0
 41
3.75
 68
     3
 69
     2
1001
ACAD
1000
MVIEW
1002
{
1070
    16
1010
0.0
1020
0.0
1030
0.0
1010
0.0
1020
0.0
1030
1.0
1040
0.0
1040
6.522479
1040
0.316556
1040
0.156789
1040
50.0
1040
0.0
1040
0.0
1070
     0
1070
   100
1070
     1
1070
     0
1070
     0
1070
     0
1070
     0
1070
     0
1040
0.0
1040
0.0
1040
0.0
1040
1.0
1040
1.0
1040
0.0
1040
0.0
1070
     0
1002
{
1003
AREA2
1002
}
1002
}
  0
VIEWPORT
  5
2E
102
{ACAD_XDICTIONARY
360
3206
102
}
100
AcDbEntity
 67
     1
  8
0
100
AcDbViewport
 10
2.5
 20
1.875
 30
0.0
 40
5.0
 41
3.75
 68
     4
 69
     3
1001
ACAD
1000
MVIEW
1002
{
1070
    16
1010
0.0
1020
0.0
1030
0.0
1010
0.0
1020
-1.0
1030
0.0
1040
0.0
1040
6.058036
1040
0.332898
1040
1.548508
1040
50.0
1040
0.0
1040
0.0
1070
     0
1070
   100
1070
     1
1070
     0
1070
     0
1070
     0
1070
     0
1070
     0
1040
0.0
1040
0.0
1040
0.0
1040
1.0
1040
1.0
1040
0.0
1040
0.0
1070
     0
1002
{
1003
AREA1
1002
}
1002
}
  0
VIEWPORT
  5
2F
102
{ACAD_XDICTIONARY
360
3208
102
}
100
AcDbEntity
 67
     1
  8
0
100
AcDbViewport
 10
7.5
 20
3.75
 30
0.0
 40
5.0
 41
7.5
 68
     2
 69
     4
1001
ACAD
1000
MVIEW
1002
{
1070
    16
1010
0.0
1020
0.0
1030
0.0
1010
-1.0
1020
-1.0
1030
1.0
1040
0.0
1040
12.545516
1040
-0.11111
1040
2.770936
1040
50.0
1040
0.0
1040
0.0
1070
     0
1070
   100
1070
     1
1070
     0
1070
     0
1070
     0
1070
     0
1070
     0
1040
0.0
1040
0.0
1040
0.0
1040
1.0
1040
1.0
1040
0.0
1040
0.0
1070
     0
1002
{
1003
AREA1
1003
AREA2
1002
}
1002
}
  0
TEXT
  5
42D
100
AcDbEntity
 67
     1
  8
0
100
AcDbText
 10
5.253785
 20
7.092701
 30
0.0
 40
0.2
  1
194E-HE13A/I-*
100
AcDbText
  0
TEXT
  5
431
100
AcDbEntity
 67
     1
  8
0
100
AcDbText
 10
5.253785
 20
6.759368
 30
0.0
 40
0.2
  1
ACTUATOR, 130mm x 130mm
100
AcDbText
1001
ACAD
1000
R13OBJECT
1002
{
1005
42D
1002
}
  0
TEXT
  5
6C2
100
AcDbEntity
 67
     1
  8
0
100
AcDbText
 10
5.253785
 20
6.43306
 30
0.0
 40
0.2
  1

100
AcDbText
1001
ACAD
1000
R13OBJECT
1002
{
1005
42D
1002
}
  0
ENDSEC
  0
SECTION
  2
OBJECTS
  0
DICTIONARY
  5
46D
100
AcDbDictionary
  3
ACAD_GROUP
350
46E
  3
ACAD_LAYOUT
350
49E
  3
ACAD_MLINESTYLE
350
47B
  3
ACAD_PLOTSETTINGS
350
49F
  3
ACAD_PLOTSTYLENAME
350
49C
  3
ACDBHEADERROUNDTRIPXREC
350
31E1
  3
ACDBVARIABLEDICTIONARY
350
48D
  3
DWGPROPS
350
312E
  0
DICTIONARY
  5
31DF
100
AcDbDictionary
280
     1
  3
ACAD_XREC_ROUNDTRIP
360
31E0
  0
DICTIONARY
  5
320C
100
AcDbDictionary
280
     1
  3
ACAD_XREC_ROUNDTRIP
360
320D
  0
DICTIONARY
  5
320E
100
AcDbDictionary
280
     1
  3
ACAD_XREC_ROUNDTRIP
360
320F
  0
DICTIONARY
  5
3212
100
AcDbDictionary
280
     1
  3
ACAD_XREC_ROUNDTRIP
360
3213
  0
DICTIONARY
  5
4D2
100
AcDbDictionary
280
     1
  3
ACAD_LAYOUTSELFREF
360
320B
  0
DICTIONARY
  5
4D0
100
AcDbDictionary
280
     1
  3
ACAD_LAYOUTSELFREF
360
320A
  0
DICTIONARY
  5
31DD
100
AcDbDictionary
280
     1
  3
ACAD_XREC_ROUNDTRIP
360
31DE
  0
DICTIONARY
  5
3202
100
AcDbDictionary
280
     1
  3
ACAD_XREC_ROUNDTRIP
360
3203
  0
DICTIONARY
  5
3204
100
AcDbDictionary
280
     1
  3
ACAD_XREC_ROUNDTRIP
360
3205
  0
DICTIONARY
  5
3206
100
AcDbDictionary
280
     1
  3
ACAD_XREC_ROUNDTRIP
360
3207
  0
DICTIONARY
  5
3208
100
AcDbDictionary
280
     1
  3
ACAD_XREC_ROUNDTRIP
360
3209
  0
DICTIONARY
  5
46E
102
{ACAD_REACTORS
330
46D
102
}
100
AcDbDictionary
  0
DICTIONARY
  5
49E
102
{ACAD_XDICTIONARY
360
3210
102
}
102
{ACAD_REACTORS
330
46D
102
}
100
AcDbDictionary
  3
LAYOUT1
350
4A1
  3
MODEL
350
4A0
  0
DICTIONARY
  5
47B
102
{ACAD_REACTORS
330
46D
102
}
100
AcDbDictionary
  3
STANDARD
350
47C
  0
DICTIONARY
  5
49F
102
{ACAD_REACTORS
330
46D
102
}
100
AcDbDictionary
  0
ACAD_PROXY_OBJECT
  5
49C
102
{ACAD_REACTORS
330
46D
102
}
100
AcDbProxyObject
 90
      499
 91
      501
 93
       86
310
405010041939BDC9B585B2
350
49D
340
49D
 94
        0
  0
DICTIONARY
  5
31E1
102
{ACAD_REACTORS
330
46D
102
}
100
AcDbDictionary
  3
CEPSNTYPE
350
31EB
  3
DIMSTYLEDATA
350
31EF
  3
FINGERPRINTGUID
350
31EC
  3
HYPERLINKBASE
350
31E4
  3
INSUNITS
350
31EA
  3
LAYOUTDICT
350
31E6
  3
LWETCUNION
350
31E9
  3
PLOTSETDICT
350
31E7
  3
PLOTSTYLNAMDICT
350
31E8
  3
PSVPSCALE
350
31EE
  3
PUCSBASE
350
31F2
  3
PUCSORGBACK
350
31F8
  3
PUCSORGBOTTOM
350
31F4
  3
PUCSORGFRONT
350
31F7
  3
PUCSORGLEFT
350
31F5
  3
PUCSORGRIGHT
350
31F6
  3
PUCSORGTOP
350
31F3
  3
PUCSORTHOREF
350
31F0
  3
PUCSORTHOVIEW
350
31F1
  3
STYLESHEET
350
31E5
  3
TSTACKALIGN
350
31E2
  3
TSTACKSIZE
350
31E3
  3
UCSBASE
350
31FB
  3
UCSORGBACK
350
3201
  3
UCSORGBOTTOM
350
31FD
  3
UCSORGFRONT
350
3200
  3
UCSORGLEFT
350
31FE
  3
UCSORGRIGHT
350
31FF
  3
UCSORGTOP
350
31FC
  3
UCSORTHOREF
350
31F9
  3
UCSORTHOVIEW
350
31FA
  3
VERSIONGUID
350
31ED
  0
DICTIONARY
  5
48D
102
{ACAD_REACTORS
330
46D
102
}
100
AcDbDictionary
  3
DIMADEC
350
48E
  0
XRECORD
  5
312E
102
{ACAD_REACTORS
330
46D
102
}
100
AcDbXrecord
  1
DWGPROPS COOKIE
  2

  3

  4

  6

  7

  8
colin
  9

300
=
301
=
302
=
303
=
304
=
305
=
306
=
307
=
308
=
309
=
 40
0.135118
 41
2451726.480029
 42
2451841.553388
  1

 90
        0
  0
XRECORD
  5
31E0
102
{ACAD_REACTORS
330
31DF
102
}
100
AcDbXrecord
102
EXTNAMES
  1
*ACTIVE
  2
*Active
102
UCS
 74
     0
 71
     1
 10
0.0
 20
0.0
 30
0.0
 10
1.0
 20
0.0
 30
0.0
 10
0.0
 20
0.0
 30
1.0
146
0.0
 79
     3
102
VIEW
281
     0
  0
XRECORD
  5
320D
102
{ACAD_REACTORS
330
320C
102
}
100
AcDbXrecord
102
PLOTBIT
280
     0
  0
XRECORD
  5
320F
102
{ACAD_REACTORS
330
320E
102
}
100
AcDbXrecord
102
ACADR14ROUNDTRIP
1000
DSTYLE
1002
{
1070
   276
 70
     2
1070
   277
 70
     5
1070
   279
 70
     2
1070
   289
 70
     2
1002
}
  0
XRECORD
  5
3213
102
{ACAD_REACTORS
330
3212
102
}
100
AcDbXrecord
102
ACADR14ROUNDTRIP
1000
DSTYLE
1002
{
1070
   276
 70
     2
1070
   277
 70
     5
1070
   279
 70
     2
1070
   289
 70
     2
1002
}
  0
XRECORD
  5
320B
102
{ACAD_REACTORS
330
4D2
102
}
100
AcDbXrecord
340
478
  0
XRECORD
  5
320A
102
{ACAD_REACTORS
330
4D0
102
}
100
AcDbXrecord
340
475
  0
XRECORD
  5
31DE
102
{ACAD_REACTORS
330
31DD
102
}
100
AcDbXrecord
102
EXTNAMES
  1
ABDSB490
  2
abdsb490
  0
XRECORD
  5
3203
102
{ACAD_REACTORS
330
3202
102
}
100
AcDbXrecord
102
UCS
 74
     0
 71
     1
 10
0.0
 20
0.0
 30
0.0
 10
1.0
 20
0.0
 30
0.0
 10
0.0
 20
1.0
 30
0.0
146
0.0
 79
     0
102
VIEW
281
     0
102
NEWVIEWCONTROL
280
     4
  0
XRECORD
  5
3205
102
{ACAD_REACTORS
330
3204
102
}
100
AcDbXrecord
102
UCS
 74
     0
 71
     1
 10
0.0
 20
0.0
 30
0.0
 10
1.0
 20
0.0
 30
0.0
 10
0.0
 20
1.0
 30
0.0
146
0.0
 79
     1
102
VIEW
281
     0
102
NEWVIEWCONTROL
280
     4
  0
XRECORD
  5
3207
102
{ACAD_REACTORS
330
3206
102
}
100
AcDbXrecord
102
UCS
 74
     0
 71
     1
 10
0.0
 20
0.0
 30
0.0
 10
1.0
 20
0.0
 30
0.0
 10
0.0
 20
0.0
 30
1.0
146
0.0
 79
     3
102
VIEW
281
     0
102
NEWVIEWCONTROL
280
     4
  0
XRECORD
  5
3209
102
{ACAD_REACTORS
330
3208
102
}
100
AcDbXrecord
102
UCS
 74
     0
 71
     1
 10
0.0
 20
0.0
 30
0.0
 10
1.0
 20
0.0
 30
0.0
 10
0.0
 20
1.0
 30
0.0
146
0.0
 79
     1
102
VIEW
281
     0
102
NEWVIEWCONTROL
280
     4
  0
DICTIONARY
  5
3210
100
AcDbDictionary
280
     1
  3
ACAD_XREC_ROUNDTRIP
360
3211
  0
ACAD_PROXY_OBJECT
  5
4A1
102
{ACAD_REACTORS
330
49E
102
}
100
AcDbProxyObject
 90
      499
 91
      503
 93
     2044
310
91D4850204C617365724A65742035303030205365726965732050434C20362C008000000C0BB1B1440000000102F06C510000000000BC1B1440000000002E06C5100000000C0CCFC6A4000000018199D9C501064C6574746572A901406AA427D84144352EEE3F47D11959985D5B1D08148C4D081C195B88185CDCDA59DB9B5
310
95B9D1CCB98DD18A30EDE3B1BBFDBC0FC1D572C8D6D0C833F1A2B3054E9249F0FD074C61796F75743140501A97D7DB4AA43C31EFF91E46EBA53B71EFD1B32A15809809100B2537F8EAD447D02A6A6A00200C0093BD106FC0000F06EE366FABE0000032E846F6A2F44424FF2920002440160B7F435600079000000D00CEECC5
310
43D0
330
475
330
2C
340
0
340
0
 94
        0
  0
ACAD_PROXY_OBJECT
  5
4A0
102
{ACAD_REACTORS
330
49E
102
}
100
AcDbProxyObject
 90
      499
 91
      503
 93
      924
310
91D4850204C617365724A65742035303030205365726965732050434C20362C01AAAAAAAAA547D11959985D5B1D08148C4D081C195B88185CDCDA59DB9B595B9D1CCB98DD18A69054D6F64656C901A800000000000000000000000000000000000000000000A1000000000000008902A6A6AAAAE
330
478
330
0
340
0
340
0
 94
        0
  0
MLINESTYLE
  5
47C
102
{ACAD_REACTORS
330
47B
102
}
100
AcDbMlineStyle
  2
STANDARD
 70
     0
  3

 62
   256
 51
90.0
 52
90.0
 71
     2
 49
0.5
 62
   256
  6
BYLAYER
 49
-0.5
 62
   256
  6
BYLAYER
  0
ACAD_PROXY_OBJECT
  5
49D
102
{ACAD_REACTORS
330
49C
102
}
100
AcDbProxyObject
 90
      499
 91
      502
 93
        0
 94
        0
  0
XRECORD
  5
31EB
102
{ACAD_REACTORS
330
31E1
102
}
100
AcDbXrecord
 90
        0
  0
XRECORD
  5
31EF
102
{ACAD_REACTORS
330
31E1
102
}
100
AcDbXrecord
1000
DSTYLE
1002
{
1070
   276
 70
     2
1070
   277
 70
     5
1070
   279
 70
     2
1070
   289
 70
     2
1002
}
  0
XRECORD
  5
31EC
102
{ACAD_REACTORS
330
31E1
102
}
100
AcDbXrecord
  1
{6E0CF4B5-225E-11D4-A150-00A0CC3303EC}
  0
XRECORD
  5
31E4
102
{ACAD_REACTORS
330
31E1
102
}
100
AcDbXrecord
  1

  0
XRECORD
  5
31EA
102
{ACAD_REACTORS
330
31E1
102
}
100
AcDbXrecord
 90
        0
  0
XRECORD
  5
31E6
102
{ACAD_REACTORS
330
31E1
102
}
100
AcDbXrecord
340
49E
  0
XRECORD
  5
31E9
102
{ACAD_REACTORS
330
31E1
102
}
100
AcDbXrecord
 90
    14877
  0
XRECORD
  5
31E7
102
{ACAD_REACTORS
330
31E1
102
}
100
AcDbXrecord
340
49F
  0
XRECORD
  5
31E8
102
{ACAD_REACTORS
330
31E1
102
}
100
AcDbXrecord
340
49C
  0
XRECORD
  5
31EE
102
{ACAD_REACTORS
330
31E1
102
}
100
AcDbXrecord
 40
0.0
  0
XRECORD
  5
31F2
102
{ACAD_REACTORS
330
31E1
102
}
100
AcDbXrecord
340
0
  0
XRECORD
  5
31F8
102
{ACAD_REACTORS
330
31E1
102
}
100
AcDbXrecord
 10
0.0
 20
0.0
 30
0.0
  0
XRECORD
  5
31F4
102
{ACAD_REACTORS
330
31E1
102
}
100
AcDbXrecord
 10
0.0
 20
0.0
 30
0.0
  0
XRECORD
  5
31F7
102
{ACAD_REACTORS
330
31E1
102
}
100
AcDbXrecord
 10
0.0
 20
0.0
 30
0.0
  0
XRECORD
  5
31F5
102
{ACAD_REACTORS
330
31E1
102
}
100
AcDbXrecord
 10
0.0
 20
0.0
 30
0.0
  0
XRECORD
  5
31F6
102
{ACAD_REACTORS
330
31E1
102
}
100
AcDbXrecord
 10
0.0
 20
0.0
 30
0.0
  0
XRECORD
  5
31F3
102
{ACAD_REACTORS
330
31E1
102
}
100
AcDbXrecord
 10
0.0
 20
0.0
 30
0.0
  0
XRECORD
  5
31F0
102
{ACAD_REACTORS
330
31E1
102
}
100
AcDbXrecord
340
0
  0
XRECORD
  5
31F1
102
{ACAD_REACTORS
330
31E1
102
}
100
AcDbXrecord
 70
     0
  0
XRECORD
  5
31E5
102
{ACAD_REACTORS
330
31E1
102
}
100
AcDbXrecord
  1

  0
XRECORD
  5
31E2
102
{ACAD_REACTORS
330
31E1
102
}
100
AcDbXrecord
 90
        1
  0
XRECORD
  5
31E3
102
{ACAD_REACTORS
330
31E1
102
}
100
AcDbXrecord
 90
       70
  0
XRECORD
  5
31FB
102
{ACAD_REACTORS
330
31E1
102
}
100
AcDbXrecord
340
0
  0
XRECORD
  5
3201
102
{ACAD_REACTORS
330
31E1
102
}
100
AcDbXrecord
 10
0.0
 20
0.0
 30
0.0
  0
XRECORD
  5
31FD
102
{ACAD_REACTORS
330
31E1
102
}
100
AcDbXrecord
 10
0.0
 20
0.0
 30
0.0
  0
XRECORD
  5
3200
102
{ACAD_REACTORS
330
31E1
102
}
100
AcDbXrecord
 10
0.0
 20
0.0
 30
0.0
  0
XRECORD
  5
31FE
102
{ACAD_REACTORS
330
31E1
102
}
100
AcDbXrecord
 10
0.0
 20
0.0
 30
0.0
  0
XRECORD
  5
31FF
102
{ACAD_REACTORS
330
31E1
102
}
100
AcDbXrecord
 10
0.0
 20
0.0
 30
0.0
  0
XRECORD
  5
31FC
102
{ACAD_REACTORS
330
31E1
102
}
100
AcDbXrecord
 10
0.0
 20
0.0
 30
0.0
  0
XRECORD
  5
31F9
102
{ACAD_REACTORS
330
31E1
102
}
100
AcDbXrecord
340
0
  0
XRECORD
  5
31FA
102
{ACAD_REACTORS
330
31E1
102
}
100
AcDbXrecord
 70
     1
  0
XRECORD
  5
31ED
102
{ACAD_REACTORS
330
31E1
102
}
100
AcDbXrecord
  1
{19425B6E-E8C2-4AF3-B179-8E6EB24D1D02}
  0
DICTIONARYVAR
  5
48E
102
{ACAD_REACTORS
330
48D
102
}
100
DictionaryVariables
280
     0
  1
0
  0
XRECORD
  5
3211
102
{ACAD_REACTORS
330
3210
102
}
100
AcDbXrecord
102
EXTNAMES
  1
LAYOUT1
  2
Layout1
  1
MODEL
  2
Model
  0
ENDSEC
  0
EOF
