  0
SECTION
  2
HEADER
  9
$ACADVER
  1
AC1014
  9
$ACADMAINTVER
 70
     8
  9
$DWGCODEPAGE
  3
ANSI_1252
  9
$INSBASE
 10
0.0
 20
0.0
 30
0.0
  9
$EXTMIN
 10
-1.7325
 20
-1.741667
 30
0.0
  9
$EXTMAX
 10
3.786483
 20
2.099647
 30
1.998333
  9
$LIMMIN
 10
0.0
 20
0.0
  9
$LIMMAX
 10
12.0
 20
9.0
  9
$ORTHOMODE
 70
     0
  9
$REGENMODE
 70
     1
  9
$FILLMODE
 70
     1
  9
$QTEXTMODE
 70
     0
  9
$MIRRTEXT
 70
     1
  9
$DRAGMODE
 70
     2
  9
$LTSCALE
 40
1.0
  9
$OSMODE
 70
    37
  9
$ATTMODE
 70
     0
  9
$TEXTSIZE
 40
0.2
  9
$TRACEWID
 40
0.05
  9
$TEXTSTYLE
  7
STANDARD
  9
$CLAYER
  8
0
  9
$CELTYPE
  6
BYLAYER
  9
$CECOLOR
 62
   256
  9
$CELTSCALE
 40
1.0
  9
$DELOBJ
 70
     1
  9
$DISPSILH
 70
     0
  9
$DIMSCALE
 40
0.0
  9
$DIMASZ
 40
0.18
  9
$DIMEXO
 40
0.0625
  9
$DIMDLI
 40
0.375
  9
$DIMRND
 40
0.0
  9
$DIMDLE
 40
0.0
  9
$DIMEXE
 40
0.18
  9
$DIMTP
 40
0.0
  9
$DIMTM
 40
0.0
  9
$DIMTXT
 40
0.09
  9
$DIMCEN
 40
0.09
  9
$DIMTSZ
 40
0.0
  9
$DIMTOL
 70
     0
  9
$DIMLIM
 70
     0
  9
$DIMTIH
 70
     0
  9
$DIMTOH
 70
     1
  9
$DIMSE1
 70
     0
  9
$DIMSE2
 70
     0
  9
$DIMTAD
 70
     0
  9
$DIMZIN
 70
     4
  9
$DIMBLK
  1

  9
$DIMASO
 70
     1
  9
$DIMSHO
 70
     1
  9
$DIMPOST
  1

  9
$DIMAPOST
  1

  9
$DIMALT
 70
     1
  9
$DIMALTD
 70
     2
  9
$DIMALTF
 40
25.4
  9
$DIMLFAC
 40
1.0
  9
$DIMTOFL
 70
     0
  9
$DIMTVP
 40
0.0
  9
$DIMTIX
 70
     0
  9
$DIMSOXD
 70
     0
  9
$DIMSAH
 70
     0
  9
$DIMBLK1
  1

  9
$DIMBLK2
  1

  9
$DIMSTYLE
  2
ABECAD_3V
  9
$DIMCLRD
 70
     0
  9
$DIMCLRE
 70
     0
  9
$DIMCLRT
 70
     0
  9
$DIMTFAC
 40
1.5
  9
$DIMGAP
 40
0.09
  9
$DIMJUST
 70
     0
  9
$DIMSD1
 70
     0
  9
$DIMSD2
 70
     0
  9
$DIMTOLJ
 70
     1
  9
$DIMTZIN
 70
     4
  9
$DIMALTZ
 70
     4
  9
$DIMALTTZ
 70
     4
  9
$DIMFIT
 70
     5
  9
$DIMUPT
 70
     1
  9
$DIMUNIT
 70
     7
  9
$DIMDEC
 70
     6
  9
$DIMTDEC
 70
     6
  9
$DIMALTU
 70
     2
  9
$DIMALTTD
 70
     2
  9
$DIMTXSTY
  7
STANDARD
  9
$DIMAUNIT
 70
     0
  9
$LUNITS
 70
     2
  9
$LUPREC
 70
     6
  9
$SKETCHINC
 40
0.1
  9
$FILLETRAD
 40
0.0
  9
$AUNITS
 70
     0
  9
$AUPREC
 70
     0
  9
$MENU
  1
acad
  9
$ELEVATION
 40
0.0
  9
$PELEVATION
 40
0.0
  9
$THICKNESS
 40
0.0
  9
$LIMCHECK
 70
     0
  9
$BLIPMODE
 70
     0
  9
$CHAMFERA
 40
0.0
  9
$CHAMFERB
 40
0.0
  9
$CHAMFERC
 40
0.0
  9
$CHAMFERD
 40
0.0
  9
$SKPOLY
 70
     0
  9
$TDCREATE
 40
2451726.480029051
  9
$TDUPDATE
 40
2452010.730834490
  9
$TDINDWG
 40
0.1328892361
  9
$TDUSRTIMER
 40
0.1328892361
  9
$USRTIMER
 70
     1
  9
$ANGBASE
 50
0.0
  9
$ANGDIR
 70
     0
  9
$PDMODE
 70
     3
  9
$PDSIZE
 40
0.18
  9
$PLINEWID
 40
0.0
  9
$COORDS
 70
     1
  9
$SPLFRAME
 70
     0
  9
$SPLINETYPE
 70
     6
  9
$SPLINESEGS
 70
     8
  9
$ATTDIA
 70
     0
  9
$ATTREQ
 70
     1
  9
$HANDLING
 70
     1
  9
$HANDSEED
  5
3163
  9
$SURFTAB1
 70
     6
  9
$SURFTAB2
 70
     6
  9
$SURFTYPE
 70
     6
  9
$SURFU
 70
     6
  9
$SURFV
 70
     6
  9
$UCSNAME
  2

  9
$UCSORG
 10
0.0
 20
0.0
 30
0.0
  9
$UCSXDIR
 10
1.0
 20
0.0
 30
0.0
  9
$UCSYDIR
 10
0.0
 20
1.0
 30
0.0
  9
$PUCSNAME
  2

  9
$PUCSORG
 10
0.0
 20
0.0
 30
0.0
  9
$PUCSXDIR
 10
1.0
 20
0.0
 30
0.0
  9
$PUCSYDIR
 10
0.0
 20
1.0
 30
0.0
  9
$USERI1
 70
     0
  9
$USERI2
 70
     0
  9
$USERI3
 70
     0
  9
$USERI4
 70
     0
  9
$USERI5
 70
     0
  9
$USERR1
 40
0.0
  9
$USERR2
 40
0.0
  9
$USERR3
 40
0.0
  9
$USERR4
 40
0.0
  9
$USERR5
 40
0.0
  9
$WORLDVIEW
 70
     1
  9
$SHADEDGE
 70
     3
  9
$SHADEDIF
 70
    70
  9
$TILEMODE
 70
     0
  9
$MAXACTVP
 70
    16
  9
$PINSBASE
 10
0.0
 20
0.0
 30
0.0
  9
$PLIMCHECK
 70
     0
  9
$PEXTMIN
 10
0.0
 20
0.0
 30
0.0
  9
$PEXTMAX
 10
10.0
 20
7.5
 30
0.0
  9
$PLIMMIN
 10
-0.187029
 20
-0.186938
  9
$PLIMMAX
 10
10.187518
 20
7.829757
  9
$UNITMODE
 70
     0
  9
$VISRETAIN
 70
     0
  9
$PLINEGEN
 70
     0
  9
$PSLTSCALE
 70
     1
  9
$TREEDEPTH
 70
  3020
  9
$PICKSTYLE
 70
     1
  9
$CMLSTYLE
  2
STANDARD
  9
$CMLJUST
 70
     0
  9
$CMLSCALE
 40
1.0
  9
$PROXYGRAPHICS
 70
     1
  9
$MEASUREMENT
 70
     0
  0
ENDSEC
  0
SECTION
  2
CLASSES
  0
CLASS
  1
DICTIONARYVAR
  2
AcDbDictionaryVar
  3
"AutoCAD"
 90
        0
280
     0
281
     0
  0
CLASS
  1
ACDBDICTIONARYWDFLT
  2
AcDbDictionaryWithDefault
  3
AutoCAD 2000
 90
        0
280
     0
281
     0
  0
CLASS
  1
ACDBPLACEHOLDER
  2
AcDbPlaceHolder
  3
AutoCAD 2000
 90
        0
280
     0
281
     0
  0
CLASS
  1
LAYOUT
  2
AcDbLayout
  3
AutoCAD 2000
 90
        0
280
     0
281
     0
  0
CLASS
  1
LONG_TRANSACTION
  2
AcDbLongTransaction
  3
AutoCAD 2000
 90
        0
280
     0
281
     0
  0
CLASS
  1
LWPOLYLINE
  2
AcDbPolyline
  3
"AutoCAD"
 90
        0
280
     0
281
     1
  0
CLASS
  1
HATCH
  2
AcDbHatch
  3
"ACAD_SEDONA"
 90
        0
280
     0
281
     1
  0
CLASS
  1
XRECORD
  2
AcDbXrecord
  3
"<Built In>"
 90
        0
280
     0
281
     0
  0
CLASS
  1
LONG_TRANSACTION
  2
AcDbLongTransaction
  3
AutoCAD 2000
 90
        0
280
     0
281
     0
  0
CLASS
  1
LWPOLYLINE
  2
AcDbPolyline
  3
"AutoCAD"
 90
        0
280
     0
281
     1
  0
CLASS
  1
HATCH
  2
AcDbHatch
  3
"ACAD_SEDONA"
 90
        0
280
     0
281
     1
  0
CLASS
  1
XRECORD
  2
AcDbXrecord
  3
"<Built In>"
 90
        0
280
     0
281
     0
  0
CLASS
  1
LONG_TRANSACTION
  2
AcDbLongTransaction
  3
AutoCAD 2000
 90
        0
280
     0
281
     0
  0
CLASS
  1
LWPOLYLINE
  2
AcDbPolyline
  3
"AutoCAD"
 90
        0
280
     0
281
     1
  0
CLASS
  1
HATCH
  2
AcDbHatch
  3
"ACAD_SEDONA"
 90
        0
280
     0
281
     1
  0
CLASS
  1
XRECORD
  2
AcDbXrecord
  3
"<Built In>"
 90
        0
280
     0
281
     0
  0
CLASS
  1
LONG_TRANSACTION
  2
AcDbLongTransaction
  3
AutoCAD 2000
 90
        0
280
     0
281
     0
  0
CLASS
  1
LWPOLYLINE
  2
AcDbPolyline
  3
"AutoCAD"
 90
        0
280
     0
281
     1
  0
CLASS
  1
HATCH
  2
AcDbHatch
  3
"ACAD_SEDONA"
 90
        0
280
     0
281
     1
  0
CLASS
  1
XRECORD
  2
AcDbXrecord
  3
"<Built In>"
 90
        0
280
     0
281
     0
  0
CLASS
  1
LONG_TRANSACTION
  2
AcDbLongTransaction
  3
AutoCAD 2000
 90
        0
280
     0
281
     0
  0
CLASS
  1
LWPOLYLINE
  2
AcDbPolyline
  3
"AutoCAD"
 90
        0
280
     0
281
     1
  0
CLASS
  1
HATCH
  2
AcDbHatch
  3
"ACAD_SEDONA"
 90
        0
280
     0
281
     1
  0
CLASS
  1
XRECORD
  2
AcDbXrecord
  3
"<Built In>"
 90
        0
280
     0
281
     0
  0
CLASS
  1
LONG_TRANSACTION
  2
AcDbLongTransaction
  3
AutoCAD 2000
 90
        0
280
     0
281
     0
  0
CLASS
  1
LWPOLYLINE
  2
AcDbPolyline
  3
"AutoCAD"
 90
        0
280
     0
281
     1
  0
CLASS
  1
HATCH
  2
AcDbHatch
  3
"ACAD_SEDONA"
 90
        0
280
     0
281
     1
  0
CLASS
  1
XRECORD
  2
AcDbXrecord
  3
"<Built In>"
 90
        0
280
     0
281
     0
  0
ENDSEC
  0
SECTION
  2
TABLES
  0
TABLE
  2
VPORT
  5
469
100
AcDbSymbolTable
 70
     1
  0
VPORT
  5
3079
102
{ACAD_XDICTIONARY
360
312B
102
}
100
AcDbSymbolTableRecord
100
AcDbViewportTableRecord
  2
*ACTIVE
 70
     0
 10
0.0
 20
0.0
 11
1.0
 21
1.0
 12
1.026992
 22
0.999167
 13
0.0
 23
0.0
 14
1.0
 24
1.0
 15
0.0
 25
0.0
 16
0.0
 26
-1.0
 36
0.0
 17
0.0
 27
0.0
 37
0.0
 40
3.039322
 41
1.826316
 42
50.0
 43
0.0
 44
0.0
 50
0.0
 51
0.0
 71
     0
 72
   100
 73
     1
 74
     1
 75
     0
 76
     0
 77
     0
 78
     0
  0
ENDTAB
  0
TABLE
  2
LTYPE
  5
466
100
AcDbSymbolTable
 70
     1
  0
LTYPE
  5
472
100
AcDbSymbolTableRecord
100
AcDbLinetypeTableRecord
  2
BYBLOCK
 70
     0
  3

 72
    65
 73
     0
 40
0.0
  0
LTYPE
  5
473
100
AcDbSymbolTableRecord
100
AcDbLinetypeTableRecord
  2
BYLAYER
 70
     0
  3

 72
    65
 73
     0
 40
0.0
  0
LTYPE
  5
474
100
AcDbSymbolTableRecord
100
AcDbLinetypeTableRecord
  2
CONTINUOUS
 70
     0
  3
Solid line
 72
    65
 73
     0
 40
0.0
  0
ENDTAB
  0
TABLE
  2
LAYER
  5
463
100
AcDbSymbolTable
 70
     8
  0
LAYER
  5
46F
100
AcDbSymbolTableRecord
100
AcDbLayerTableRecord
  2
0
 70
     0
 62
     7
  6
CONTINUOUS
  0
LAYER
  5
485
100
AcDbSymbolTableRecord
100
AcDbLayerTableRecord
  2
AREA1
 70
     0
 62
     7
  6
CONTINUOUS
  0
LAYER
  5
486
100
AcDbSymbolTableRecord
100
AcDbLayerTableRecord
  2
AREA2
 70
     0
 62
     7
  6
CONTINUOUS
  0
LAYER
  5
494
102
{ACAD_XDICTIONARY
360
3158
102
}
100
AcDbSymbolTableRecord
100
AcDbLayerTableRecord
  2
DEFPOINTS
 70
     0
 62
    -7
  6
CONTINUOUS
  0
LAYER
  5
495
100
AcDbSymbolTableRecord
100
AcDbLayerTableRecord
  2
DIMS-MTG-HOLES
 70
     0
 62
    -1
  6
CONTINUOUS
  0
LAYER
  5
4E6
100
AcDbSymbolTableRecord
100
AcDbLayerTableRecord
  2
SCALE
 70
     0
 62
    -7
  6
CONTINUOUS
  0
LAYER
  5
4ED
100
AcDbSymbolTableRecord
100
AcDbLayerTableRecord
  2
SNAP_POINTS
 70
     0
 62
    -1
  6
CONTINUOUS
  0
LAYER
  5
4F1
100
AcDbSymbolTableRecord
100
AcDbLayerTableRecord
  2
ATTRIBUTES
 70
     0
 62
    -7
  6
CONTINUOUS
  0
ENDTAB
  0
TABLE
  2
STYLE
  5
464
100
AcDbSymbolTable
 70
     1
  0
STYLE
  5
470
100
AcDbSymbolTableRecord
100
AcDbTextStyleTableRecord
  2
STANDARD
 70
     0
 40
0.0
 41
1.0
 50
0.0
 71
     0
 42
0.2
  3
txt
  4

  0
ENDTAB
  0
TABLE
  2
VIEW
  5
467
100
AcDbSymbolTable
 70
     0
  0
ENDTAB
  0
TABLE
  2
UCS
  5
468
100
AcDbSymbolTable
 70
     0
  0
ENDTAB
  0
TABLE
  2
APPID
  5
46A
100
AcDbSymbolTable
 70
     2
  0
APPID
  5
471
100
AcDbSymbolTableRecord
100
AcDbRegAppTableRecord
  2
ACAD
 70
     0
  0
APPID
  5
47E
100
AcDbSymbolTableRecord
100
AcDbRegAppTableRecord
  2
AVE_RENDER
 70
     0
  0
ENDTAB
  0
TABLE
  2
DIMSTYLE
  5
46B
100
AcDbSymbolTable
 70
     2
  0
DIMSTYLE
105
49A
102
{ACAD_XDICTIONARY
360
315A
102
}
102
{ACAD_REACTORS
330
306B
102
}
100
AcDbSymbolTableRecord
100
AcDbDimStyleTableRecord
  2
ABECAD_3V
 70
     0
  3

  4

  5

  6

  7

 40
0.0
 41
0.18
 42
0.0625
 43
0.375
 44
0.18
 45
0.0
 46
0.0
 47
0.0
 48
0.0
140
0.09
141
0.09
142
0.0
143
25.4
144
1.0
145
0.0
146
1.5
147
0.09
 71
     0
 72
     0
 73
     0
 74
     1
 75
     0
 76
     0
 77
     0
 78
     4
170
     1
171
     2
172
     0
173
     0
174
     0
175
     0
176
     0
177
     0
178
     0
270
     7
271
     6
272
     6
273
     2
274
     2
340
470
275
     0
280
     0
281
     0
282
     0
283
     1
284
     4
285
     4
286
     4
287
     5
288
     1
  0
DIMSTYLE
105
545
102
{ACAD_XDICTIONARY
360
315E
102
}
100
AcDbSymbolTableRecord
100
AcDbDimStyleTableRecord
  2
ABECAD_3D
 70
     0
  3

  4

  5

  6

  7

 40
1.0
 41
0.09
 42
0.0625
 43
0.375
 44
0.18
 45
0.0
 46
0.0
 47
0.0
 48
0.0
140
0.09
141
0.09
142
0.0
143
25.4
144
1.0
145
0.0
146
1.5
147
0.09
 71
     0
 72
     0
 73
     0
 74
     1
 75
     0
 76
     0
 77
     0
 78
     4
170
     1
171
     2
172
     0
173
     0
174
     0
175
     0
176
     0
177
     0
178
     0
270
     7
271
     6
272
     6
273
     2
274
     2
340
470
275
     0
280
     0
281
     0
282
     0
283
     1
284
     4
285
     4
286
     4
287
     5
288
     1
  0
ENDTAB
  0
TABLE
  2
BLOCK_RECORD
  5
462
100
AcDbSymbolTable
 70
     4
  0
BLOCK_RECORD
  5
478
102
{ACAD_XDICTIONARY
360
4D2
102
}
100
AcDbSymbolTableRecord
100
AcDbBlockTableRecord
  2
*MODEL_SPACE
  0
BLOCK_RECORD
  5
475
102
{ACAD_XDICTIONARY
360
4D0
102
}
100
AcDbSymbolTableRecord
100
AcDbBlockTableRecord
  2
*PAPER_SPACE
  0
BLOCK_RECORD
  5
300D
100
AcDbSymbolTableRecord
100
AcDbBlockTableRecord
  2
*D0
  0
BLOCK_RECORD
  5
301A
100
AcDbSymbolTableRecord
100
AcDbBlockTableRecord
  2
*D1
  0
BLOCK_RECORD
  5
3027
102
{ACAD_XDICTIONARY
360
3129
102
}
100
AcDbSymbolTableRecord
100
AcDbBlockTableRecord
  2
ABDSB470
  0
BLOCK_RECORD
  5
306C
100
AcDbSymbolTableRecord
100
AcDbBlockTableRecord
  2
*D3
  0
ENDTAB
  0
ENDSEC
  0
SECTION
  2
BLOCKS
  0
BLOCK
  5
48B
100
AcDbEntity
  8
0
100
AcDbBlockBegin
  2
*MODEL_SPACE
 70
     0
 10
0.0
 20
0.0
 30
0.0
  3
*MODEL_SPACE
  1

  0
ENDBLK
  5
48C
100
AcDbEntity
  8
0
100
AcDbBlockEnd
  0
BLOCK
  5
489
100
AcDbEntity
 67
     1
  8
0
100
AcDbBlockBegin
  2
*PAPER_SPACE
 70
     0
 10
0.0
 20
0.0
 30
0.0
  3
*PAPER_SPACE
  1

  0
ENDBLK
  5
48A
100
AcDbEntity
 67
     1
  8
0
100
AcDbBlockEnd
  0
BLOCK
  5
3018
100
AcDbEntity
  8
0
100
AcDbBlockBegin
  2
*D0
 70
     1
 10
0.0
 20
0.0
 30
0.0
  3
*D0
  1

  0
LINE
  5
300E
100
AcDbEntity
  8
AREA1
 62
     0
100
AcDbLine
 10
-1.7325
 20
1.795
 30
0.0
 11
-1.7325
 21
2.099647
 31
0.0
1001
ACAD
1000
RTLwPs
1070
   158
  0
LINE
  5
300F
100
AcDbEntity
  8
AREA1
 62
     0
100
AcDbLine
 10
1.7325
 20
1.795
 30
0.0
 11
1.7325
 21
2.099647
 31
0.0
1001
ACAD
1000
RTLwPs
1070
   158
  0
LINE
  5
3010
100
AcDbEntity
  8
AREA1
 62
     0
100
AcDbLine
 10
-1.6425
 20
1.919647
 30
0.0
 11
-0.639642
 21
1.919647
 31
0.0
1001
ACAD
1000
RTLwPs
1070
   158
  0
LINE
  5
3011
100
AcDbEntity
  8
AREA1
 62
     0
100
AcDbLine
 10
1.6425
 20
1.919647
 30
0.0
 11
0.665358
 21
1.919647
 31
0.0
1001
ACAD
1000
RTLwPs
1070
   158
  0
MTEXT
  5
3012
100
AcDbEntity
  8
AREA1
 62
     0
100
AcDbMText
 10
0.012858
 20
1.919647
 30
0.0
 40
0.09
 41
0.0
 71
     5
 72
     1
  1
\A1;3 15/32 [88.01]
1001
ACAD
1000
MTEXTBEGIN
1070
    73
1070
     1
1070
    44
1040
1.0
1070
    74
1070
     0
1000
MTEXTEND
1000
MTEXTBEGIN
1070
    73
1070
     1
1070
    44
1040
1.0
1070
    74
1070
     0
1000
MTEXTEND
1000
MTEXTBEGIN
1070
    73
1070
     1
1070
    44
1040
1.0
1070
    74
1070
     0
1000
MTEXTEND
1000
MTEXTBEGIN
1070
    73
1070
     1
1070
    44
1040
1.0
1070
    74
1070
     0
1000
MTEXTEND
1000
MTEXTBEGIN
1070
    73
1070
     1
1070
    44
1040
1.0
1070
    74
1070
     0
1000
MTEXTEND
  0
SOLID
  5
3013
100
AcDbEntity
  8
AREA1
 62
     0
100
AcDbTrace
 10
-1.6425
 20
1.934647
 30
0.0
 11
-1.6425
 21
1.904647
 31
0.0
 12
-1.7325
 22
1.919647
 32
0.0
 13
-1.7325
 23
1.919647
 33
0.0
  0
SOLID
  5
3014
100
AcDbEntity
  8
AREA1
 62
     0
100
AcDbTrace
 10
1.6425
 20
1.934647
 30
0.0
 11
1.6425
 21
1.904647
 31
0.0
 12
1.7325
 22
1.919647
 32
0.0
 13
1.7325
 23
1.919647
 33
0.0
  0
POINT
  5
3015
100
AcDbEntity
  8
DEFPOINTS
 62
     0
100
AcDbPoint
 10
-1.7325
 20
1.7325
 30
0.0
  0
POINT
  5
3016
100
AcDbEntity
  8
DEFPOINTS
 62
     0
100
AcDbPoint
 10
1.7325
 20
1.7325
 30
0.0
  0
POINT
  5
3017
100
AcDbEntity
  8
DEFPOINTS
 62
     0
100
AcDbPoint
 10
1.7325
 20
1.919647
 30
0.0
  0
ENDBLK
  5
3019
100
AcDbEntity
  8
0
100
AcDbBlockEnd
  0
BLOCK
  5
3025
100
AcDbEntity
  8
0
100
AcDbBlockBegin
  2
*D1
 70
     1
 10
0.0
 20
0.0
 30
0.0
  3
*D1
  1

  0
LINE
  5
301B
100
AcDbEntity
  8
AREA1
 62
     0
100
AcDbLine
 10
1.795
 20
1.7325
 30
0.0
 11
2.184514
 21
1.7325
 31
0.0
1001
ACAD
1000
RTLwPs
1070
   158
  0
LINE
  5
301C
100
AcDbEntity
  8
AREA1
 62
     0
100
AcDbLine
 10
1.795
 20
-1.7325
 30
0.0
 11
2.184514
 21
-1.7325
 31
0.0
1001
ACAD
1000
RTLwPs
1070
   158
  0
LINE
  5
301D
100
AcDbEntity
  8
AREA1
 62
     0
100
AcDbLine
 10
2.004514
 20
1.6425
 30
0.0
 11
2.004514
 21
0.596701
 31
0.0
1001
ACAD
1000
RTLwPs
1070
   158
  0
LINE
  5
301E
100
AcDbEntity
  8
AREA1
 62
     0
100
AcDbLine
 10
2.004514
 20
-1.6425
 30
0.0
 11
2.004514
 21
-0.708299
 31
0.0
1001
ACAD
1000
RTLwPs
1070
   158
  0
MTEXT
  5
301F
100
AcDbEntity
  8
AREA1
 62
     0
100
AcDbMText
 10
2.004514
 20
-0.055799
 30
0.0
 40
0.09
 41
0.0
 71
     5
 72
     1
  1
\A1;3 15/32 [88.01]
 11
0.0
 21
1.0
 31
0.0
1001
ACAD
1000
MTEXTBEGIN
1070
    73
1070
     1
1070
    44
1040
1.0
1070
    74
1070
     0
1000
MTEXTEND
1000
MTEXTBEGIN
1070
    73
1070
     1
1070
    44
1040
1.0
1070
    74
1070
     0
1000
MTEXTEND
1000
MTEXTBEGIN
1070
    73
1070
     1
1070
    44
1040
1.0
1070
    74
1070
     0
1000
MTEXTEND
1000
MTEXTBEGIN
1070
    73
1070
     1
1070
    44
1040
1.0
1070
    74
1070
     0
1000
MTEXTEND
1000
MTEXTBEGIN
1070
    73
1070
     1
1070
    44
1040
1.0
1070
    74
1070
     0
1000
MTEXTEND
  0
SOLID
  5
3020
100
AcDbEntity
  8
AREA1
 62
     0
100
AcDbTrace
 10
1.989514
 20
1.6425
 30
0.0
 11
2.019514
 21
1.6425
 31
0.0
 12
2.004514
 22
1.7325
 32
0.0
 13
2.004514
 23
1.7325
 33
0.0
  0
SOLID
  5
3021
100
AcDbEntity
  8
AREA1
 62
     0
100
AcDbTrace
 10
1.989514
 20
-1.6425
 30
0.0
 11
2.019514
 21
-1.6425
 31
0.0
 12
2.004514
 22
-1.7325
 32
0.0
 13
2.004514
 23
-1.7325
 33
0.0
  0
POINT
  5
3022
100
AcDbEntity
  8
DEFPOINTS
 62
     0
100
AcDbPoint
 10
1.7325
 20
1.7325
 30
0.0
  0
POINT
  5
3023
100
AcDbEntity
  8
DEFPOINTS
 62
     0
100
AcDbPoint
 10
1.7325
 20
-1.7325
 30
0.0
  0
POINT
  5
3024
100
AcDbEntity
  8
DEFPOINTS
 62
     0
100
AcDbPoint
 10
2.004514
 20
-1.7325
 30
0.0
  0
ENDBLK
  5
3026
100
AcDbEntity
  8
0
100
AcDbBlockEnd
  0
BLOCK
  5
305E
100
AcDbEntity
  8
0
100
AcDbBlockBegin
  2
ABDSB470
 70
     2
 10
0.0
 20
0.0
 30
0.0
  3
ABDSB470
  1

  0
LINE
  5
3028
100
AcDbEntity
  8
SCALE
100
AcDbLine
 10
2.708853
 20
-1.27302
 30
0.0
 11
3.708853
 21
-1.27302
 31
0.0
  0
LINE
  5
3029
100
AcDbEntity
  8
SCALE
100
AcDbLine
 10
3.708853
 20
-1.27302
 30
0.0
 11
3.708853
 21
-1.37302
 31
0.0
  0
LINE
  5
302A
100
AcDbEntity
  8
SCALE
100
AcDbLine
 10
3.708853
 20
-1.37302
 30
0.0
 11
3.708853
 21
-1.17302
 31
0.0
  0
LINE
  5
302B
100
AcDbEntity
  8
SCALE
100
AcDbLine
 10
2.708853
 20
-1.37302
 30
0.0
 11
2.708853
 21
-1.17302
 31
0.0
  0
LINE
  5
302C
100
AcDbEntity
  8
SCALE
100
AcDbLine
 10
2.708853
 20
-1.67302
 30
0.0
 11
2.708853
 21
-1.47302
 31
0.0
  0
LINE
  5
302D
100
AcDbEntity
  8
SCALE
100
AcDbLine
 10
3.102553
 20
-1.67302
 30
0.0
 11
3.102553
 21
-1.47302
 31
0.0
  0
LINE
  5
302E
100
AcDbEntity
  8
SCALE
100
AcDbLine
 10
2.708853
 20
-1.57302
 30
0.0
 11
3.102553
 21
-1.57302
 31
0.0
  0
TEXT
  5
302F
100
AcDbEntity
  8
SCALE
100
AcDbText
 10
2.768275
 20
-1.527281
 30
0.0
 40
0.0625
  1
[10mm]
100
AcDbText
  0
TEXT
  5
3030
100
AcDbEntity
  8
SCALE
100
AcDbText
 10
3.072136
 20
-1.203972
 30
0.0
 40
0.0625
  1
1 Inch
100
AcDbText
  0
TEXT
  5
3031
100
AcDbEntity
  8
SCALE
100
AcDbText
 10
2.710384
 20
-0.998143
 30
0.0
 40
0.0625
  1
SCALE:
100
AcDbText
  0
LWPOLYLINE
  5
3032
100
AcDbEntity
  8
SCALE
100
AcDbPolyline
 90
        4
 70
     1
 43
0.0
 10
2.650855
 20
-0.892942
 10
3.786483
 20
-0.892942
 10
3.786483
 20
-1.734552
 10
2.650855
 20
-1.734552
  0
POLYLINE
  5
3033
100
AcDbEntity
  8
0
100
AcDbPolygonMesh
 66
     1
 10
0.0
 20
0.0
 30
0.0
 70
    16
 71
     6
 72
     3
  0
VERTEX
  5
3034
100
AcDbEntity
  8
0
100
AcDbVertex
100
AcDbPolygonMeshVertex
 10
0.4125
 20
-1.741667
 30
1.998333
 70
    64
  0
VERTEX
  5
3035
100
AcDbEntity
  8
0
100
AcDbVertex
100
AcDbPolygonMeshVertex
 10
0.4125
 20
-1.741667
 30
0.568333
 70
    64
  0
VERTEX
  5
3036
100
AcDbEntity
  8
0
100
AcDbVertex
100
AcDbPolygonMeshVertex
 10
0.4125
 20
-1.741667
 30
0.568333
 70
    64
  0
VERTEX
  5
3037
100
AcDbEntity
  8
0
100
AcDbVertex
100
AcDbPolygonMeshVertex
 10
-0.4125
 20
-1.741667
 30
1.998333
 70
    64
  0
VERTEX
  5
3038
100
AcDbEntity
  8
0
100
AcDbVertex
100
AcDbPolygonMeshVertex
 10
-0.4125
 20
-1.741667
 30
0.568333
 70
    64
  0
VERTEX
  5
3039
100
AcDbEntity
  8
0
100
AcDbVertex
100
AcDbPolygonMeshVertex
 10
-0.4125
 20
-1.741667
 30
0.568333
 70
    64
  0
VERTEX
  5
303A
100
AcDbEntity
  8
0
100
AcDbVertex
100
AcDbPolygonMeshVertex
 10
-0.4125
 20
0.99
 30
1.998333
 70
    64
  0
VERTEX
  5
303B
100
AcDbEntity
  8
0
100
AcDbVertex
100
AcDbPolygonMeshVertex
 10
-0.4125
 20
0.99
 30
0.568333
 70
    64
  0
VERTEX
  5
303C
100
AcDbEntity
  8
0
100
AcDbVertex
100
AcDbPolygonMeshVertex
 10
-0.4125
 20
-1.741667
 30
0.568333
 70
    64
  0
VERTEX
  5
303D
100
AcDbEntity
  8
0
100
AcDbVertex
100
AcDbPolygonMeshVertex
 10
0.4125
 20
0.99
 30
1.998333
 70
    64
  0
VERTEX
  5
303E
100
AcDbEntity
  8
0
100
AcDbVertex
100
AcDbPolygonMeshVertex
 10
0.4125
 20
0.99
 30
0.568333
 70
    64
  0
VERTEX
  5
303F
100
AcDbEntity
  8
0
100
AcDbVertex
100
AcDbPolygonMeshVertex
 10
0.4125
 20
-1.741667
 30
0.568333
 70
    64
  0
VERTEX
  5
3040
100
AcDbEntity
  8
0
100
AcDbVertex
100
AcDbPolygonMeshVertex
 10
0.4125
 20
0.99
 30
1.998333
 70
    64
  0
VERTEX
  5
3041
100
AcDbEntity
  8
0
100
AcDbVertex
100
AcDbPolygonMeshVertex
 10
0.4125
 20
0.99
 30
1.998333
 70
    64
  0
VERTEX
  5
3042
100
AcDbEntity
  8
0
100
AcDbVertex
100
AcDbPolygonMeshVertex
 10
0.4125
 20
-1.741667
 30
1.998333
 70
    64
  0
VERTEX
  5
3043
100
AcDbEntity
  8
0
100
AcDbVertex
100
AcDbPolygonMeshVertex
 10
-0.4125
 20
0.99
 30
1.998333
 70
    64
  0
VERTEX
  5
3044
100
AcDbEntity
  8
0
100
AcDbVertex
100
AcDbPolygonMeshVertex
 10
-0.4125
 20
0.99
 30
1.998333
 70
    64
  0
VERTEX
  5
3045
100
AcDbEntity
  8
0
100
AcDbVertex
100
AcDbPolygonMeshVertex
 10
-0.4125
 20
-1.741667
 30
1.998333
 70
    64
  0
SEQEND
  5
3046
100
AcDbEntity
  8
0
  0
LINE
  5
3047
100
AcDbEntity
  8
0
100
AcDbLine
 10
-0.4125
 20
-0.693221
 30
0.834167
 11
-0.4125
 21
0.693221
 31
0.834167
  0
LINE
  5
3048
100
AcDbEntity
  8
0
100
AcDbLine
 10
0.4125
 20
0.693221
 30
0.834167
 11
0.4125
 21
-0.693221
 31
0.834167
  0
ARC
  5
3049
100
AcDbEntity
  8
0
100
AcDbCircle
 39
0.265833
 10
0.0
 20
0.0
 30
0.568333
 40
0.806667
100
AcDbArc
 50
120.754704
 51
239.245296
  0
ARC
  5
304A
100
AcDbEntity
  8
0
100
AcDbCircle
 39
0.265833
 10
0.0
 20
0.0
 30
0.568333
 40
0.806667
100
AcDbArc
 50
300.754704
 51
59.245296
  0
LINE
  5
304B
100
AcDbEntity
  8
0
100
AcDbLine
 10
-0.06875
 20
0.99
 30
1.998333
 11
-0.06875
 21
0.375833
 31
1.998333
  0
LINE
  5
304C
100
AcDbEntity
  8
0
100
AcDbLine
 10
0.06875
 20
0.375833
 30
1.998333
 11
0.06875
 21
0.99
 31
1.998333
  0
LINE
  5
304D
100
AcDbEntity
  8
0
100
AcDbLine
 10
-0.06875
 20
0.375833
 30
1.998333
 11
0.06875
 21
0.375833
 31
1.998333
  0
CIRCLE
  5
304E
100
AcDbEntity
  8
0
100
AcDbCircle
 10
0.0
 20
0.0
 30
0.834167
 40
0.806667
  0
POINT
  5
304F
100
AcDbEntity
  8
SNAP_POINTS
100
AcDbPoint
 10
0.0
 20
0.0
 30
0.0
  0
ATTDEF
  5
3050
100
AcDbEntity
  8
ATTRIBUTES
100
AcDbText
 10
-1.586809
 20
-0.082542
 30
0.0
 40
0.09456
  1
ALLEN-BRADLEY
100
AcDbAttributeDefinition
  3
MANUFACTURER NAME?
  2
AC_VND_LABEL
 70
     1
  0
ATTDEF
  5
3051
100
AcDbEntity
  8
ATTRIBUTES
100
AcDbText
 10
-1.586809
 20
-0.279542
 30
0.0
 40
0.09456
  1
194E-HE8A/I-***
100
AcDbAttributeDefinition
  3
CATALOG NUMBER?
  2
AC_PART_NO
 70
     1
  0
ATTDEF
  5
3052
100
AcDbEntity
  8
ATTRIBUTES
100
AcDbText
 10
-1.586809
 20
-0.476543
 30
0.0
 40
0.09456
  1
Control and Load Switch Actuator; Type A/I
100
AcDbAttributeDefinition
  3
PART DESCRIPTION?
  2
AC_DESCRIPTION
 70
     1
  0
ATTDEF
  5
3053
100
AcDbEntity
  8
ATTRIBUTES
100
AcDbText
 10
-1.586809
 20
-0.673544
 30
0.0
 40
0.09456
  1

100
AcDbAttributeDefinition
  3
DEVICE ID?
  2
DEVICE_ID
 70
     1
  0
ATTDEF
  5
3054
100
AcDbEntity
  8
ATTRIBUTES
100
AcDbText
 10
-1.586809
 20
-0.870544
 30
0.0
 40
0.09456
  1

100
AcDbAttributeDefinition
  3
CUSTOMER PART NUMBER?
  2
AC_CPART_NO
 70
     1
  0
ATTDEF
  5
3055
100
AcDbEntity
  8
ATTRIBUTES
100
AcDbText
 10
-1.586809
 20
-1.067545
 30
0.0
 40
0.09456
  1

100
AcDbAttributeDefinition
  3
CUSTOMER NOTE?
  2
AC_NOTE
 70
     1
  0
ATTDEF
  5
3056
100
AcDbEntity
  8
ATTRIBUTES
100
AcDbText
 10
-1.586809
 20
-1.264545
 30
0.0
 40
0.09456
  1

100
AcDbAttributeDefinition
  3
FASTENER DATA?
  2
FASTENER
 70
     1
  0
ATTDEF
  5
3057
100
AcDbEntity
  8
ATTRIBUTES
100
AcDbText
 10
-1.586809
 20
-1.461546
 30
0.0
 40
0.09456
  1
INCH
100
AcDbAttributeDefinition
  3
UNIT OF SCALE?
  2
AC_SCALE_UNIT
 70
     1
  0
ATTDEF
  5
3058
100
AcDbEntity
  8
ATTRIBUTES
100
AcDbText
 10
-1.586809
 20
-1.658547
 30
0.0
 40
0.09456
  1
0
100
AcDbAttributeDefinition
  3
VIEW CODE?
  2
AC_VIEW_CODE
 70
     1
  0
TEXT
  5
3059
100
AcDbEntity
  8
0
100
AcDbText
 10
-0.691956
 20
-0.105845
 30
0.31
 40
0.15
  1

100
AcDbText
  0
TEXT
  5
305A
100
AcDbEntity
  8
0
100
AcDbText
 10
-0.026265
 20
0.638799
 30
0.31
 40
0.15
  1

100
AcDbText
  0
3DSOLID
  5
305B
100
AcDbEntity
  8
0
100
AcDbModelerGeometry
 70
     1
  1
noi mni n o         
  1
=0;& {n {m {rn {rn |
  1
-:9@)+r3(;r>++-6= {rn {rn {rn {o {l {k |
  1
3*2/ {j {rn {i {o |
  1
-:961:2:1+ {rn o o o o oqooggfklilkngmmnkhlh lo o k m o o o o o o o o o |
  1
):-+:'@+:2/3>+: {rn l o n g |
  1
-:9@)+r3(;r>++-6= {rn {rn {rn {m {l {k |
  1
,7:33 {h {rn {rn {g {m |
  1
-:9@)+r3(;r>++-6= {rn {rn {rn {i {l {k |
  1
9><: {f {no {nn {i {rn {nm -:):-,:; ,6183: |
  1
92:,7r3(;r>++-6= {rn {nl {rn {g |
  1
9><: {nk {nj {ni {i {rn {nh -:):-,:; ,6183: |
  1
300/ {rn {rn {ng {g |
  1
/3>1:r,*-9><: {rn nqiigllllllllllllk nqiigllllllllllllk oqkmniiiiiiiiiiiiil n o o o o rnqglllllllllllllll o V V V V |
  1
-:9@)+r3(;r>++-6= {rn {rn {f {g {l {k |
  1
92:,7r3(;r>++-6= {rn {nf {rn {no |
  1
9><: {mo {mn {mm {i {rn {ml -:):-,:; ,6183: |
  1
300/ {rn {rn {mk {no |
  1
/3>1:r,*-9><: {rn nqiigllllllllllllk rnqiigllllllllllllk oqkmniiiiiiiiiiiiil o rn o o o rnqglllllllllllllll o V V V V |
  1
<0:;8: {rn {mj {mi {mh {mg n {nn {rn |
  1
-:9@)+r3(;r>++-6= {rn {rn {nk {no {l {k |
  1
92:,7r3(;r>++-6= {rn {mf {rn {nj |
  1
9><: {lo {ln {lm {i {rn {ll -:):-,:; ,6183: |
  1
300/ {rn {rn {lk {nj |
  1
/3>1:r,*-9><: {rn rnqiigllllllllllllk rnqiigllllllllllllk oqkmniiiiiiiiiiiiil rn o o o o nqglllllllllllllll o V V V V |
  1
<0:;8: {rn {lj {li {lh {lg n {ni {rn |
  1
<0:;8: {rn {lf {ng {ko {kn n {nn {rn |
  1
<0:;8: {rn {ng {lf {lj {km o {nn {rn |
  1
<0:;8: {rn {lh {kl {ng {mg o {kk {rn |
  1
:;8: {kj {ki {kh {mh {kg o |
  1
-:9@)+r3(;r>++-6= {rn {rn {mo {nj {l {k |
  1
92:,7r3(;r>++-6= {rn {kf {rn {mn |
  1
9><: {jo {jn {jm {i {rn {jl -:):-,:; ,6183: |
  1
300/ {rn {rn {jk {mn |
  1
/3>1:r,*-9><: {rn rnqiigllllllllllllk nqiigllllllllllllk oqkmniiiiiiiiiiiiil o n o o o nqglllllllllllllll o V V V V |
  1
<0:;8: {rn {jj {ji {jh {jg n {mm {rn |
  1
<0:;8: {rn {jf {mk {mi {km n {ni {rn |
  1
<0:;8: {rn {mk {jf {jj {io o {ni {rn |
  1
<0:;8: {rn {jh {mh {mk {lg o {kk {rn |
  1
:;8: {in {kh {im {lh {il o |
  1
<0:;8: {rn {mi {mj {ik {ij n {nn {rn |
  1
<0:;8: {rn {jk {ii {mj {kn o {lm {rn |
  1
:;8: {ih {ig {ki {mj {if o |
  1
:;8: {ho {hn {kh {lj {hm o |
  1
<0:;8: {rn {mh {jh {jk {hl o {kk {rn |
  1
300/ {rn {hk {mh {hj |
  1
/+36,+r3(;r>++-6= {rn {rn {rn {mg |
  1
):-+:' {rn {mg {hi |
  1
):-+:' {rn {mg {hh |
  1
,+->687+r<*-): {rn nqiigllllllllllllk oqglkniiiiiiiiiiihm oqjigllllllllllllli o rnqglllllllllllllll o V V |
  1
-:9@)+r3(;r>++-6= {rn {rn {lo {mn {l {k |
  1
92:,7r3(;r>++-6= {rn {hg {rn {ln |
  1
9><: {hf {go {gn {i {rn {gm 90-(>-; ,6183: |
  1
300/ {rn {rn {gl {ln |
  1
/3>1:r,*-9><: {rn o o oqkmniiiiiiiiiiiiil o o rn rnqglllllllllllllll o o o V V V V |
  1
<0:;8: {rn {gk {ko {kl {hl n {lm {rn |
  1
<0:;8: {rn {gj {lk {li {io n {mm {rn |
  1
<0:;8: {rn {lk {gj {gk {gi o {mm {rn |
  1
<0:;8: {rn {kl {lh {lk {jg o {kk {rn |
  1
:;8: {gh {im {gg {jh {gf o |
  1
<0:;8: {rn {li {lj {fo {fn n {ni {rn |
  1
:;8: {fm {fl {im {jj {fk o |
  1
/+36,+r3(;r>++-6= {rn {rn {rn {lg |
  1
):-+:' {rn {lg {fj |
  1
,+->687+r<*-): {rn oqglkniiiiiiiiiiihm rnqiigllllllllllllk oqjigllllllllllllli rnqglllllllllllllll o o V V |
  1
<0:;8: {rn {gl {fo {lf {ij o {jm {rn |
  1
:;8: {fi {hn {ig {lf {fh o |
  1
<0:;8: {rn {ko {gk {gl {fg n {lm {rn |
  1
/+36,+r3(;r>++-6= {rn {rn {rn {kn |
  1
):-+:' {rn {fg {ff |
  1
,+->687+r<*-): {rn nqiigllllllllllllk nqiigllllllllllllk oqkmniiiiiiiiiiiiil o o nqglllllllllllllll V V |
  1
/+36,+r3(;r>++-6= {rn {rn {rn {km |
  1
):-+:' {rn {fn {noo |
  1
,+->687+r<*-): {rn nqiigllllllllllllk rnqiigllllllllllllk oqkmniiiiiiiiiiiiil o o nqglllllllllllllll V V |
  1
:;8: {non {gg {ki {kl {nom o |
  1
300/ {rn {rn {nol {hj |
  1
9><: {nok {noj {kk {i {rn {noi 90-(>-; ,6183: |
  1
/061+ {rn nqiigllllllllllllk nqiigllllllllllllk oqjigllllllllllllli |
  1
/061+ {rn nqiigllllllllllllk rnqiigllllllllllllk oqjigllllllllllllli |
  1
-:9@)+r3(;r>++-6= {rn {rn {jo {ln {l {k |
  1
92:,7r3(;r>++-6= {rn {noh {rn {jn |
  1
9><: {nog {nof {nno {i {rn {nnn 90-(>-; ,6183: |
  1
300/ {rn {rn {nnm {jn |
  1
/3>1:r,*-9><: {rn rnqhlmkfffffffffffh nqhlmkfffffffffffh oqjigllllllllllllli rn o o o o nqglllllllllllllll o V V V V |
  1
<0:;8: {rn {nnl {ik {ii {fg o {jm {rn |
  1
<0:;8: {rn {ii {jk {ji {gi n {lm {rn |
  1
<0:;8: {rn {ji {jj {nnl {nnk n {mm {rn |
  1
:;8: {nnj {nni {gg {gk {nnh o |
  1
/+36,+r3(;r>++-6= {rn {rn {rn {jg |
  1
):-+:' {rn {jg {nng |
  1
,+->687+r<*-): {rn rnqiigllllllllllllk roqglkniiiiiiiiiiihm oqjigllllllllllllli o nqglllllllllllllll o V V |
  1
<0:;8: {rn {ik {nnl {jf {fn o {jm {rn |
  1
:;8: {nnf {fl {hn {jf {nmo o |
  1
/+36,+r3(;r>++-6= {rn {rn {rn {io |
  1
):-+:' {rn {nnk {nmn |
  1
,+->687+r<*-): {rn rnqiigllllllllllllk rnqiigllllllllllllk oqkmniiiiiiiiiiiiil o o nqglllllllllllllll V V |
  1
/061+ {rn rnqiigllllllllllllk rnqiigllllllllllllk oqjigllllllllllllli |
  1
/+36,+r3(;r>++-6= {rn {rn {rn {ij |
  1
,+->687+r<*-): {rn nqiigllllllllllllk rnqiigllllllllllllk oqkmniiiiiiiiiiiiil o nqglllllllllllllll o V V |
  1
:;8: {nmm {ig {nni {ii {nml o |
  1
/061+ {rn nqiigllllllllllllk nqiigllllllllllllk oqkmniiiiiiiiiiiiil |
  1
/061+ {rn nqiigllllllllllllk rnqiigllllllllllllk oqkmniiiiiiiiiiiiil |
  1
/+36,+r3(;r>++-6= {rn {rn {rn {hl |
  1
,+->687+r<*-): {rn roqglkniiiiiiiiiiihm nqiigllllllllllllk oqjigllllllllllllli nqglllllllllllllll o o V V |
  1
<0:;8: {rn {nmk {nmj {nmi {nmh n {hk {rn |
  1
92:,7r3(;r>++-6= {rn {nmg {rn {hj |
  1
9><: {nmf {rn {nlo {i {rn {nln -:):-,:; ,6183: |
  1
/3>1:r,*-9><: {rn o o oqjigllllllllllllli o o n nqglllllllllllllll o o o V V V V |
  1
-:9@)+r3(;r>++-6= {rn {rn {hf {jn {l {k |
  1
92:,7r3(;r>++-6= {rn {nlm {rn {go |
  1
9><: {nll {nlk {nlj {i {rn {nli 90-(>-; ,6183: |
  1
300/ {rn {rn {nlh {go |
  1
/3>1:r,*-9><: {rn rnqhlmkfffffffffffh rnqhlmkfffffffffffh oqjigllllllllllllli o rn o o o rnqglllllllllllllll o V V V V |
  1
<0:;8: {rn {nlg {nlf {nko {nkn o {gn {rn |
  1
<0:;8: {rn {fo {gl {gj {nnk o {jm {rn |
  1
:;8: {nkm {nni {fl {gj {nkl o |
  1
/+36,+r3(;r>++-6= {rn {rn {rn {gi |
  1
):-+:' {rn {fg {nkk |
  1
,+->687+r<*-): {rn rnqiigllllllllllllk nqiigllllllllllllk oqkmniiiiiiiiiiiiil o o nqglllllllllllllll V V |
  1
/061+ {rn rnqiigllllllllllllk nqiigllllllllllllk oqjigllllllllllllli |
  1
/+36,+r3(;r>++-6= {rn {rn {rn {fn |
  1
,+->687+r<*-): {rn rnqiigllllllllllllk rnqiigllllllllllllk oqkmniiiiiiiiiiiiil nqglllllllllllllll o o V V |
  1
/061+ {rn rnqiigllllllllllllk rnqiigllllllllllllk oqkmniiiiiiiiiiiiil |
  1
/+36,+r3(;r>++-6= {rn {rn {rn {fg |
  1
,+->687+r<*-): {rn nqiigllllllllllllk nqiigllllllllllllk oqkmniiiiiiiiiiiiil rnqglllllllllllllll o o V V |
  1
<0:;8: {rn {nkj {nol {nki {nkh n {hk {rn |
  1
<0:;8: {rn {nol {nkj {nkg {nkf n {hk {rn |
  1
<0:;8: {rn {njo {njn {nol {nmh o {njm {rn |
  1
:;8: {njl {njk {njj {nmi {nji o |
  1
-:9@)+r3(;r>++-6= {rn {rn {nok {hj {l {k |
  1
92:,7r3(;r>++-6= {rn {njh {rn {noj |
  1
300/ {rn {rn {nko {noj |
  1
/3>1:r,*-9><: {rn rnqhlmkfffffffffffh nqhlmkfffffffffffh o o o n nqglllllllllllllll o o o V V V V |
  1
-:9@)+r3(;r>++-6= {rn {rn {nog {go {l {k |
  1
92:,7r3(;r>++-6= {rn {njg {rn {nof |
  1
9><: {njf {hj {njm {i {rn {nio 90-(>-; ,6183: |
  1
300/ {rn {rn {nin {nof |
  1
/3>1:r,*-9><: {rn nqhlmkfffffffffffh rnqhlmkfffffffffffh oqjigllllllllllllli n o o o o rnqglllllllllllllll o V V V V |
  1
<0:;8: {rn {nim {nil {nik {nij o {nno {rn |
  1
<0:;8: {rn {nki {nnm {nil {nii n {gn {rn |
  1
<0:;8: {rn {nnm {nki {njn {nih o {gn {rn |
  1
<0:;8: {rn {nig {nik {nnm {nkn n {nlo {rn |
  1
:;8: {nif {nho {nhn {nnm {nhm o |
  1
/+36,+r3(;r>++-6= {rn {rn {rn {nnk |
  1
,+->687+r<*-): {rn rnqiigllllllllllllk nqiigllllllllllllk oqkmniiiiiiiiiiiiil o rnqglllllllllllllll o V V |
  1
/061+ {rn rnqiigllllllllllllk nqiigllllllllllllk oqkmniiiiiiiiiiiiil |
  1
<0:;8: {rn {nmj {nmk {nhl {nhk n {hk {rn |
  1
<0:;8: {rn {nlf {nlg {nmk {nkh o {gn {rn |
  1
:;8: {nhj {nhi {njk {nki {nhh o |
  1
<0:;8: {rn {nhg {nhf {nmj {nkf o {nlj {rn |
  1
:;8: {ngo {njj {ngn {nkg {ngm o |
  1
<0:;8: {rn {ngl {nmi {nhf {ngk o {njm {rn |
  1
<0:;8: {rn {nmi {ngl {nlf {nih n {njm {rn |
  1
300/ {rn {rn {ngl {nlk |
  1
/+36,+r3(;r>++-6= {rn {rn {rn {nmh |
  1
):-+:' {rn {nmh {ngj |
  1
):-+:' {rn {nmh {ngi |
  1
,+->687+r<*-): {rn rnqhlmkfffffffffffh nqhlmkfffffffffffh oqjigllllllllllllli nqglllllllllllllll o o V V |
  1
-:9@)+r3(;r>++-6= {rn {rn {nmf {noj {l {k |
  1
-:9@)+r3(;r>++-6= {rn {rn {nll {nof {l {k |
  1
92:,7r3(;r>++-6= {rn {ngh {rn {nlk |
  1
/3>1:r,*-9><: {rn nqhlmkfffffffffffh nqhlmkfffffffffffh oqjigllllllllllllli o n o o o nqglllllllllllllll o V V V V |
  1
<0:;8: {rn {nhf {nhg {ngg {ngf o {nlj {rn |
  1
<0:;8: {rn {nhl {nlh {nhg {nfo n {nno {rn |
  1
<0:;8: {rn {nlh {nhl {nlg {nii o {nno {rn |
  1
<0:;8: {rn {nko {ngg {nlh {nij n {nlo {rn |
  1
:;8: {nfn {nhn {nfm {nlh {nfl o |
  1
:;8: {nfk {nhi {nhn {nil {nfj o |
  1
:;8: {nfi {njk {nho {nlf {nfh o |
  1
<0:;8: {rn {ngg {nko {ngl {nfg n {nlo {rn |
  1
/+36,+r3(;r>++-6= {rn {rn {rn {nkn |
  1
):-+:' {rn {nih {nff |
  1
):-+:' {rn {nii {moo |
  1
,+->687+r<*-): {rn rnqhlmkfffffffffffh rnqhlmkfffffffffffh o o rnqglllllllllllllll o V V |
  1
<0:;8: {rn {nil {nim {nkj {nhk o {nno {rn |
  1
:;8: {mon {ngn {nhi {nhl {mom o |
  1
/+36,+r3(;r>++-6= {rn {rn {rn {nkh |
  1
):-+:' {rn {nhk {mol |
  1
,+->687+r<*-): {rn rnqhlmkfffffffffffh rnqhlmkfffffffffffh oqjigllllllllllllli o nqglllllllllllllll o V V |
  1
<0:;8: {rn {nin {nkg {nim {nfo o {nlj {rn |
  1
<0:;8: {rn {nkg {nin {njo {ngk n {nlj {rn |
  1
/+36,+r3(;r>++-6= {rn {rn {rn {nkf |
  1
):-+:' {rn {nkf {mok |
  1
,+->687+r<*-): {rn nqhlmkfffffffffffh nqhlmkfffffffffffh oqjigllllllllllllli o rnqglllllllllllllll o V V |
  1
<0:;8: {rn {njn {njo {nig {nfg o {njm {rn |
  1
:;8: {moj {njj {moi {njo {moh o |
  1
/061+ {rn rnqhlmkfffffffffffh nqhlmkfffffffffffh oqjigllllllllllllli |
  1
/061+ {rn nqhlmkfffffffffffh nqhlmkfffffffffffh oqjigllllllllllllli |
  1
-:9@)+r3(;r>++-6= {rn {rn {njf {nlk {l {k |
  1
<0:;8: {rn {nik {nig {nin {ngf n {nlo {rn |
  1
:;8: {mog {nfm {moi {nin {mof o |
  1
:;8: {mno {ngn {nfm {nhg {mnn o |
  1
/+36,+r3(;r>++-6= {rn {rn {rn {nij |
  1
):-+:' {rn {nfo {mnm |
  1
,+->687+r<*-): {rn nqhlmkfffffffffffh rnqhlmkfffffffffffh o nqglllllllllllllll o o V V |
  1
/+36,+r3(;r>++-6= {rn {rn {rn {nii |
  1
,+->687+r<*-): {rn rnqhlmkfffffffffffh rnqhlmkfffffffffffh oqjigllllllllllllli o o rnqglllllllllllllll V V |
  1
/+36,+r3(;r>++-6= {rn {rn {rn {nih |
  1
,+->687+r<*-): {rn rnqhlmkfffffffffffh nqhlmkfffffffffffh oqjigllllllllllllli o o rnqglllllllllllllll V V |
  1
:;8: {mnl {moi {nho {ngl {mnk o |
  1
/061+ {rn rnqhlmkfffffffffffh nqhlmkfffffffffffh o |
  1
/061+ {rn rnqhlmkfffffffffffh rnqhlmkfffffffffffh o |
  1
/+36,+r3(;r>++-6= {rn {rn {rn {nhk |
  1
,+->687+r<*-): {rn nqhlmkfffffffffffh rnqhlmkfffffffffffh oqjigllllllllllllli rnqglllllllllllllll o o V V |
  1
/061+ {rn rnqhlmkfffffffffffh rnqhlmkfffffffffffh oqjigllllllllllllli |
  1
/061+ {rn nqhlmkfffffffffffh rnqhlmkfffffffffffh oqjigllllllllllllli |
  1
/+36,+r3(;r>++-6= {rn {rn {rn {ngk |
  1
):-+:' {rn {ngk {mnj |
  1
,+->687+r<*-): {rn nqhlmkfffffffffffh nqhlmkfffffffffffh oqjigllllllllllllli o o rnqglllllllllllllll V V |
  1
/+36,+r3(;r>++-6= {rn {rn {rn {ngf |
  1
,+->687+r<*-): {rn nqhlmkfffffffffffh nqhlmkfffffffffffh o o nqglllllllllllllll o V V |
  1
/+36,+r3(;r>++-6= {rn {rn {rn {nfo |
  1
,+->687+r<*-): {rn nqhlmkfffffffffffh rnqhlmkfffffffffffh oqjigllllllllllllli o o rnqglllllllllllllll V V |
  1
/061+ {rn nqhlmkfffffffffffh rnqhlmkfffffffffffh o |
  1
/+36,+r3(;r>++-6= {rn {rn {rn {nfg |
  1
,+->687+r<*-): {rn rnqhlmkfffffffffffh nqhlmkfffffffffffh o rnqglllllllllllllll o o V V |
  1
/061+ {rn nqhlmkfffffffffffh nqhlmkfffffffffffh o |
  0
DIMENSION
  5
305C
100
AcDbEntity
  8
AREA1
100
AcDbDimension
  2
*D0
 10
1.7325
 20
1.919647
 30
0.0
 11
0.012858
 21
1.919647
 31
0.0
 70
   160
  3
ABECAD_3D
100
AcDbAlignedDimension
 13
-1.7325
 23
1.7325
 33
0.0
 14
1.7325
 24
1.7325
 34
0.0
100
AcDbRotatedDimension
  0
DIMENSION
  5
305D
100
AcDbEntity
  8
AREA1
100
AcDbDimension
  2
*D1
 10
2.004514
 20
-1.7325
 30
0.0
 11
2.004514
 21
-0.055799
 31
0.0
 70
   160
  3
ABECAD_3D
100
AcDbAlignedDimension
 13
1.7325
 23
1.7325
 33
0.0
 14
1.7325
 24
-1.7325
 34
0.0
 50
90.0
100
AcDbRotatedDimension
  0
ENDBLK
  5
305F
100
AcDbEntity
  8
0
100
AcDbBlockEnd
  0
BLOCK
  5
3077
100
AcDbEntity
  8
0
100
AcDbBlockBegin
  2
*D3
 70
     1
 10
0.0
 20
0.0
 30
0.0
  3
*D3
  1

  0
LINE
  5
306D
100
AcDbEntity
  8
AREA2
 62
     0
100
AcDbLine
 10
-0.00625
 20
1.998333
 30
0.0
 11
2.184501
 21
1.998333
 31
0.0
1001
ACAD
1000
RTLwPs
1070
   158
  0
LINE
  5
306E
100
AcDbEntity
  8
AREA2
 62
     0
100
AcDbLine
 10
1.795
 20
0.0
 30
0.0
 11
2.184501
 21
0.0
 31
0.0
1001
ACAD
1000
RTLwPs
1070
   158
  0
LINE
  5
306F
100
AcDbEntity
  8
AREA2
 62
     0
100
AcDbLine
 10
2.004501
 20
1.818333
 30
0.0
 11
2.004501
 21
1.369084
 31
0.0
1001
ACAD
1000
RTLwPs
1070
   158
  0
LINE
  5
3070
100
AcDbEntity
  8
AREA2
 62
     0
100
AcDbLine
 10
2.004501
 20
0.18
 30
0.0
 11
2.004501
 21
0.544084
 31
0.0
1001
ACAD
1000
RTLwPs
1070
   158
  0
MTEXT
  5
3071
100
AcDbEntity
  8
AREA2
 62
     0
100
AcDbMText
 10
2.004501
 20
0.956584
 30
0.0
 40
0.09
 41
0.0
 71
     5
 72
     1
  1
\A1;2 [50.76]
 11
0.0
 21
1.0
 31
0.0
1001
ACAD
1000
MTEXTBEGIN
1070
    73
1070
     1
1070
    44
1040
1.0
1070
    74
1070
     0
1000
MTEXTEND
1000
MTEXTBEGIN
1070
    73
1070
     1
1070
    44
1040
1.0
1070
    74
1070
     0
1000
MTEXTEND
1000
MTEXTBEGIN
1070
    73
1070
     1
1070
    44
1040
1.0
1070
    74
1070
     0
1000
MTEXTEND
1000
MTEXTBEGIN
1070
    73
1070
     1
1070
    44
1040
1.0
1070
    74
1070
     0
1000
MTEXTEND
  0
SOLID
  5
3072
100
AcDbEntity
  8
AREA2
 62
     0
100
AcDbTrace
 10
1.974501
 20
1.818333
 30
0.0
 11
2.034501
 21
1.818333
 31
0.0
 12
2.004501
 22
1.998333
 32
0.0
 13
2.004501
 23
1.998333
 33
0.0
  0
SOLID
  5
3073
100
AcDbEntity
  8
AREA2
 62
     0
100
AcDbTrace
 10
1.974501
 20
0.18
 30
0.0
 11
2.034501
 21
0.18
 31
0.0
 12
2.004501
 22
0.0
 32
0.0
 13
2.004501
 23
0.0
 33
0.0
  0
POINT
  5
3074
100
AcDbEntity
  8
DEFPOINTS
 62
     0
100
AcDbPoint
 10
-0.06875
 20
1.998333
 30
-0.375833
  0
POINT
  5
3075
100
AcDbEntity
  8
DEFPOINTS
 62
     0
100
AcDbPoint
 10
1.7325
 20
0.0
 30
1.7325
  0
POINT
  5
3076
100
AcDbEntity
  8
DEFPOINTS
 62
     0
100
AcDbPoint
 10
2.004501
 20
0.0
 30
0.0
  0
ENDBLK
  5
3078
100
AcDbEntity
  8
0
100
AcDbBlockEnd
  0
ENDSEC
  0
SECTION
  2
ENTITIES
  0
INSERT
  5
3060
100
AcDbEntity
  8
0
100
AcDbBlockReference
 66
     1
  2
ABDSB470
 10
0.0
 20
0.0
 30
0.0
  0
ATTRIB
  5
3062
100
AcDbEntity
  8
ATTRIBUTES
100
AcDbText
 10
-1.586809
 20
-0.082542
 30
0.0
 40
0.09456
  1
ALLEN-BRADLEY
100
AcDbAttribute
  2
AC_VND_LABEL
 70
     1
  0
ATTRIB
  5
3063
100
AcDbEntity
  8
ATTRIBUTES
100
AcDbText
 10
-1.586809
 20
-0.279542
 30
0.0
 40
0.09456
  1
194E-HE8A/I-***
100
AcDbAttribute
  2
AC_PART_NO
 70
     1
  0
ATTRIB
  5
3064
100
AcDbEntity
  8
ATTRIBUTES
100
AcDbText
 10
-1.586809
 20
-0.476543
 30
0.0
 40
0.09456
  1
Control and Load Switch Actuator; Type A/I
100
AcDbAttribute
  2
AC_DESCRIPTION
 70
     1
  0
ATTRIB
  5
3065
100
AcDbEntity
  8
ATTRIBUTES
100
AcDbText
 10
-1.586809
 20
-0.673544
 30
0.0
 40
0.09456
  1

100
AcDbAttribute
  2
DEVICE_ID
 70
     1
  0
ATTRIB
  5
3066
100
AcDbEntity
  8
ATTRIBUTES
100
AcDbText
 10
-1.586809
 20
-0.870544
 30
0.0
 40
0.09456
  1

100
AcDbAttribute
  2
AC_CPART_NO
 70
     1
  0
ATTRIB
  5
3067
100
AcDbEntity
  8
ATTRIBUTES
100
AcDbText
 10
-1.586809
 20
-1.067545
 30
0.0
 40
0.09456
  1

100
AcDbAttribute
  2
AC_NOTE
 70
     1
  0
ATTRIB
  5
3068
100
AcDbEntity
  8
ATTRIBUTES
100
AcDbText
 10
-1.586809
 20
-1.264545
 30
0.0
 40
0.09456
  1

100
AcDbAttribute
  2
FASTENER
 70
     1
  0
ATTRIB
  5
3069
100
AcDbEntity
  8
ATTRIBUTES
100
AcDbText
 10
-1.586809
 20
-1.461546
 30
0.0
 40
0.09456
  1
INCH
100
AcDbAttribute
  2
AC_SCALE_UNIT
 70
     1
  0
ATTRIB
  5
306A
100
AcDbEntity
  8
ATTRIBUTES
100
AcDbText
 10
-1.586809
 20
-1.658547
 30
0.0
 40
0.09456
  1
0
100
AcDbAttribute
  2
AC_VIEW_CODE
 70
     1
  0
SEQEND
  5
3061
100
AcDbEntity
  8
0
  0
DIMENSION
  5
306B
100
AcDbEntity
  8
AREA2
100
AcDbDimension
  2
*D3
 10
2.004501
 20
0.0
 30
0.0
 11
2.004501
 21
0.956584
 31
0.0
 70
   160
210
0.0
220
-1.0
230
0.0
  3
ABECAD_3V
100
AcDbAlignedDimension
 13
-0.06875
 23
0.375833
 33
1.998333
 14
1.7325
 24
-1.7325
 34
0.0
 50
90.0
100
AcDbRotatedDimension
1001
ACAD
1000
DSTYLE
1002
{
1070
    40
1040
1.0
1002
}
  0
VIEWPORT
  5
2C
102
{ACAD_XDICTIONARY
360
314E
102
}
100
AcDbEntity
 67
     1
  8
0
100
AcDbViewport
 10
4.999849
 20
3.750155
 30
0.0
 40
16.481272
 41
7.63272
 68
     1
 69
     1
1001
ACAD
1000
MVIEW
1002
{
1070
    16
1010
0.0
1020
0.0
1030
0.0
1010
0.0
1020
0.0
1030
1.0
1040
0.0
1040
7.63272
1040
4.999849
1040
3.750155
1040
50.0
1040
0.0
1040
0.0
1070
     0
1070
   100
1070
     1
1070
     1
1070
     0
1070
     0
1070
     0
1070
     0
1040
0.0
1040
0.0
1040
0.0
1040
1.0
1040
1.0
1040
0.0
1040
0.0
1070
     0
1002
{
1002
}
1002
}
  0
VIEWPORT
  5
2D
102
{ACAD_XDICTIONARY
360
3150
102
}
100
AcDbEntity
 67
     1
  8
0
100
AcDbViewport
 10
2.5
 20
5.625
 30
0.0
 40
5.0
 41
3.75
 68
     4
 69
     2
1001
ACAD
1000
MVIEW
1002
{
1070
    16
1010
0.0
1020
0.0
1030
0.0
1010
0.0
1020
0.0
1030
1.0
1040
0.0
1040
5.17657
1040
0.316556
1040
0.156789
1040
50.0
1040
0.0
1040
0.0
1070
     0
1070
   100
1070
     1
1070
     0
1070
     0
1070
     0
1070
     0
1070
     0
1040
0.0
1040
0.0
1040
0.0
1040
1.0
1040
1.0
1040
0.0
1040
0.0
1070
     0
1002
{
1003
AREA2
1002
}
1002
}
  0
VIEWPORT
  5
2E
102
{ACAD_XDICTIONARY
360
3152
102
}
100
AcDbEntity
 67
     1
  8
0
100
AcDbViewport
 10
2.5
 20
1.875
 30
0.0
 40
5.0
 41
3.75
 68
     3
 69
     3
1001
ACAD
1000
MVIEW
1002
{
1070
    16
1010
0.0
1020
0.0
1030
0.0
1010
0.0
1020
-1.0
1030
0.0
1040
0.0
1040
5.177809
1040
0.286873
1040
0.837144
1040
50.0
1040
0.0
1040
0.0
1070
     0
1070
   100
1070
     1
1070
     0
1070
     0
1070
     0
1070
     0
1070
     0
1040
0.0
1040
0.0
1040
0.0
1040
1.0
1040
1.0
1040
0.0
1040
0.0
1070
     0
1002
{
1003
AREA1
1002
}
1002
}
  0
VIEWPORT
  5
2F
102
{ACAD_XDICTIONARY
360
3154
102
}
100
AcDbEntity
 67
     1
  8
0
100
AcDbViewport
 10
7.5
 20
3.75
 30
0.0
 40
5.0
 41
7.5
 68
     2
 69
     4
1001
ACAD
1000
MVIEW
1002
{
1070
    16
1010
0.0
1020
0.0
1030
0.0
1010
-1.0
1020
-1.0
1030
1.0
1040
0.0
1040
12.545516
1040
-0.11111
1040
2.770936
1040
50.0
1040
0.0
1040
0.0
1070
     0
1070
   100
1070
     1
1070
     0
1070
     0
1070
     0
1070
     0
1070
     0
1040
0.0
1040
0.0
1040
0.0
1040
1.0
1040
1.0
1040
0.0
1040
0.0
1070
     0
1002
{
1003
AREA1
1003
AREA2
1002
}
1002
}
  0
TEXT
  5
42D
100
AcDbEntity
 67
     1
  8
0
100
AcDbText
 10
5.253785
 20
7.092701
 30
0.0
 40
0.2
  1
194E-HE8A/I-*
100
AcDbText
  0
TEXT
  5
431
100
AcDbEntity
 67
     1
  8
0
100
AcDbText
 10
5.253785
 20
6.759368
 30
0.0
 40
0.2
  1
ACTUATOR, 88mm x 88mm
100
AcDbText
1001
ACAD
1000
R13OBJECT
1002
{
1005
42D
1002
}
  0
TEXT
  5
6C2
100
AcDbEntity
 67
     1
  8
0
100
AcDbText
 10
5.253785
 20
6.43306
 30
0.0
 40
0.2
  1

100
AcDbText
1001
ACAD
1000
R13OBJECT
1002
{
1005
42D
1002
}
  0
ENDSEC
  0
SECTION
  2
OBJECTS
  0
DICTIONARY
  5
46D
100
AcDbDictionary
  3
ACAD_GROUP
350
46E
  3
ACAD_LAYOUT
350
49E
  3
ACAD_MLINESTYLE
350
47B
  3
ACAD_PLOTSETTINGS
350
49F
  3
ACAD_PLOTSTYLENAME
350
49C
  3
ACDBHEADERROUNDTRIPXREC
350
312D
  3
ACDBVARIABLEDICTIONARY
350
48D
  3
DWGPROPS
350
307A
  0
DICTIONARY
  5
312B
100
AcDbDictionary
280
     1
  3
ACAD_XREC_ROUNDTRIP
360
312C
  0
DICTIONARY
  5
3158
100
AcDbDictionary
280
     1
  3
ACAD_XREC_ROUNDTRIP
360
3159
  0
DICTIONARY
  5
315A
100
AcDbDictionary
280
     1
  3
ACAD_XREC_ROUNDTRIP
360
315B
  0
DICTIONARY
  5
315E
100
AcDbDictionary
280
     1
  3
ACAD_XREC_ROUNDTRIP
360
315F
  0
DICTIONARY
  5
4D2
100
AcDbDictionary
280
     1
  3
ACAD_LAYOUTSELFREF
360
3157
  0
DICTIONARY
  5
4D0
100
AcDbDictionary
280
     1
  3
ACAD_LAYOUTSELFREF
360
3156
  0
DICTIONARY
  5
3129
100
AcDbDictionary
280
     1
  3
ACAD_XREC_ROUNDTRIP
360
312A
  0
DICTIONARY
  5
314E
100
AcDbDictionary
280
     1
  3
ACAD_XREC_ROUNDTRIP
360
314F
  0
DICTIONARY
  5
3150
100
AcDbDictionary
280
     1
  3
ACAD_XREC_ROUNDTRIP
360
3151
  0
DICTIONARY
  5
3152
100
AcDbDictionary
280
     1
  3
ACAD_XREC_ROUNDTRIP
360
3153
  0
DICTIONARY
  5
3154
100
AcDbDictionary
280
     1
  3
ACAD_XREC_ROUNDTRIP
360
3155
  0
DICTIONARY
  5
46E
102
{ACAD_REACTORS
330
46D
102
}
100
AcDbDictionary
  0
DICTIONARY
  5
49E
102
{ACAD_XDICTIONARY
360
315C
102
}
102
{ACAD_REACTORS
330
46D
102
}
100
AcDbDictionary
  3
LAYOUT1
350
4A1
  3
MODEL
350
4A0
  0
DICTIONARY
  5
47B
102
{ACAD_REACTORS
330
46D
102
}
100
AcDbDictionary
  3
STANDARD
350
47C
  0
DICTIONARY
  5
49F
102
{ACAD_REACTORS
330
46D
102
}
100
AcDbDictionary
  0
ACAD_PROXY_OBJECT
  5
49C
102
{ACAD_REACTORS
330
46D
102
}
100
AcDbProxyObject
 90
      499
 91
      501
 93
       86
310
405010041939BDC9B585B0
350
49D
340
49D
 94
        0
  0
DICTIONARY
  5
312D
102
{ACAD_REACTORS
330
46D
102
}
100
AcDbDictionary
  3
CEPSNTYPE
350
3137
  3
DIMSTYLEDATA
350
313B
  3
FINGERPRINTGUID
350
3138
  3
HYPERLINKBASE
350
3130
  3
INSUNITS
350
3136
  3
LAYOUTDICT
350
3132
  3
LWETCUNION
350
3135
  3
PLOTSETDICT
350
3133
  3
PLOTSTYLNAMDICT
350
3134
  3
PSVPSCALE
350
313A
  3
PUCSBASE
350
313E
  3
PUCSORGBACK
350
3144
  3
PUCSORGBOTTOM
350
3140
  3
PUCSORGFRONT
350
3143
  3
PUCSORGLEFT
350
3141
  3
PUCSORGRIGHT
350
3142
  3
PUCSORGTOP
350
313F
  3
PUCSORTHOREF
350
313C
  3
PUCSORTHOVIEW
350
313D
  3
STYLESHEET
350
3131
  3
TSTACKALIGN
350
312E
  3
TSTACKSIZE
350
312F
  3
UCSBASE
350
3147
  3
UCSORGBACK
350
314D
  3
UCSORGBOTTOM
350
3149
  3
UCSORGFRONT
350
314C
  3
UCSORGLEFT
350
314A
  3
UCSORGRIGHT
350
314B
  3
UCSORGTOP
350
3148
  3
UCSORTHOREF
350
3145
  3
UCSORTHOVIEW
350
3146
  3
VERSIONGUID
350
3139
  0
DICTIONARY
  5
48D
102
{ACAD_REACTORS
330
46D
102
}
100
AcDbDictionary
  3
DIMADEC
350
48E
  0
XRECORD
  5
307A
102
{ACAD_REACTORS
330
46D
102
}
100
AcDbXrecord
  1
DWGPROPS COOKIE
  2

  3

  4

  6

  7

  8
colin
  9

300
=
301
=
302
=
303
=
304
=
305
=
306
=
307
=
308
=
309
=
 40
0.132874
 41
2451726.480029
 42
2451841.551144
  1

 90
        0
  0
XRECORD
  5
312C
102
{ACAD_REACTORS
330
312B
102
}
100
AcDbXrecord
102
EXTNAMES
  1
*ACTIVE
  2
*Active
102
UCS
 74
     0
 71
     1
 10
0.0
 20
0.0
 30
0.0
 10
1.0
 20
0.0
 30
0.0
 10
0.0
 20
0.0
 30
1.0
146
0.0
 79
     3
102
VIEW
281
     0
  0
XRECORD
  5
3159
102
{ACAD_REACTORS
330
3158
102
}
100
AcDbXrecord
102
PLOTBIT
280
     0
  0
XRECORD
  5
315B
102
{ACAD_REACTORS
330
315A
102
}
100
AcDbXrecord
102
ACADR14ROUNDTRIP
1000
DSTYLE
1002
{
1070
   276
 70
     2
1070
   277
 70
     5
1070
   279
 70
     2
1070
   289
 70
     2
1002
}
  0
XRECORD
  5
315F
102
{ACAD_REACTORS
330
315E
102
}
100
AcDbXrecord
102
ACADR14ROUNDTRIP
1000
DSTYLE
1002
{
1070
   276
 70
     2
1070
   277
 70
     5
1070
   279
 70
     2
1070
   289
 70
     2
1002
}
  0
XRECORD
  5
3157
102
{ACAD_REACTORS
330
4D2
102
}
100
AcDbXrecord
340
478
  0
XRECORD
  5
3156
102
{ACAD_REACTORS
330
4D0
102
}
100
AcDbXrecord
340
475
  0
XRECORD
  5
312A
102
{ACAD_REACTORS
330
3129
102
}
100
AcDbXrecord
102
EXTNAMES
  1
ABDSB470
  2
abdsb470
  0
XRECORD
  5
314F
102
{ACAD_REACTORS
330
314E
102
}
100
AcDbXrecord
102
UCS
 74
     0
 71
     1
 10
0.0
 20
0.0
 30
0.0
 10
1.0
 20
0.0
 30
0.0
 10
0.0
 20
1.0
 30
0.0
146
0.0
 79
     0
102
VIEW
281
     0
102
NEWVIEWCONTROL
280
     4
  0
XRECORD
  5
3151
102
{ACAD_REACTORS
330
3150
102
}
100
AcDbXrecord
102
UCS
 74
     0
 71
     1
 10
0.0
 20
0.0
 30
0.0
 10
1.0
 20
0.0
 30
0.0
 10
0.0
 20
1.0
 30
0.0
146
0.0
 79
     1
102
VIEW
281
     0
102
NEWVIEWCONTROL
280
     4
  0
XRECORD
  5
3153
102
{ACAD_REACTORS
330
3152
102
}
100
AcDbXrecord
102
UCS
 74
     0
 71
     1
 10
0.0
 20
0.0
 30
0.0
 10
1.0
 20
0.0
 30
0.0
 10
0.0
 20
0.0
 30
1.0
146
0.0
 79
     3
102
VIEW
281
     0
102
NEWVIEWCONTROL
280
     4
  0
XRECORD
  5
3155
102
{ACAD_REACTORS
330
3154
102
}
100
AcDbXrecord
102
UCS
 74
     0
 71
     1
 10
0.0
 20
0.0
 30
0.0
 10
1.0
 20
0.0
 30
0.0
 10
0.0
 20
1.0
 30
0.0
146
0.0
 79
     1
102
VIEW
281
     0
102
NEWVIEWCONTROL
280
     4
  0
DICTIONARY
  5
315C
100
AcDbDictionary
280
     1
  3
ACAD_XREC_ROUNDTRIP
360
315D
  0
ACAD_PROXY_OBJECT
  5
4A1
102
{ACAD_REACTORS
330
49E
102
}
100
AcDbProxyObject
 90
      499
 91
      503
 93
     2044
310
91D4850204C617365724A65742035303030205365726965732050434C20362C008000000C0BB1B1440000000102F06C510000000000BC1B1440000000002E06C5100000000C0CCFC6A4000000018199D9C501064C6574746572A901406AA427D84144352EEE3F47D11959985D5B1D08148C4D081C195B88185CDCDA59DB9B5
310
95B9D1CCB98DD18A30EDE3B1BBFDBC0FC1D572C8D6D0C833F1A2B3054E9249F0FD074C61796F75743140501A97D7DB4AA43C31EFF91E46EBA53B71EFD1B32A15809809100B2537F8EAD447D02A6A6A00200C0093BD106FC0000F06EE366FABE0000032E846F6A2F44424FF2920002440160B7F435600079000000D00CEECC5
310
43D0
330
475
330
2C
340
0
340
0
 94
        0
  0
ACAD_PROXY_OBJECT
  5
4A0
102
{ACAD_REACTORS
330
49E
102
}
100
AcDbProxyObject
 90
      499
 91
      503
 93
      924
310
91D4850204C617365724A65742035303030205365726965732050434C20362C01AAAAAAAAA547D11959985D5B1D08148C4D081C195B88185CDCDA59DB9B595B9D1CCB98DD18A69054D6F64656C901A800000000000000000000000000000000000000000000A1000000000000008902A6A6AAAA0
330
478
330
0
340
0
340
0
 94
        0
  0
MLINESTYLE
  5
47C
102
{ACAD_REACTORS
330
47B
102
}
100
AcDbMlineStyle
  2
STANDARD
 70
     0
  3

 62
   256
 51
90.0
 52
90.0
 71
     2
 49
0.5
 62
   256
  6
BYLAYER
 49
-0.5
 62
   256
  6
BYLAYER
  0
ACAD_PROXY_OBJECT
  5
49D
102
{ACAD_REACTORS
330
49C
102
}
100
AcDbProxyObject
 90
      499
 91
      502
 93
        0
 94
        0
  0
XRECORD
  5
3137
102
{ACAD_REACTORS
330
312D
102
}
100
AcDbXrecord
 90
        0
  0
XRECORD
  5
313B
102
{ACAD_REACTORS
330
312D
102
}
100
AcDbXrecord
1000
DSTYLE
1002
{
1070
   276
 70
     2
1070
   277
 70
     5
1070
   279
 70
     2
1070
   289
 70
     2
1002
}
  0
XRECORD
  5
3138
102
{ACAD_REACTORS
330
312D
102
}
100
AcDbXrecord
  1
{6E0CF4B5-225E-11D4-A150-00A0CC3303EC}
  0
XRECORD
  5
3130
102
{ACAD_REACTORS
330
312D
102
}
100
AcDbXrecord
  1

  0
XRECORD
  5
3136
102
{ACAD_REACTORS
330
312D
102
}
100
AcDbXrecord
 90
        0
  0
XRECORD
  5
3132
102
{ACAD_REACTORS
330
312D
102
}
100
AcDbXrecord
340
49E
  0
XRECORD
  5
3135
102
{ACAD_REACTORS
330
312D
102
}
100
AcDbXrecord
 90
    14877
  0
XRECORD
  5
3133
102
{ACAD_REACTORS
330
312D
102
}
100
AcDbXrecord
340
49F
  0
XRECORD
  5
3134
102
{ACAD_REACTORS
330
312D
102
}
100
AcDbXrecord
340
49C
  0
XRECORD
  5
313A
102
{ACAD_REACTORS
330
312D
102
}
100
AcDbXrecord
 40
0.0
  0
XRECORD
  5
313E
102
{ACAD_REACTORS
330
312D
102
}
100
AcDbXrecord
340
0
  0
XRECORD
  5
3144
102
{ACAD_REACTORS
330
312D
102
}
100
AcDbXrecord
 10
0.0
 20
0.0
 30
0.0
  0
XRECORD
  5
3140
102
{ACAD_REACTORS
330
312D
102
}
100
AcDbXrecord
 10
0.0
 20
0.0
 30
0.0
  0
XRECORD
  5
3143
102
{ACAD_REACTORS
330
312D
102
}
100
AcDbXrecord
 10
0.0
 20
0.0
 30
0.0
  0
XRECORD
  5
3141
102
{ACAD_REACTORS
330
312D
102
}
100
AcDbXrecord
 10
0.0
 20
0.0
 30
0.0
  0
XRECORD
  5
3142
102
{ACAD_REACTORS
330
312D
102
}
100
AcDbXrecord
 10
0.0
 20
0.0
 30
0.0
  0
XRECORD
  5
313F
102
{ACAD_REACTORS
330
312D
102
}
100
AcDbXrecord
 10
0.0
 20
0.0
 30
0.0
  0
XRECORD
  5
313C
102
{ACAD_REACTORS
330
312D
102
}
100
AcDbXrecord
340
0
  0
XRECORD
  5
313D
102
{ACAD_REACTORS
330
312D
102
}
100
AcDbXrecord
 70
     0
  0
XRECORD
  5
3131
102
{ACAD_REACTORS
330
312D
102
}
100
AcDbXrecord
  1

  0
XRECORD
  5
312E
102
{ACAD_REACTORS
330
312D
102
}
100
AcDbXrecord
 90
        1
  0
XRECORD
  5
312F
102
{ACAD_REACTORS
330
312D
102
}
100
AcDbXrecord
 90
       70
  0
XRECORD
  5
3147
102
{ACAD_REACTORS
330
312D
102
}
100
AcDbXrecord
340
0
  0
XRECORD
  5
314D
102
{ACAD_REACTORS
330
312D
102
}
100
AcDbXrecord
 10
0.0
 20
0.0
 30
0.0
  0
XRECORD
  5
3149
102
{ACAD_REACTORS
330
312D
102
}
100
AcDbXrecord
 10
0.0
 20
0.0
 30
0.0
  0
XRECORD
  5
314C
102
{ACAD_REACTORS
330
312D
102
}
100
AcDbXrecord
 10
0.0
 20
0.0
 30
0.0
  0
XRECORD
  5
314A
102
{ACAD_REACTORS
330
312D
102
}
100
AcDbXrecord
 10
0.0
 20
0.0
 30
0.0
  0
XRECORD
  5
314B
102
{ACAD_REACTORS
330
312D
102
}
100
AcDbXrecord
 10
0.0
 20
0.0
 30
0.0
  0
XRECORD
  5
3148
102
{ACAD_REACTORS
330
312D
102
}
100
AcDbXrecord
 10
0.0
 20
0.0
 30
0.0
  0
XRECORD
  5
3145
102
{ACAD_REACTORS
330
312D
102
}
100
AcDbXrecord
340
0
  0
XRECORD
  5
3146
102
{ACAD_REACTORS
330
312D
102
}
100
AcDbXrecord
 70
     1
  0
XRECORD
  5
3139
102
{ACAD_REACTORS
330
312D
102
}
100
AcDbXrecord
  1
{3DA5237B-F276-4636-863B-33736E815878}
  0
DICTIONARYVAR
  5
48E
102
{ACAD_REACTORS
330
48D
102
}
100
DictionaryVariables
280
     0
  1
0
  0
XRECORD
  5
315D
102
{ACAD_REACTORS
330
315C
102
}
100
AcDbXrecord
102
EXTNAMES
  1
LAYOUT1
  2
Layout1
  1
MODEL
  2
Model
  0
ENDSEC
  0
EOF
