  0
SECTION
  2
HEADER
  9
$ACADVER
  1
AC1014
  9
$ACADMAINTVER
 70
     8
  9
$DWGCODEPAGE
  3
ANSI_1252
  9
$INSBASE
 10
0.0
 20
0.0
 30
0.0
  9
$EXTMIN
 10
-2.183645
 20
-1.695
 30
-3.88
  9
$EXTMAX
 10
4.060617
 20
2.0268
 30
0.0
  9
$LIMMIN
 10
0.0
 20
0.0
  9
$LIMMAX
 10
12.0
 20
9.0
  9
$ORTHOMODE
 70
     0
  9
$REGENMODE
 70
     1
  9
$FILLMODE
 70
     1
  9
$QTEXTMODE
 70
     0
  9
$MIRRTEXT
 70
     1
  9
$DRAGMODE
 70
     2
  9
$LTSCALE
 40
1.0
  9
$OSMODE
 70
    37
  9
$ATTMODE
 70
     1
  9
$TEXTSIZE
 40
0.12
  9
$TRACEWID
 40
0.05
  9
$TEXTSTYLE
  7
STANDARD
  9
$CLAYER
  8
0
  9
$CELTYPE
  6
BYLAYER
  9
$CECOLOR
 62
   256
  9
$CELTSCALE
 40
1.0
  9
$DELOBJ
 70
     1
  9
$DISPSILH
 70
     0
  9
$DIMSCALE
 40
1.0
  9
$DIMASZ
 40
0.09
  9
$DIMEXO
 40
0.0625
  9
$DIMDLI
 40
0.375
  9
$DIMRND
 40
0.0
  9
$DIMDLE
 40
0.0
  9
$DIMEXE
 40
0.18
  9
$DIMTP
 40
0.0
  9
$DIMTM
 40
0.0
  9
$DIMTXT
 40
0.09
  9
$DIMCEN
 40
0.09
  9
$DIMTSZ
 40
0.0
  9
$DIMTOL
 70
     0
  9
$DIMLIM
 70
     0
  9
$DIMTIH
 70
     0
  9
$DIMTOH
 70
     1
  9
$DIMSE1
 70
     0
  9
$DIMSE2
 70
     0
  9
$DIMTAD
 70
     0
  9
$DIMZIN
 70
     4
  9
$DIMBLK
  1

  9
$DIMASO
 70
     1
  9
$DIMSHO
 70
     1
  9
$DIMPOST
  1

  9
$DIMAPOST
  1

  9
$DIMALT
 70
     1
  9
$DIMALTD
 70
     2
  9
$DIMALTF
 40
25.4
  9
$DIMLFAC
 40
1.0
  9
$DIMTOFL
 70
     0
  9
$DIMTVP
 40
0.0
  9
$DIMTIX
 70
     0
  9
$DIMSOXD
 70
     0
  9
$DIMSAH
 70
     0
  9
$DIMBLK1
  1

  9
$DIMBLK2
  1

  9
$DIMSTYLE
  2
ABECAD_3D
  9
$DIMCLRD
 70
     0
  9
$DIMCLRE
 70
     0
  9
$DIMCLRT
 70
     0
  9
$DIMTFAC
 40
1.5
  9
$DIMGAP
 40
0.09
  9
$DIMJUST
 70
     0
  9
$DIMSD1
 70
     0
  9
$DIMSD2
 70
     0
  9
$DIMTOLJ
 70
     1
  9
$DIMTZIN
 70
     4
  9
$DIMALTZ
 70
     4
  9
$DIMALTTZ
 70
     4
  9
$DIMFIT
 70
     5
  9
$DIMUPT
 70
     1
  9
$DIMUNIT
 70
     7
  9
$DIMDEC
 70
     6
  9
$DIMTDEC
 70
     6
  9
$DIMALTU
 70
     2
  9
$DIMALTTD
 70
     2
  9
$DIMTXSTY
  7
STANDARD
  9
$DIMAUNIT
 70
     0
  9
$LUNITS
 70
     2
  9
$LUPREC
 70
     4
  9
$SKETCHINC
 40
0.1
  9
$FILLETRAD
 40
0.0
  9
$AUNITS
 70
     0
  9
$AUPREC
 70
     0
  9
$MENU
  1
ACAD
  9
$ELEVATION
 40
0.0
  9
$PELEVATION
 40
0.0
  9
$THICKNESS
 40
0.0
  9
$LIMCHECK
 70
     0
  9
$BLIPMODE
 70
     0
  9
$CHAMFERA
 40
0.0
  9
$CHAMFERB
 40
0.0
  9
$CHAMFERC
 40
0.0
  9
$CHAMFERD
 40
0.0
  9
$SKPOLY
 70
     0
  9
$TDCREATE
 40
2451726.480055787
  9
$TDUPDATE
 40
2452010.485229861
  9
$TDINDWG
 40
0.0069231481
  9
$TDUSRTIMER
 40
0.0069231481
  9
$USRTIMER
 70
     1
  9
$ANGBASE
 50
0.0
  9
$ANGDIR
 70
     0
  9
$PDMODE
 70
     3
  9
$PDSIZE
 40
0.09
  9
$PLINEWID
 40
0.0
  9
$COORDS
 70
     1
  9
$SPLFRAME
 70
     1
  9
$SPLINETYPE
 70
     6
  9
$SPLINESEGS
 70
     8
  9
$ATTDIA
 70
     0
  9
$ATTREQ
 70
     1
  9
$HANDLING
 70
     1
  9
$HANDSEED
  5
46168
  9
$SURFTAB1
 70
     6
  9
$SURFTAB2
 70
     6
  9
$SURFTYPE
 70
     6
  9
$SURFU
 70
     6
  9
$SURFV
 70
     6
  9
$UCSNAME
  2

  9
$UCSORG
 10
0.0
 20
0.0
 30
0.0
  9
$UCSXDIR
 10
1.0
 20
0.0
 30
0.0
  9
$UCSYDIR
 10
0.0
 20
1.0
 30
0.0
  9
$PUCSNAME
  2

  9
$PUCSORG
 10
0.0
 20
0.0
 30
0.0
  9
$PUCSXDIR
 10
1.0
 20
0.0
 30
0.0
  9
$PUCSYDIR
 10
0.0
 20
1.0
 30
0.0
  9
$USERI1
 70
     0
  9
$USERI2
 70
     0
  9
$USERI3
 70
     0
  9
$USERI4
 70
     0
  9
$USERI5
 70
     0
  9
$USERR1
 40
0.0
  9
$USERR2
 40
0.0
  9
$USERR3
 40
0.0
  9
$USERR4
 40
0.0
  9
$USERR5
 40
0.0
  9
$WORLDVIEW
 70
     1
  9
$SHADEDGE
 70
     3
  9
$SHADEDIF
 70
    70
  9
$TILEMODE
 70
     1
  9
$MAXACTVP
 70
    16
  9
$PINSBASE
 10
0.0
 20
0.0
 30
0.0
  9
$PLIMCHECK
 70
     0
  9
$PEXTMIN
 10
1.000000E+20
 20
1.000000E+20
 30
1.000000E+20
  9
$PEXTMAX
 10
-1.000000E+20
 20
-1.000000E+20
 30
-1.000000E+20
  9
$PLIMMIN
 10
0.0
 20
0.0
  9
$PLIMMAX
 10
12.0
 20
9.0
  9
$UNITMODE
 70
     0
  9
$VISRETAIN
 70
     0
  9
$PLINEGEN
 70
     0
  9
$PSLTSCALE
 70
     1
  9
$TREEDEPTH
 70
  3020
  9
$PICKSTYLE
 70
     1
  9
$CMLSTYLE
  2
STANDARD
  9
$CMLJUST
 70
     0
  9
$CMLSCALE
 40
1.0
  9
$PROXYGRAPHICS
 70
     1
  9
$MEASUREMENT
 70
     0
  0
ENDSEC
  0
SECTION
  2
CLASSES
  0
CLASS
  1
DICTIONARYVAR
  2
AcDbDictionaryVar
  3
"AutoCAD"
 90
        0
280
     0
281
     0
  0
CLASS
  1
ACDBDICTIONARYWDFLT
  2
AcDbDictionaryWithDefault
  3
AutoCAD 2000
 90
        0
280
     0
281
     0
  0
CLASS
  1
ACDBPLACEHOLDER
  2
AcDbPlaceHolder
  3
AutoCAD 2000
 90
        0
280
     0
281
     0
  0
CLASS
  1
LAYOUT
  2
AcDbLayout
  3
AutoCAD 2000
 90
        0
280
     0
281
     0
  0
CLASS
  1
LONG_TRANSACTION
  2
AcDbLongTransaction
  3
AutoCAD 2000
 90
        0
280
     0
281
     0
  0
CLASS
  1
LWPOLYLINE
  2
AcDbPolyline
  3
"AutoCAD"
 90
        0
280
     0
281
     1
  0
CLASS
  1
HATCH
  2
AcDbHatch
  3
"ACAD_SEDONA"
 90
        0
280
     0
281
     1
  0
CLASS
  1
XRECORD
  2
AcDbXrecord
  3
"<Built In>"
 90
        0
280
     0
281
     0
  0
CLASS
  1
LONG_TRANSACTION
  2
AcDbLongTransaction
  3
AutoCAD 2000
 90
        0
280
     0
281
     0
  0
CLASS
  1
LWPOLYLINE
  2
AcDbPolyline
  3
"AutoCAD"
 90
        0
280
     0
281
     1
  0
CLASS
  1
HATCH
  2
AcDbHatch
  3
"ACAD_SEDONA"
 90
        0
280
     0
281
     1
  0
CLASS
  1
XRECORD
  2
AcDbXrecord
  3
"<Built In>"
 90
        0
280
     0
281
     0
  0
CLASS
  1
LONG_TRANSACTION
  2
AcDbLongTransaction
  3
AutoCAD 2000
 90
        0
280
     0
281
     0
  0
CLASS
  1
LWPOLYLINE
  2
AcDbPolyline
  3
"AutoCAD"
 90
        0
280
     0
281
     1
  0
CLASS
  1
HATCH
  2
AcDbHatch
  3
"ACAD_SEDONA"
 90
        0
280
     0
281
     1
  0
CLASS
  1
XRECORD
  2
AcDbXrecord
  3
"<Built In>"
 90
        0
280
     0
281
     0
  0
CLASS
  1
LONG_TRANSACTION
  2
AcDbLongTransaction
  3
AutoCAD 2000
 90
        0
280
     0
281
     0
  0
CLASS
  1
LWPOLYLINE
  2
AcDbPolyline
  3
"AutoCAD"
 90
        0
280
     0
281
     1
  0
CLASS
  1
HATCH
  2
AcDbHatch
  3
"ACAD_SEDONA"
 90
        0
280
     0
281
     1
  0
CLASS
  1
XRECORD
  2
AcDbXrecord
  3
"<Built In>"
 90
        0
280
     0
281
     0
  0
CLASS
  1
LONG_TRANSACTION
  2
AcDbLongTransaction
  3
AutoCAD 2000
 90
        0
280
     0
281
     0
  0
CLASS
  1
LWPOLYLINE
  2
AcDbPolyline
  3
"AutoCAD"
 90
        0
280
     0
281
     1
  0
CLASS
  1
HATCH
  2
AcDbHatch
  3
"ACAD_SEDONA"
 90
        0
280
     0
281
     1
  0
CLASS
  1
XRECORD
  2
AcDbXrecord
  3
"<Built In>"
 90
        0
280
     0
281
     0
  0
CLASS
  1
LONG_TRANSACTION
  2
AcDbLongTransaction
  3
AutoCAD 2000
 90
        0
280
     0
281
     0
  0
CLASS
  1
LWPOLYLINE
  2
AcDbPolyline
  3
"AutoCAD"
 90
        0
280
     0
281
     1
  0
CLASS
  1
HATCH
  2
AcDbHatch
  3
"ACAD_SEDONA"
 90
        0
280
     0
281
     1
  0
CLASS
  1
XRECORD
  2
AcDbXrecord
  3
"<Built In>"
 90
        0
280
     0
281
     0
  0
ENDSEC
  0
SECTION
  2
TABLES
  0
TABLE
  2
VPORT
  5
458C7
100
AcDbSymbolTable
 70
     1
  0
VPORT
  5
46133
102
{ACAD_XDICTIONARY
360
46138
102
}
100
AcDbSymbolTableRecord
100
AcDbViewportTableRecord
  2
*ACTIVE
 70
     0
 10
0.0
 20
0.0
 11
1.0
 21
1.0
 12
0.938398
 22
0.165887
 13
0.0
 23
0.0
 14
0.25
 24
0.25
 15
0.25
 25
0.25
 16
0.0
 26
0.0
 36
1.0
 17
0.0
 27
0.0
 37
0.0
 40
3.784988
 41
1.960674
 42
50.0
 43
0.0
 44
0.0
 50
0.0
 51
0.0
 71
     0
 72
 20000
 73
     1
 74
     1
 75
     0
 76
     0
 77
     0
 78
     0
  0
ENDTAB
  0
TABLE
  2
LTYPE
  5
458C4
100
AcDbSymbolTable
 70
     1
  0
LTYPE
  5
458D0
100
AcDbSymbolTableRecord
100
AcDbLinetypeTableRecord
  2
BYBLOCK
 70
     0
  3

 72
    65
 73
     0
 40
0.0
  0
LTYPE
  5
458D1
100
AcDbSymbolTableRecord
100
AcDbLinetypeTableRecord
  2
BYLAYER
 70
     0
  3

 72
    65
 73
     0
 40
0.0
  0
LTYPE
  5
458D2
100
AcDbSymbolTableRecord
100
AcDbLinetypeTableRecord
  2
CONTINUOUS
 70
     0
  3
Solid line
 72
    65
 73
     0
 40
0.0
  0
ENDTAB
  0
TABLE
  2
LAYER
  5
458C1
100
AcDbSymbolTable
 70
     7
  0
LAYER
  5
458CD
100
AcDbSymbolTableRecord
100
AcDbLayerTableRecord
  2
0
 70
     0
 62
     7
  6
CONTINUOUS
  0
LAYER
  5
458EA
100
AcDbSymbolTableRecord
100
AcDbLayerTableRecord
  2
DIMS-MTG-HOLES
 70
     0
 62
     1
  6
CONTINUOUS
  0
LAYER
  5
458EB
100
AcDbSymbolTableRecord
100
AcDbLayerTableRecord
  2
ATTRIBUTES
 70
     0
 62
     7
  6
CONTINUOUS
  0
LAYER
  5
4593B
102
{ACAD_XDICTIONARY
360
46161
102
}
100
AcDbSymbolTableRecord
100
AcDbLayerTableRecord
  2
AREA1
 70
     0
 62
    -7
  6
CONTINUOUS
  0
LAYER
  5
45940
102
{ACAD_XDICTIONARY
360
46136
102
}
100
AcDbSymbolTableRecord
100
AcDbLayerTableRecord
  2
DEFPOINTS
 70
     0
 62
    -7
  6
CONTINUOUS
  0
LAYER
  5
45954
100
AcDbSymbolTableRecord
100
AcDbLayerTableRecord
  2
SCALE
 70
     0
 62
    -7
  6
CONTINUOUS
  0
LAYER
  5
459D2
100
AcDbSymbolTableRecord
100
AcDbLayerTableRecord
  2
SNAP_POINTS
 70
     0
 62
    -1
  6
CONTINUOUS
  0
ENDTAB
  0
TABLE
  2
STYLE
  5
458C2
100
AcDbSymbolTable
 70
     1
  0
STYLE
  5
458CE
100
AcDbSymbolTableRecord
100
AcDbTextStyleTableRecord
  2
STANDARD
 70
     0
 40
0.0
 41
1.0
 50
0.0
 71
     0
 42
0.12
  3
txt
  4

  0
ENDTAB
  0
TABLE
  2
VIEW
  5
458C5
100
AcDbSymbolTable
 70
     0
  0
ENDTAB
  0
TABLE
  2
UCS
  5
458C6
100
AcDbSymbolTable
 70
     0
  0
ENDTAB
  0
TABLE
  2
APPID
  5
458C8
100
AcDbSymbolTable
 70
     1
  0
APPID
  5
458CF
100
AcDbSymbolTableRecord
100
AcDbRegAppTableRecord
  2
ACAD
 70
     0
  0
ENDTAB
  0
TABLE
  2
DIMSTYLE
  5
458C9
100
AcDbSymbolTable
 70
     2
  0
DIMSTYLE
105
458F6
102
{ACAD_XDICTIONARY
360
4615D
102
}
102
{ACAD_REACTORS
330
460AD
330
460BB
102
}
100
AcDbSymbolTableRecord
100
AcDbDimStyleTableRecord
  2
ABECAD_3D
 70
     0
  3

  4

  5

  6

  7

 40
1.0
 41
0.09
 42
0.0625
 43
0.375
 44
0.18
 45
0.0
 46
0.0
 47
0.0
 48
0.0
140
0.09
141
0.09
142
0.0
143
25.4
144
1.0
145
0.0
146
1.5
147
0.09
 71
     0
 72
     0
 73
     0
 74
     1
 75
     0
 76
     0
 77
     0
 78
     4
170
     1
171
     2
172
     0
173
     0
174
     0
175
     0
176
     0
177
     0
178
     0
270
     7
271
     6
272
     6
273
     2
274
     2
340
458CE
275
     0
280
     0
281
     0
282
     0
283
     1
284
     4
285
     4
286
     4
287
     5
288
     1
  0
DIMSTYLE
105
45A10
102
{ACAD_XDICTIONARY
360
46163
102
}
100
AcDbSymbolTableRecord
100
AcDbDimStyleTableRecord
  2
STANDARD
 70
     0
  3

  4

  5

  6

  7

 40
1.0
 41
0.18
 42
0.0625
 43
0.38
 44
0.18
 45
0.0
 46
0.0
 47
0.0
 48
0.0
140
0.18
141
0.09
142
0.0
143
25.4
144
1.0
145
0.0
146
1.0
147
0.09
 71
     0
 72
     0
 73
     1
 74
     1
 75
     0
 76
     0
 77
     0
 78
     0
170
     0
171
     2
172
     0
173
     0
174
     0
175
     0
176
     0
177
     0
178
     0
270
     2
271
     4
272
     4
273
     2
274
     2
340
458CE
275
     0
280
     0
281
     0
282
     0
283
     1
284
     0
285
     0
286
     0
287
     5
288
     0
  0
ENDTAB
  0
TABLE
  2
BLOCK_RECORD
  5
458C0
100
AcDbSymbolTable
 70
     3
  0
BLOCK_RECORD
  5
458D6
102
{ACAD_XDICTIONARY
360
4592C
102
}
100
AcDbSymbolTableRecord
100
AcDbBlockTableRecord
  2
*MODEL_SPACE
  0
BLOCK_RECORD
  5
458D3
102
{ACAD_XDICTIONARY
360
4592A
102
}
100
AcDbSymbolTableRecord
100
AcDbBlockTableRecord
  2
*PAPER_SPACE
  0
BLOCK_RECORD
  5
45941
102
{ACAD_XDICTIONARY
360
46134
102
}
100
AcDbSymbolTableRecord
100
AcDbBlockTableRecord
  2
SCALE
  0
BLOCK_RECORD
  5
460AE
100
AcDbSymbolTableRecord
100
AcDbBlockTableRecord
  2
*D1
  0
BLOCK_RECORD
  5
460BC
100
AcDbSymbolTableRecord
100
AcDbBlockTableRecord
  2
*D2
  0
ENDTAB
  0
ENDSEC
  0
SECTION
  2
BLOCKS
  0
BLOCK
  5
458DF
100
AcDbEntity
  8
0
100
AcDbBlockBegin
  2
*MODEL_SPACE
 70
     0
 10
0.0
 20
0.0
 30
0.0
  3
*MODEL_SPACE
  1

  0
ENDBLK
  5
458E0
100
AcDbEntity
  8
0
100
AcDbBlockEnd
  0
BLOCK
  5
458DD
100
AcDbEntity
 67
     1
  8
0
100
AcDbBlockBegin
  2
*PAPER_SPACE
 70
     0
 10
0.0
 20
0.0
 30
0.0
  3
*PAPER_SPACE
  1

  0
ENDBLK
  5
458DE
100
AcDbEntity
 67
     1
  8
0
100
AcDbBlockEnd
  0
BLOCK
  5
4594D
100
AcDbEntity
  8
0
100
AcDbBlockBegin
  2
SCALE
 70
     0
 10
0.0
 20
0.0
 30
0.0
  3
SCALE
  1

  0
LINE
  5
45942
100
AcDbEntity
  8
ATTRIBUTES
100
AcDbLine
 10
0.051458
 20
-2.442796
 30
0.0
 11
1.051458
 21
-2.442796
 31
0.0
  0
LINE
  5
45943
100
AcDbEntity
  8
ATTRIBUTES
100
AcDbLine
 10
1.051458
 20
-2.442796
 30
0.0
 11
1.051458
 21
-2.542796
 31
0.0
  0
LINE
  5
45944
100
AcDbEntity
  8
ATTRIBUTES
100
AcDbLine
 10
1.051458
 20
-2.542796
 30
0.0
 11
1.051458
 21
-2.342796
 31
0.0
  0
LINE
  5
45945
100
AcDbEntity
  8
ATTRIBUTES
100
AcDbLine
 10
0.051458
 20
-2.542796
 30
0.0
 11
0.051458
 21
-2.342796
 31
0.0
  0
LINE
  5
45946
100
AcDbEntity
  8
ATTRIBUTES
100
AcDbLine
 10
0.051458
 20
-2.842796
 30
0.0
 11
0.051458
 21
-2.642796
 31
0.0
  0
LINE
  5
45947
100
AcDbEntity
  8
ATTRIBUTES
100
AcDbLine
 10
0.445158
 20
-2.842796
 30
0.0
 11
0.445158
 21
-2.642796
 31
0.0
  0
LINE
  5
45948
100
AcDbEntity
  8
ATTRIBUTES
100
AcDbLine
 10
0.051458
 20
-2.742796
 30
0.0
 11
0.445158
 21
-2.742796
 31
0.0
  0
TEXT
  5
45949
100
AcDbEntity
  8
ATTRIBUTES
100
AcDbText
 10
0.110881
 20
-2.697057
 30
0.0
 40
0.0625
  1
[10mm]
100
AcDbText
  0
TEXT
  5
4594A
100
AcDbEntity
  8
ATTRIBUTES
100
AcDbText
 10
0.414741
 20
-2.373748
 30
0.0
 40
0.0625
  1
1 Inch
100
AcDbText
  0
TEXT
  5
4594B
100
AcDbEntity
  8
ATTRIBUTES
100
AcDbText
 10
0.052989
 20
-2.167919
 30
0.0
 40
0.0625
  1
SCALE:
100
AcDbText
  0
LWPOLYLINE
  5
4594C
100
AcDbEntity
  8
ATTRIBUTES
100
AcDbPolyline
 90
        4
 70
     1
 43
0.0
 10
-0.00654
 20
-2.062718
 10
1.129089
 20
-2.062718
 10
1.129089
 20
-2.904327
 10
-0.00654
 20
-2.904327
  0
ENDBLK
  5
4594E
100
AcDbEntity
  8
0
100
AcDbBlockEnd
  0
BLOCK
  5
460B9
100
AcDbEntity
  8
0
100
AcDbBlockBegin
  2
*D1
 70
     1
 10
0.0
 20
0.0
 30
0.0
  3
*D1
  1

  0
LINE
  5
460AF
100
AcDbEntity
  8
AREA1
 62
     0
100
AcDbLine
 10
-2.12
 20
1.4775
 30
0.0
 11
-2.12
 21
2.0268
 31
0.0
1001
ACAD
1000
RTLwPs
1070
   158
  0
LINE
  5
460B0
100
AcDbEntity
  8
AREA1
 62
     0
100
AcDbLine
 10
2.12
 20
1.4775
 30
0.0
 11
2.12
 21
2.0268
 31
0.0
1001
ACAD
1000
RTLwPs
1070
   158
  0
LINE
  5
460B1
100
AcDbEntity
  8
AREA1
 62
     0
100
AcDbLine
 10
-2.03
 20
1.8468
 30
0.0
 11
-0.634421
 21
1.8468
 31
0.0
1001
ACAD
1000
RTLwPs
1070
   158
  0
LINE
  5
460B2
100
AcDbEntity
  8
AREA1
 62
     0
100
AcDbLine
 10
2.03
 20
1.8468
 30
0.0
 11
0.745579
 21
1.8468
 31
0.0
1001
ACAD
1000
RTLwPs
1070
   158
  0
MTEXT
  5
460B3
100
AcDbEntity
  8
AREA1
 62
     0
100
AcDbMText
 10
0.055579
 20
1.8468
 30
0.0
 40
0.09
 41
0.0
 71
     5
 72
     1
  1
\A1;4 15/64 [107.70]
1001
ACAD
1000
MTEXTBEGIN
1070
    73
1070
     1
1070
    44
1040
1.0
1070
    74
1070
     0
1000
MTEXTEND
1000
MTEXTBEGIN
1070
    73
1070
     1
1070
    44
1040
1.0
1070
    74
1070
     0
1000
MTEXTEND
1000
MTEXTBEGIN
1070
    73
1070
     1
1070
    44
1040
1.0
1070
    74
1070
     0
1000
MTEXTEND
  0
SOLID
  5
460B4
100
AcDbEntity
  8
AREA1
 62
     0
100
AcDbTrace
 10
-2.03
 20
1.8618
 30
0.0
 11
-2.03
 21
1.8318
 31
0.0
 12
-2.12
 22
1.8468
 32
0.0
 13
-2.12
 23
1.8468
 33
0.0
  0
SOLID
  5
460B5
100
AcDbEntity
  8
AREA1
 62
     0
100
AcDbTrace
 10
2.03
 20
1.8618
 30
0.0
 11
2.03
 21
1.8318
 31
0.0
 12
2.12
 22
1.8468
 32
0.0
 13
2.12
 23
1.8468
 33
0.0
  0
POINT
  5
460B6
100
AcDbEntity
  8
DEFPOINTS
 62
     0
100
AcDbPoint
 10
-2.12
 20
1.415
 30
-1.73
  0
POINT
  5
460B7
100
AcDbEntity
  8
DEFPOINTS
 62
     0
100
AcDbPoint
 10
2.12
 20
1.415
 30
-3.68
  0
POINT
  5
460B8
100
AcDbEntity
  8
DEFPOINTS
 62
     0
100
AcDbPoint
 10
2.12
 20
1.8468
 30
0.0
  0
ENDBLK
  5
460BA
100
AcDbEntity
  8
0
100
AcDbBlockEnd
  0
BLOCK
  5
460C7
100
AcDbEntity
  8
0
100
AcDbBlockBegin
  2
*D2
 70
     1
 10
0.0
 20
0.0
 30
0.0
  3
*D2
  1

  0
LINE
  5
460BD
100
AcDbEntity
  8
AREA1
 62
     0
100
AcDbLine
 10
2.1825
 20
1.415
 30
0.0
 11
2.619772
 21
1.415
 31
0.0
1001
ACAD
1000
RTLwPs
1070
   158
  0
LINE
  5
460BE
100
AcDbEntity
  8
AREA1
 62
     0
100
AcDbLine
 10
2.1825
 20
-1.415
 30
0.0
 11
2.619772
 21
-1.415
 31
0.0
1001
ACAD
1000
RTLwPs
1070
   158
  0
LINE
  5
460BF
100
AcDbEntity
  8
AREA1
 62
     0
100
AcDbLine
 10
2.439772
 20
1.325
 30
0.0
 11
2.439772
 21
0.695596
 31
0.0
1001
ACAD
1000
RTLwPs
1070
   158
  0
LINE
  5
460C0
100
AcDbEntity
  8
AREA1
 62
     0
100
AcDbLine
 10
2.439772
 20
-1.325
 30
0.0
 11
2.439772
 21
-0.654404
 31
0.0
1001
ACAD
1000
RTLwPs
1070
   158
  0
MTEXT
  5
460C1
100
AcDbEntity
  8
AREA1
 62
     0
100
AcDbMText
 10
2.439772
 20
0.020596
 30
0.0
 40
0.09
 41
0.0
 71
     5
 72
     1
  1
\A1;2 53/64 [71.88]
 11
0.0
 21
1.0
 31
0.0
1001
ACAD
1000
MTEXTBEGIN
1070
    73
1070
     1
1070
    44
1040
1.0
1070
    74
1070
     0
1000
MTEXTEND
1000
MTEXTBEGIN
1070
    73
1070
     1
1070
    44
1040
1.0
1070
    74
1070
     0
1000
MTEXTEND
1000
MTEXTBEGIN
1070
    73
1070
     1
1070
    44
1040
1.0
1070
    74
1070
     0
1000
MTEXTEND
  0
SOLID
  5
460C2
100
AcDbEntity
  8
AREA1
 62
     0
100
AcDbTrace
 10
2.424772
 20
1.325
 30
0.0
 11
2.454772
 21
1.325
 31
0.0
 12
2.439772
 22
1.415
 32
0.0
 13
2.439772
 23
1.415
 33
0.0
  0
SOLID
  5
460C3
100
AcDbEntity
  8
AREA1
 62
     0
100
AcDbTrace
 10
2.424772
 20
-1.325
 30
0.0
 11
2.454772
 21
-1.325
 31
0.0
 12
2.439772
 22
-1.415
 32
0.0
 13
2.439772
 23
-1.415
 33
0.0
  0
POINT
  5
460C4
100
AcDbEntity
  8
DEFPOINTS
 62
     0
100
AcDbPoint
 10
2.12
 20
1.415
 30
-1.73
  0
POINT
  5
460C5
100
AcDbEntity
  8
DEFPOINTS
 62
     0
100
AcDbPoint
 10
2.12
 20
-1.415
 30
-1.73
  0
POINT
  5
460C6
100
AcDbEntity
  8
DEFPOINTS
 62
     0
100
AcDbPoint
 10
2.439772
 20
-1.415
 30
0.0
  0
ENDBLK
  5
460C8
100
AcDbEntity
  8
0
100
AcDbBlockEnd
  0
ENDSEC
  0
SECTION
  2
ENTITIES
  0
LINE
  5
45955
100
AcDbEntity
  8
SCALE
100
AcDbLine
 10
2.982987
 20
-0.941765
 30
0.0
 11
3.982987
 21
-0.941765
 31
0.0
  0
LINE
  5
45956
100
AcDbEntity
  8
SCALE
100
AcDbLine
 10
3.982987
 20
-0.941765
 30
0.0
 11
3.982987
 21
-1.041765
 31
0.0
  0
LINE
  5
45957
100
AcDbEntity
  8
SCALE
100
AcDbLine
 10
3.982987
 20
-1.041765
 30
0.0
 11
3.982987
 21
-0.841765
 31
0.0
  0
LINE
  5
45958
100
AcDbEntity
  8
SCALE
100
AcDbLine
 10
2.982987
 20
-1.041765
 30
0.0
 11
2.982987
 21
-0.841765
 31
0.0
  0
LINE
  5
45959
100
AcDbEntity
  8
SCALE
100
AcDbLine
 10
2.982987
 20
-1.341765
 30
0.0
 11
2.982987
 21
-1.141765
 31
0.0
  0
LINE
  5
4595A
100
AcDbEntity
  8
SCALE
100
AcDbLine
 10
3.376687
 20
-1.341765
 30
0.0
 11
3.376687
 21
-1.141765
 31
0.0
  0
LINE
  5
4595B
100
AcDbEntity
  8
SCALE
100
AcDbLine
 10
2.982987
 20
-1.241765
 30
0.0
 11
3.376687
 21
-1.241765
 31
0.0
  0
TEXT
  5
4595C
100
AcDbEntity
  8
SCALE
100
AcDbText
 10
3.042409
 20
-1.196025
 30
0.0
 40
0.0625
  1
[10mm]
100
AcDbText
  0
TEXT
  5
4595D
100
AcDbEntity
  8
SCALE
100
AcDbText
 10
3.34627
 20
-0.872716
 30
0.0
 40
0.0625
  1
1 Inch
100
AcDbText
  0
TEXT
  5
4595E
100
AcDbEntity
  8
SCALE
100
AcDbText
 10
2.984517
 20
-0.666888
 30
0.0
 40
0.0625
  1
SCALE:
100
AcDbText
  0
LWPOLYLINE
  5
4595F
100
AcDbEntity
  8
SCALE
100
AcDbPolyline
 90
        4
 70
     1
 43
0.0
 10
2.924988
 20
-0.561687
 10
4.060617
 20
-0.561687
 10
4.060617
 20
-1.403296
 10
2.924988
 20
-1.403296
  0
ATTDEF
  5
45D66
100
AcDbEntity
  8
ATTRIBUTES
100
AcDbText
 10
-1.896771
 20
0.818983
 30
-3.88
 40
0.12
  1
ALLEN-BRADLEY
100
AcDbAttributeDefinition
  3
MANUFACTURER NAME?
  2
AC_VND_LABEL
 70
     1
  0
ATTDEF
  5
45D67
100
AcDbEntity
  8
ATTRIBUTES
100
AcDbText
 10
-1.896771
 20
0.568983
 30
-3.88
 40
0.12
  1
194E-E40/E63-1756
100
AcDbAttributeDefinition
  3
CATALOG NUMBER?
  2
AC_PART_NO
 70
     1
  0
ATTDEF
  5
45D68
100
AcDbEntity
  8
ATTRIBUTES
100
AcDbText
 10
-1.896771
 20
0.318983
 30
-3.88
 40
0.12
  1
LOAD SWITCH, 6P SWITCH, FRONT/DOOR MOUNTED
100
AcDbAttributeDefinition
  3
PART DESCRIPTION?
  2
AC_DESCRIPTION
 70
     1
  0
ATTDEF
  5
45D69
100
AcDbEntity
  8
ATTRIBUTES
100
AcDbText
 10
-1.896771
 20
0.068983
 30
-3.88
 40
0.12
  1

100
AcDbAttributeDefinition
  3
DEVICE ID?
  2
DEVICE_ID
 70
     1
  0
ATTDEF
  5
45D6A
100
AcDbEntity
  8
ATTRIBUTES
100
AcDbText
 10
-1.896771
 20
-0.181017
 30
-3.88
 40
0.12
  1

100
AcDbAttributeDefinition
  3
CUSTOMER PART NUMBER?
  2
AC_CPART_NO
 70
     1
  0
ATTDEF
  5
45D6B
100
AcDbEntity
  8
ATTRIBUTES
100
AcDbText
 10
-1.896771
 20
-0.431017
 30
-3.88
 40
0.12
  1

100
AcDbAttributeDefinition
  3
CUSTOMER NOTE?
  2
AC_NOTE
 70
     1
  0
ATTDEF
  5
45D6C
100
AcDbEntity
  8
ATTRIBUTES
100
AcDbText
 10
-1.896771
 20
-0.681017
 30
-3.88
 40
0.12
  1

100
AcDbAttributeDefinition
  3
FASTENER DATA?
  2
FASTENER
 70
     1
  0
ATTDEF
  5
45D6D
100
AcDbEntity
  8
ATTRIBUTES
100
AcDbText
 10
-1.896771
 20
-0.931017
 30
-3.88
 40
0.12
  1
INCH
100
AcDbAttributeDefinition
  3
UNIT OF SCALE?
  2
AC_SCALE_UNIT
 70
     1
  0
ATTDEF
  5
45D6E
100
AcDbEntity
  8
ATTRIBUTES
100
AcDbText
 10
-1.896771
 20
-1.181017
 30
-3.88
 40
0.12
  1
0
100
AcDbAttributeDefinition
  3
VIEW CODE?
  2
AC_VIEW_CODE
 70
     1
  0
POLYLINE
  5
45D6F
100
AcDbEntity
  8
0
100
AcDbPolygonMesh
 66
     1
 10
0.0
 20
0.0
 30
0.0
 70
    16
 71
     6
 72
     3
  0
VERTEX
  5
45D70
100
AcDbEntity
  8
0
100
AcDbVertex
100
AcDbPolygonMeshVertex
 10
-1.27
 20
-1.695
 30
-3.73
 70
    64
  0
VERTEX
  5
45D71
100
AcDbEntity
  8
0
100
AcDbVertex
100
AcDbPolygonMeshVertex
 10
-1.27
 20
-1.695
 30
-3.88
 70
    64
  0
VERTEX
  5
45D72
100
AcDbEntity
  8
0
100
AcDbVertex
100
AcDbPolygonMeshVertex
 10
-1.27
 20
-1.695
 30
-3.88
 70
    64
  0
VERTEX
  5
45D73
100
AcDbEntity
  8
0
100
AcDbVertex
100
AcDbPolygonMeshVertex
 10
-1.65
 20
-1.695
 30
-3.73
 70
    64
  0
VERTEX
  5
45D74
100
AcDbEntity
  8
0
100
AcDbVertex
100
AcDbPolygonMeshVertex
 10
-1.65
 20
-1.695
 30
-3.88
 70
    64
  0
VERTEX
  5
45D75
100
AcDbEntity
  8
0
100
AcDbVertex
100
AcDbPolygonMeshVertex
 10
-1.65
 20
-1.695
 30
-3.88
 70
    64
  0
VERTEX
  5
45D76
100
AcDbEntity
  8
0
100
AcDbVertex
100
AcDbPolygonMeshVertex
 10
-1.65
 20
-1.415
 30
-3.73
 70
    64
  0
VERTEX
  5
45D77
100
AcDbEntity
  8
0
100
AcDbVertex
100
AcDbPolygonMeshVertex
 10
-1.65
 20
-1.415
 30
-3.88
 70
    64
  0
VERTEX
  5
45D78
100
AcDbEntity
  8
0
100
AcDbVertex
100
AcDbPolygonMeshVertex
 10
-1.65
 20
-1.695
 30
-3.88
 70
    64
  0
VERTEX
  5
45D79
100
AcDbEntity
  8
0
100
AcDbVertex
100
AcDbPolygonMeshVertex
 10
-1.27
 20
-1.415
 30
-3.73
 70
    64
  0
VERTEX
  5
45D7A
100
AcDbEntity
  8
0
100
AcDbVertex
100
AcDbPolygonMeshVertex
 10
-1.27
 20
-1.415
 30
-3.88
 70
    64
  0
VERTEX
  5
45D7B
100
AcDbEntity
  8
0
100
AcDbVertex
100
AcDbPolygonMeshVertex
 10
-1.27
 20
-1.695
 30
-3.88
 70
    64
  0
VERTEX
  5
45D7C
100
AcDbEntity
  8
0
100
AcDbVertex
100
AcDbPolygonMeshVertex
 10
-1.27
 20
-1.415
 30
-3.73
 70
    64
  0
VERTEX
  5
45D7D
100
AcDbEntity
  8
0
100
AcDbVertex
100
AcDbPolygonMeshVertex
 10
-1.27
 20
-1.415
 30
-3.73
 70
    64
  0
VERTEX
  5
45D7E
100
AcDbEntity
  8
0
100
AcDbVertex
100
AcDbPolygonMeshVertex
 10
-1.27
 20
-1.695
 30
-3.73
 70
    64
  0
VERTEX
  5
45D7F
100
AcDbEntity
  8
0
100
AcDbVertex
100
AcDbPolygonMeshVertex
 10
-1.65
 20
-1.415
 30
-3.73
 70
    64
  0
VERTEX
  5
45D80
100
AcDbEntity
  8
0
100
AcDbVertex
100
AcDbPolygonMeshVertex
 10
-1.65
 20
-1.415
 30
-3.73
 70
    64
  0
VERTEX
  5
45D81
100
AcDbEntity
  8
0
100
AcDbVertex
100
AcDbPolygonMeshVertex
 10
-1.65
 20
-1.695
 30
-3.73
 70
    64
  0
SEQEND
  5
45D82
100
AcDbEntity
  8
0
  0
CIRCLE
  5
45D83
100
AcDbEntity
  8
0
100
AcDbCircle
 10
-1.46
 20
-1.555
 30
-3.73
 40
0.09
  0
CIRCLE
  5
45D84
100
AcDbEntity
  8
0
100
AcDbCircle
 10
-1.46
 20
-1.555
 30
-3.88
 40
0.09
  0
LINE
  5
45D85
100
AcDbEntity
  8
DIMS-MTG-HOLES
  6
CONTINUOUS
100
AcDbLine
 10
-1.55
 20
-1.555
 30
-3.88
 11
-1.37
 21
-1.555
 31
-3.88
  0
LINE
  5
45D86
100
AcDbEntity
  8
DIMS-MTG-HOLES
  6
CONTINUOUS
100
AcDbLine
 10
-1.46
 20
-1.645
 30
-3.88
 11
-1.46
 21
-1.465
 31
-3.88
  0
POLYLINE
  5
45D87
100
AcDbEntity
  8
0
100
AcDbPolygonMesh
 66
     1
 10
0.0
 20
0.0
 30
0.0
 70
    16
 71
     6
 72
     3
  0
VERTEX
  5
45D88
100
AcDbEntity
  8
0
100
AcDbVertex
100
AcDbPolygonMeshVertex
 10
-0.47
 20
1.415
 30
-3.73
 70
    64
  0
VERTEX
  5
45D89
100
AcDbEntity
  8
0
100
AcDbVertex
100
AcDbPolygonMeshVertex
 10
-0.47
 20
1.415
 30
-3.88
 70
    64
  0
VERTEX
  5
45D8A
100
AcDbEntity
  8
0
100
AcDbVertex
100
AcDbPolygonMeshVertex
 10
-0.47
 20
1.415
 30
-3.88
 70
    64
  0
VERTEX
  5
45D8B
100
AcDbEntity
  8
0
100
AcDbVertex
100
AcDbPolygonMeshVertex
 10
-0.85
 20
1.415
 30
-3.73
 70
    64
  0
VERTEX
  5
45D8C
100
AcDbEntity
  8
0
100
AcDbVertex
100
AcDbPolygonMeshVertex
 10
-0.85
 20
1.415
 30
-3.88
 70
    64
  0
VERTEX
  5
45D8D
100
AcDbEntity
  8
0
100
AcDbVertex
100
AcDbPolygonMeshVertex
 10
-0.85
 20
1.415
 30
-3.88
 70
    64
  0
VERTEX
  5
45D8E
100
AcDbEntity
  8
0
100
AcDbVertex
100
AcDbPolygonMeshVertex
 10
-0.85
 20
1.695
 30
-3.73
 70
    64
  0
VERTEX
  5
45D8F
100
AcDbEntity
  8
0
100
AcDbVertex
100
AcDbPolygonMeshVertex
 10
-0.85
 20
1.695
 30
-3.88
 70
    64
  0
VERTEX
  5
45D90
100
AcDbEntity
  8
0
100
AcDbVertex
100
AcDbPolygonMeshVertex
 10
-0.85
 20
1.415
 30
-3.88
 70
    64
  0
VERTEX
  5
45D91
100
AcDbEntity
  8
0
100
AcDbVertex
100
AcDbPolygonMeshVertex
 10
-0.47
 20
1.695
 30
-3.73
 70
    64
  0
VERTEX
  5
45D92
100
AcDbEntity
  8
0
100
AcDbVertex
100
AcDbPolygonMeshVertex
 10
-0.47
 20
1.695
 30
-3.88
 70
    64
  0
VERTEX
  5
45D93
100
AcDbEntity
  8
0
100
AcDbVertex
100
AcDbPolygonMeshVertex
 10
-0.47
 20
1.415
 30
-3.88
 70
    64
  0
VERTEX
  5
45D94
100
AcDbEntity
  8
0
100
AcDbVertex
100
AcDbPolygonMeshVertex
 10
-0.47
 20
1.695
 30
-3.73
 70
    64
  0
VERTEX
  5
45D95
100
AcDbEntity
  8
0
100
AcDbVertex
100
AcDbPolygonMeshVertex
 10
-0.47
 20
1.695
 30
-3.73
 70
    64
  0
VERTEX
  5
45D96
100
AcDbEntity
  8
0
100
AcDbVertex
100
AcDbPolygonMeshVertex
 10
-0.47
 20
1.415
 30
-3.73
 70
    64
  0
VERTEX
  5
45D97
100
AcDbEntity
  8
0
100
AcDbVertex
100
AcDbPolygonMeshVertex
 10
-0.85
 20
1.695
 30
-3.73
 70
    64
  0
VERTEX
  5
45D98
100
AcDbEntity
  8
0
100
AcDbVertex
100
AcDbPolygonMeshVertex
 10
-0.85
 20
1.695
 30
-3.73
 70
    64
  0
VERTEX
  5
45D99
100
AcDbEntity
  8
0
100
AcDbVertex
100
AcDbPolygonMeshVertex
 10
-0.85
 20
1.415
 30
-3.73
 70
    64
  0
SEQEND
  5
45D9A
100
AcDbEntity
  8
0
  0
LINE
  5
45D9B
100
AcDbEntity
  8
DIMS-MTG-HOLES
  6
CONTINUOUS
100
AcDbLine
 10
-0.75
 20
1.555
 30
-3.88
 11
-0.57
 21
1.555
 31
-3.88
  0
CIRCLE
  5
45D9C
100
AcDbEntity
  8
0
100
AcDbCircle
 10
-0.66
 20
1.555
 30
-3.88
 40
0.09
  0
LINE
  5
45D9D
100
AcDbEntity
  8
DIMS-MTG-HOLES
  6
CONTINUOUS
100
AcDbLine
 10
-0.66
 20
1.465
 30
-3.88
 11
-0.66
 21
1.645
 31
-3.88
  0
3DFACE
  5
45D9E
100
AcDbEntity
  8
0
100
AcDbFace
 10
-2.12
 20
0.125
 30
-2.43
 11
-2.12
 21
-0.125
 31
-2.43
 12
-2.12
 22
-0.125
 32
-3.03
 13
-2.12
 23
0.125
 33
-3.03
  0
3DFACE
  5
45D9F
100
AcDbEntity
  8
0
100
AcDbFace
 10
-2.12
 20
0.125
 30
-2.91
 11
-2.12
 21
-0.125
 31
-2.91
 12
-2.12
 22
-0.125
 32
-2.74
 13
-2.12
 23
0.125
 33
-2.74
  0
POINT
  5
45DA0
100
AcDbEntity
  8
SNAP_POINTS
100
AcDbPoint
 10
-2.12
 20
0.0
 30
-2.825
  0
POLYLINE
  5
45DA1
100
AcDbEntity
  8
0
100
AcDbPolygonMesh
 66
     1
 10
0.0
 20
0.0
 30
0.0
 70
    16
 71
     6
 72
     3
  0
VERTEX
  5
45DA2
100
AcDbEntity
  8
0
100
AcDbVertex
100
AcDbPolygonMeshVertex
 10
0.0
 20
-1.415
 30
-3.68
 70
    64
  0
VERTEX
  5
45DA3
100
AcDbEntity
  8
0
100
AcDbVertex
100
AcDbPolygonMeshVertex
 10
0.0
 20
-1.415
 30
-3.88
 70
    64
  0
VERTEX
  5
45DA4
100
AcDbEntity
  8
0
100
AcDbVertex
100
AcDbPolygonMeshVertex
 10
0.0
 20
-1.415
 30
-3.88
 70
    64
  0
VERTEX
  5
45DA5
100
AcDbEntity
  8
0
100
AcDbVertex
100
AcDbPolygonMeshVertex
 10
-2.12
 20
-1.415
 30
-3.68
 70
    64
  0
VERTEX
  5
45DA6
100
AcDbEntity
  8
0
100
AcDbVertex
100
AcDbPolygonMeshVertex
 10
-2.12
 20
-1.415
 30
-3.88
 70
    64
  0
VERTEX
  5
45DA7
100
AcDbEntity
  8
0
100
AcDbVertex
100
AcDbPolygonMeshVertex
 10
-2.12
 20
-1.415
 30
-3.88
 70
    64
  0
VERTEX
  5
45DA8
100
AcDbEntity
  8
0
100
AcDbVertex
100
AcDbPolygonMeshVertex
 10
-2.12
 20
-0.645
 30
-3.68
 70
    64
  0
VERTEX
  5
45DA9
100
AcDbEntity
  8
0
100
AcDbVertex
100
AcDbPolygonMeshVertex
 10
-2.12
 20
-0.645
 30
-3.88
 70
    64
  0
VERTEX
  5
45DAA
100
AcDbEntity
  8
0
100
AcDbVertex
100
AcDbPolygonMeshVertex
 10
-2.12
 20
-1.415
 30
-3.88
 70
    64
  0
VERTEX
  5
45DAB
100
AcDbEntity
  8
0
100
AcDbVertex
100
AcDbPolygonMeshVertex
 10
0.0
 20
-0.645
 30
-3.68
 70
    64
  0
VERTEX
  5
45DAC
100
AcDbEntity
  8
0
100
AcDbVertex
100
AcDbPolygonMeshVertex
 10
0.0
 20
-0.645
 30
-3.88
 70
    64
  0
VERTEX
  5
45DAD
100
AcDbEntity
  8
0
100
AcDbVertex
100
AcDbPolygonMeshVertex
 10
0.0
 20
-1.415
 30
-3.88
 70
    64
  0
VERTEX
  5
45DAE
100
AcDbEntity
  8
0
100
AcDbVertex
100
AcDbPolygonMeshVertex
 10
0.0
 20
-0.645
 30
-3.68
 70
    64
  0
VERTEX
  5
45DAF
100
AcDbEntity
  8
0
100
AcDbVertex
100
AcDbPolygonMeshVertex
 10
0.0
 20
-0.645
 30
-3.68
 70
    64
  0
VERTEX
  5
45DB0
100
AcDbEntity
  8
0
100
AcDbVertex
100
AcDbPolygonMeshVertex
 10
0.0
 20
-1.415
 30
-3.68
 70
    64
  0
VERTEX
  5
45DB1
100
AcDbEntity
  8
0
100
AcDbVertex
100
AcDbPolygonMeshVertex
 10
-2.12
 20
-0.645
 30
-3.68
 70
    64
  0
VERTEX
  5
45DB2
100
AcDbEntity
  8
0
100
AcDbVertex
100
AcDbPolygonMeshVertex
 10
-2.12
 20
-0.645
 30
-3.68
 70
    64
  0
VERTEX
  5
45DB3
100
AcDbEntity
  8
0
100
AcDbVertex
100
AcDbPolygonMeshVertex
 10
-2.12
 20
-1.415
 30
-3.68
 70
    64
  0
SEQEND
  5
45DB4
100
AcDbEntity
  8
0
  0
POLYLINE
  5
45DB5
100
AcDbEntity
  8
0
100
AcDbPolygonMesh
 66
     1
 10
0.0
 20
0.0
 30
0.0
 70
    16
 71
     6
 72
     3
  0
VERTEX
  5
45DB6
100
AcDbEntity
  8
0
100
AcDbVertex
100
AcDbPolygonMeshVertex
 10
0.0
 20
-1.415
 30
-1.73
 70
    64
  0
VERTEX
  5
45DB7
100
AcDbEntity
  8
0
100
AcDbVertex
100
AcDbPolygonMeshVertex
 10
0.0
 20
-1.415
 30
-3.68
 70
    64
  0
VERTEX
  5
45DB8
100
AcDbEntity
  8
0
100
AcDbVertex
100
AcDbPolygonMeshVertex
 10
0.0
 20
-1.415
 30
-3.68
 70
    64
  0
VERTEX
  5
45DB9
100
AcDbEntity
  8
0
100
AcDbVertex
100
AcDbPolygonMeshVertex
 10
-2.12
 20
-1.415
 30
-1.73
 70
    64
  0
VERTEX
  5
45DBA
100
AcDbEntity
  8
0
100
AcDbVertex
100
AcDbPolygonMeshVertex
 10
-2.12
 20
-1.415
 30
-3.68
 70
    64
  0
VERTEX
  5
45DBB
100
AcDbEntity
  8
0
100
AcDbVertex
100
AcDbPolygonMeshVertex
 10
-2.12
 20
-1.415
 30
-3.68
 70
    64
  0
VERTEX
  5
45DBC
100
AcDbEntity
  8
0
100
AcDbVertex
100
AcDbPolygonMeshVertex
 10
-2.12
 20
1.415
 30
-1.73
 70
    64
  0
VERTEX
  5
45DBD
100
AcDbEntity
  8
0
100
AcDbVertex
100
AcDbPolygonMeshVertex
 10
-2.12
 20
1.415
 30
-3.68
 70
    64
  0
VERTEX
  5
45DBE
100
AcDbEntity
  8
0
100
AcDbVertex
100
AcDbPolygonMeshVertex
 10
-2.12
 20
-1.415
 30
-3.68
 70
    64
  0
VERTEX
  5
45DBF
100
AcDbEntity
  8
0
100
AcDbVertex
100
AcDbPolygonMeshVertex
 10
0.0
 20
1.415
 30
-1.73
 70
    64
  0
VERTEX
  5
45DC0
100
AcDbEntity
  8
0
100
AcDbVertex
100
AcDbPolygonMeshVertex
 10
0.0
 20
1.415
 30
-3.68
 70
    64
  0
VERTEX
  5
45DC1
100
AcDbEntity
  8
0
100
AcDbVertex
100
AcDbPolygonMeshVertex
 10
0.0
 20
-1.415
 30
-3.68
 70
    64
  0
VERTEX
  5
45DC2
100
AcDbEntity
  8
0
100
AcDbVertex
100
AcDbPolygonMeshVertex
 10
0.0
 20
1.415
 30
-1.73
 70
    64
  0
VERTEX
  5
45DC3
100
AcDbEntity
  8
0
100
AcDbVertex
100
AcDbPolygonMeshVertex
 10
0.0
 20
1.415
 30
-1.73
 70
    64
  0
VERTEX
  5
45DC4
100
AcDbEntity
  8
0
100
AcDbVertex
100
AcDbPolygonMeshVertex
 10
0.0
 20
-1.415
 30
-1.73
 70
    64
  0
VERTEX
  5
45DC5
100
AcDbEntity
  8
0
100
AcDbVertex
100
AcDbPolygonMeshVertex
 10
-2.12
 20
1.415
 30
-1.73
 70
    64
  0
VERTEX
  5
45DC6
100
AcDbEntity
  8
0
100
AcDbVertex
100
AcDbPolygonMeshVertex
 10
-2.12
 20
1.415
 30
-1.73
 70
    64
  0
VERTEX
  5
45DC7
100
AcDbEntity
  8
0
100
AcDbVertex
100
AcDbPolygonMeshVertex
 10
-2.12
 20
-1.415
 30
-1.73
 70
    64
  0
SEQEND
  5
45DC8
100
AcDbEntity
  8
0
  0
POLYLINE
  5
45DC9
100
AcDbEntity
  8
0
100
AcDbPolygonMesh
 66
     1
 10
0.0
 20
0.0
 30
0.0
 70
    16
 71
     6
 72
     3
  0
VERTEX
  5
45DCA
100
AcDbEntity
  8
0
100
AcDbVertex
100
AcDbPolygonMeshVertex
 10
0.0
 20
0.745
 30
-3.68
 70
    64
  0
VERTEX
  5
45DCB
100
AcDbEntity
  8
0
100
AcDbVertex
100
AcDbPolygonMeshVertex
 10
0.0
 20
0.745
 30
-3.88
 70
    64
  0
VERTEX
  5
45DCC
100
AcDbEntity
  8
0
100
AcDbVertex
100
AcDbPolygonMeshVertex
 10
0.0
 20
0.745
 30
-3.88
 70
    64
  0
VERTEX
  5
45DCD
100
AcDbEntity
  8
0
100
AcDbVertex
100
AcDbPolygonMeshVertex
 10
-2.12
 20
0.745
 30
-3.68
 70
    64
  0
VERTEX
  5
45DCE
100
AcDbEntity
  8
0
100
AcDbVertex
100
AcDbPolygonMeshVertex
 10
-2.12
 20
0.745
 30
-3.88
 70
    64
  0
VERTEX
  5
45DCF
100
AcDbEntity
  8
0
100
AcDbVertex
100
AcDbPolygonMeshVertex
 10
-2.12
 20
0.745
 30
-3.88
 70
    64
  0
VERTEX
  5
45DD0
100
AcDbEntity
  8
0
100
AcDbVertex
100
AcDbPolygonMeshVertex
 10
-2.12
 20
1.415
 30
-3.68
 70
    64
  0
VERTEX
  5
45DD1
100
AcDbEntity
  8
0
100
AcDbVertex
100
AcDbPolygonMeshVertex
 10
-2.12
 20
1.415
 30
-3.88
 70
    64
  0
VERTEX
  5
45DD2
100
AcDbEntity
  8
0
100
AcDbVertex
100
AcDbPolygonMeshVertex
 10
-2.12
 20
0.745
 30
-3.88
 70
    64
  0
VERTEX
  5
45DD3
100
AcDbEntity
  8
0
100
AcDbVertex
100
AcDbPolygonMeshVertex
 10
0.0
 20
1.415
 30
-3.68
 70
    64
  0
VERTEX
  5
45DD4
100
AcDbEntity
  8
0
100
AcDbVertex
100
AcDbPolygonMeshVertex
 10
0.0
 20
1.415
 30
-3.88
 70
    64
  0
VERTEX
  5
45DD5
100
AcDbEntity
  8
0
100
AcDbVertex
100
AcDbPolygonMeshVertex
 10
0.0
 20
0.745
 30
-3.88
 70
    64
  0
VERTEX
  5
45DD6
100
AcDbEntity
  8
0
100
AcDbVertex
100
AcDbPolygonMeshVertex
 10
0.0
 20
1.415
 30
-3.68
 70
    64
  0
VERTEX
  5
45DD7
100
AcDbEntity
  8
0
100
AcDbVertex
100
AcDbPolygonMeshVertex
 10
0.0
 20
1.415
 30
-3.68
 70
    64
  0
VERTEX
  5
45DD8
100
AcDbEntity
  8
0
100
AcDbVertex
100
AcDbPolygonMeshVertex
 10
0.0
 20
0.745
 30
-3.68
 70
    64
  0
VERTEX
  5
45DD9
100
AcDbEntity
  8
0
100
AcDbVertex
100
AcDbPolygonMeshVertex
 10
-2.12
 20
1.415
 30
-3.68
 70
    64
  0
VERTEX
  5
45DDA
100
AcDbEntity
  8
0
100
AcDbVertex
100
AcDbPolygonMeshVertex
 10
-2.12
 20
1.415
 30
-3.68
 70
    64
  0
VERTEX
  5
45DDB
100
AcDbEntity
  8
0
100
AcDbVertex
100
AcDbPolygonMeshVertex
 10
-2.12
 20
0.745
 30
-3.68
 70
    64
  0
SEQEND
  5
45DDC
100
AcDbEntity
  8
0
  0
POLYLINE
  5
45DDD
100
AcDbEntity
  8
0
100
AcDbPolygonMesh
 66
     1
 10
0.0
 20
0.0
 30
0.0
 70
    16
 71
     6
 72
     3
  0
VERTEX
  5
45DDE
100
AcDbEntity
  8
0
100
AcDbVertex
100
AcDbPolygonMeshVertex
 10
0.0
 20
-0.64
 30
-0.98
 70
    64
  0
VERTEX
  5
45DDF
100
AcDbEntity
  8
0
100
AcDbVertex
100
AcDbPolygonMeshVertex
 10
0.0
 20
-0.64
 30
-1.73
 70
    64
  0
VERTEX
  5
45DE0
100
AcDbEntity
  8
0
100
AcDbVertex
100
AcDbPolygonMeshVertex
 10
0.0
 20
-0.64
 30
-1.73
 70
    64
  0
VERTEX
  5
45DE1
100
AcDbEntity
  8
0
100
AcDbVertex
100
AcDbPolygonMeshVertex
 10
-2.12
 20
-0.64
 30
-0.98
 70
    64
  0
VERTEX
  5
45DE2
100
AcDbEntity
  8
0
100
AcDbVertex
100
AcDbPolygonMeshVertex
 10
-2.12
 20
-0.64
 30
-1.73
 70
    64
  0
VERTEX
  5
45DE3
100
AcDbEntity
  8
0
100
AcDbVertex
100
AcDbPolygonMeshVertex
 10
-2.12
 20
-0.64
 30
-1.73
 70
    64
  0
VERTEX
  5
45DE4
100
AcDbEntity
  8
0
100
AcDbVertex
100
AcDbPolygonMeshVertex
 10
-2.12
 20
0.64
 30
-0.98
 70
    64
  0
VERTEX
  5
45DE5
100
AcDbEntity
  8
0
100
AcDbVertex
100
AcDbPolygonMeshVertex
 10
-2.12
 20
0.64
 30
-1.73
 70
    64
  0
VERTEX
  5
45DE6
100
AcDbEntity
  8
0
100
AcDbVertex
100
AcDbPolygonMeshVertex
 10
-2.12
 20
-0.64
 30
-1.73
 70
    64
  0
VERTEX
  5
45DE7
100
AcDbEntity
  8
0
100
AcDbVertex
100
AcDbPolygonMeshVertex
 10
0.0
 20
0.64
 30
-0.98
 70
    64
  0
VERTEX
  5
45DE8
100
AcDbEntity
  8
0
100
AcDbVertex
100
AcDbPolygonMeshVertex
 10
0.0
 20
0.64
 30
-1.73
 70
    64
  0
VERTEX
  5
45DE9
100
AcDbEntity
  8
0
100
AcDbVertex
100
AcDbPolygonMeshVertex
 10
0.0
 20
-0.64
 30
-1.73
 70
    64
  0
VERTEX
  5
45DEA
100
AcDbEntity
  8
0
100
AcDbVertex
100
AcDbPolygonMeshVertex
 10
0.0
 20
0.64
 30
-0.98
 70
    64
  0
VERTEX
  5
45DEB
100
AcDbEntity
  8
0
100
AcDbVertex
100
AcDbPolygonMeshVertex
 10
0.0
 20
0.64
 30
-0.98
 70
    64
  0
VERTEX
  5
45DEC
100
AcDbEntity
  8
0
100
AcDbVertex
100
AcDbPolygonMeshVertex
 10
0.0
 20
-0.64
 30
-0.98
 70
    64
  0
VERTEX
  5
45DED
100
AcDbEntity
  8
0
100
AcDbVertex
100
AcDbPolygonMeshVertex
 10
-2.12
 20
0.64
 30
-0.98
 70
    64
  0
VERTEX
  5
45DEE
100
AcDbEntity
  8
0
100
AcDbVertex
100
AcDbPolygonMeshVertex
 10
-2.12
 20
0.64
 30
-0.98
 70
    64
  0
VERTEX
  5
45DEF
100
AcDbEntity
  8
0
100
AcDbVertex
100
AcDbPolygonMeshVertex
 10
-2.12
 20
-0.64
 30
-0.98
 70
    64
  0
SEQEND
  5
45DF0
100
AcDbEntity
  8
0
  0
POLYLINE
  5
45DF1
100
AcDbEntity
  8
0
100
AcDbPolygonMesh
 66
     1
 10
0.0
 20
0.0
 30
0.0
 70
    16
 71
     6
 72
     3
  0
VERTEX
  5
45DF2
100
AcDbEntity
  8
0
100
AcDbVertex
100
AcDbPolygonMeshVertex
 10
-1.66
 20
-0.74
 30
-0.98
 70
    64
  0
VERTEX
  5
45DF3
100
AcDbEntity
  8
0
100
AcDbVertex
100
AcDbPolygonMeshVertex
 10
-1.66
 20
-0.74
 30
-1.73
 70
    64
  0
VERTEX
  5
45DF4
100
AcDbEntity
  8
0
100
AcDbVertex
100
AcDbPolygonMeshVertex
 10
-1.66
 20
-0.74
 30
-1.73
 70
    64
  0
VERTEX
  5
45DF5
100
AcDbEntity
  8
0
100
AcDbVertex
100
AcDbPolygonMeshVertex
 10
-2.12
 20
-0.74
 30
-0.98
 70
    64
  0
VERTEX
  5
45DF6
100
AcDbEntity
  8
0
100
AcDbVertex
100
AcDbPolygonMeshVertex
 10
-2.12
 20
-0.74
 30
-1.73
 70
    64
  0
VERTEX
  5
45DF7
100
AcDbEntity
  8
0
100
AcDbVertex
100
AcDbPolygonMeshVertex
 10
-2.12
 20
-0.74
 30
-1.73
 70
    64
  0
VERTEX
  5
45DF8
100
AcDbEntity
  8
0
100
AcDbVertex
100
AcDbPolygonMeshVertex
 10
-2.12
 20
-0.64
 30
-0.98
 70
    64
  0
VERTEX
  5
45DF9
100
AcDbEntity
  8
0
100
AcDbVertex
100
AcDbPolygonMeshVertex
 10
-2.12
 20
-0.64
 30
-1.73
 70
    64
  0
VERTEX
  5
45DFA
100
AcDbEntity
  8
0
100
AcDbVertex
100
AcDbPolygonMeshVertex
 10
-2.12
 20
-0.74
 30
-1.73
 70
    64
  0
VERTEX
  5
45DFB
100
AcDbEntity
  8
0
100
AcDbVertex
100
AcDbPolygonMeshVertex
 10
-1.66
 20
-0.64
 30
-0.98
 70
    64
  0
VERTEX
  5
45DFC
100
AcDbEntity
  8
0
100
AcDbVertex
100
AcDbPolygonMeshVertex
 10
-1.66
 20
-0.64
 30
-1.73
 70
    64
  0
VERTEX
  5
45DFD
100
AcDbEntity
  8
0
100
AcDbVertex
100
AcDbPolygonMeshVertex
 10
-1.66
 20
-0.74
 30
-1.73
 70
    64
  0
VERTEX
  5
45DFE
100
AcDbEntity
  8
0
100
AcDbVertex
100
AcDbPolygonMeshVertex
 10
-1.66
 20
-0.64
 30
-0.98
 70
    64
  0
VERTEX
  5
45DFF
100
AcDbEntity
  8
0
100
AcDbVertex
100
AcDbPolygonMeshVertex
 10
-1.66
 20
-0.64
 30
-0.98
 70
    64
  0
VERTEX
  5
45E00
100
AcDbEntity
  8
0
100
AcDbVertex
100
AcDbPolygonMeshVertex
 10
-1.66
 20
-0.74
 30
-0.98
 70
    64
  0
VERTEX
  5
45E01
100
AcDbEntity
  8
0
100
AcDbVertex
100
AcDbPolygonMeshVertex
 10
-2.12
 20
-0.64
 30
-0.98
 70
    64
  0
VERTEX
  5
45E02
100
AcDbEntity
  8
0
100
AcDbVertex
100
AcDbPolygonMeshVertex
 10
-2.12
 20
-0.64
 30
-0.98
 70
    64
  0
VERTEX
  5
45E03
100
AcDbEntity
  8
0
100
AcDbVertex
100
AcDbPolygonMeshVertex
 10
-2.12
 20
-0.74
 30
-0.98
 70
    64
  0
SEQEND
  5
45E04
100
AcDbEntity
  8
0
  0
POLYLINE
  5
45E05
100
AcDbEntity
  8
0
100
AcDbPolygonMesh
 66
     1
 10
0.0
 20
0.0
 30
0.0
 70
    16
 71
     6
 72
     3
  0
VERTEX
  5
45E06
100
AcDbEntity
  8
0
100
AcDbVertex
100
AcDbPolygonMeshVertex
 10
-1.66
 20
-0.74
 30
-1.73
 70
    64
  0
VERTEX
  5
45E07
100
AcDbEntity
  8
0
100
AcDbVertex
100
AcDbPolygonMeshVertex
 10
-1.66
 20
-0.74
 30
-1.73
 70
    64
  0
VERTEX
  5
45E08
100
AcDbEntity
  8
0
100
AcDbVertex
100
AcDbPolygonMeshVertex
 10
-1.66
 20
-0.74
 30
-1.73
 70
    64
  0
VERTEX
  5
45E09
100
AcDbEntity
  8
0
100
AcDbVertex
100
AcDbPolygonMeshVertex
 10
-2.12
 20
-1.075
 30
-1.73
 70
    64
  0
VERTEX
  5
45E0A
100
AcDbEntity
  8
0
100
AcDbVertex
100
AcDbPolygonMeshVertex
 10
-2.12
 20
-0.74
 30
-1.73
 70
    64
  0
VERTEX
  5
45E0B
100
AcDbEntity
  8
0
100
AcDbVertex
100
AcDbPolygonMeshVertex
 10
-2.12
 20
-0.74
 30
-1.73
 70
    64
  0
VERTEX
  5
45E0C
100
AcDbEntity
  8
0
100
AcDbVertex
100
AcDbPolygonMeshVertex
 10
-2.12
 20
-1.075
 30
-0.98
 70
    64
  0
VERTEX
  5
45E0D
100
AcDbEntity
  8
0
100
AcDbVertex
100
AcDbPolygonMeshVertex
 10
-2.12
 20
-0.74
 30
-0.98
 70
    64
  0
VERTEX
  5
45E0E
100
AcDbEntity
  8
0
100
AcDbVertex
100
AcDbPolygonMeshVertex
 10
-2.12
 20
-0.74
 30
-1.73
 70
    64
  0
VERTEX
  5
45E0F
100
AcDbEntity
  8
0
100
AcDbVertex
100
AcDbPolygonMeshVertex
 10
-1.66
 20
-0.74
 30
-0.98
 70
    64
  0
VERTEX
  5
45E10
100
AcDbEntity
  8
0
100
AcDbVertex
100
AcDbPolygonMeshVertex
 10
-1.66
 20
-0.74
 30
-0.98
 70
    64
  0
VERTEX
  5
45E11
100
AcDbEntity
  8
0
100
AcDbVertex
100
AcDbPolygonMeshVertex
 10
-1.66
 20
-0.74
 30
-1.73
 70
    64
  0
VERTEX
  5
45E12
100
AcDbEntity
  8
0
100
AcDbVertex
100
AcDbPolygonMeshVertex
 10
-1.66
 20
-0.74
 30
-0.98
 70
    64
  0
VERTEX
  5
45E13
100
AcDbEntity
  8
0
100
AcDbVertex
100
AcDbPolygonMeshVertex
 10
-1.66
 20
-0.74
 30
-0.98
 70
    64
  0
VERTEX
  5
45E14
100
AcDbEntity
  8
0
100
AcDbVertex
100
AcDbPolygonMeshVertex
 10
-1.66
 20
-0.74
 30
-1.73
 70
    64
  0
VERTEX
  5
45E15
100
AcDbEntity
  8
0
100
AcDbVertex
100
AcDbPolygonMeshVertex
 10
-2.12
 20
-1.075
 30
-0.98
 70
    64
  0
VERTEX
  5
45E16
100
AcDbEntity
  8
0
100
AcDbVertex
100
AcDbPolygonMeshVertex
 10
-2.12
 20
-1.075
 30
-0.98
 70
    64
  0
VERTEX
  5
45E17
100
AcDbEntity
  8
0
100
AcDbVertex
100
AcDbPolygonMeshVertex
 10
-2.12
 20
-1.075
 30
-1.73
 70
    64
  0
SEQEND
  5
45E18
100
AcDbEntity
  8
0
  0
POLYLINE
  5
45E19
100
AcDbEntity
  8
0
100
AcDbPolygonMesh
 66
     1
 10
0.0
 20
0.0
 30
0.0
 70
    16
 71
     6
 72
     3
  0
VERTEX
  5
45E1A
100
AcDbEntity
  8
0
100
AcDbVertex
100
AcDbPolygonMeshVertex
 10
-0.46
 20
-0.74
 30
-0.98
 70
    64
  0
VERTEX
  5
45E1B
100
AcDbEntity
  8
0
100
AcDbVertex
100
AcDbPolygonMeshVertex
 10
-0.46
 20
-0.74
 30
-1.73
 70
    64
  0
VERTEX
  5
45E1C
100
AcDbEntity
  8
0
100
AcDbVertex
100
AcDbPolygonMeshVertex
 10
-0.46
 20
-0.74
 30
-1.73
 70
    64
  0
VERTEX
  5
45E1D
100
AcDbEntity
  8
0
100
AcDbVertex
100
AcDbPolygonMeshVertex
 10
0.0
 20
-0.74
 30
-0.98
 70
    64
  0
VERTEX
  5
45E1E
100
AcDbEntity
  8
0
100
AcDbVertex
100
AcDbPolygonMeshVertex
 10
0.0
 20
-0.74
 30
-1.73
 70
    64
  0
VERTEX
  5
45E1F
100
AcDbEntity
  8
0
100
AcDbVertex
100
AcDbPolygonMeshVertex
 10
0.0
 20
-0.74
 30
-1.73
 70
    64
  0
VERTEX
  5
45E20
100
AcDbEntity
  8
0
100
AcDbVertex
100
AcDbPolygonMeshVertex
 10
0.0
 20
-0.64
 30
-0.98
 70
    64
  0
VERTEX
  5
45E21
100
AcDbEntity
  8
0
100
AcDbVertex
100
AcDbPolygonMeshVertex
 10
0.0
 20
-0.64
 30
-1.73
 70
    64
  0
VERTEX
  5
45E22
100
AcDbEntity
  8
0
100
AcDbVertex
100
AcDbPolygonMeshVertex
 10
0.0
 20
-0.74
 30
-1.73
 70
    64
  0
VERTEX
  5
45E23
100
AcDbEntity
  8
0
100
AcDbVertex
100
AcDbPolygonMeshVertex
 10
-0.46
 20
-0.64
 30
-0.98
 70
    64
  0
VERTEX
  5
45E24
100
AcDbEntity
  8
0
100
AcDbVertex
100
AcDbPolygonMeshVertex
 10
-0.46
 20
-0.64
 30
-1.73
 70
    64
  0
VERTEX
  5
45E25
100
AcDbEntity
  8
0
100
AcDbVertex
100
AcDbPolygonMeshVertex
 10
-0.46
 20
-0.74
 30
-1.73
 70
    64
  0
VERTEX
  5
45E26
100
AcDbEntity
  8
0
100
AcDbVertex
100
AcDbPolygonMeshVertex
 10
-0.46
 20
-0.64
 30
-0.98
 70
    64
  0
VERTEX
  5
45E27
100
AcDbEntity
  8
0
100
AcDbVertex
100
AcDbPolygonMeshVertex
 10
-0.46
 20
-0.64
 30
-0.98
 70
    64
  0
VERTEX
  5
45E28
100
AcDbEntity
  8
0
100
AcDbVertex
100
AcDbPolygonMeshVertex
 10
-0.46
 20
-0.74
 30
-0.98
 70
    64
  0
VERTEX
  5
45E29
100
AcDbEntity
  8
0
100
AcDbVertex
100
AcDbPolygonMeshVertex
 10
0.0
 20
-0.64
 30
-0.98
 70
    64
  0
VERTEX
  5
45E2A
100
AcDbEntity
  8
0
100
AcDbVertex
100
AcDbPolygonMeshVertex
 10
0.0
 20
-0.64
 30
-0.98
 70
    64
  0
VERTEX
  5
45E2B
100
AcDbEntity
  8
0
100
AcDbVertex
100
AcDbPolygonMeshVertex
 10
0.0
 20
-0.74
 30
-0.98
 70
    64
  0
SEQEND
  5
45E2C
100
AcDbEntity
  8
0
  0
POLYLINE
  5
45E2D
100
AcDbEntity
  8
0
100
AcDbPolygonMesh
 66
     1
 10
0.0
 20
0.0
 30
0.0
 70
    16
 71
     6
 72
     3
  0
VERTEX
  5
45E2E
100
AcDbEntity
  8
0
100
AcDbVertex
100
AcDbPolygonMeshVertex
 10
-0.46
 20
-0.74
 30
-1.73
 70
    64
  0
VERTEX
  5
45E2F
100
AcDbEntity
  8
0
100
AcDbVertex
100
AcDbPolygonMeshVertex
 10
-0.46
 20
-0.74
 30
-1.73
 70
    64
  0
VERTEX
  5
45E30
100
AcDbEntity
  8
0
100
AcDbVertex
100
AcDbPolygonMeshVertex
 10
-0.46
 20
-0.74
 30
-1.73
 70
    64
  0
VERTEX
  5
45E31
100
AcDbEntity
  8
0
100
AcDbVertex
100
AcDbPolygonMeshVertex
 10
0.0
 20
-1.075
 30
-1.73
 70
    64
  0
VERTEX
  5
45E32
100
AcDbEntity
  8
0
100
AcDbVertex
100
AcDbPolygonMeshVertex
 10
0.0
 20
-0.74
 30
-1.73
 70
    64
  0
VERTEX
  5
45E33
100
AcDbEntity
  8
0
100
AcDbVertex
100
AcDbPolygonMeshVertex
 10
0.0
 20
-0.74
 30
-1.73
 70
    64
  0
VERTEX
  5
45E34
100
AcDbEntity
  8
0
100
AcDbVertex
100
AcDbPolygonMeshVertex
 10
0.0
 20
-1.075
 30
-0.98
 70
    64
  0
VERTEX
  5
45E35
100
AcDbEntity
  8
0
100
AcDbVertex
100
AcDbPolygonMeshVertex
 10
0.0
 20
-0.74
 30
-0.98
 70
    64
  0
VERTEX
  5
45E36
100
AcDbEntity
  8
0
100
AcDbVertex
100
AcDbPolygonMeshVertex
 10
0.0
 20
-0.74
 30
-1.73
 70
    64
  0
VERTEX
  5
45E37
100
AcDbEntity
  8
0
100
AcDbVertex
100
AcDbPolygonMeshVertex
 10
-0.46
 20
-0.74
 30
-0.98
 70
    64
  0
VERTEX
  5
45E38
100
AcDbEntity
  8
0
100
AcDbVertex
100
AcDbPolygonMeshVertex
 10
-0.46
 20
-0.74
 30
-0.98
 70
    64
  0
VERTEX
  5
45E39
100
AcDbEntity
  8
0
100
AcDbVertex
100
AcDbPolygonMeshVertex
 10
-0.46
 20
-0.74
 30
-1.73
 70
    64
  0
VERTEX
  5
45E3A
100
AcDbEntity
  8
0
100
AcDbVertex
100
AcDbPolygonMeshVertex
 10
-0.46
 20
-0.74
 30
-0.98
 70
    64
  0
VERTEX
  5
45E3B
100
AcDbEntity
  8
0
100
AcDbVertex
100
AcDbPolygonMeshVertex
 10
-0.46
 20
-0.74
 30
-0.98
 70
    64
  0
VERTEX
  5
45E3C
100
AcDbEntity
  8
0
100
AcDbVertex
100
AcDbPolygonMeshVertex
 10
-0.46
 20
-0.74
 30
-1.73
 70
    64
  0
VERTEX
  5
45E3D
100
AcDbEntity
  8
0
100
AcDbVertex
100
AcDbPolygonMeshVertex
 10
0.0
 20
-1.075
 30
-0.98
 70
    64
  0
VERTEX
  5
45E3E
100
AcDbEntity
  8
0
100
AcDbVertex
100
AcDbPolygonMeshVertex
 10
0.0
 20
-1.075
 30
-0.98
 70
    64
  0
VERTEX
  5
45E3F
100
AcDbEntity
  8
0
100
AcDbVertex
100
AcDbPolygonMeshVertex
 10
0.0
 20
-1.075
 30
-1.73
 70
    64
  0
SEQEND
  5
45E40
100
AcDbEntity
  8
0
  0
POLYLINE
  5
45E41
100
AcDbEntity
  8
0
100
AcDbPolygonMesh
 66
     1
 10
0.0
 20
0.0
 30
0.0
 70
    16
 71
     6
 72
     3
  0
VERTEX
  5
45E42
100
AcDbEntity
  8
0
100
AcDbVertex
100
AcDbPolygonMeshVertex
 10
-1.66
 20
0.74
 30
-0.98
 70
    64
  0
VERTEX
  5
45E43
100
AcDbEntity
  8
0
100
AcDbVertex
100
AcDbPolygonMeshVertex
 10
-1.66
 20
0.74
 30
-1.73
 70
    64
  0
VERTEX
  5
45E44
100
AcDbEntity
  8
0
100
AcDbVertex
100
AcDbPolygonMeshVertex
 10
-1.66
 20
0.74
 30
-1.73
 70
    64
  0
VERTEX
  5
45E45
100
AcDbEntity
  8
0
100
AcDbVertex
100
AcDbPolygonMeshVertex
 10
-2.12
 20
0.74
 30
-0.98
 70
    64
  0
VERTEX
  5
45E46
100
AcDbEntity
  8
0
100
AcDbVertex
100
AcDbPolygonMeshVertex
 10
-2.12
 20
0.74
 30
-1.73
 70
    64
  0
VERTEX
  5
45E47
100
AcDbEntity
  8
0
100
AcDbVertex
100
AcDbPolygonMeshVertex
 10
-2.12
 20
0.74
 30
-1.73
 70
    64
  0
VERTEX
  5
45E48
100
AcDbEntity
  8
0
100
AcDbVertex
100
AcDbPolygonMeshVertex
 10
-2.12
 20
0.64
 30
-0.98
 70
    64
  0
VERTEX
  5
45E49
100
AcDbEntity
  8
0
100
AcDbVertex
100
AcDbPolygonMeshVertex
 10
-2.12
 20
0.64
 30
-1.73
 70
    64
  0
VERTEX
  5
45E4A
100
AcDbEntity
  8
0
100
AcDbVertex
100
AcDbPolygonMeshVertex
 10
-2.12
 20
0.74
 30
-1.73
 70
    64
  0
VERTEX
  5
45E4B
100
AcDbEntity
  8
0
100
AcDbVertex
100
AcDbPolygonMeshVertex
 10
-1.66
 20
0.64
 30
-0.98
 70
    64
  0
VERTEX
  5
45E4C
100
AcDbEntity
  8
0
100
AcDbVertex
100
AcDbPolygonMeshVertex
 10
-1.66
 20
0.64
 30
-1.73
 70
    64
  0
VERTEX
  5
45E4D
100
AcDbEntity
  8
0
100
AcDbVertex
100
AcDbPolygonMeshVertex
 10
-1.66
 20
0.74
 30
-1.73
 70
    64
  0
VERTEX
  5
45E4E
100
AcDbEntity
  8
0
100
AcDbVertex
100
AcDbPolygonMeshVertex
 10
-1.66
 20
0.64
 30
-0.98
 70
    64
  0
VERTEX
  5
45E4F
100
AcDbEntity
  8
0
100
AcDbVertex
100
AcDbPolygonMeshVertex
 10
-1.66
 20
0.64
 30
-0.98
 70
    64
  0
VERTEX
  5
45E50
100
AcDbEntity
  8
0
100
AcDbVertex
100
AcDbPolygonMeshVertex
 10
-1.66
 20
0.74
 30
-0.98
 70
    64
  0
VERTEX
  5
45E51
100
AcDbEntity
  8
0
100
AcDbVertex
100
AcDbPolygonMeshVertex
 10
-2.12
 20
0.64
 30
-0.98
 70
    64
  0
VERTEX
  5
45E52
100
AcDbEntity
  8
0
100
AcDbVertex
100
AcDbPolygonMeshVertex
 10
-2.12
 20
0.64
 30
-0.98
 70
    64
  0
VERTEX
  5
45E53
100
AcDbEntity
  8
0
100
AcDbVertex
100
AcDbPolygonMeshVertex
 10
-2.12
 20
0.74
 30
-0.98
 70
    64
  0
SEQEND
  5
45E54
100
AcDbEntity
  8
0
  0
POLYLINE
  5
45E55
100
AcDbEntity
  8
0
100
AcDbPolygonMesh
 66
     1
 10
0.0
 20
0.0
 30
0.0
 70
    16
 71
     6
 72
     3
  0
VERTEX
  5
45E56
100
AcDbEntity
  8
0
100
AcDbVertex
100
AcDbPolygonMeshVertex
 10
-1.66
 20
0.74
 30
-1.73
 70
    64
  0
VERTEX
  5
45E57
100
AcDbEntity
  8
0
100
AcDbVertex
100
AcDbPolygonMeshVertex
 10
-1.66
 20
0.74
 30
-1.73
 70
    64
  0
VERTEX
  5
45E58
100
AcDbEntity
  8
0
100
AcDbVertex
100
AcDbPolygonMeshVertex
 10
-1.66
 20
0.74
 30
-1.73
 70
    64
  0
VERTEX
  5
45E59
100
AcDbEntity
  8
0
100
AcDbVertex
100
AcDbPolygonMeshVertex
 10
-2.12
 20
1.075
 30
-1.73
 70
    64
  0
VERTEX
  5
45E5A
100
AcDbEntity
  8
0
100
AcDbVertex
100
AcDbPolygonMeshVertex
 10
-2.12
 20
0.74
 30
-1.73
 70
    64
  0
VERTEX
  5
45E5B
100
AcDbEntity
  8
0
100
AcDbVertex
100
AcDbPolygonMeshVertex
 10
-2.12
 20
0.74
 30
-1.73
 70
    64
  0
VERTEX
  5
45E5C
100
AcDbEntity
  8
0
100
AcDbVertex
100
AcDbPolygonMeshVertex
 10
-2.12
 20
1.075
 30
-0.98
 70
    64
  0
VERTEX
  5
45E5D
100
AcDbEntity
  8
0
100
AcDbVertex
100
AcDbPolygonMeshVertex
 10
-2.12
 20
0.74
 30
-0.98
 70
    64
  0
VERTEX
  5
45E5E
100
AcDbEntity
  8
0
100
AcDbVertex
100
AcDbPolygonMeshVertex
 10
-2.12
 20
0.74
 30
-1.73
 70
    64
  0
VERTEX
  5
45E5F
100
AcDbEntity
  8
0
100
AcDbVertex
100
AcDbPolygonMeshVertex
 10
-1.66
 20
0.74
 30
-0.98
 70
    64
  0
VERTEX
  5
45E60
100
AcDbEntity
  8
0
100
AcDbVertex
100
AcDbPolygonMeshVertex
 10
-1.66
 20
0.74
 30
-0.98
 70
    64
  0
VERTEX
  5
45E61
100
AcDbEntity
  8
0
100
AcDbVertex
100
AcDbPolygonMeshVertex
 10
-1.66
 20
0.74
 30
-1.73
 70
    64
  0
VERTEX
  5
45E62
100
AcDbEntity
  8
0
100
AcDbVertex
100
AcDbPolygonMeshVertex
 10
-1.66
 20
0.74
 30
-0.98
 70
    64
  0
VERTEX
  5
45E63
100
AcDbEntity
  8
0
100
AcDbVertex
100
AcDbPolygonMeshVertex
 10
-1.66
 20
0.74
 30
-0.98
 70
    64
  0
VERTEX
  5
45E64
100
AcDbEntity
  8
0
100
AcDbVertex
100
AcDbPolygonMeshVertex
 10
-1.66
 20
0.74
 30
-1.73
 70
    64
  0
VERTEX
  5
45E65
100
AcDbEntity
  8
0
100
AcDbVertex
100
AcDbPolygonMeshVertex
 10
-2.12
 20
1.075
 30
-0.98
 70
    64
  0
VERTEX
  5
45E66
100
AcDbEntity
  8
0
100
AcDbVertex
100
AcDbPolygonMeshVertex
 10
-2.12
 20
1.075
 30
-0.98
 70
    64
  0
VERTEX
  5
45E67
100
AcDbEntity
  8
0
100
AcDbVertex
100
AcDbPolygonMeshVertex
 10
-2.12
 20
1.075
 30
-1.73
 70
    64
  0
SEQEND
  5
45E68
100
AcDbEntity
  8
0
  0
POLYLINE
  5
45E69
100
AcDbEntity
  8
0
100
AcDbPolygonMesh
 66
     1
 10
0.0
 20
0.0
 30
0.0
 70
    16
 71
     6
 72
     3
  0
VERTEX
  5
45E6A
100
AcDbEntity
  8
0
100
AcDbVertex
100
AcDbPolygonMeshVertex
 10
-0.46
 20
0.74
 30
-0.98
 70
    64
  0
VERTEX
  5
45E6B
100
AcDbEntity
  8
0
100
AcDbVertex
100
AcDbPolygonMeshVertex
 10
-0.46
 20
0.74
 30
-1.73
 70
    64
  0
VERTEX
  5
45E6C
100
AcDbEntity
  8
0
100
AcDbVertex
100
AcDbPolygonMeshVertex
 10
-0.46
 20
0.74
 30
-1.73
 70
    64
  0
VERTEX
  5
45E6D
100
AcDbEntity
  8
0
100
AcDbVertex
100
AcDbPolygonMeshVertex
 10
0.0
 20
0.74
 30
-0.98
 70
    64
  0
VERTEX
  5
45E6E
100
AcDbEntity
  8
0
100
AcDbVertex
100
AcDbPolygonMeshVertex
 10
0.0
 20
0.74
 30
-1.73
 70
    64
  0
VERTEX
  5
45E6F
100
AcDbEntity
  8
0
100
AcDbVertex
100
AcDbPolygonMeshVertex
 10
0.0
 20
0.74
 30
-1.73
 70
    64
  0
VERTEX
  5
45E70
100
AcDbEntity
  8
0
100
AcDbVertex
100
AcDbPolygonMeshVertex
 10
0.0
 20
0.64
 30
-0.98
 70
    64
  0
VERTEX
  5
45E71
100
AcDbEntity
  8
0
100
AcDbVertex
100
AcDbPolygonMeshVertex
 10
0.0
 20
0.64
 30
-1.73
 70
    64
  0
VERTEX
  5
45E72
100
AcDbEntity
  8
0
100
AcDbVertex
100
AcDbPolygonMeshVertex
 10
0.0
 20
0.74
 30
-1.73
 70
    64
  0
VERTEX
  5
45E73
100
AcDbEntity
  8
0
100
AcDbVertex
100
AcDbPolygonMeshVertex
 10
-0.46
 20
0.64
 30
-0.98
 70
    64
  0
VERTEX
  5
45E74
100
AcDbEntity
  8
0
100
AcDbVertex
100
AcDbPolygonMeshVertex
 10
-0.46
 20
0.64
 30
-1.73
 70
    64
  0
VERTEX
  5
45E75
100
AcDbEntity
  8
0
100
AcDbVertex
100
AcDbPolygonMeshVertex
 10
-0.46
 20
0.74
 30
-1.73
 70
    64
  0
VERTEX
  5
45E76
100
AcDbEntity
  8
0
100
AcDbVertex
100
AcDbPolygonMeshVertex
 10
-0.46
 20
0.64
 30
-0.98
 70
    64
  0
VERTEX
  5
45E77
100
AcDbEntity
  8
0
100
AcDbVertex
100
AcDbPolygonMeshVertex
 10
-0.46
 20
0.64
 30
-0.98
 70
    64
  0
VERTEX
  5
45E78
100
AcDbEntity
  8
0
100
AcDbVertex
100
AcDbPolygonMeshVertex
 10
-0.46
 20
0.74
 30
-0.98
 70
    64
  0
VERTEX
  5
45E79
100
AcDbEntity
  8
0
100
AcDbVertex
100
AcDbPolygonMeshVertex
 10
0.0
 20
0.64
 30
-0.98
 70
    64
  0
VERTEX
  5
45E7A
100
AcDbEntity
  8
0
100
AcDbVertex
100
AcDbPolygonMeshVertex
 10
0.0
 20
0.64
 30
-0.98
 70
    64
  0
VERTEX
  5
45E7B
100
AcDbEntity
  8
0
100
AcDbVertex
100
AcDbPolygonMeshVertex
 10
0.0
 20
0.74
 30
-0.98
 70
    64
  0
SEQEND
  5
45E7C
100
AcDbEntity
  8
0
  0
POLYLINE
  5
45E7D
100
AcDbEntity
  8
0
100
AcDbPolygonMesh
 66
     1
 10
0.0
 20
0.0
 30
0.0
 70
    16
 71
     6
 72
     3
  0
VERTEX
  5
45E7E
100
AcDbEntity
  8
0
100
AcDbVertex
100
AcDbPolygonMeshVertex
 10
-0.46
 20
0.74
 30
-1.73
 70
    64
  0
VERTEX
  5
45E7F
100
AcDbEntity
  8
0
100
AcDbVertex
100
AcDbPolygonMeshVertex
 10
-0.46
 20
0.74
 30
-1.73
 70
    64
  0
VERTEX
  5
45E80
100
AcDbEntity
  8
0
100
AcDbVertex
100
AcDbPolygonMeshVertex
 10
-0.46
 20
0.74
 30
-1.73
 70
    64
  0
VERTEX
  5
45E81
100
AcDbEntity
  8
0
100
AcDbVertex
100
AcDbPolygonMeshVertex
 10
0.0
 20
1.075
 30
-1.73
 70
    64
  0
VERTEX
  5
45E82
100
AcDbEntity
  8
0
100
AcDbVertex
100
AcDbPolygonMeshVertex
 10
0.0
 20
0.74
 30
-1.73
 70
    64
  0
VERTEX
  5
45E83
100
AcDbEntity
  8
0
100
AcDbVertex
100
AcDbPolygonMeshVertex
 10
0.0
 20
0.74
 30
-1.73
 70
    64
  0
VERTEX
  5
45E84
100
AcDbEntity
  8
0
100
AcDbVertex
100
AcDbPolygonMeshVertex
 10
0.0
 20
1.075
 30
-0.98
 70
    64
  0
VERTEX
  5
45E85
100
AcDbEntity
  8
0
100
AcDbVertex
100
AcDbPolygonMeshVertex
 10
0.0
 20
0.74
 30
-0.98
 70
    64
  0
VERTEX
  5
45E86
100
AcDbEntity
  8
0
100
AcDbVertex
100
AcDbPolygonMeshVertex
 10
0.0
 20
0.74
 30
-1.73
 70
    64
  0
VERTEX
  5
45E87
100
AcDbEntity
  8
0
100
AcDbVertex
100
AcDbPolygonMeshVertex
 10
-0.46
 20
0.74
 30
-0.98
 70
    64
  0
VERTEX
  5
45E88
100
AcDbEntity
  8
0
100
AcDbVertex
100
AcDbPolygonMeshVertex
 10
-0.46
 20
0.74
 30
-0.98
 70
    64
  0
VERTEX
  5
45E89
100
AcDbEntity
  8
0
100
AcDbVertex
100
AcDbPolygonMeshVertex
 10
-0.46
 20
0.74
 30
-1.73
 70
    64
  0
VERTEX
  5
45E8A
100
AcDbEntity
  8
0
100
AcDbVertex
100
AcDbPolygonMeshVertex
 10
-0.46
 20
0.74
 30
-0.98
 70
    64
  0
VERTEX
  5
45E8B
100
AcDbEntity
  8
0
100
AcDbVertex
100
AcDbPolygonMeshVertex
 10
-0.46
 20
0.74
 30
-0.98
 70
    64
  0
VERTEX
  5
45E8C
100
AcDbEntity
  8
0
100
AcDbVertex
100
AcDbPolygonMeshVertex
 10
-0.46
 20
0.74
 30
-1.73
 70
    64
  0
VERTEX
  5
45E8D
100
AcDbEntity
  8
0
100
AcDbVertex
100
AcDbPolygonMeshVertex
 10
0.0
 20
1.075
 30
-0.98
 70
    64
  0
VERTEX
  5
45E8E
100
AcDbEntity
  8
0
100
AcDbVertex
100
AcDbPolygonMeshVertex
 10
0.0
 20
1.075
 30
-0.98
 70
    64
  0
VERTEX
  5
45E8F
100
AcDbEntity
  8
0
100
AcDbVertex
100
AcDbPolygonMeshVertex
 10
0.0
 20
1.075
 30
-1.73
 70
    64
  0
SEQEND
  5
45E90
100
AcDbEntity
  8
0
  0
LWPOLYLINE
  5
45E91
100
AcDbEntity
  8
0
100
AcDbPolyline
 90
       12
 70
     1
 43
0.0
 38
-0.98
 10
-0.883932
 20
-0.105
 10
-0.79
 20
-0.105
 42
0.414214
 10
-0.74
 20
-0.055
 10
-0.74
 20
0.055
 42
0.414214
 10
-0.79
 20
0.105
 10
-0.883932
 20
0.105
 42
0.443094
 10
-1.181655
 20
0.165
 10
-1.33
 20
0.165
 42
0.414214
 10
-1.38
 20
0.115
 10
-1.38
 20
-0.115
 42
0.414214
 10
-1.33
 20
-0.165
 10
-1.181655
 20
-0.165
 42
0.443094
  0
CIRCLE
  5
45E92
100
AcDbEntity
  8
0
100
AcDbCircle
 10
-0.66
 20
1.555
 30
-3.73
 40
0.09
  0
CIRCLE
  5
45E93
100
AcDbEntity
  8
0
100
AcDbCircle
 10
-1.765
 20
-1.05
 30
-3.88
 40
0.125
  0
LWPOLYLINE
  5
45E94
100
AcDbEntity
  8
0
100
AcDbPolyline
 90
        6
 70
     0
 43
0.0
 38
-3.88
 10
-1.75
 20
-0.925903
 10
-1.75
 20
-1.035
 10
-1.72
 20
-1.035
 10
-1.72
 20
-1.065
 10
-1.75
 20
-1.065
 10
-1.75
 20
-1.174097
  0
LWPOLYLINE
  5
45E95
100
AcDbEntity
  8
0
100
AcDbPolyline
 90
        6
 70
     0
 43
0.0
 38
-3.88
 10
-1.78
 20
-0.925903
 10
-1.78
 20
-1.035
 10
-1.825
 20
-1.035
 10
-1.825
 20
-1.065
 10
-1.78
 20
-1.065
 10
-1.78
 20
-1.174097
  0
LWPOLYLINE
  5
45E96
100
AcDbEntity
  8
0
100
AcDbPolyline
 90
        6
 70
     0
 43
0.0
 38
-3.88
 10
-0.34
 20
-0.925903
 10
-0.34
 20
-1.035
 10
-0.295
 20
-1.035
 10
-0.295
 20
-1.065
 10
-0.34
 20
-1.065
 10
-0.34
 20
-1.174097
  0
CIRCLE
  5
45E97
100
AcDbEntity
  8
0
100
AcDbCircle
 10
-0.355
 20
-1.05
 30
-3.88
 40
0.125
  0
LWPOLYLINE
  5
45E98
100
AcDbEntity
  8
0
100
AcDbPolyline
 90
        6
 70
     0
 43
0.0
 38
-3.88
 10
-0.37
 20
-0.925903
 10
-0.37
 20
-1.035
 10
-0.4
 20
-1.035
 10
-0.4
 20
-1.065
 10
-0.37
 20
-1.065
 10
-0.37
 20
-1.174097
  0
LWPOLYLINE
  5
45E99
100
AcDbEntity
  8
0
100
AcDbPolyline
 90
        6
 70
     0
 43
0.0
 38
-3.88
 10
-1.075
 20
-0.925903
 10
-1.075
 20
-1.035
 10
-1.12
 20
-1.035
 10
-1.12
 20
-1.065
 10
-1.075
 20
-1.065
 10
-1.075
 20
-1.174097
  0
CIRCLE
  5
45E9A
100
AcDbEntity
  8
0
100
AcDbCircle
 10
-1.06
 20
-1.05
 30
-3.88
 40
0.125
  0
LWPOLYLINE
  5
45E9B
100
AcDbEntity
  8
0
100
AcDbPolyline
 90
        6
 70
     0
 43
0.0
 38
-3.88
 10
-1.045
 20
-0.925903
 10
-1.045
 20
-1.035
 10
-1.015
 20
-1.035
 10
-1.015
 20
-1.065
 10
-1.045
 20
-1.065
 10
-1.045
 20
-1.174097
  0
3DFACE
  5
45E9C
100
AcDbEntity
  8
0
100
AcDbFace
 10
-1.92
 20
-1.415
 30
-2.6
 11
-1.6
 21
-1.415
 31
-2.6
 12
-1.6
 22
-1.415
 32
-3.04
 13
-1.92
 23
-1.415
 33
-3.04
  0
3DFACE
  5
45E9D
100
AcDbEntity
  8
0
100
AcDbFace
 10
-0.2
 20
-1.415
 30
-2.6
 11
-0.52
 21
-1.415
 31
-2.6
 12
-0.52
 22
-1.415
 32
-3.04
 13
-0.2
 23
-1.415
 33
-3.04
  0
3DFACE
  5
45E9E
100
AcDbEntity
  8
0
100
AcDbFace
 10
-1.22
 20
-1.415
 30
-2.6
 11
-0.9
 21
-1.415
 31
-2.6
 12
-0.9
 22
-1.415
 32
-3.04
 13
-1.22
 23
-1.415
 33
-3.04
  0
3DFACE
  5
45E9F
100
AcDbEntity
  8
0
100
AcDbFace
 10
-0.2
 20
1.415
 30
-2.6
 11
-0.52
 21
1.415
 31
-2.6
 12
-0.52
 22
1.415
 32
-3.04
 13
-0.2
 23
1.415
 33
-3.04
  0
3DFACE
  5
45EA0
100
AcDbEntity
  8
0
100
AcDbFace
 10
-1.22
 20
1.415
 30
-2.6
 11
-0.9
 21
1.415
 31
-2.6
 12
-0.9
 22
1.415
 32
-3.04
 13
-1.22
 23
1.415
 33
-3.04
  0
3DFACE
  5
45EA1
100
AcDbEntity
  8
0
100
AcDbFace
 10
-1.92
 20
1.415
 30
-2.6
 11
-1.6
 21
1.415
 31
-2.6
 12
-1.6
 22
1.415
 32
-3.04
 13
-1.92
 23
1.415
 33
-3.04
  0
LWPOLYLINE
  5
45EA2
100
AcDbEntity
  8
0
100
AcDbPolyline
 90
        6
 70
     0
 43
0.0
 38
-3.88
 10
-1.78
 20
0.925903
 10
-1.78
 20
1.035
 10
-1.825
 20
1.035
 10
-1.825
 20
1.065
 10
-1.78
 20
1.065
 10
-1.78
 20
1.174097
  0
CIRCLE
  5
45EA3
100
AcDbEntity
  8
0
100
AcDbCircle
 10
-1.765
 20
1.05
 30
-3.88
 40
0.125
  0
LWPOLYLINE
  5
45EA4
100
AcDbEntity
  8
0
100
AcDbPolyline
 90
        6
 70
     0
 43
0.0
 38
-3.88
 10
-1.75
 20
0.925903
 10
-1.75
 20
1.035
 10
-1.72
 20
1.035
 10
-1.72
 20
1.065
 10
-1.75
 20
1.065
 10
-1.75
 20
1.174097
  0
CIRCLE
  5
45EA5
100
AcDbEntity
  8
0
100
AcDbCircle
 10
-1.06
 20
1.05
 30
-3.88
 40
0.125
  0
LWPOLYLINE
  5
45EA6
100
AcDbEntity
  8
0
100
AcDbPolyline
 90
        6
 70
     0
 43
0.0
 38
-3.88
 10
-1.075
 20
0.925903
 10
-1.075
 20
1.035
 10
-1.12
 20
1.035
 10
-1.12
 20
1.065
 10
-1.075
 20
1.065
 10
-1.075
 20
1.174097
  0
LWPOLYLINE
  5
45EA7
100
AcDbEntity
  8
0
100
AcDbPolyline
 90
        6
 70
     0
 43
0.0
 38
-3.88
 10
-1.045
 20
0.925903
 10
-1.045
 20
1.035
 10
-1.015
 20
1.035
 10
-1.015
 20
1.065
 10
-1.045
 20
1.065
 10
-1.045
 20
1.174097
  0
LWPOLYLINE
  5
45EA8
100
AcDbEntity
  8
0
100
AcDbPolyline
 90
        6
 70
     0
 43
0.0
 38
-3.88
 10
-0.37
 20
0.925903
 10
-0.37
 20
1.035
 10
-0.4
 20
1.035
 10
-0.4
 20
1.065
 10
-0.37
 20
1.065
 10
-0.37
 20
1.174097
  0
CIRCLE
  5
45EA9
100
AcDbEntity
  8
0
100
AcDbCircle
 10
-0.355
 20
1.05
 30
-3.88
 40
0.125
  0
LWPOLYLINE
  5
45EAA
100
AcDbEntity
  8
0
100
AcDbPolyline
 90
        6
 70
     0
 43
0.0
 38
-3.88
 10
-0.34
 20
0.925903
 10
-0.34
 20
1.035
 10
-0.295
 20
1.035
 10
-0.295
 20
1.065
 10
-0.34
 20
1.065
 10
-0.34
 20
1.174097
  0
LWPOLYLINE
  5
45EAB
100
AcDbEntity
  8
0
100
AcDbPolyline
 90
        6
 70
     0
 43
0.0
 38
-3.88
 10
1.78
 20
0.925903
 10
1.78
 20
1.035
 10
1.825
 20
1.035
 10
1.825
 20
1.065
 10
1.78
 20
1.065
 10
1.78
 20
1.174097
  0
CIRCLE
  5
45EAC
100
AcDbEntity
  8
0
100
AcDbCircle
 10
1.765
 20
1.05
 30
-3.88
 40
0.125
  0
LWPOLYLINE
  5
45EAD
100
AcDbEntity
  8
0
100
AcDbPolyline
 90
        6
 70
     0
 43
0.0
 38
-3.88
 10
1.75
 20
0.925903
 10
1.75
 20
1.035
 10
1.72
 20
1.035
 10
1.72
 20
1.065
 10
1.75
 20
1.065
 10
1.75
 20
1.174097
  0
LWPOLYLINE
  5
45EAE
100
AcDbEntity
  8
0
100
AcDbPolyline
 90
        6
 70
     0
 43
0.0
 38
-3.88
 10
1.075
 20
0.925903
 10
1.075
 20
1.035
 10
1.105
 20
1.035
 10
1.105
 20
1.065
 10
1.075
 20
1.065
 10
1.075
 20
1.174097
  0
LWPOLYLINE
  5
45EAF
100
AcDbEntity
  8
0
100
AcDbPolyline
 90
        6
 70
     0
 43
0.0
 38
-3.88
 10
1.045
 20
0.925903
 10
1.045
 20
1.035
 10
1.0
 20
1.035
 10
1.0
 20
1.065
 10
1.045
 20
1.065
 10
1.045
 20
1.174097
  0
CIRCLE
  5
45EB0
100
AcDbEntity
  8
0
100
AcDbCircle
 10
1.06
 20
1.05
 30
-3.88
 40
0.125
  0
LWPOLYLINE
  5
45EB1
100
AcDbEntity
  8
0
100
AcDbPolyline
 90
        6
 70
     0
 43
0.0
 38
-3.88
 10
0.37
 20
0.925903
 10
0.37
 20
1.035
 10
0.4
 20
1.035
 10
0.4
 20
1.065
 10
0.37
 20
1.065
 10
0.37
 20
1.174097
  0
CIRCLE
  5
45EB2
100
AcDbEntity
  8
0
100
AcDbCircle
 10
0.355
 20
1.05
 30
-3.88
 40
0.125
  0
LWPOLYLINE
  5
45EB3
100
AcDbEntity
  8
0
100
AcDbPolyline
 90
        6
 70
     0
 43
0.0
 38
-3.88
 10
0.34
 20
0.925903
 10
0.34
 20
1.035
 10
0.295
 20
1.035
 10
0.295
 20
1.065
 10
0.34
 20
1.065
 10
0.34
 20
1.174097
  0
3DFACE
  5
45EB4
100
AcDbEntity
  8
0
100
AcDbFace
 10
0.2
 20
1.415
 30
-2.6
 11
0.52
 21
1.415
 31
-2.6
 12
0.52
 22
1.415
 32
-3.04
 13
0.2
 23
1.415
 33
-3.04
  0
3DFACE
  5
45EB5
100
AcDbEntity
  8
0
100
AcDbFace
 10
0.9
 20
1.415
 30
-2.6
 11
1.22
 21
1.415
 31
-2.6
 12
1.22
 22
1.415
 32
-3.04
 13
0.9
 23
1.415
 33
-3.04
  0
3DFACE
  5
45EB6
100
AcDbEntity
  8
0
100
AcDbFace
 10
1.92
 20
1.415
 30
-2.6
 11
1.6
 21
1.415
 31
-2.6
 12
1.6
 22
1.415
 32
-3.04
 13
1.92
 23
1.415
 33
-3.04
  0
3DFACE
  5
45EB7
100
AcDbEntity
  8
0
100
AcDbFace
 10
0.9
 20
-1.415
 30
-2.6
 11
1.22
 21
-1.415
 31
-2.6
 12
1.22
 22
-1.415
 32
-3.04
 13
0.9
 23
-1.415
 33
-3.04
  0
3DFACE
  5
45EB8
100
AcDbEntity
  8
0
100
AcDbFace
 10
1.92
 20
-1.415
 30
-2.6
 11
1.6
 21
-1.415
 31
-2.6
 12
1.6
 22
-1.415
 32
-3.04
 13
1.92
 23
-1.415
 33
-3.04
  0
3DFACE
  5
45EB9
100
AcDbEntity
  8
0
100
AcDbFace
 10
0.2
 20
-1.415
 30
-2.6
 11
0.52
 21
-1.415
 31
-2.6
 12
0.52
 22
-1.415
 32
-3.04
 13
0.2
 23
-1.415
 33
-3.04
  0
LWPOLYLINE
  5
45EBA
100
AcDbEntity
  8
0
100
AcDbPolyline
 90
        6
 70
     0
 43
0.0
 38
-3.88
 10
1.075
 20
-0.925903
 10
1.075
 20
-1.035
 10
1.105
 20
-1.035
 10
1.105
 20
-1.065
 10
1.075
 20
-1.065
 10
1.075
 20
-1.174097
  0
CIRCLE
  5
45EBB
100
AcDbEntity
  8
0
100
AcDbCircle
 10
1.06
 20
-1.05
 30
-3.88
 40
0.125
  0
LWPOLYLINE
  5
45EBC
100
AcDbEntity
  8
0
100
AcDbPolyline
 90
        6
 70
     0
 43
0.0
 38
-3.88
 10
1.045
 20
-0.925903
 10
1.045
 20
-1.035
 10
1.0
 20
-1.035
 10
1.0
 20
-1.065
 10
1.045
 20
-1.065
 10
1.045
 20
-1.174097
  0
LWPOLYLINE
  5
45EBD
100
AcDbEntity
  8
0
100
AcDbPolyline
 90
        6
 70
     0
 43
0.0
 38
-3.88
 10
1.75
 20
-0.925903
 10
1.75
 20
-1.035
 10
1.72
 20
-1.035
 10
1.72
 20
-1.065
 10
1.75
 20
-1.065
 10
1.75
 20
-1.174097
  0
CIRCLE
  5
45EBE
100
AcDbEntity
  8
0
100
AcDbCircle
 10
1.765
 20
-1.05
 30
-3.88
 40
0.125
  0
LWPOLYLINE
  5
45EBF
100
AcDbEntity
  8
0
100
AcDbPolyline
 90
        6
 70
     0
 43
0.0
 38
-3.88
 10
1.78
 20
-0.925903
 10
1.78
 20
-1.035
 10
1.825
 20
-1.035
 10
1.825
 20
-1.065
 10
1.78
 20
-1.065
 10
1.78
 20
-1.174097
  0
LWPOLYLINE
  5
45EC0
100
AcDbEntity
  8
0
100
AcDbPolyline
 90
        6
 70
     0
 43
0.0
 38
-3.88
 10
0.34
 20
-0.925903
 10
0.34
 20
-1.035
 10
0.295
 20
-1.035
 10
0.295
 20
-1.065
 10
0.34
 20
-1.065
 10
0.34
 20
-1.174097
  0
LWPOLYLINE
  5
45EC1
100
AcDbEntity
  8
0
100
AcDbPolyline
 90
        6
 70
     0
 43
0.0
 38
-3.88
 10
0.37
 20
-0.925903
 10
0.37
 20
-1.035
 10
0.4
 20
-1.035
 10
0.4
 20
-1.065
 10
0.37
 20
-1.065
 10
0.37
 20
-1.174097
  0
CIRCLE
  5
45EC2
100
AcDbEntity
  8
0
100
AcDbCircle
 10
0.355
 20
-1.05
 30
-3.88
 40
0.125
  0
POINT
  5
45EC3
100
AcDbEntity
  8
SNAP_POINTS
100
AcDbPoint
 10
2.12
 20
0.0
 30
-2.825
  0
3DFACE
  5
45EC4
100
AcDbEntity
  8
0
100
AcDbFace
 10
2.12
 20
0.125
 30
-2.91
 11
2.12
 21
-0.125
 31
-2.91
 12
2.12
 22
-0.125
 32
-2.74
 13
2.12
 23
0.125
 33
-2.74
  0
3DFACE
  5
45EC5
100
AcDbEntity
  8
0
100
AcDbFace
 10
2.12
 20
0.125
 30
-2.43
 11
2.12
 21
-0.125
 31
-2.43
 12
2.12
 22
-0.125
 32
-3.03
 13
2.12
 23
0.125
 33
-3.03
  0
CIRCLE
  5
45EC6
100
AcDbEntity
  8
0
100
AcDbCircle
 10
1.46
 20
1.555
 30
-3.73
 40
0.09
  0
LWPOLYLINE
  5
45EC7
100
AcDbEntity
  8
0
100
AcDbPolyline
 90
       12
 70
     1
 43
0.0
 38
-0.98
 10
1.236068
 20
-0.105
 10
1.33
 20
-0.105
 42
0.414214
 10
1.38
 20
-0.055
 10
1.38
 20
0.055
 42
0.414214
 10
1.33
 20
0.105
 10
1.236068
 20
0.105
 42
0.443094
 10
0.938345
 20
0.165
 10
0.79
 20
0.165
 42
0.414214
 10
0.74
 20
0.115
 10
0.74
 20
-0.115
 42
0.414214
 10
0.79
 20
-0.165
 10
0.938345
 20
-0.165
 42
0.443094
  0
POLYLINE
  5
45EC8
100
AcDbEntity
  8
0
100
AcDbPolygonMesh
 66
     1
 10
0.0
 20
0.0
 30
0.0
 70
    16
 71
     6
 72
     3
  0
VERTEX
  5
45EC9
100
AcDbEntity
  8
0
100
AcDbVertex
100
AcDbPolygonMeshVertex
 10
1.66
 20
0.74
 30
-1.73
 70
    64
  0
VERTEX
  5
45ECA
100
AcDbEntity
  8
0
100
AcDbVertex
100
AcDbPolygonMeshVertex
 10
1.66
 20
0.74
 30
-1.73
 70
    64
  0
VERTEX
  5
45ECB
100
AcDbEntity
  8
0
100
AcDbVertex
100
AcDbPolygonMeshVertex
 10
1.66
 20
0.74
 30
-1.73
 70
    64
  0
VERTEX
  5
45ECC
100
AcDbEntity
  8
0
100
AcDbVertex
100
AcDbPolygonMeshVertex
 10
2.12
 20
1.075
 30
-1.73
 70
    64
  0
VERTEX
  5
45ECD
100
AcDbEntity
  8
0
100
AcDbVertex
100
AcDbPolygonMeshVertex
 10
2.12
 20
0.74
 30
-1.73
 70
    64
  0
VERTEX
  5
45ECE
100
AcDbEntity
  8
0
100
AcDbVertex
100
AcDbPolygonMeshVertex
 10
2.12
 20
0.74
 30
-1.73
 70
    64
  0
VERTEX
  5
45ECF
100
AcDbEntity
  8
0
100
AcDbVertex
100
AcDbPolygonMeshVertex
 10
2.12
 20
1.075
 30
-0.98
 70
    64
  0
VERTEX
  5
45ED0
100
AcDbEntity
  8
0
100
AcDbVertex
100
AcDbPolygonMeshVertex
 10
2.12
 20
0.74
 30
-0.98
 70
    64
  0
VERTEX
  5
45ED1
100
AcDbEntity
  8
0
100
AcDbVertex
100
AcDbPolygonMeshVertex
 10
2.12
 20
0.74
 30
-1.73
 70
    64
  0
VERTEX
  5
45ED2
100
AcDbEntity
  8
0
100
AcDbVertex
100
AcDbPolygonMeshVertex
 10
1.66
 20
0.74
 30
-0.98
 70
    64
  0
VERTEX
  5
45ED3
100
AcDbEntity
  8
0
100
AcDbVertex
100
AcDbPolygonMeshVertex
 10
1.66
 20
0.74
 30
-0.98
 70
    64
  0
VERTEX
  5
45ED4
100
AcDbEntity
  8
0
100
AcDbVertex
100
AcDbPolygonMeshVertex
 10
1.66
 20
0.74
 30
-1.73
 70
    64
  0
VERTEX
  5
45ED5
100
AcDbEntity
  8
0
100
AcDbVertex
100
AcDbPolygonMeshVertex
 10
1.66
 20
0.74
 30
-0.98
 70
    64
  0
VERTEX
  5
45ED6
100
AcDbEntity
  8
0
100
AcDbVertex
100
AcDbPolygonMeshVertex
 10
1.66
 20
0.74
 30
-0.98
 70
    64
  0
VERTEX
  5
45ED7
100
AcDbEntity
  8
0
100
AcDbVertex
100
AcDbPolygonMeshVertex
 10
1.66
 20
0.74
 30
-1.73
 70
    64
  0
VERTEX
  5
45ED8
100
AcDbEntity
  8
0
100
AcDbVertex
100
AcDbPolygonMeshVertex
 10
2.12
 20
1.075
 30
-0.98
 70
    64
  0
VERTEX
  5
45ED9
100
AcDbEntity
  8
0
100
AcDbVertex
100
AcDbPolygonMeshVertex
 10
2.12
 20
1.075
 30
-0.98
 70
    64
  0
VERTEX
  5
45EDA
100
AcDbEntity
  8
0
100
AcDbVertex
100
AcDbPolygonMeshVertex
 10
2.12
 20
1.075
 30
-1.73
 70
    64
  0
SEQEND
  5
45EDB
100
AcDbEntity
  8
0
  0
POLYLINE
  5
45EDC
100
AcDbEntity
  8
0
100
AcDbPolygonMesh
 66
     1
 10
0.0
 20
0.0
 30
0.0
 70
    16
 71
     6
 72
     3
  0
VERTEX
  5
45EDD
100
AcDbEntity
  8
0
100
AcDbVertex
100
AcDbPolygonMeshVertex
 10
1.66
 20
0.74
 30
-0.98
 70
    64
  0
VERTEX
  5
45EDE
100
AcDbEntity
  8
0
100
AcDbVertex
100
AcDbPolygonMeshVertex
 10
1.66
 20
0.74
 30
-1.73
 70
    64
  0
VERTEX
  5
45EDF
100
AcDbEntity
  8
0
100
AcDbVertex
100
AcDbPolygonMeshVertex
 10
1.66
 20
0.74
 30
-1.73
 70
    64
  0
VERTEX
  5
45EE0
100
AcDbEntity
  8
0
100
AcDbVertex
100
AcDbPolygonMeshVertex
 10
2.12
 20
0.74
 30
-0.98
 70
    64
  0
VERTEX
  5
45EE1
100
AcDbEntity
  8
0
100
AcDbVertex
100
AcDbPolygonMeshVertex
 10
2.12
 20
0.74
 30
-1.73
 70
    64
  0
VERTEX
  5
45EE2
100
AcDbEntity
  8
0
100
AcDbVertex
100
AcDbPolygonMeshVertex
 10
2.12
 20
0.74
 30
-1.73
 70
    64
  0
VERTEX
  5
45EE3
100
AcDbEntity
  8
0
100
AcDbVertex
100
AcDbPolygonMeshVertex
 10
2.12
 20
0.64
 30
-0.98
 70
    64
  0
VERTEX
  5
45EE4
100
AcDbEntity
  8
0
100
AcDbVertex
100
AcDbPolygonMeshVertex
 10
2.12
 20
0.64
 30
-1.73
 70
    64
  0
VERTEX
  5
45EE5
100
AcDbEntity
  8
0
100
AcDbVertex
100
AcDbPolygonMeshVertex
 10
2.12
 20
0.74
 30
-1.73
 70
    64
  0
VERTEX
  5
45EE6
100
AcDbEntity
  8
0
100
AcDbVertex
100
AcDbPolygonMeshVertex
 10
1.66
 20
0.64
 30
-0.98
 70
    64
  0
VERTEX
  5
45EE7
100
AcDbEntity
  8
0
100
AcDbVertex
100
AcDbPolygonMeshVertex
 10
1.66
 20
0.64
 30
-1.73
 70
    64
  0
VERTEX
  5
45EE8
100
AcDbEntity
  8
0
100
AcDbVertex
100
AcDbPolygonMeshVertex
 10
1.66
 20
0.74
 30
-1.73
 70
    64
  0
VERTEX
  5
45EE9
100
AcDbEntity
  8
0
100
AcDbVertex
100
AcDbPolygonMeshVertex
 10
1.66
 20
0.64
 30
-0.98
 70
    64
  0
VERTEX
  5
45EEA
100
AcDbEntity
  8
0
100
AcDbVertex
100
AcDbPolygonMeshVertex
 10
1.66
 20
0.64
 30
-0.98
 70
    64
  0
VERTEX
  5
45EEB
100
AcDbEntity
  8
0
100
AcDbVertex
100
AcDbPolygonMeshVertex
 10
1.66
 20
0.74
 30
-0.98
 70
    64
  0
VERTEX
  5
45EEC
100
AcDbEntity
  8
0
100
AcDbVertex
100
AcDbPolygonMeshVertex
 10
2.12
 20
0.64
 30
-0.98
 70
    64
  0
VERTEX
  5
45EED
100
AcDbEntity
  8
0
100
AcDbVertex
100
AcDbPolygonMeshVertex
 10
2.12
 20
0.64
 30
-0.98
 70
    64
  0
VERTEX
  5
45EEE
100
AcDbEntity
  8
0
100
AcDbVertex
100
AcDbPolygonMeshVertex
 10
2.12
 20
0.74
 30
-0.98
 70
    64
  0
SEQEND
  5
45EEF
100
AcDbEntity
  8
0
  0
POLYLINE
  5
45EF0
100
AcDbEntity
  8
0
100
AcDbPolygonMesh
 66
     1
 10
0.0
 20
0.0
 30
0.0
 70
    16
 71
     6
 72
     3
  0
VERTEX
  5
45EF1
100
AcDbEntity
  8
0
100
AcDbVertex
100
AcDbPolygonMeshVertex
 10
0.46
 20
0.74
 30
-1.73
 70
    64
  0
VERTEX
  5
45EF2
100
AcDbEntity
  8
0
100
AcDbVertex
100
AcDbPolygonMeshVertex
 10
0.46
 20
0.74
 30
-1.73
 70
    64
  0
VERTEX
  5
45EF3
100
AcDbEntity
  8
0
100
AcDbVertex
100
AcDbPolygonMeshVertex
 10
0.46
 20
0.74
 30
-1.73
 70
    64
  0
VERTEX
  5
45EF4
100
AcDbEntity
  8
0
100
AcDbVertex
100
AcDbPolygonMeshVertex
 10
0.0
 20
1.075
 30
-1.73
 70
    64
  0
VERTEX
  5
45EF5
100
AcDbEntity
  8
0
100
AcDbVertex
100
AcDbPolygonMeshVertex
 10
0.0
 20
0.74
 30
-1.73
 70
    64
  0
VERTEX
  5
45EF6
100
AcDbEntity
  8
0
100
AcDbVertex
100
AcDbPolygonMeshVertex
 10
0.0
 20
0.74
 30
-1.73
 70
    64
  0
VERTEX
  5
45EF7
100
AcDbEntity
  8
0
100
AcDbVertex
100
AcDbPolygonMeshVertex
 10
0.0
 20
1.075
 30
-0.98
 70
    64
  0
VERTEX
  5
45EF8
100
AcDbEntity
  8
0
100
AcDbVertex
100
AcDbPolygonMeshVertex
 10
0.0
 20
0.74
 30
-0.98
 70
    64
  0
VERTEX
  5
45EF9
100
AcDbEntity
  8
0
100
AcDbVertex
100
AcDbPolygonMeshVertex
 10
0.0
 20
0.74
 30
-1.73
 70
    64
  0
VERTEX
  5
45EFA
100
AcDbEntity
  8
0
100
AcDbVertex
100
AcDbPolygonMeshVertex
 10
0.46
 20
0.74
 30
-0.98
 70
    64
  0
VERTEX
  5
45EFB
100
AcDbEntity
  8
0
100
AcDbVertex
100
AcDbPolygonMeshVertex
 10
0.46
 20
0.74
 30
-0.98
 70
    64
  0
VERTEX
  5
45EFC
100
AcDbEntity
  8
0
100
AcDbVertex
100
AcDbPolygonMeshVertex
 10
0.46
 20
0.74
 30
-1.73
 70
    64
  0
VERTEX
  5
45EFD
100
AcDbEntity
  8
0
100
AcDbVertex
100
AcDbPolygonMeshVertex
 10
0.46
 20
0.74
 30
-0.98
 70
    64
  0
VERTEX
  5
45EFE
100
AcDbEntity
  8
0
100
AcDbVertex
100
AcDbPolygonMeshVertex
 10
0.46
 20
0.74
 30
-0.98
 70
    64
  0
VERTEX
  5
45EFF
100
AcDbEntity
  8
0
100
AcDbVertex
100
AcDbPolygonMeshVertex
 10
0.46
 20
0.74
 30
-1.73
 70
    64
  0
VERTEX
  5
45F00
100
AcDbEntity
  8
0
100
AcDbVertex
100
AcDbPolygonMeshVertex
 10
0.0
 20
1.075
 30
-0.98
 70
    64
  0
VERTEX
  5
45F01
100
AcDbEntity
  8
0
100
AcDbVertex
100
AcDbPolygonMeshVertex
 10
0.0
 20
1.075
 30
-0.98
 70
    64
  0
VERTEX
  5
45F02
100
AcDbEntity
  8
0
100
AcDbVertex
100
AcDbPolygonMeshVertex
 10
0.0
 20
1.075
 30
-1.73
 70
    64
  0
SEQEND
  5
45F03
100
AcDbEntity
  8
0
  0
POLYLINE
  5
45F04
100
AcDbEntity
  8
0
100
AcDbPolygonMesh
 66
     1
 10
0.0
 20
0.0
 30
0.0
 70
    16
 71
     6
 72
     3
  0
VERTEX
  5
45F05
100
AcDbEntity
  8
0
100
AcDbVertex
100
AcDbPolygonMeshVertex
 10
0.46
 20
0.74
 30
-0.98
 70
    64
  0
VERTEX
  5
45F06
100
AcDbEntity
  8
0
100
AcDbVertex
100
AcDbPolygonMeshVertex
 10
0.46
 20
0.74
 30
-1.73
 70
    64
  0
VERTEX
  5
45F07
100
AcDbEntity
  8
0
100
AcDbVertex
100
AcDbPolygonMeshVertex
 10
0.46
 20
0.74
 30
-1.73
 70
    64
  0
VERTEX
  5
45F08
100
AcDbEntity
  8
0
100
AcDbVertex
100
AcDbPolygonMeshVertex
 10
0.0
 20
0.74
 30
-0.98
 70
    64
  0
VERTEX
  5
45F09
100
AcDbEntity
  8
0
100
AcDbVertex
100
AcDbPolygonMeshVertex
 10
0.0
 20
0.74
 30
-1.73
 70
    64
  0
VERTEX
  5
45F0A
100
AcDbEntity
  8
0
100
AcDbVertex
100
AcDbPolygonMeshVertex
 10
0.0
 20
0.74
 30
-1.73
 70
    64
  0
VERTEX
  5
45F0B
100
AcDbEntity
  8
0
100
AcDbVertex
100
AcDbPolygonMeshVertex
 10
0.0
 20
0.64
 30
-0.98
 70
    64
  0
VERTEX
  5
45F0C
100
AcDbEntity
  8
0
100
AcDbVertex
100
AcDbPolygonMeshVertex
 10
0.0
 20
0.64
 30
-1.73
 70
    64
  0
VERTEX
  5
45F0D
100
AcDbEntity
  8
0
100
AcDbVertex
100
AcDbPolygonMeshVertex
 10
0.0
 20
0.74
 30
-1.73
 70
    64
  0
VERTEX
  5
45F0E
100
AcDbEntity
  8
0
100
AcDbVertex
100
AcDbPolygonMeshVertex
 10
0.46
 20
0.64
 30
-0.98
 70
    64
  0
VERTEX
  5
45F0F
100
AcDbEntity
  8
0
100
AcDbVertex
100
AcDbPolygonMeshVertex
 10
0.46
 20
0.64
 30
-1.73
 70
    64
  0
VERTEX
  5
45F10
100
AcDbEntity
  8
0
100
AcDbVertex
100
AcDbPolygonMeshVertex
 10
0.46
 20
0.74
 30
-1.73
 70
    64
  0
VERTEX
  5
45F11
100
AcDbEntity
  8
0
100
AcDbVertex
100
AcDbPolygonMeshVertex
 10
0.46
 20
0.64
 30
-0.98
 70
    64
  0
VERTEX
  5
45F12
100
AcDbEntity
  8
0
100
AcDbVertex
100
AcDbPolygonMeshVertex
 10
0.46
 20
0.64
 30
-0.98
 70
    64
  0
VERTEX
  5
45F13
100
AcDbEntity
  8
0
100
AcDbVertex
100
AcDbPolygonMeshVertex
 10
0.46
 20
0.74
 30
-0.98
 70
    64
  0
VERTEX
  5
45F14
100
AcDbEntity
  8
0
100
AcDbVertex
100
AcDbPolygonMeshVertex
 10
0.0
 20
0.64
 30
-0.98
 70
    64
  0
VERTEX
  5
45F15
100
AcDbEntity
  8
0
100
AcDbVertex
100
AcDbPolygonMeshVertex
 10
0.0
 20
0.64
 30
-0.98
 70
    64
  0
VERTEX
  5
45F16
100
AcDbEntity
  8
0
100
AcDbVertex
100
AcDbPolygonMeshVertex
 10
0.0
 20
0.74
 30
-0.98
 70
    64
  0
SEQEND
  5
45F17
100
AcDbEntity
  8
0
  0
POLYLINE
  5
45F18
100
AcDbEntity
  8
0
100
AcDbPolygonMesh
 66
     1
 10
0.0
 20
0.0
 30
0.0
 70
    16
 71
     6
 72
     3
  0
VERTEX
  5
45F19
100
AcDbEntity
  8
0
100
AcDbVertex
100
AcDbPolygonMeshVertex
 10
1.66
 20
-0.74
 30
-1.73
 70
    64
  0
VERTEX
  5
45F1A
100
AcDbEntity
  8
0
100
AcDbVertex
100
AcDbPolygonMeshVertex
 10
1.66
 20
-0.74
 30
-1.73
 70
    64
  0
VERTEX
  5
45F1B
100
AcDbEntity
  8
0
100
AcDbVertex
100
AcDbPolygonMeshVertex
 10
1.66
 20
-0.74
 30
-1.73
 70
    64
  0
VERTEX
  5
45F1C
100
AcDbEntity
  8
0
100
AcDbVertex
100
AcDbPolygonMeshVertex
 10
2.12
 20
-1.075
 30
-1.73
 70
    64
  0
VERTEX
  5
45F1D
100
AcDbEntity
  8
0
100
AcDbVertex
100
AcDbPolygonMeshVertex
 10
2.12
 20
-0.74
 30
-1.73
 70
    64
  0
VERTEX
  5
45F1E
100
AcDbEntity
  8
0
100
AcDbVertex
100
AcDbPolygonMeshVertex
 10
2.12
 20
-0.74
 30
-1.73
 70
    64
  0
VERTEX
  5
45F1F
100
AcDbEntity
  8
0
100
AcDbVertex
100
AcDbPolygonMeshVertex
 10
2.12
 20
-1.075
 30
-0.98
 70
    64
  0
VERTEX
  5
45F20
100
AcDbEntity
  8
0
100
AcDbVertex
100
AcDbPolygonMeshVertex
 10
2.12
 20
-0.74
 30
-0.98
 70
    64
  0
VERTEX
  5
45F21
100
AcDbEntity
  8
0
100
AcDbVertex
100
AcDbPolygonMeshVertex
 10
2.12
 20
-0.74
 30
-1.73
 70
    64
  0
VERTEX
  5
45F22
100
AcDbEntity
  8
0
100
AcDbVertex
100
AcDbPolygonMeshVertex
 10
1.66
 20
-0.74
 30
-0.98
 70
    64
  0
VERTEX
  5
45F23
100
AcDbEntity
  8
0
100
AcDbVertex
100
AcDbPolygonMeshVertex
 10
1.66
 20
-0.74
 30
-0.98
 70
    64
  0
VERTEX
  5
45F24
100
AcDbEntity
  8
0
100
AcDbVertex
100
AcDbPolygonMeshVertex
 10
1.66
 20
-0.74
 30
-1.73
 70
    64
  0
VERTEX
  5
45F25
100
AcDbEntity
  8
0
100
AcDbVertex
100
AcDbPolygonMeshVertex
 10
1.66
 20
-0.74
 30
-0.98
 70
    64
  0
VERTEX
  5
45F26
100
AcDbEntity
  8
0
100
AcDbVertex
100
AcDbPolygonMeshVertex
 10
1.66
 20
-0.74
 30
-0.98
 70
    64
  0
VERTEX
  5
45F27
100
AcDbEntity
  8
0
100
AcDbVertex
100
AcDbPolygonMeshVertex
 10
1.66
 20
-0.74
 30
-1.73
 70
    64
  0
VERTEX
  5
45F28
100
AcDbEntity
  8
0
100
AcDbVertex
100
AcDbPolygonMeshVertex
 10
2.12
 20
-1.075
 30
-0.98
 70
    64
  0
VERTEX
  5
45F29
100
AcDbEntity
  8
0
100
AcDbVertex
100
AcDbPolygonMeshVertex
 10
2.12
 20
-1.075
 30
-0.98
 70
    64
  0
VERTEX
  5
45F2A
100
AcDbEntity
  8
0
100
AcDbVertex
100
AcDbPolygonMeshVertex
 10
2.12
 20
-1.075
 30
-1.73
 70
    64
  0
SEQEND
  5
45F2B
100
AcDbEntity
  8
0
  0
POLYLINE
  5
45F2C
100
AcDbEntity
  8
0
100
AcDbPolygonMesh
 66
     1
 10
0.0
 20
0.0
 30
0.0
 70
    16
 71
     6
 72
     3
  0
VERTEX
  5
45F2D
100
AcDbEntity
  8
0
100
AcDbVertex
100
AcDbPolygonMeshVertex
 10
1.66
 20
-0.74
 30
-0.98
 70
    64
  0
VERTEX
  5
45F2E
100
AcDbEntity
  8
0
100
AcDbVertex
100
AcDbPolygonMeshVertex
 10
1.66
 20
-0.74
 30
-1.73
 70
    64
  0
VERTEX
  5
45F2F
100
AcDbEntity
  8
0
100
AcDbVertex
100
AcDbPolygonMeshVertex
 10
1.66
 20
-0.74
 30
-1.73
 70
    64
  0
VERTEX
  5
45F30
100
AcDbEntity
  8
0
100
AcDbVertex
100
AcDbPolygonMeshVertex
 10
2.12
 20
-0.74
 30
-0.98
 70
    64
  0
VERTEX
  5
45F31
100
AcDbEntity
  8
0
100
AcDbVertex
100
AcDbPolygonMeshVertex
 10
2.12
 20
-0.74
 30
-1.73
 70
    64
  0
VERTEX
  5
45F32
100
AcDbEntity
  8
0
100
AcDbVertex
100
AcDbPolygonMeshVertex
 10
2.12
 20
-0.74
 30
-1.73
 70
    64
  0
VERTEX
  5
45F33
100
AcDbEntity
  8
0
100
AcDbVertex
100
AcDbPolygonMeshVertex
 10
2.12
 20
-0.64
 30
-0.98
 70
    64
  0
VERTEX
  5
45F34
100
AcDbEntity
  8
0
100
AcDbVertex
100
AcDbPolygonMeshVertex
 10
2.12
 20
-0.64
 30
-1.73
 70
    64
  0
VERTEX
  5
45F35
100
AcDbEntity
  8
0
100
AcDbVertex
100
AcDbPolygonMeshVertex
 10
2.12
 20
-0.74
 30
-1.73
 70
    64
  0
VERTEX
  5
45F36
100
AcDbEntity
  8
0
100
AcDbVertex
100
AcDbPolygonMeshVertex
 10
1.66
 20
-0.64
 30
-0.98
 70
    64
  0
VERTEX
  5
45F37
100
AcDbEntity
  8
0
100
AcDbVertex
100
AcDbPolygonMeshVertex
 10
1.66
 20
-0.64
 30
-1.73
 70
    64
  0
VERTEX
  5
45F38
100
AcDbEntity
  8
0
100
AcDbVertex
100
AcDbPolygonMeshVertex
 10
1.66
 20
-0.74
 30
-1.73
 70
    64
  0
VERTEX
  5
45F39
100
AcDbEntity
  8
0
100
AcDbVertex
100
AcDbPolygonMeshVertex
 10
1.66
 20
-0.64
 30
-0.98
 70
    64
  0
VERTEX
  5
45F3A
100
AcDbEntity
  8
0
100
AcDbVertex
100
AcDbPolygonMeshVertex
 10
1.66
 20
-0.64
 30
-0.98
 70
    64
  0
VERTEX
  5
45F3B
100
AcDbEntity
  8
0
100
AcDbVertex
100
AcDbPolygonMeshVertex
 10
1.66
 20
-0.74
 30
-0.98
 70
    64
  0
VERTEX
  5
45F3C
100
AcDbEntity
  8
0
100
AcDbVertex
100
AcDbPolygonMeshVertex
 10
2.12
 20
-0.64
 30
-0.98
 70
    64
  0
VERTEX
  5
45F3D
100
AcDbEntity
  8
0
100
AcDbVertex
100
AcDbPolygonMeshVertex
 10
2.12
 20
-0.64
 30
-0.98
 70
    64
  0
VERTEX
  5
45F3E
100
AcDbEntity
  8
0
100
AcDbVertex
100
AcDbPolygonMeshVertex
 10
2.12
 20
-0.74
 30
-0.98
 70
    64
  0
SEQEND
  5
45F3F
100
AcDbEntity
  8
0
  0
POLYLINE
  5
45F40
100
AcDbEntity
  8
0
100
AcDbPolygonMesh
 66
     1
 10
0.0
 20
0.0
 30
0.0
 70
    16
 71
     6
 72
     3
  0
VERTEX
  5
45F41
100
AcDbEntity
  8
0
100
AcDbVertex
100
AcDbPolygonMeshVertex
 10
0.46
 20
-0.74
 30
-1.73
 70
    64
  0
VERTEX
  5
45F42
100
AcDbEntity
  8
0
100
AcDbVertex
100
AcDbPolygonMeshVertex
 10
0.46
 20
-0.74
 30
-1.73
 70
    64
  0
VERTEX
  5
45F43
100
AcDbEntity
  8
0
100
AcDbVertex
100
AcDbPolygonMeshVertex
 10
0.46
 20
-0.74
 30
-1.73
 70
    64
  0
VERTEX
  5
45F44
100
AcDbEntity
  8
0
100
AcDbVertex
100
AcDbPolygonMeshVertex
 10
0.0
 20
-1.075
 30
-1.73
 70
    64
  0
VERTEX
  5
45F45
100
AcDbEntity
  8
0
100
AcDbVertex
100
AcDbPolygonMeshVertex
 10
0.0
 20
-0.74
 30
-1.73
 70
    64
  0
VERTEX
  5
45F46
100
AcDbEntity
  8
0
100
AcDbVertex
100
AcDbPolygonMeshVertex
 10
0.0
 20
-0.74
 30
-1.73
 70
    64
  0
VERTEX
  5
45F47
100
AcDbEntity
  8
0
100
AcDbVertex
100
AcDbPolygonMeshVertex
 10
0.0
 20
-1.075
 30
-0.98
 70
    64
  0
VERTEX
  5
45F48
100
AcDbEntity
  8
0
100
AcDbVertex
100
AcDbPolygonMeshVertex
 10
0.0
 20
-0.74
 30
-0.98
 70
    64
  0
VERTEX
  5
45F49
100
AcDbEntity
  8
0
100
AcDbVertex
100
AcDbPolygonMeshVertex
 10
0.0
 20
-0.74
 30
-1.73
 70
    64
  0
VERTEX
  5
45F4A
100
AcDbEntity
  8
0
100
AcDbVertex
100
AcDbPolygonMeshVertex
 10
0.46
 20
-0.74
 30
-0.98
 70
    64
  0
VERTEX
  5
45F4B
100
AcDbEntity
  8
0
100
AcDbVertex
100
AcDbPolygonMeshVertex
 10
0.46
 20
-0.74
 30
-0.98
 70
    64
  0
VERTEX
  5
45F4C
100
AcDbEntity
  8
0
100
AcDbVertex
100
AcDbPolygonMeshVertex
 10
0.46
 20
-0.74
 30
-1.73
 70
    64
  0
VERTEX
  5
45F4D
100
AcDbEntity
  8
0
100
AcDbVertex
100
AcDbPolygonMeshVertex
 10
0.46
 20
-0.74
 30
-0.98
 70
    64
  0
VERTEX
  5
45F4E
100
AcDbEntity
  8
0
100
AcDbVertex
100
AcDbPolygonMeshVertex
 10
0.46
 20
-0.74
 30
-0.98
 70
    64
  0
VERTEX
  5
45F4F
100
AcDbEntity
  8
0
100
AcDbVertex
100
AcDbPolygonMeshVertex
 10
0.46
 20
-0.74
 30
-1.73
 70
    64
  0
VERTEX
  5
45F50
100
AcDbEntity
  8
0
100
AcDbVertex
100
AcDbPolygonMeshVertex
 10
0.0
 20
-1.075
 30
-0.98
 70
    64
  0
VERTEX
  5
45F51
100
AcDbEntity
  8
0
100
AcDbVertex
100
AcDbPolygonMeshVertex
 10
0.0
 20
-1.075
 30
-0.98
 70
    64
  0
VERTEX
  5
45F52
100
AcDbEntity
  8
0
100
AcDbVertex
100
AcDbPolygonMeshVertex
 10
0.0
 20
-1.075
 30
-1.73
 70
    64
  0
SEQEND
  5
45F53
100
AcDbEntity
  8
0
  0
POLYLINE
  5
45F54
100
AcDbEntity
  8
0
100
AcDbPolygonMesh
 66
     1
 10
0.0
 20
0.0
 30
0.0
 70
    16
 71
     6
 72
     3
  0
VERTEX
  5
45F55
100
AcDbEntity
  8
0
100
AcDbVertex
100
AcDbPolygonMeshVertex
 10
0.46
 20
-0.74
 30
-0.98
 70
    64
  0
VERTEX
  5
45F56
100
AcDbEntity
  8
0
100
AcDbVertex
100
AcDbPolygonMeshVertex
 10
0.46
 20
-0.74
 30
-1.73
 70
    64
  0
VERTEX
  5
45F57
100
AcDbEntity
  8
0
100
AcDbVertex
100
AcDbPolygonMeshVertex
 10
0.46
 20
-0.74
 30
-1.73
 70
    64
  0
VERTEX
  5
45F58
100
AcDbEntity
  8
0
100
AcDbVertex
100
AcDbPolygonMeshVertex
 10
0.0
 20
-0.74
 30
-0.98
 70
    64
  0
VERTEX
  5
45F59
100
AcDbEntity
  8
0
100
AcDbVertex
100
AcDbPolygonMeshVertex
 10
0.0
 20
-0.74
 30
-1.73
 70
    64
  0
VERTEX
  5
45F5A
100
AcDbEntity
  8
0
100
AcDbVertex
100
AcDbPolygonMeshVertex
 10
0.0
 20
-0.74
 30
-1.73
 70
    64
  0
VERTEX
  5
45F5B
100
AcDbEntity
  8
0
100
AcDbVertex
100
AcDbPolygonMeshVertex
 10
0.0
 20
-0.64
 30
-0.98
 70
    64
  0
VERTEX
  5
45F5C
100
AcDbEntity
  8
0
100
AcDbVertex
100
AcDbPolygonMeshVertex
 10
0.0
 20
-0.64
 30
-1.73
 70
    64
  0
VERTEX
  5
45F5D
100
AcDbEntity
  8
0
100
AcDbVertex
100
AcDbPolygonMeshVertex
 10
0.0
 20
-0.74
 30
-1.73
 70
    64
  0
VERTEX
  5
45F5E
100
AcDbEntity
  8
0
100
AcDbVertex
100
AcDbPolygonMeshVertex
 10
0.46
 20
-0.64
 30
-0.98
 70
    64
  0
VERTEX
  5
45F5F
100
AcDbEntity
  8
0
100
AcDbVertex
100
AcDbPolygonMeshVertex
 10
0.46
 20
-0.64
 30
-1.73
 70
    64
  0
VERTEX
  5
45F60
100
AcDbEntity
  8
0
100
AcDbVertex
100
AcDbPolygonMeshVertex
 10
0.46
 20
-0.74
 30
-1.73
 70
    64
  0
VERTEX
  5
45F61
100
AcDbEntity
  8
0
100
AcDbVertex
100
AcDbPolygonMeshVertex
 10
0.46
 20
-0.64
 30
-0.98
 70
    64
  0
VERTEX
  5
45F62
100
AcDbEntity
  8
0
100
AcDbVertex
100
AcDbPolygonMeshVertex
 10
0.46
 20
-0.64
 30
-0.98
 70
    64
  0
VERTEX
  5
45F63
100
AcDbEntity
  8
0
100
AcDbVertex
100
AcDbPolygonMeshVertex
 10
0.46
 20
-0.74
 30
-0.98
 70
    64
  0
VERTEX
  5
45F64
100
AcDbEntity
  8
0
100
AcDbVertex
100
AcDbPolygonMeshVertex
 10
0.0
 20
-0.64
 30
-0.98
 70
    64
  0
VERTEX
  5
45F65
100
AcDbEntity
  8
0
100
AcDbVertex
100
AcDbPolygonMeshVertex
 10
0.0
 20
-0.64
 30
-0.98
 70
    64
  0
VERTEX
  5
45F66
100
AcDbEntity
  8
0
100
AcDbVertex
100
AcDbPolygonMeshVertex
 10
0.0
 20
-0.74
 30
-0.98
 70
    64
  0
SEQEND
  5
45F67
100
AcDbEntity
  8
0
  0
POLYLINE
  5
45F68
100
AcDbEntity
  8
0
100
AcDbPolygonMesh
 66
     1
 10
0.0
 20
0.0
 30
0.0
 70
    16
 71
     6
 72
     3
  0
VERTEX
  5
45F69
100
AcDbEntity
  8
0
100
AcDbVertex
100
AcDbPolygonMeshVertex
 10
2.12
 20
-0.64
 30
-0.98
 70
    64
  0
VERTEX
  5
45F6A
100
AcDbEntity
  8
0
100
AcDbVertex
100
AcDbPolygonMeshVertex
 10
2.12
 20
-0.64
 30
-1.73
 70
    64
  0
VERTEX
  5
45F6B
100
AcDbEntity
  8
0
100
AcDbVertex
100
AcDbPolygonMeshVertex
 10
2.12
 20
-0.64
 30
-1.73
 70
    64
  0
VERTEX
  5
45F6C
100
AcDbEntity
  8
0
100
AcDbVertex
100
AcDbPolygonMeshVertex
 10
0.0
 20
-0.64
 30
-0.98
 70
    64
  0
VERTEX
  5
45F6D
100
AcDbEntity
  8
0
100
AcDbVertex
100
AcDbPolygonMeshVertex
 10
0.0
 20
-0.64
 30
-1.73
 70
    64
  0
VERTEX
  5
45F6E
100
AcDbEntity
  8
0
100
AcDbVertex
100
AcDbPolygonMeshVertex
 10
0.0
 20
-0.64
 30
-1.73
 70
    64
  0
VERTEX
  5
45F6F
100
AcDbEntity
  8
0
100
AcDbVertex
100
AcDbPolygonMeshVertex
 10
0.0
 20
0.64
 30
-0.98
 70
    64
  0
VERTEX
  5
45F70
100
AcDbEntity
  8
0
100
AcDbVertex
100
AcDbPolygonMeshVertex
 10
0.0
 20
0.64
 30
-1.73
 70
    64
  0
VERTEX
  5
45F71
100
AcDbEntity
  8
0
100
AcDbVertex
100
AcDbPolygonMeshVertex
 10
0.0
 20
-0.64
 30
-1.73
 70
    64
  0
VERTEX
  5
45F72
100
AcDbEntity
  8
0
100
AcDbVertex
100
AcDbPolygonMeshVertex
 10
2.12
 20
0.64
 30
-0.98
 70
    64
  0
VERTEX
  5
45F73
100
AcDbEntity
  8
0
100
AcDbVertex
100
AcDbPolygonMeshVertex
 10
2.12
 20
0.64
 30
-1.73
 70
    64
  0
VERTEX
  5
45F74
100
AcDbEntity
  8
0
100
AcDbVertex
100
AcDbPolygonMeshVertex
 10
2.12
 20
-0.64
 30
-1.73
 70
    64
  0
VERTEX
  5
45F75
100
AcDbEntity
  8
0
100
AcDbVertex
100
AcDbPolygonMeshVertex
 10
2.12
 20
0.64
 30
-0.98
 70
    64
  0
VERTEX
  5
45F76
100
AcDbEntity
  8
0
100
AcDbVertex
100
AcDbPolygonMeshVertex
 10
2.12
 20
0.64
 30
-0.98
 70
    64
  0
VERTEX
  5
45F77
100
AcDbEntity
  8
0
100
AcDbVertex
100
AcDbPolygonMeshVertex
 10
2.12
 20
-0.64
 30
-0.98
 70
    64
  0
VERTEX
  5
45F78
100
AcDbEntity
  8
0
100
AcDbVertex
100
AcDbPolygonMeshVertex
 10
0.0
 20
0.64
 30
-0.98
 70
    64
  0
VERTEX
  5
45F79
100
AcDbEntity
  8
0
100
AcDbVertex
100
AcDbPolygonMeshVertex
 10
0.0
 20
0.64
 30
-0.98
 70
    64
  0
VERTEX
  5
45F7A
100
AcDbEntity
  8
0
100
AcDbVertex
100
AcDbPolygonMeshVertex
 10
0.0
 20
-0.64
 30
-0.98
 70
    64
  0
SEQEND
  5
45F7B
100
AcDbEntity
  8
0
  0
POLYLINE
  5
45F7C
100
AcDbEntity
  8
0
100
AcDbPolygonMesh
 66
     1
 10
0.0
 20
0.0
 30
0.0
 70
    16
 71
     6
 72
     3
  0
VERTEX
  5
45F7D
100
AcDbEntity
  8
0
100
AcDbVertex
100
AcDbPolygonMeshVertex
 10
2.12
 20
0.745
 30
-3.68
 70
    64
  0
VERTEX
  5
45F7E
100
AcDbEntity
  8
0
100
AcDbVertex
100
AcDbPolygonMeshVertex
 10
2.12
 20
0.745
 30
-3.88
 70
    64
  0
VERTEX
  5
45F7F
100
AcDbEntity
  8
0
100
AcDbVertex
100
AcDbPolygonMeshVertex
 10
2.12
 20
0.745
 30
-3.88
 70
    64
  0
VERTEX
  5
45F80
100
AcDbEntity
  8
0
100
AcDbVertex
100
AcDbPolygonMeshVertex
 10
0.0
 20
0.745
 30
-3.68
 70
    64
  0
VERTEX
  5
45F81
100
AcDbEntity
  8
0
100
AcDbVertex
100
AcDbPolygonMeshVertex
 10
0.0
 20
0.745
 30
-3.88
 70
    64
  0
VERTEX
  5
45F82
100
AcDbEntity
  8
0
100
AcDbVertex
100
AcDbPolygonMeshVertex
 10
0.0
 20
0.745
 30
-3.88
 70
    64
  0
VERTEX
  5
45F83
100
AcDbEntity
  8
0
100
AcDbVertex
100
AcDbPolygonMeshVertex
 10
0.0
 20
1.415
 30
-3.68
 70
    64
  0
VERTEX
  5
45F84
100
AcDbEntity
  8
0
100
AcDbVertex
100
AcDbPolygonMeshVertex
 10
0.0
 20
1.415
 30
-3.88
 70
    64
  0
VERTEX
  5
45F85
100
AcDbEntity
  8
0
100
AcDbVertex
100
AcDbPolygonMeshVertex
 10
0.0
 20
0.745
 30
-3.88
 70
    64
  0
VERTEX
  5
45F86
100
AcDbEntity
  8
0
100
AcDbVertex
100
AcDbPolygonMeshVertex
 10
2.12
 20
1.415
 30
-3.68
 70
    64
  0
VERTEX
  5
45F87
100
AcDbEntity
  8
0
100
AcDbVertex
100
AcDbPolygonMeshVertex
 10
2.12
 20
1.415
 30
-3.88
 70
    64
  0
VERTEX
  5
45F88
100
AcDbEntity
  8
0
100
AcDbVertex
100
AcDbPolygonMeshVertex
 10
2.12
 20
0.745
 30
-3.88
 70
    64
  0
VERTEX
  5
45F89
100
AcDbEntity
  8
0
100
AcDbVertex
100
AcDbPolygonMeshVertex
 10
2.12
 20
1.415
 30
-3.68
 70
    64
  0
VERTEX
  5
45F8A
100
AcDbEntity
  8
0
100
AcDbVertex
100
AcDbPolygonMeshVertex
 10
2.12
 20
1.415
 30
-3.68
 70
    64
  0
VERTEX
  5
45F8B
100
AcDbEntity
  8
0
100
AcDbVertex
100
AcDbPolygonMeshVertex
 10
2.12
 20
0.745
 30
-3.68
 70
    64
  0
VERTEX
  5
45F8C
100
AcDbEntity
  8
0
100
AcDbVertex
100
AcDbPolygonMeshVertex
 10
0.0
 20
1.415
 30
-3.68
 70
    64
  0
VERTEX
  5
45F8D
100
AcDbEntity
  8
0
100
AcDbVertex
100
AcDbPolygonMeshVertex
 10
0.0
 20
1.415
 30
-3.68
 70
    64
  0
VERTEX
  5
45F8E
100
AcDbEntity
  8
0
100
AcDbVertex
100
AcDbPolygonMeshVertex
 10
0.0
 20
0.745
 30
-3.68
 70
    64
  0
SEQEND
  5
45F8F
100
AcDbEntity
  8
0
  0
POLYLINE
  5
45F90
100
AcDbEntity
  8
0
100
AcDbPolygonMesh
 66
     1
 10
0.0
 20
0.0
 30
0.0
 70
    16
 71
     6
 72
     3
  0
VERTEX
  5
45F91
100
AcDbEntity
  8
0
100
AcDbVertex
100
AcDbPolygonMeshVertex
 10
2.12
 20
-1.415
 30
-1.73
 70
    64
  0
VERTEX
  5
45F92
100
AcDbEntity
  8
0
100
AcDbVertex
100
AcDbPolygonMeshVertex
 10
2.12
 20
-1.415
 30
-3.68
 70
    64
  0
VERTEX
  5
45F93
100
AcDbEntity
  8
0
100
AcDbVertex
100
AcDbPolygonMeshVertex
 10
2.12
 20
-1.415
 30
-3.68
 70
    64
  0
VERTEX
  5
45F94
100
AcDbEntity
  8
0
100
AcDbVertex
100
AcDbPolygonMeshVertex
 10
0.0
 20
-1.415
 30
-1.73
 70
    64
  0
VERTEX
  5
45F95
100
AcDbEntity
  8
0
100
AcDbVertex
100
AcDbPolygonMeshVertex
 10
0.0
 20
-1.415
 30
-3.68
 70
    64
  0
VERTEX
  5
45F96
100
AcDbEntity
  8
0
100
AcDbVertex
100
AcDbPolygonMeshVertex
 10
0.0
 20
-1.415
 30
-3.68
 70
    64
  0
VERTEX
  5
45F97
100
AcDbEntity
  8
0
100
AcDbVertex
100
AcDbPolygonMeshVertex
 10
0.0
 20
1.415
 30
-1.73
 70
    64
  0
VERTEX
  5
45F98
100
AcDbEntity
  8
0
100
AcDbVertex
100
AcDbPolygonMeshVertex
 10
0.0
 20
1.415
 30
-3.68
 70
    64
  0
VERTEX
  5
45F99
100
AcDbEntity
  8
0
100
AcDbVertex
100
AcDbPolygonMeshVertex
 10
0.0
 20
-1.415
 30
-3.68
 70
    64
  0
VERTEX
  5
45F9A
100
AcDbEntity
  8
0
100
AcDbVertex
100
AcDbPolygonMeshVertex
 10
2.12
 20
1.415
 30
-1.73
 70
    64
  0
VERTEX
  5
45F9B
100
AcDbEntity
  8
0
100
AcDbVertex
100
AcDbPolygonMeshVertex
 10
2.12
 20
1.415
 30
-3.68
 70
    64
  0
VERTEX
  5
45F9C
100
AcDbEntity
  8
0
100
AcDbVertex
100
AcDbPolygonMeshVertex
 10
2.12
 20
-1.415
 30
-3.68
 70
    64
  0
VERTEX
  5
45F9D
100
AcDbEntity
  8
0
100
AcDbVertex
100
AcDbPolygonMeshVertex
 10
2.12
 20
1.415
 30
-1.73
 70
    64
  0
VERTEX
  5
45F9E
100
AcDbEntity
  8
0
100
AcDbVertex
100
AcDbPolygonMeshVertex
 10
2.12
 20
1.415
 30
-1.73
 70
    64
  0
VERTEX
  5
45F9F
100
AcDbEntity
  8
0
100
AcDbVertex
100
AcDbPolygonMeshVertex
 10
2.12
 20
-1.415
 30
-1.73
 70
    64
  0
VERTEX
  5
45FA0
100
AcDbEntity
  8
0
100
AcDbVertex
100
AcDbPolygonMeshVertex
 10
0.0
 20
1.415
 30
-1.73
 70
    64
  0
VERTEX
  5
45FA1
100
AcDbEntity
  8
0
100
AcDbVertex
100
AcDbPolygonMeshVertex
 10
0.0
 20
1.415
 30
-1.73
 70
    64
  0
VERTEX
  5
45FA2
100
AcDbEntity
  8
0
100
AcDbVertex
100
AcDbPolygonMeshVertex
 10
0.0
 20
-1.415
 30
-1.73
 70
    64
  0
SEQEND
  5
45FA3
100
AcDbEntity
  8
0
  0
POLYLINE
  5
45FA4
100
AcDbEntity
  8
0
100
AcDbPolygonMesh
 66
     1
 10
0.0
 20
0.0
 30
0.0
 70
    16
 71
     6
 72
     3
  0
VERTEX
  5
45FA5
100
AcDbEntity
  8
0
100
AcDbVertex
100
AcDbPolygonMeshVertex
 10
2.12
 20
-1.415
 30
-3.68
 70
    64
  0
VERTEX
  5
45FA6
100
AcDbEntity
  8
0
100
AcDbVertex
100
AcDbPolygonMeshVertex
 10
2.12
 20
-1.415
 30
-3.88
 70
    64
  0
VERTEX
  5
45FA7
100
AcDbEntity
  8
0
100
AcDbVertex
100
AcDbPolygonMeshVertex
 10
2.12
 20
-1.415
 30
-3.88
 70
    64
  0
VERTEX
  5
45FA8
100
AcDbEntity
  8
0
100
AcDbVertex
100
AcDbPolygonMeshVertex
 10
0.0
 20
-1.415
 30
-3.68
 70
    64
  0
VERTEX
  5
45FA9
100
AcDbEntity
  8
0
100
AcDbVertex
100
AcDbPolygonMeshVertex
 10
0.0
 20
-1.415
 30
-3.88
 70
    64
  0
VERTEX
  5
45FAA
100
AcDbEntity
  8
0
100
AcDbVertex
100
AcDbPolygonMeshVertex
 10
0.0
 20
-1.415
 30
-3.88
 70
    64
  0
VERTEX
  5
45FAB
100
AcDbEntity
  8
0
100
AcDbVertex
100
AcDbPolygonMeshVertex
 10
0.0
 20
-0.645
 30
-3.68
 70
    64
  0
VERTEX
  5
45FAC
100
AcDbEntity
  8
0
100
AcDbVertex
100
AcDbPolygonMeshVertex
 10
0.0
 20
-0.645
 30
-3.88
 70
    64
  0
VERTEX
  5
45FAD
100
AcDbEntity
  8
0
100
AcDbVertex
100
AcDbPolygonMeshVertex
 10
0.0
 20
-1.415
 30
-3.88
 70
    64
  0
VERTEX
  5
45FAE
100
AcDbEntity
  8
0
100
AcDbVertex
100
AcDbPolygonMeshVertex
 10
2.12
 20
-0.645
 30
-3.68
 70
    64
  0
VERTEX
  5
45FAF
100
AcDbEntity
  8
0
100
AcDbVertex
100
AcDbPolygonMeshVertex
 10
2.12
 20
-0.645
 30
-3.88
 70
    64
  0
VERTEX
  5
45FB0
100
AcDbEntity
  8
0
100
AcDbVertex
100
AcDbPolygonMeshVertex
 10
2.12
 20
-1.415
 30
-3.88
 70
    64
  0
VERTEX
  5
45FB1
100
AcDbEntity
  8
0
100
AcDbVertex
100
AcDbPolygonMeshVertex
 10
2.12
 20
-0.645
 30
-3.68
 70
    64
  0
VERTEX
  5
45FB2
100
AcDbEntity
  8
0
100
AcDbVertex
100
AcDbPolygonMeshVertex
 10
2.12
 20
-0.645
 30
-3.68
 70
    64
  0
VERTEX
  5
45FB3
100
AcDbEntity
  8
0
100
AcDbVertex
100
AcDbPolygonMeshVertex
 10
2.12
 20
-1.415
 30
-3.68
 70
    64
  0
VERTEX
  5
45FB4
100
AcDbEntity
  8
0
100
AcDbVertex
100
AcDbPolygonMeshVertex
 10
0.0
 20
-0.645
 30
-3.68
 70
    64
  0
VERTEX
  5
45FB5
100
AcDbEntity
  8
0
100
AcDbVertex
100
AcDbPolygonMeshVertex
 10
0.0
 20
-0.645
 30
-3.68
 70
    64
  0
VERTEX
  5
45FB6
100
AcDbEntity
  8
0
100
AcDbVertex
100
AcDbPolygonMeshVertex
 10
0.0
 20
-1.415
 30
-3.68
 70
    64
  0
SEQEND
  5
45FB7
100
AcDbEntity
  8
0
  0
LINE
  5
45FB8
100
AcDbEntity
  8
DIMS-MTG-HOLES
  6
CONTINUOUS
100
AcDbLine
 10
1.46
 20
1.465
 30
-3.88
 11
1.46
 21
1.645
 31
-3.88
  0
CIRCLE
  5
45FB9
100
AcDbEntity
  8
0
100
AcDbCircle
 10
1.46
 20
1.555
 30
-3.88
 40
0.09
  0
LINE
  5
45FBA
100
AcDbEntity
  8
DIMS-MTG-HOLES
  6
CONTINUOUS
100
AcDbLine
 10
1.37
 20
1.555
 30
-3.88
 11
1.55
 21
1.555
 31
-3.88
  0
POLYLINE
  5
45FBB
100
AcDbEntity
  8
0
100
AcDbPolygonMesh
 66
     1
 10
0.0
 20
0.0
 30
0.0
 70
    16
 71
     6
 72
     3
  0
VERTEX
  5
45FBC
100
AcDbEntity
  8
0
100
AcDbVertex
100
AcDbPolygonMeshVertex
 10
1.65
 20
1.415
 30
-3.73
 70
    64
  0
VERTEX
  5
45FBD
100
AcDbEntity
  8
0
100
AcDbVertex
100
AcDbPolygonMeshVertex
 10
1.65
 20
1.415
 30
-3.88
 70
    64
  0
VERTEX
  5
45FBE
100
AcDbEntity
  8
0
100
AcDbVertex
100
AcDbPolygonMeshVertex
 10
1.65
 20
1.415
 30
-3.88
 70
    64
  0
VERTEX
  5
45FBF
100
AcDbEntity
  8
0
100
AcDbVertex
100
AcDbPolygonMeshVertex
 10
1.27
 20
1.415
 30
-3.73
 70
    64
  0
VERTEX
  5
45FC0
100
AcDbEntity
  8
0
100
AcDbVertex
100
AcDbPolygonMeshVertex
 10
1.27
 20
1.415
 30
-3.88
 70
    64
  0
VERTEX
  5
45FC1
100
AcDbEntity
  8
0
100
AcDbVertex
100
AcDbPolygonMeshVertex
 10
1.27
 20
1.415
 30
-3.88
 70
    64
  0
VERTEX
  5
45FC2
100
AcDbEntity
  8
0
100
AcDbVertex
100
AcDbPolygonMeshVertex
 10
1.27
 20
1.695
 30
-3.73
 70
    64
  0
VERTEX
  5
45FC3
100
AcDbEntity
  8
0
100
AcDbVertex
100
AcDbPolygonMeshVertex
 10
1.27
 20
1.695
 30
-3.88
 70
    64
  0
VERTEX
  5
45FC4
100
AcDbEntity
  8
0
100
AcDbVertex
100
AcDbPolygonMeshVertex
 10
1.27
 20
1.415
 30
-3.88
 70
    64
  0
VERTEX
  5
45FC5
100
AcDbEntity
  8
0
100
AcDbVertex
100
AcDbPolygonMeshVertex
 10
1.65
 20
1.695
 30
-3.73
 70
    64
  0
VERTEX
  5
45FC6
100
AcDbEntity
  8
0
100
AcDbVertex
100
AcDbPolygonMeshVertex
 10
1.65
 20
1.695
 30
-3.88
 70
    64
  0
VERTEX
  5
45FC7
100
AcDbEntity
  8
0
100
AcDbVertex
100
AcDbPolygonMeshVertex
 10
1.65
 20
1.415
 30
-3.88
 70
    64
  0
VERTEX
  5
45FC8
100
AcDbEntity
  8
0
100
AcDbVertex
100
AcDbPolygonMeshVertex
 10
1.65
 20
1.695
 30
-3.73
 70
    64
  0
VERTEX
  5
45FC9
100
AcDbEntity
  8
0
100
AcDbVertex
100
AcDbPolygonMeshVertex
 10
1.65
 20
1.695
 30
-3.73
 70
    64
  0
VERTEX
  5
45FCA
100
AcDbEntity
  8
0
100
AcDbVertex
100
AcDbPolygonMeshVertex
 10
1.65
 20
1.415
 30
-3.73
 70
    64
  0
VERTEX
  5
45FCB
100
AcDbEntity
  8
0
100
AcDbVertex
100
AcDbPolygonMeshVertex
 10
1.27
 20
1.695
 30
-3.73
 70
    64
  0
VERTEX
  5
45FCC
100
AcDbEntity
  8
0
100
AcDbVertex
100
AcDbPolygonMeshVertex
 10
1.27
 20
1.695
 30
-3.73
 70
    64
  0
VERTEX
  5
45FCD
100
AcDbEntity
  8
0
100
AcDbVertex
100
AcDbPolygonMeshVertex
 10
1.27
 20
1.415
 30
-3.73
 70
    64
  0
SEQEND
  5
45FCE
100
AcDbEntity
  8
0
  0
LINE
  5
45FCF
100
AcDbEntity
  8
DIMS-MTG-HOLES
  6
CONTINUOUS
100
AcDbLine
 10
0.66
 20
-1.645
 30
-3.88
 11
0.66
 21
-1.465
 31
-3.88
  0
LINE
  5
45FD0
100
AcDbEntity
  8
DIMS-MTG-HOLES
  6
CONTINUOUS
100
AcDbLine
 10
0.57
 20
-1.555
 30
-3.88
 11
0.75
 21
-1.555
 31
-3.88
  0
CIRCLE
  5
45FD1
100
AcDbEntity
  8
0
100
AcDbCircle
 10
0.66
 20
-1.555
 30
-3.88
 40
0.09
  0
CIRCLE
  5
45FD2
100
AcDbEntity
  8
0
100
AcDbCircle
 10
0.66
 20
-1.555
 30
-3.73
 40
0.09
  0
POLYLINE
  5
45FD3
100
AcDbEntity
  8
0
100
AcDbPolygonMesh
 66
     1
 10
0.0
 20
0.0
 30
0.0
 70
    16
 71
     6
 72
     3
  0
VERTEX
  5
45FD4
100
AcDbEntity
  8
0
100
AcDbVertex
100
AcDbPolygonMeshVertex
 10
0.85
 20
-1.695
 30
-3.73
 70
    64
  0
VERTEX
  5
45FD5
100
AcDbEntity
  8
0
100
AcDbVertex
100
AcDbPolygonMeshVertex
 10
0.85
 20
-1.695
 30
-3.88
 70
    64
  0
VERTEX
  5
45FD6
100
AcDbEntity
  8
0
100
AcDbVertex
100
AcDbPolygonMeshVertex
 10
0.85
 20
-1.695
 30
-3.88
 70
    64
  0
VERTEX
  5
45FD7
100
AcDbEntity
  8
0
100
AcDbVertex
100
AcDbPolygonMeshVertex
 10
0.47
 20
-1.695
 30
-3.73
 70
    64
  0
VERTEX
  5
45FD8
100
AcDbEntity
  8
0
100
AcDbVertex
100
AcDbPolygonMeshVertex
 10
0.47
 20
-1.695
 30
-3.88
 70
    64
  0
VERTEX
  5
45FD9
100
AcDbEntity
  8
0
100
AcDbVertex
100
AcDbPolygonMeshVertex
 10
0.47
 20
-1.695
 30
-3.88
 70
    64
  0
VERTEX
  5
45FDA
100
AcDbEntity
  8
0
100
AcDbVertex
100
AcDbPolygonMeshVertex
 10
0.47
 20
-1.415
 30
-3.73
 70
    64
  0
VERTEX
  5
45FDB
100
AcDbEntity
  8
0
100
AcDbVertex
100
AcDbPolygonMeshVertex
 10
0.47
 20
-1.415
 30
-3.88
 70
    64
  0
VERTEX
  5
45FDC
100
AcDbEntity
  8
0
100
AcDbVertex
100
AcDbPolygonMeshVertex
 10
0.47
 20
-1.695
 30
-3.88
 70
    64
  0
VERTEX
  5
45FDD
100
AcDbEntity
  8
0
100
AcDbVertex
100
AcDbPolygonMeshVertex
 10
0.85
 20
-1.415
 30
-3.73
 70
    64
  0
VERTEX
  5
45FDE
100
AcDbEntity
  8
0
100
AcDbVertex
100
AcDbPolygonMeshVertex
 10
0.85
 20
-1.415
 30
-3.88
 70
    64
  0
VERTEX
  5
45FDF
100
AcDbEntity
  8
0
100
AcDbVertex
100
AcDbPolygonMeshVertex
 10
0.85
 20
-1.695
 30
-3.88
 70
    64
  0
VERTEX
  5
45FE0
100
AcDbEntity
  8
0
100
AcDbVertex
100
AcDbPolygonMeshVertex
 10
0.85
 20
-1.415
 30
-3.73
 70
    64
  0
VERTEX
  5
45FE1
100
AcDbEntity
  8
0
100
AcDbVertex
100
AcDbPolygonMeshVertex
 10
0.85
 20
-1.415
 30
-3.73
 70
    64
  0
VERTEX
  5
45FE2
100
AcDbEntity
  8
0
100
AcDbVertex
100
AcDbPolygonMeshVertex
 10
0.85
 20
-1.695
 30
-3.73
 70
    64
  0
VERTEX
  5
45FE3
100
AcDbEntity
  8
0
100
AcDbVertex
100
AcDbPolygonMeshVertex
 10
0.47
 20
-1.415
 30
-3.73
 70
    64
  0
VERTEX
  5
45FE4
100
AcDbEntity
  8
0
100
AcDbVertex
100
AcDbPolygonMeshVertex
 10
0.47
 20
-1.415
 30
-3.73
 70
    64
  0
VERTEX
  5
45FE5
100
AcDbEntity
  8
0
100
AcDbVertex
100
AcDbPolygonMeshVertex
 10
0.47
 20
-1.695
 30
-3.73
 70
    64
  0
SEQEND
  5
45FE6
100
AcDbEntity
  8
0
  0
POLYLINE
  5
45FE7
100
AcDbEntity
  8
0
100
AcDbPolygonMesh
 66
     1
 10
0.0
 20
0.0
 30
0.0
 70
    16
 71
     6
 72
     3
  0
VERTEX
  5
45FE8
100
AcDbEntity
  8
0
100
AcDbVertex
100
AcDbPolygonMeshVertex
 10
0.61
 20
0.76
 30
-0.42
 70
    64
  0
VERTEX
  5
45FE9
100
AcDbEntity
  8
0
100
AcDbVertex
100
AcDbPolygonMeshVertex
 10
0.61
 20
0.76
 30
-1.6
 70
    64
  0
VERTEX
  5
45FEA
100
AcDbEntity
  8
0
100
AcDbVertex
100
AcDbPolygonMeshVertex
 10
0.61
 20
0.76
 30
-1.6
 70
    64
  0
VERTEX
  5
45FEB
100
AcDbEntity
  8
0
100
AcDbVertex
100
AcDbPolygonMeshVertex
 10
1.34
 20
0.76
 30
-0.42
 70
    64
  0
VERTEX
  5
45FEC
100
AcDbEntity
  8
0
100
AcDbVertex
100
AcDbPolygonMeshVertex
 10
1.34
 20
0.76
 30
-1.6
 70
    64
  0
VERTEX
  5
45FED
100
AcDbEntity
  8
0
100
AcDbVertex
100
AcDbPolygonMeshVertex
 10
1.34
 20
0.76
 30
-1.6
 70
    64
  0
VERTEX
  5
45FEE
100
AcDbEntity
  8
0
100
AcDbVertex
100
AcDbPolygonMeshVertex
 10
1.34
 20
0.64
 30
-0.42
 70
    64
  0
VERTEX
  5
45FEF
100
AcDbEntity
  8
0
100
AcDbVertex
100
AcDbPolygonMeshVertex
 10
1.34
 20
0.64
 30
-1.6
 70
    64
  0
VERTEX
  5
45FF0
100
AcDbEntity
  8
0
100
AcDbVertex
100
AcDbPolygonMeshVertex
 10
1.34
 20
0.76
 30
-1.6
 70
    64
  0
VERTEX
  5
45FF1
100
AcDbEntity
  8
0
100
AcDbVertex
100
AcDbPolygonMeshVertex
 10
0.61
 20
0.64
 30
-0.42
 70
    64
  0
VERTEX
  5
45FF2
100
AcDbEntity
  8
0
100
AcDbVertex
100
AcDbPolygonMeshVertex
 10
0.61
 20
0.64
 30
-1.6
 70
    64
  0
VERTEX
  5
45FF3
100
AcDbEntity
  8
0
100
AcDbVertex
100
AcDbPolygonMeshVertex
 10
0.61
 20
0.76
 30
-1.6
 70
    64
  0
VERTEX
  5
45FF4
100
AcDbEntity
  8
0
100
AcDbVertex
100
AcDbPolygonMeshVertex
 10
0.61
 20
0.64
 30
-0.42
 70
    64
  0
VERTEX
  5
45FF5
100
AcDbEntity
  8
0
100
AcDbVertex
100
AcDbPolygonMeshVertex
 10
0.61
 20
0.64
 30
-0.42
 70
    64
  0
VERTEX
  5
45FF6
100
AcDbEntity
  8
0
100
AcDbVertex
100
AcDbPolygonMeshVertex
 10
0.61
 20
0.76
 30
-0.42
 70
    64
  0
VERTEX
  5
45FF7
100
AcDbEntity
  8
0
100
AcDbVertex
100
AcDbPolygonMeshVertex
 10
1.34
 20
0.64
 30
-0.42
 70
    64
  0
VERTEX
  5
45FF8
100
AcDbEntity
  8
0
100
AcDbVertex
100
AcDbPolygonMeshVertex
 10
1.34
 20
0.64
 30
-0.42
 70
    64
  0
VERTEX
  5
45FF9
100
AcDbEntity
  8
0
100
AcDbVertex
100
AcDbPolygonMeshVertex
 10
1.34
 20
0.76
 30
-0.42
 70
    64
  0
SEQEND
  5
45FFA
100
AcDbEntity
  8
0
  0
POLYLINE
  5
45FFB
100
AcDbEntity
  8
0
100
AcDbPolygonMesh
 66
     1
 10
0.0
 20
0.0
 30
0.0
 70
    16
 71
     6
 72
     3
  0
VERTEX
  5
45FFC
100
AcDbEntity
  8
0
100
AcDbVertex
100
AcDbPolygonMeshVertex
 10
-0.61
 20
0.76
 30
-0.42
 70
    64
  0
VERTEX
  5
45FFD
100
AcDbEntity
  8
0
100
AcDbVertex
100
AcDbPolygonMeshVertex
 10
-0.61
 20
0.76
 30
-1.6
 70
    64
  0
VERTEX
  5
45FFE
100
AcDbEntity
  8
0
100
AcDbVertex
100
AcDbPolygonMeshVertex
 10
-0.61
 20
0.76
 30
-1.6
 70
    64
  0
VERTEX
  5
45FFF
100
AcDbEntity
  8
0
100
AcDbVertex
100
AcDbPolygonMeshVertex
 10
-1.34
 20
0.76
 30
-0.42
 70
    64
  0
VERTEX
  5
46000
100
AcDbEntity
  8
0
100
AcDbVertex
100
AcDbPolygonMeshVertex
 10
-1.34
 20
0.76
 30
-1.6
 70
    64
  0
VERTEX
  5
46001
100
AcDbEntity
  8
0
100
AcDbVertex
100
AcDbPolygonMeshVertex
 10
-1.34
 20
0.76
 30
-1.6
 70
    64
  0
VERTEX
  5
46002
100
AcDbEntity
  8
0
100
AcDbVertex
100
AcDbPolygonMeshVertex
 10
-1.34
 20
0.64
 30
-0.42
 70
    64
  0
VERTEX
  5
46003
100
AcDbEntity
  8
0
100
AcDbVertex
100
AcDbPolygonMeshVertex
 10
-1.34
 20
0.64
 30
-1.6
 70
    64
  0
VERTEX
  5
46004
100
AcDbEntity
  8
0
100
AcDbVertex
100
AcDbPolygonMeshVertex
 10
-1.34
 20
0.76
 30
-1.6
 70
    64
  0
VERTEX
  5
46005
100
AcDbEntity
  8
0
100
AcDbVertex
100
AcDbPolygonMeshVertex
 10
-0.61
 20
0.64
 30
-0.42
 70
    64
  0
VERTEX
  5
46006
100
AcDbEntity
  8
0
100
AcDbVertex
100
AcDbPolygonMeshVertex
 10
-0.61
 20
0.64
 30
-1.6
 70
    64
  0
VERTEX
  5
46007
100
AcDbEntity
  8
0
100
AcDbVertex
100
AcDbPolygonMeshVertex
 10
-0.61
 20
0.76
 30
-1.6
 70
    64
  0
VERTEX
  5
46008
100
AcDbEntity
  8
0
100
AcDbVertex
100
AcDbPolygonMeshVertex
 10
-0.61
 20
0.64
 30
-0.42
 70
    64
  0
VERTEX
  5
46009
100
AcDbEntity
  8
0
100
AcDbVertex
100
AcDbPolygonMeshVertex
 10
-0.61
 20
0.64
 30
-0.42
 70
    64
  0
VERTEX
  5
4600A
100
AcDbEntity
  8
0
100
AcDbVertex
100
AcDbPolygonMeshVertex
 10
-0.61
 20
0.76
 30
-0.42
 70
    64
  0
VERTEX
  5
4600B
100
AcDbEntity
  8
0
100
AcDbVertex
100
AcDbPolygonMeshVertex
 10
-1.34
 20
0.64
 30
-0.42
 70
    64
  0
VERTEX
  5
4600C
100
AcDbEntity
  8
0
100
AcDbVertex
100
AcDbPolygonMeshVertex
 10
-1.34
 20
0.64
 30
-0.42
 70
    64
  0
VERTEX
  5
4600D
100
AcDbEntity
  8
0
100
AcDbVertex
100
AcDbPolygonMeshVertex
 10
-1.34
 20
0.76
 30
-0.42
 70
    64
  0
SEQEND
  5
4600E
100
AcDbEntity
  8
0
  0
POLYLINE
  5
4600F
100
AcDbEntity
  8
0
100
AcDbPolygonMesh
 66
     1
 10
0.0
 20
0.0
 30
0.0
 70
    16
 71
     6
 72
     3
  0
VERTEX
  5
46010
100
AcDbEntity
  8
0
100
AcDbVertex
100
AcDbPolygonMeshVertex
 10
0.61
 20
-0.76
 30
-0.42
 70
    64
  0
VERTEX
  5
46011
100
AcDbEntity
  8
0
100
AcDbVertex
100
AcDbPolygonMeshVertex
 10
0.61
 20
-0.76
 30
-1.6
 70
    64
  0
VERTEX
  5
46012
100
AcDbEntity
  8
0
100
AcDbVertex
100
AcDbPolygonMeshVertex
 10
0.61
 20
-0.76
 30
-1.6
 70
    64
  0
VERTEX
  5
46013
100
AcDbEntity
  8
0
100
AcDbVertex
100
AcDbPolygonMeshVertex
 10
1.34
 20
-0.76
 30
-0.42
 70
    64
  0
VERTEX
  5
46014
100
AcDbEntity
  8
0
100
AcDbVertex
100
AcDbPolygonMeshVertex
 10
1.34
 20
-0.76
 30
-1.6
 70
    64
  0
VERTEX
  5
46015
100
AcDbEntity
  8
0
100
AcDbVertex
100
AcDbPolygonMeshVertex
 10
1.34
 20
-0.76
 30
-1.6
 70
    64
  0
VERTEX
  5
46016
100
AcDbEntity
  8
0
100
AcDbVertex
100
AcDbPolygonMeshVertex
 10
1.34
 20
-0.64
 30
-0.42
 70
    64
  0
VERTEX
  5
46017
100
AcDbEntity
  8
0
100
AcDbVertex
100
AcDbPolygonMeshVertex
 10
1.34
 20
-0.64
 30
-1.6
 70
    64
  0
VERTEX
  5
46018
100
AcDbEntity
  8
0
100
AcDbVertex
100
AcDbPolygonMeshVertex
 10
1.34
 20
-0.76
 30
-1.6
 70
    64
  0
VERTEX
  5
46019
100
AcDbEntity
  8
0
100
AcDbVertex
100
AcDbPolygonMeshVertex
 10
0.61
 20
-0.64
 30
-0.42
 70
    64
  0
VERTEX
  5
4601A
100
AcDbEntity
  8
0
100
AcDbVertex
100
AcDbPolygonMeshVertex
 10
0.61
 20
-0.64
 30
-1.6
 70
    64
  0
VERTEX
  5
4601B
100
AcDbEntity
  8
0
100
AcDbVertex
100
AcDbPolygonMeshVertex
 10
0.61
 20
-0.76
 30
-1.6
 70
    64
  0
VERTEX
  5
4601C
100
AcDbEntity
  8
0
100
AcDbVertex
100
AcDbPolygonMeshVertex
 10
0.61
 20
-0.64
 30
-0.42
 70
    64
  0
VERTEX
  5
4601D
100
AcDbEntity
  8
0
100
AcDbVertex
100
AcDbPolygonMeshVertex
 10
0.61
 20
-0.64
 30
-0.42
 70
    64
  0
VERTEX
  5
4601E
100
AcDbEntity
  8
0
100
AcDbVertex
100
AcDbPolygonMeshVertex
 10
0.61
 20
-0.76
 30
-0.42
 70
    64
  0
VERTEX
  5
4601F
100
AcDbEntity
  8
0
100
AcDbVertex
100
AcDbPolygonMeshVertex
 10
1.34
 20
-0.64
 30
-0.42
 70
    64
  0
VERTEX
  5
46020
100
AcDbEntity
  8
0
100
AcDbVertex
100
AcDbPolygonMeshVertex
 10
1.34
 20
-0.64
 30
-0.42
 70
    64
  0
VERTEX
  5
46021
100
AcDbEntity
  8
0
100
AcDbVertex
100
AcDbPolygonMeshVertex
 10
1.34
 20
-0.76
 30
-0.42
 70
    64
  0
SEQEND
  5
46022
100
AcDbEntity
  8
0
  0
POLYLINE
  5
46023
100
AcDbEntity
  8
0
100
AcDbPolygonMesh
 66
     1
 10
0.0
 20
0.0
 30
0.0
 70
    16
 71
     6
 72
     3
  0
VERTEX
  5
46024
100
AcDbEntity
  8
0
100
AcDbVertex
100
AcDbPolygonMeshVertex
 10
-0.61
 20
-0.76
 30
-0.42
 70
    64
  0
VERTEX
  5
46025
100
AcDbEntity
  8
0
100
AcDbVertex
100
AcDbPolygonMeshVertex
 10
-0.61
 20
-0.76
 30
-1.6
 70
    64
  0
VERTEX
  5
46026
100
AcDbEntity
  8
0
100
AcDbVertex
100
AcDbPolygonMeshVertex
 10
-0.61
 20
-0.76
 30
-1.6
 70
    64
  0
VERTEX
  5
46027
100
AcDbEntity
  8
0
100
AcDbVertex
100
AcDbPolygonMeshVertex
 10
-1.34
 20
-0.76
 30
-0.42
 70
    64
  0
VERTEX
  5
46028
100
AcDbEntity
  8
0
100
AcDbVertex
100
AcDbPolygonMeshVertex
 10
-1.34
 20
-0.76
 30
-1.6
 70
    64
  0
VERTEX
  5
46029
100
AcDbEntity
  8
0
100
AcDbVertex
100
AcDbPolygonMeshVertex
 10
-1.34
 20
-0.76
 30
-1.6
 70
    64
  0
VERTEX
  5
4602A
100
AcDbEntity
  8
0
100
AcDbVertex
100
AcDbPolygonMeshVertex
 10
-1.34
 20
-0.64
 30
-0.42
 70
    64
  0
VERTEX
  5
4602B
100
AcDbEntity
  8
0
100
AcDbVertex
100
AcDbPolygonMeshVertex
 10
-1.34
 20
-0.64
 30
-1.6
 70
    64
  0
VERTEX
  5
4602C
100
AcDbEntity
  8
0
100
AcDbVertex
100
AcDbPolygonMeshVertex
 10
-1.34
 20
-0.76
 30
-1.6
 70
    64
  0
VERTEX
  5
4602D
100
AcDbEntity
  8
0
100
AcDbVertex
100
AcDbPolygonMeshVertex
 10
-0.61
 20
-0.64
 30
-0.42
 70
    64
  0
VERTEX
  5
4602E
100
AcDbEntity
  8
0
100
AcDbVertex
100
AcDbPolygonMeshVertex
 10
-0.61
 20
-0.64
 30
-1.6
 70
    64
  0
VERTEX
  5
4602F
100
AcDbEntity
  8
0
100
AcDbVertex
100
AcDbPolygonMeshVertex
 10
-0.61
 20
-0.76
 30
-1.6
 70
    64
  0
VERTEX
  5
46030
100
AcDbEntity
  8
0
100
AcDbVertex
100
AcDbPolygonMeshVertex
 10
-0.61
 20
-0.64
 30
-0.42
 70
    64
  0
VERTEX
  5
46031
100
AcDbEntity
  8
0
100
AcDbVertex
100
AcDbPolygonMeshVertex
 10
-0.61
 20
-0.64
 30
-0.42
 70
    64
  0
VERTEX
  5
46032
100
AcDbEntity
  8
0
100
AcDbVertex
100
AcDbPolygonMeshVertex
 10
-0.61
 20
-0.76
 30
-0.42
 70
    64
  0
VERTEX
  5
46033
100
AcDbEntity
  8
0
100
AcDbVertex
100
AcDbPolygonMeshVertex
 10
-1.34
 20
-0.64
 30
-0.42
 70
    64
  0
VERTEX
  5
46034
100
AcDbEntity
  8
0
100
AcDbVertex
100
AcDbPolygonMeshVertex
 10
-1.34
 20
-0.64
 30
-0.42
 70
    64
  0
VERTEX
  5
46035
100
AcDbEntity
  8
0
100
AcDbVertex
100
AcDbPolygonMeshVertex
 10
-1.34
 20
-0.76
 30
-0.42
 70
    64
  0
SEQEND
  5
46036
100
AcDbEntity
  8
0
  0
POLYLINE
  5
46037
100
AcDbEntity
  8
0
100
AcDbPolygonMesh
 66
     1
 10
0.0
 20
0.0
 30
0.0
 70
    16
 71
     6
 72
     3
  0
VERTEX
  5
46038
100
AcDbEntity
  8
0
100
AcDbVertex
100
AcDbPolygonMeshVertex
 10
0.59
 20
0.86
 30
0.0
 70
    64
  0
VERTEX
  5
46039
100
AcDbEntity
  8
0
100
AcDbVertex
100
AcDbPolygonMeshVertex
 10
0.59
 20
0.86
 30
-0.42
 70
    64
  0
VERTEX
  5
4603A
100
AcDbEntity
  8
0
100
AcDbVertex
100
AcDbPolygonMeshVertex
 10
0.59
 20
0.86
 30
-0.42
 70
    64
  0
VERTEX
  5
4603B
100
AcDbEntity
  8
0
100
AcDbVertex
100
AcDbPolygonMeshVertex
 10
0.84
 20
0.86
 30
0.0
 70
    64
  0
VERTEX
  5
4603C
100
AcDbEntity
  8
0
100
AcDbVertex
100
AcDbPolygonMeshVertex
 10
0.84
 20
0.86
 30
-0.42
 70
    64
  0
VERTEX
  5
4603D
100
AcDbEntity
  8
0
100
AcDbVertex
100
AcDbPolygonMeshVertex
 10
0.84
 20
0.86
 30
-0.42
 70
    64
  0
VERTEX
  5
4603E
100
AcDbEntity
  8
0
100
AcDbVertex
100
AcDbPolygonMeshVertex
 10
0.84
 20
0.64
 30
0.0
 70
    64
  0
VERTEX
  5
4603F
100
AcDbEntity
  8
0
100
AcDbVertex
100
AcDbPolygonMeshVertex
 10
0.84
 20
0.64
 30
-0.42
 70
    64
  0
VERTEX
  5
46040
100
AcDbEntity
  8
0
100
AcDbVertex
100
AcDbPolygonMeshVertex
 10
0.84
 20
0.86
 30
-0.42
 70
    64
  0
VERTEX
  5
46041
100
AcDbEntity
  8
0
100
AcDbVertex
100
AcDbPolygonMeshVertex
 10
0.59
 20
0.64
 30
0.0
 70
    64
  0
VERTEX
  5
46042
100
AcDbEntity
  8
0
100
AcDbVertex
100
AcDbPolygonMeshVertex
 10
0.59
 20
0.64
 30
-0.42
 70
    64
  0
VERTEX
  5
46043
100
AcDbEntity
  8
0
100
AcDbVertex
100
AcDbPolygonMeshVertex
 10
0.59
 20
0.86
 30
-0.42
 70
    64
  0
VERTEX
  5
46044
100
AcDbEntity
  8
0
100
AcDbVertex
100
AcDbPolygonMeshVertex
 10
0.59
 20
0.64
 30
0.0
 70
    64
  0
VERTEX
  5
46045
100
AcDbEntity
  8
0
100
AcDbVertex
100
AcDbPolygonMeshVertex
 10
0.59
 20
0.64
 30
0.0
 70
    64
  0
VERTEX
  5
46046
100
AcDbEntity
  8
0
100
AcDbVertex
100
AcDbPolygonMeshVertex
 10
0.59
 20
0.86
 30
0.0
 70
    64
  0
VERTEX
  5
46047
100
AcDbEntity
  8
0
100
AcDbVertex
100
AcDbPolygonMeshVertex
 10
0.84
 20
0.64
 30
0.0
 70
    64
  0
VERTEX
  5
46048
100
AcDbEntity
  8
0
100
AcDbVertex
100
AcDbPolygonMeshVertex
 10
0.84
 20
0.64
 30
0.0
 70
    64
  0
VERTEX
  5
46049
100
AcDbEntity
  8
0
100
AcDbVertex
100
AcDbPolygonMeshVertex
 10
0.84
 20
0.86
 30
0.0
 70
    64
  0
SEQEND
  5
4604A
100
AcDbEntity
  8
0
  0
POLYLINE
  5
4604B
100
AcDbEntity
  8
0
100
AcDbPolygonMesh
 66
     1
 10
0.0
 20
0.0
 30
0.0
 70
    16
 71
     6
 72
     3
  0
VERTEX
  5
4604C
100
AcDbEntity
  8
0
100
AcDbVertex
100
AcDbPolygonMeshVertex
 10
0.59
 20
-0.86
 30
0.0
 70
    64
  0
VERTEX
  5
4604D
100
AcDbEntity
  8
0
100
AcDbVertex
100
AcDbPolygonMeshVertex
 10
0.59
 20
-0.86
 30
-0.42
 70
    64
  0
VERTEX
  5
4604E
100
AcDbEntity
  8
0
100
AcDbVertex
100
AcDbPolygonMeshVertex
 10
0.59
 20
-0.86
 30
-0.42
 70
    64
  0
VERTEX
  5
4604F
100
AcDbEntity
  8
0
100
AcDbVertex
100
AcDbPolygonMeshVertex
 10
0.84
 20
-0.86
 30
0.0
 70
    64
  0
VERTEX
  5
46050
100
AcDbEntity
  8
0
100
AcDbVertex
100
AcDbPolygonMeshVertex
 10
0.84
 20
-0.86
 30
-0.42
 70
    64
  0
VERTEX
  5
46051
100
AcDbEntity
  8
0
100
AcDbVertex
100
AcDbPolygonMeshVertex
 10
0.84
 20
-0.86
 30
-0.42
 70
    64
  0
VERTEX
  5
46052
100
AcDbEntity
  8
0
100
AcDbVertex
100
AcDbPolygonMeshVertex
 10
0.84
 20
-0.64
 30
0.0
 70
    64
  0
VERTEX
  5
46053
100
AcDbEntity
  8
0
100
AcDbVertex
100
AcDbPolygonMeshVertex
 10
0.84
 20
-0.64
 30
-0.42
 70
    64
  0
VERTEX
  5
46054
100
AcDbEntity
  8
0
100
AcDbVertex
100
AcDbPolygonMeshVertex
 10
0.84
 20
-0.86
 30
-0.42
 70
    64
  0
VERTEX
  5
46055
100
AcDbEntity
  8
0
100
AcDbVertex
100
AcDbPolygonMeshVertex
 10
0.59
 20
-0.64
 30
0.0
 70
    64
  0
VERTEX
  5
46056
100
AcDbEntity
  8
0
100
AcDbVertex
100
AcDbPolygonMeshVertex
 10
0.59
 20
-0.64
 30
-0.42
 70
    64
  0
VERTEX
  5
46057
100
AcDbEntity
  8
0
100
AcDbVertex
100
AcDbPolygonMeshVertex
 10
0.59
 20
-0.86
 30
-0.42
 70
    64
  0
VERTEX
  5
46058
100
AcDbEntity
  8
0
100
AcDbVertex
100
AcDbPolygonMeshVertex
 10
0.59
 20
-0.64
 30
0.0
 70
    64
  0
VERTEX
  5
46059
100
AcDbEntity
  8
0
100
AcDbVertex
100
AcDbPolygonMeshVertex
 10
0.59
 20
-0.64
 30
0.0
 70
    64
  0
VERTEX
  5
4605A
100
AcDbEntity
  8
0
100
AcDbVertex
100
AcDbPolygonMeshVertex
 10
0.59
 20
-0.86
 30
0.0
 70
    64
  0
VERTEX
  5
4605B
100
AcDbEntity
  8
0
100
AcDbVertex
100
AcDbPolygonMeshVertex
 10
0.84
 20
-0.64
 30
0.0
 70
    64
  0
VERTEX
  5
4605C
100
AcDbEntity
  8
0
100
AcDbVertex
100
AcDbPolygonMeshVertex
 10
0.84
 20
-0.64
 30
0.0
 70
    64
  0
VERTEX
  5
4605D
100
AcDbEntity
  8
0
100
AcDbVertex
100
AcDbPolygonMeshVertex
 10
0.84
 20
-0.86
 30
0.0
 70
    64
  0
SEQEND
  5
4605E
100
AcDbEntity
  8
0
  0
POLYLINE
  5
4605F
100
AcDbEntity
  8
0
100
AcDbPolygonMesh
 66
     1
 10
0.0
 20
0.0
 30
0.0
 70
    16
 71
     6
 72
     3
  0
VERTEX
  5
46060
100
AcDbEntity
  8
0
100
AcDbVertex
100
AcDbPolygonMeshVertex
 10
1.76
 20
-0.64
 30
0.0
 70
    64
  0
VERTEX
  5
46061
100
AcDbEntity
  8
0
100
AcDbVertex
100
AcDbPolygonMeshVertex
 10
1.76
 20
-0.64
 30
-0.98
 70
    64
  0
VERTEX
  5
46062
100
AcDbEntity
  8
0
100
AcDbVertex
100
AcDbPolygonMeshVertex
 10
1.76
 20
-0.64
 30
-0.98
 70
    64
  0
VERTEX
  5
46063
100
AcDbEntity
  8
0
100
AcDbVertex
100
AcDbPolygonMeshVertex
 10
-1.76
 20
-0.64
 30
0.0
 70
    64
  0
VERTEX
  5
46064
100
AcDbEntity
  8
0
100
AcDbVertex
100
AcDbPolygonMeshVertex
 10
-1.76
 20
-0.64
 30
-0.98
 70
    64
  0
VERTEX
  5
46065
100
AcDbEntity
  8
0
100
AcDbVertex
100
AcDbPolygonMeshVertex
 10
-1.76
 20
-0.64
 30
-0.98
 70
    64
  0
VERTEX
  5
46066
100
AcDbEntity
  8
0
100
AcDbVertex
100
AcDbPolygonMeshVertex
 10
-1.76
 20
0.64
 30
0.0
 70
    64
  0
VERTEX
  5
46067
100
AcDbEntity
  8
0
100
AcDbVertex
100
AcDbPolygonMeshVertex
 10
-1.76
 20
0.64
 30
-0.98
 70
    64
  0
VERTEX
  5
46068
100
AcDbEntity
  8
0
100
AcDbVertex
100
AcDbPolygonMeshVertex
 10
-1.76
 20
-0.64
 30
-0.98
 70
    64
  0
VERTEX
  5
46069
100
AcDbEntity
  8
0
100
AcDbVertex
100
AcDbPolygonMeshVertex
 10
1.76
 20
0.64
 30
0.0
 70
    64
  0
VERTEX
  5
4606A
100
AcDbEntity
  8
0
100
AcDbVertex
100
AcDbPolygonMeshVertex
 10
1.76
 20
0.64
 30
-0.98
 70
    64
  0
VERTEX
  5
4606B
100
AcDbEntity
  8
0
100
AcDbVertex
100
AcDbPolygonMeshVertex
 10
1.76
 20
-0.64
 30
-0.98
 70
    64
  0
VERTEX
  5
4606C
100
AcDbEntity
  8
0
100
AcDbVertex
100
AcDbPolygonMeshVertex
 10
1.76
 20
0.64
 30
0.0
 70
    64
  0
VERTEX
  5
4606D
100
AcDbEntity
  8
0
100
AcDbVertex
100
AcDbPolygonMeshVertex
 10
1.76
 20
0.64
 30
0.0
 70
    64
  0
VERTEX
  5
4606E
100
AcDbEntity
  8
0
100
AcDbVertex
100
AcDbPolygonMeshVertex
 10
1.76
 20
-0.64
 30
0.0
 70
    64
  0
VERTEX
  5
4606F
100
AcDbEntity
  8
0
100
AcDbVertex
100
AcDbPolygonMeshVertex
 10
-1.76
 20
0.64
 30
0.0
 70
    64
  0
VERTEX
  5
46070
100
AcDbEntity
  8
0
100
AcDbVertex
100
AcDbPolygonMeshVertex
 10
-1.76
 20
0.64
 30
0.0
 70
    64
  0
VERTEX
  5
46071
100
AcDbEntity
  8
0
100
AcDbVertex
100
AcDbPolygonMeshVertex
 10
-1.76
 20
-0.64
 30
0.0
 70
    64
  0
SEQEND
  5
46072
100
AcDbEntity
  8
0
  0
POLYLINE
  5
46073
100
AcDbEntity
  8
0
100
AcDbPolygonMesh
 66
     1
 10
0.0
 20
0.0
 30
0.0
 70
    16
 71
     6
 72
     3
  0
VERTEX
  5
46074
100
AcDbEntity
  8
0
100
AcDbVertex
100
AcDbPolygonMeshVertex
 10
-0.59
 20
-0.86
 30
0.0
 70
    64
  0
VERTEX
  5
46075
100
AcDbEntity
  8
0
100
AcDbVertex
100
AcDbPolygonMeshVertex
 10
-0.59
 20
-0.86
 30
-0.42
 70
    64
  0
VERTEX
  5
46076
100
AcDbEntity
  8
0
100
AcDbVertex
100
AcDbPolygonMeshVertex
 10
-0.59
 20
-0.86
 30
-0.42
 70
    64
  0
VERTEX
  5
46077
100
AcDbEntity
  8
0
100
AcDbVertex
100
AcDbPolygonMeshVertex
 10
-0.84
 20
-0.86
 30
0.0
 70
    64
  0
VERTEX
  5
46078
100
AcDbEntity
  8
0
100
AcDbVertex
100
AcDbPolygonMeshVertex
 10
-0.84
 20
-0.86
 30
-0.42
 70
    64
  0
VERTEX
  5
46079
100
AcDbEntity
  8
0
100
AcDbVertex
100
AcDbPolygonMeshVertex
 10
-0.84
 20
-0.86
 30
-0.42
 70
    64
  0
VERTEX
  5
4607A
100
AcDbEntity
  8
0
100
AcDbVertex
100
AcDbPolygonMeshVertex
 10
-0.84
 20
-0.64
 30
0.0
 70
    64
  0
VERTEX
  5
4607B
100
AcDbEntity
  8
0
100
AcDbVertex
100
AcDbPolygonMeshVertex
 10
-0.84
 20
-0.64
 30
-0.42
 70
    64
  0
VERTEX
  5
4607C
100
AcDbEntity
  8
0
100
AcDbVertex
100
AcDbPolygonMeshVertex
 10
-0.84
 20
-0.86
 30
-0.42
 70
    64
  0
VERTEX
  5
4607D
100
AcDbEntity
  8
0
100
AcDbVertex
100
AcDbPolygonMeshVertex
 10
-0.59
 20
-0.64
 30
0.0
 70
    64
  0
VERTEX
  5
4607E
100
AcDbEntity
  8
0
100
AcDbVertex
100
AcDbPolygonMeshVertex
 10
-0.59
 20
-0.64
 30
-0.42
 70
    64
  0
VERTEX
  5
4607F
100
AcDbEntity
  8
0
100
AcDbVertex
100
AcDbPolygonMeshVertex
 10
-0.59
 20
-0.86
 30
-0.42
 70
    64
  0
VERTEX
  5
46080
100
AcDbEntity
  8
0
100
AcDbVertex
100
AcDbPolygonMeshVertex
 10
-0.59
 20
-0.64
 30
0.0
 70
    64
  0
VERTEX
  5
46081
100
AcDbEntity
  8
0
100
AcDbVertex
100
AcDbPolygonMeshVertex
 10
-0.59
 20
-0.64
 30
0.0
 70
    64
  0
VERTEX
  5
46082
100
AcDbEntity
  8
0
100
AcDbVertex
100
AcDbPolygonMeshVertex
 10
-0.59
 20
-0.86
 30
0.0
 70
    64
  0
VERTEX
  5
46083
100
AcDbEntity
  8
0
100
AcDbVertex
100
AcDbPolygonMeshVertex
 10
-0.84
 20
-0.64
 30
0.0
 70
    64
  0
VERTEX
  5
46084
100
AcDbEntity
  8
0
100
AcDbVertex
100
AcDbPolygonMeshVertex
 10
-0.84
 20
-0.64
 30
0.0
 70
    64
  0
VERTEX
  5
46085
100
AcDbEntity
  8
0
100
AcDbVertex
100
AcDbPolygonMeshVertex
 10
-0.84
 20
-0.86
 30
0.0
 70
    64
  0
SEQEND
  5
46086
100
AcDbEntity
  8
0
  0
CIRCLE
  5
46087
100
AcDbEntity
  8
0
100
AcDbCircle
 10
-0.715
 20
-0.75
 30
0.0
 40
0.05
  0
CIRCLE
  5
46088
100
AcDbEntity
  8
0
100
AcDbCircle
 10
0.715
 20
-0.75
 30
0.0
 40
0.05
  0
LWPOLYLINE
  5
46089
100
AcDbEntity
  8
0
100
AcDbPolyline
 90
       12
 70
     1
 43
0.0
 10
-0.176068
 20
0.105
 10
-0.27
 20
0.105
 42
0.414214
 10
-0.32
 20
0.055
 10
-0.32
 20
-0.055
 42
0.414214
 10
-0.27
 20
-0.105
 10
-0.176068
 20
-0.105
 42
0.443094
 10
0.121655
 20
-0.165
 10
0.27
 20
-0.165
 42
0.414214
 10
0.32
 20
-0.115
 10
0.32
 20
0.115
 42
0.414214
 10
0.27
 20
0.165
 10
0.121655
 20
0.165
 42
0.443094
  0
POINT
  5
4608A
100
AcDbEntity
  8
SNAP_POINTS
100
AcDbPoint
 10
0.0
 20
0.0
 30
0.0
  0
POLYLINE
  5
4608B
100
AcDbEntity
  8
0
100
AcDbPolygonMesh
 66
     1
 10
0.0
 20
0.0
 30
0.0
 70
    16
 71
     6
 72
     3
  0
VERTEX
  5
4608C
100
AcDbEntity
  8
0
100
AcDbVertex
100
AcDbPolygonMeshVertex
 10
-0.59
 20
0.86
 30
0.0
 70
    64
  0
VERTEX
  5
4608D
100
AcDbEntity
  8
0
100
AcDbVertex
100
AcDbPolygonMeshVertex
 10
-0.59
 20
0.86
 30
-0.42
 70
    64
  0
VERTEX
  5
4608E
100
AcDbEntity
  8
0
100
AcDbVertex
100
AcDbPolygonMeshVertex
 10
-0.59
 20
0.86
 30
-0.42
 70
    64
  0
VERTEX
  5
4608F
100
AcDbEntity
  8
0
100
AcDbVertex
100
AcDbPolygonMeshVertex
 10
-0.84
 20
0.86
 30
0.0
 70
    64
  0
VERTEX
  5
46090
100
AcDbEntity
  8
0
100
AcDbVertex
100
AcDbPolygonMeshVertex
 10
-0.84
 20
0.86
 30
-0.42
 70
    64
  0
VERTEX
  5
46091
100
AcDbEntity
  8
0
100
AcDbVertex
100
AcDbPolygonMeshVertex
 10
-0.84
 20
0.86
 30
-0.42
 70
    64
  0
VERTEX
  5
46092
100
AcDbEntity
  8
0
100
AcDbVertex
100
AcDbPolygonMeshVertex
 10
-0.84
 20
0.64
 30
0.0
 70
    64
  0
VERTEX
  5
46093
100
AcDbEntity
  8
0
100
AcDbVertex
100
AcDbPolygonMeshVertex
 10
-0.84
 20
0.64
 30
-0.42
 70
    64
  0
VERTEX
  5
46094
100
AcDbEntity
  8
0
100
AcDbVertex
100
AcDbPolygonMeshVertex
 10
-0.84
 20
0.86
 30
-0.42
 70
    64
  0
VERTEX
  5
46095
100
AcDbEntity
  8
0
100
AcDbVertex
100
AcDbPolygonMeshVertex
 10
-0.59
 20
0.64
 30
0.0
 70
    64
  0
VERTEX
  5
46096
100
AcDbEntity
  8
0
100
AcDbVertex
100
AcDbPolygonMeshVertex
 10
-0.59
 20
0.64
 30
-0.42
 70
    64
  0
VERTEX
  5
46097
100
AcDbEntity
  8
0
100
AcDbVertex
100
AcDbPolygonMeshVertex
 10
-0.59
 20
0.86
 30
-0.42
 70
    64
  0
VERTEX
  5
46098
100
AcDbEntity
  8
0
100
AcDbVertex
100
AcDbPolygonMeshVertex
 10
-0.59
 20
0.64
 30
0.0
 70
    64
  0
VERTEX
  5
46099
100
AcDbEntity
  8
0
100
AcDbVertex
100
AcDbPolygonMeshVertex
 10
-0.59
 20
0.64
 30
0.0
 70
    64
  0
VERTEX
  5
4609A
100
AcDbEntity
  8
0
100
AcDbVertex
100
AcDbPolygonMeshVertex
 10
-0.59
 20
0.86
 30
0.0
 70
    64
  0
VERTEX
  5
4609B
100
AcDbEntity
  8
0
100
AcDbVertex
100
AcDbPolygonMeshVertex
 10
-0.84
 20
0.64
 30
0.0
 70
    64
  0
VERTEX
  5
4609C
100
AcDbEntity
  8
0
100
AcDbVertex
100
AcDbPolygonMeshVertex
 10
-0.84
 20
0.64
 30
0.0
 70
    64
  0
VERTEX
  5
4609D
100
AcDbEntity
  8
0
100
AcDbVertex
100
AcDbPolygonMeshVertex
 10
-0.84
 20
0.86
 30
0.0
 70
    64
  0
SEQEND
  5
4609E
100
AcDbEntity
  8
0
  0
CIRCLE
  5
4609F
100
AcDbEntity
  8
0
100
AcDbCircle
 10
-0.715
 20
0.75
 30
0.0
 40
0.05
  0
CIRCLE
  5
460A0
100
AcDbEntity
  8
0
100
AcDbCircle
 10
0.715
 20
0.75
 30
0.0
 40
0.05
  0
TEXT
  5
460A1
100
AcDbEntity
  8
0
100
AcDbText
 10
-1.895701
 20
1.255522
 30
-3.88
 40
0.12
  1
1 L1
100
AcDbText
  0
TEXT
  5
460A2
100
AcDbEntity
  8
0
100
AcDbText
 10
-1.253456
 20
1.255522
 30
-3.88
 40
0.12
  1
3 L2
100
AcDbText
  0
TEXT
  5
460A3
100
AcDbEntity
  8
0
100
AcDbText
 10
-0.541321
 20
1.255522
 30
-3.88
 40
0.12
  1
5 L3
100
AcDbText
  0
TEXT
  5
460A4
100
AcDbEntity
  8
0
100
AcDbText
 10
0.166029
 20
1.255522
 30
-3.88
 40
0.12
  1
7 L4
100
AcDbText
  0
TEXT
  5
460A5
100
AcDbEntity
  8
0
100
AcDbText
 10
0.866386
 20
1.255522
 30
-3.88
 40
0.12
  1
9 L5
100
AcDbText
  0
TEXT
  5
460A6
100
AcDbEntity
  8
0
100
AcDbText
 10
1.542418
 20
1.255522
 30
-3.88
 40
0.12
  1
11 L6
100
AcDbText
  0
TEXT
  5
460A7
100
AcDbEntity
  8
0
100
AcDbText
 10
-1.948982
 20
-1.37988
 30
-3.88
 40
0.12
  1
2 T1
100
AcDbText
  0
TEXT
  5
460A8
100
AcDbEntity
  8
0
100
AcDbText
 10
-0.540011
 20
-1.37988
 30
-3.88
 40
0.12
  1
6 T3
100
AcDbText
  0
TEXT
  5
460A9
100
AcDbEntity
  8
0
100
AcDbText
 10
-1.261816
 20
-1.37988
 30
-3.88
 40
0.12
  1
4 T2
100
AcDbText
  0
TEXT
  5
460AA
100
AcDbEntity
  8
0
100
AcDbText
 10
1.501059
 20
-1.37988
 30
-3.88
 40
0.12
  1
12 T6
100
AcDbText
  0
TEXT
  5
460AB
100
AcDbEntity
  8
0
100
AcDbText
 10
0.805914
 20
-1.37988
 30
-3.88
 40
0.12
  1
10 T5
100
AcDbText
  0
TEXT
  5
460AC
100
AcDbEntity
  8
0
100
AcDbText
 10
0.159061
 20
-1.37988
 30
-3.88
 40
0.12
  1
8 T4
100
AcDbText
  0
DIMENSION
  5
460AD
100
AcDbEntity
  8
AREA1
100
AcDbDimension
  2
*D1
 10
2.12
 20
1.8468
 30
0.0
 11
0.055579
 21
1.8468
 31
0.0
 70
   160
  3
ABECAD_3D
100
AcDbAlignedDimension
 13
-2.12
 23
1.415
 33
-1.73
 14
2.12
 24
1.415
 34
-3.68
100
AcDbRotatedDimension
  0
DIMENSION
  5
460BB
100
AcDbEntity
  8
AREA1
100
AcDbDimension
  2
*D2
 10
2.439772
 20
-1.415
 30
0.0
 11
2.439772
 21
0.020596
 31
0.0
 70
   160
  3
ABECAD_3D
100
AcDbAlignedDimension
 13
2.12
 23
1.415
 33
-1.73
 14
2.12
 24
-1.415
 34
-1.73
 50
90.0
100
AcDbRotatedDimension
  0
ENDSEC
  0
SECTION
  2
OBJECTS
  0
DICTIONARY
  5
458CB
100
AcDbDictionary
  3
ACAD_GROUP
350
458CC
  3
ACAD_LAYOUT
350
458FB
  3
ACAD_MLINESTYLE
350
458D9
  3
ACAD_PLOTSETTINGS
350
458FC
  3
ACAD_PLOTSTYLENAME
350
458F9
  3
ACDBHEADERROUNDTRIPXREC
350
4613A
  3
ACDBVARIABLEDICTIONARY
350
458E1
  3
DWGPROPS
350
45901
  0
DICTIONARY
  5
46138
100
AcDbDictionary
280
     1
  3
ACAD_XREC_ROUNDTRIP
360
46139
  0
DICTIONARY
  5
46161
100
AcDbDictionary
280
     1
  3
ACAD_XREC_ROUNDTRIP
360
46162
  0
DICTIONARY
  5
46136
100
AcDbDictionary
280
     1
  3
ACAD_XREC_ROUNDTRIP
360
46137
  0
DICTIONARY
  5
4615D
100
AcDbDictionary
280
     1
  3
ACAD_XREC_ROUNDTRIP
360
4615E
  0
DICTIONARY
  5
46163
100
AcDbDictionary
280
     1
  3
ACAD_XREC_ROUNDTRIP
360
46164
  0
DICTIONARY
  5
4592C
100
AcDbDictionary
280
     1
  3
ACAD_LAYOUTSELFREF
360
4615C
  0
DICTIONARY
  5
4592A
100
AcDbDictionary
280
     1
  3
ACAD_LAYOUTSELFREF
360
4615B
  0
DICTIONARY
  5
46134
100
AcDbDictionary
280
     1
  3
ACAD_XREC_ROUNDTRIP
360
46135
  0
DICTIONARY
  5
458CC
102
{ACAD_REACTORS
330
458CB
102
}
100
AcDbDictionary
  0
DICTIONARY
  5
458FB
102
{ACAD_XDICTIONARY
360
4615F
102
}
102
{ACAD_REACTORS
330
458CB
102
}
100
AcDbDictionary
  3
LAYOUT1
350
458FE
  3
MODEL
350
458FD
  0
DICTIONARY
  5
458D9
102
{ACAD_REACTORS
330
458CB
102
}
100
AcDbDictionary
  3
STANDARD
350
458DA
  0
DICTIONARY
  5
458FC
102
{ACAD_REACTORS
330
458CB
102
}
100
AcDbDictionary
  0
ACAD_PROXY_OBJECT
  5
458F9
102
{ACAD_REACTORS
330
458CB
102
}
100
AcDbProxyObject
 90
      499
 91
      501
 93
       86
310
405010041939BDC9B585B0
350
458FA
340
458FA
 94
        0
  0
DICTIONARY
  5
4613A
102
{ACAD_REACTORS
330
458CB
102
}
100
AcDbDictionary
  3
CEPSNTYPE
350
46144
  3
DIMSTYLEDATA
350
46148
  3
FINGERPRINTGUID
350
46145
  3
HYPERLINKBASE
350
4613D
  3
INSUNITS
350
46143
  3
LAYOUTDICT
350
4613F
  3
LWETCUNION
350
46142
  3
PLOTSETDICT
350
46140
  3
PLOTSTYLNAMDICT
350
46141
  3
PSVPSCALE
350
46147
  3
PUCSBASE
350
4614B
  3
PUCSORGBACK
350
46151
  3
PUCSORGBOTTOM
350
4614D
  3
PUCSORGFRONT
350
46150
  3
PUCSORGLEFT
350
4614E
  3
PUCSORGRIGHT
350
4614F
  3
PUCSORGTOP
350
4614C
  3
PUCSORTHOREF
350
46149
  3
PUCSORTHOVIEW
350
4614A
  3
STYLESHEET
350
4613E
  3
TSTACKALIGN
350
4613B
  3
TSTACKSIZE
350
4613C
  3
UCSBASE
350
46154
  3
UCSORGBACK
350
4615A
  3
UCSORGBOTTOM
350
46156
  3
UCSORGFRONT
350
46159
  3
UCSORGLEFT
350
46157
  3
UCSORGRIGHT
350
46158
  3
UCSORGTOP
350
46155
  3
UCSORTHOREF
350
46152
  3
UCSORTHOVIEW
350
46153
  3
VERSIONGUID
350
46146
  0
DICTIONARY
  5
458E1
102
{ACAD_REACTORS
330
458CB
102
}
100
AcDbDictionary
  3
DIMADEC
350
458E2
  0
XRECORD
  5
45901
102
{ACAD_REACTORS
330
458CB
102
}
100
AcDbXrecord
  1
DWGPROPS COOKIE
  2

  3

  4

  6

  7

  8
colin
  9

300
=
301
=
302
=
303
=
304
=
305
=
306
=
307
=
308
=
309
=
 40
0.000599
 41
2451670.444777
 42
2451670.445376
  1

 90
        0
  0
XRECORD
  5
46139
102
{ACAD_REACTORS
330
46138
102
}
100
AcDbXrecord
102
EXTNAMES
  1
*ACTIVE
  2
*Active
102
UCS
 74
     0
 71
     1
 10
0.0
 20
0.0
 30
0.0
 10
1.0
 20
0.0
 30
0.0
 10
0.0
 20
1.0
 30
0.0
146
0.0
 79
     1
102
VIEW
281
     0
  0
XRECORD
  5
46162
102
{ACAD_REACTORS
330
46161
102
}
100
AcDbXrecord
102
PLOTBIT
280
     0
  0
XRECORD
  5
46137
102
{ACAD_REACTORS
330
46136
102
}
100
AcDbXrecord
102
EXTNAMES
  1
DEFPOINTS
  2
Defpoints
102
PLOTBIT
280
     0
  0
XRECORD
  5
4615E
102
{ACAD_REACTORS
330
4615D
102
}
100
AcDbXrecord
102
ACADR14ROUNDTRIP
1000
DSTYLE
1002
{
1070
   276
 70
     2
1070
   277
 70
     5
1070
   279
 70
     2
1070
   289
 70
     2
1002
}
  0
XRECORD
  5
46164
102
{ACAD_REACTORS
330
46163
102
}
100
AcDbXrecord
102
ACADR14ROUNDTRIP
1000
DSTYLE
1002
{
1070
   279
 70
     2
1002
}
  0
XRECORD
  5
4615C
102
{ACAD_REACTORS
330
4592C
102
}
100
AcDbXrecord
340
458D6
  0
XRECORD
  5
4615B
102
{ACAD_REACTORS
330
4592A
102
}
100
AcDbXrecord
340
458D3
  0
XRECORD
  5
46135
102
{ACAD_REACTORS
330
46134
102
}
100
AcDbXrecord
102
EXTNAMES
  1
SCALE
  2
scale
  0
DICTIONARY
  5
4615F
100
AcDbDictionary
280
     1
  3
ACAD_XREC_ROUNDTRIP
360
46160
  0
ACAD_PROXY_OBJECT
  5
458FE
102
{ACAD_REACTORS
330
458FB
102
}
100
AcDbProxyObject
 90
      499
 91
      503
 93
     1348
310
91D4850204C617365724A65742035303030205365726965732050434C20362C00AAAAAA416AA547D11959985D5B1D08148C4D081C195B88185CDCDA59DB9B595B9D1CCB98DD1891069074C61796F75743140501A800000000000000000000000000000000000000000000A1000000000000008902A6A6A10232D5E076BC551
310
0408CB5781DAF154410232D5E076BC5510408CB5781DAF15C410232D5E076BC5710408CB5781DAF15C4C
330
458D3
330
0
340
0
340
0
 94
        0
  0
ACAD_PROXY_OBJECT
  5
458FD
102
{ACAD_REACTORS
330
458FB
102
}
100
AcDbProxyObject
 90
      499
 91
      503
 93
      924
310
91D4850204C617365724A65742035303030205365726965732050434C20362C01AAAAAAAAA547D11959985D5B1D08148C4D081C195B88185CDCDA59DB9B595B9D1CCB98DD18A69054D6F64656C901A800000000000000000000000000000000000000000000A1000000000000008902A6A6AAAAF
330
458D6
330
0
340
0
340
0
 94
        0
  0
MLINESTYLE
  5
458DA
102
{ACAD_REACTORS
330
458D9
102
}
100
AcDbMlineStyle
  2
STANDARD
 70
     0
  3

 62
   256
 51
90.0
 52
90.0
 71
     2
 49
0.5
 62
   256
  6
BYLAYER
 49
-0.5
 62
   256
  6
BYLAYER
  0
ACAD_PROXY_OBJECT
  5
458FA
102
{ACAD_REACTORS
330
458F9
102
}
100
AcDbProxyObject
 90
      499
 91
      502
 93
        0
 94
        0
  0
XRECORD
  5
46144
102
{ACAD_REACTORS
330
4613A
102
}
100
AcDbXrecord
 90
        0
  0
XRECORD
  5
46148
102
{ACAD_REACTORS
330
4613A
102
}
100
AcDbXrecord
1000
DSTYLE
1002
{
1070
   276
 70
     2
1070
   277
 70
     5
1070
   279
 70
     2
1070
   289
 70
     2
1002
}
  0
XRECORD
  5
46145
102
{ACAD_REACTORS
330
4613A
102
}
100
AcDbXrecord
  1
{6E0CF4B8-225E-11D4-A150-00A0CC3303EC}
  0
XRECORD
  5
4613D
102
{ACAD_REACTORS
330
4613A
102
}
100
AcDbXrecord
  1

  0
XRECORD
  5
46143
102
{ACAD_REACTORS
330
4613A
102
}
100
AcDbXrecord
 90
        0
  0
XRECORD
  5
4613F
102
{ACAD_REACTORS
330
4613A
102
}
100
AcDbXrecord
340
458FB
  0
XRECORD
  5
46142
102
{ACAD_REACTORS
330
4613A
102
}
100
AcDbXrecord
 90
    14877
  0
XRECORD
  5
46140
102
{ACAD_REACTORS
330
4613A
102
}
100
AcDbXrecord
340
458FC
  0
XRECORD
  5
46141
102
{ACAD_REACTORS
330
4613A
102
}
100
AcDbXrecord
340
458F9
  0
XRECORD
  5
46147
102
{ACAD_REACTORS
330
4613A
102
}
100
AcDbXrecord
 40
0.0
  0
XRECORD
  5
4614B
102
{ACAD_REACTORS
330
4613A
102
}
100
AcDbXrecord
340
0
  0
XRECORD
  5
46151
102
{ACAD_REACTORS
330
4613A
102
}
100
AcDbXrecord
 10
0.0
 20
0.0
 30
0.0
  0
XRECORD
  5
4614D
102
{ACAD_REACTORS
330
4613A
102
}
100
AcDbXrecord
 10
0.0
 20
0.0
 30
0.0
  0
XRECORD
  5
46150
102
{ACAD_REACTORS
330
4613A
102
}
100
AcDbXrecord
 10
0.0
 20
0.0
 30
0.0
  0
XRECORD
  5
4614E
102
{ACAD_REACTORS
330
4613A
102
}
100
AcDbXrecord
 10
0.0
 20
0.0
 30
0.0
  0
XRECORD
  5
4614F
102
{ACAD_REACTORS
330
4613A
102
}
100
AcDbXrecord
 10
0.0
 20
0.0
 30
0.0
  0
XRECORD
  5
4614C
102
{ACAD_REACTORS
330
4613A
102
}
100
AcDbXrecord
 10
0.0
 20
0.0
 30
0.0
  0
XRECORD
  5
46149
102
{ACAD_REACTORS
330
4613A
102
}
100
AcDbXrecord
340
0
  0
XRECORD
  5
4614A
102
{ACAD_REACTORS
330
4613A
102
}
100
AcDbXrecord
 70
     0
  0
XRECORD
  5
4613E
102
{ACAD_REACTORS
330
4613A
102
}
100
AcDbXrecord
  1

  0
XRECORD
  5
4613B
102
{ACAD_REACTORS
330
4613A
102
}
100
AcDbXrecord
 90
        1
  0
XRECORD
  5
4613C
102
{ACAD_REACTORS
330
4613A
102
}
100
AcDbXrecord
 90
       70
  0
XRECORD
  5
46154
102
{ACAD_REACTORS
330
4613A
102
}
100
AcDbXrecord
340
0
  0
XRECORD
  5
4615A
102
{ACAD_REACTORS
330
4613A
102
}
100
AcDbXrecord
 10
0.0
 20
0.0
 30
0.0
  0
XRECORD
  5
46156
102
{ACAD_REACTORS
330
4613A
102
}
100
AcDbXrecord
 10
0.0
 20
0.0
 30
0.0
  0
XRECORD
  5
46159
102
{ACAD_REACTORS
330
4613A
102
}
100
AcDbXrecord
 10
0.0
 20
0.0
 30
0.0
  0
XRECORD
  5
46157
102
{ACAD_REACTORS
330
4613A
102
}
100
AcDbXrecord
 10
0.0
 20
0.0
 30
0.0
  0
XRECORD
  5
46158
102
{ACAD_REACTORS
330
4613A
102
}
100
AcDbXrecord
 10
0.0
 20
0.0
 30
0.0
  0
XRECORD
  5
46155
102
{ACAD_REACTORS
330
4613A
102
}
100
AcDbXrecord
 10
0.0
 20
0.0
 30
0.0
  0
XRECORD
  5
46152
102
{ACAD_REACTORS
330
4613A
102
}
100
AcDbXrecord
340
0
  0
XRECORD
  5
46153
102
{ACAD_REACTORS
330
4613A
102
}
100
AcDbXrecord
 70
     1
  0
XRECORD
  5
46146
102
{ACAD_REACTORS
330
4613A
102
}
100
AcDbXrecord
  1
{DD7FFC2B-A5AC-4A50-955C-ED10A1DFAFFD}
  0
DICTIONARYVAR
  5
458E2
102
{ACAD_REACTORS
330
458E1
102
}
100
DictionaryVariables
280
     0
  1
0
  0
XRECORD
  5
46160
102
{ACAD_REACTORS
330
4615F
102
}
100
AcDbXrecord
102
EXTNAMES
  1
LAYOUT1
  2
Layout1
  1
MODEL
  2
Model
  0
ENDSEC
  0
EOF
