  0
SECTION
  2
HEADER
  9
$ACADVER
  1
AC1014
  9
$ACADMAINTVER
 70
     8
  9
$DWGCODEPAGE
  3
ANSI_1252
  9
$INSBASE
 10
0.0
 20
0.0
 30
0.0
  9
$EXTMIN
 10
-1.887289
 20
-1.52
 30
-3.35
  9
$EXTMAX
 10
3.524007
 20
1.833577
 30
0.0
  9
$LIMMIN
 10
0.0
 20
0.0
  9
$LIMMAX
 10
12.0
 20
9.0
  9
$ORTHOMODE
 70
     0
  9
$REGENMODE
 70
     1
  9
$FILLMODE
 70
     1
  9
$QTEXTMODE
 70
     0
  9
$MIRRTEXT
 70
     1
  9
$DRAGMODE
 70
     2
  9
$LTSCALE
 40
1.0
  9
$OSMODE
 70
    37
  9
$ATTMODE
 70
     0
  9
$TEXTSIZE
 40
0.2
  9
$TRACEWID
 40
0.05
  9
$TEXTSTYLE
  7
STANDARD
  9
$CLAYER
  8
0
  9
$CELTYPE
  6
BYLAYER
  9
$CECOLOR
 62
   256
  9
$CELTSCALE
 40
1.0
  9
$DELOBJ
 70
     1
  9
$DISPSILH
 70
     0
  9
$DIMSCALE
 40
0.0
  9
$DIMASZ
 40
0.18
  9
$DIMEXO
 40
0.0625
  9
$DIMDLI
 40
0.375
  9
$DIMRND
 40
0.0
  9
$DIMDLE
 40
0.0
  9
$DIMEXE
 40
0.18
  9
$DIMTP
 40
0.0
  9
$DIMTM
 40
0.0
  9
$DIMTXT
 40
0.09
  9
$DIMCEN
 40
0.09
  9
$DIMTSZ
 40
0.0
  9
$DIMTOL
 70
     0
  9
$DIMLIM
 70
     0
  9
$DIMTIH
 70
     0
  9
$DIMTOH
 70
     1
  9
$DIMSE1
 70
     0
  9
$DIMSE2
 70
     0
  9
$DIMTAD
 70
     0
  9
$DIMZIN
 70
     4
  9
$DIMBLK
  1

  9
$DIMASO
 70
     1
  9
$DIMSHO
 70
     1
  9
$DIMPOST
  1

  9
$DIMAPOST
  1

  9
$DIMALT
 70
     1
  9
$DIMALTD
 70
     2
  9
$DIMALTF
 40
25.4
  9
$DIMLFAC
 40
1.0
  9
$DIMTOFL
 70
     0
  9
$DIMTVP
 40
0.0
  9
$DIMTIX
 70
     0
  9
$DIMSOXD
 70
     0
  9
$DIMSAH
 70
     0
  9
$DIMBLK1
  1

  9
$DIMBLK2
  1

  9
$DIMSTYLE
  2
ABECAD_3V
  9
$DIMCLRD
 70
     0
  9
$DIMCLRE
 70
     0
  9
$DIMCLRT
 70
     0
  9
$DIMTFAC
 40
1.5
  9
$DIMGAP
 40
0.09
  9
$DIMJUST
 70
     0
  9
$DIMSD1
 70
     0
  9
$DIMSD2
 70
     0
  9
$DIMTOLJ
 70
     1
  9
$DIMTZIN
 70
     4
  9
$DIMALTZ
 70
     4
  9
$DIMALTTZ
 70
     4
  9
$DIMFIT
 70
     5
  9
$DIMUPT
 70
     1
  9
$DIMUNIT
 70
     7
  9
$DIMDEC
 70
     6
  9
$DIMTDEC
 70
     6
  9
$DIMALTU
 70
     2
  9
$DIMALTTD
 70
     2
  9
$DIMTXSTY
  7
STANDARD
  9
$DIMAUNIT
 70
     0
  9
$LUNITS
 70
     2
  9
$LUPREC
 70
     6
  9
$SKETCHINC
 40
0.1
  9
$FILLETRAD
 40
0.0
  9
$AUNITS
 70
     0
  9
$AUPREC
 70
     0
  9
$MENU
  1
acad
  9
$ELEVATION
 40
0.0
  9
$PELEVATION
 40
0.0
  9
$THICKNESS
 40
0.0
  9
$LIMCHECK
 70
     0
  9
$BLIPMODE
 70
     0
  9
$CHAMFERA
 40
0.0
  9
$CHAMFERB
 40
0.0
  9
$CHAMFERC
 40
0.0
  9
$CHAMFERD
 40
0.0
  9
$SKPOLY
 70
     0
  9
$TDCREATE
 40
2451726.480029051
  9
$TDUPDATE
 40
2452010.730871990
  9
$TDINDWG
 40
0.1271506944
  9
$TDUSRTIMER
 40
0.1271506944
  9
$USRTIMER
 70
     1
  9
$ANGBASE
 50
0.0
  9
$ANGDIR
 70
     0
  9
$PDMODE
 70
     3
  9
$PDSIZE
 40
0.18
  9
$PLINEWID
 40
0.0
  9
$COORDS
 70
     1
  9
$SPLFRAME
 70
     0
  9
$SPLINETYPE
 70
     6
  9
$SPLINESEGS
 70
     8
  9
$ATTDIA
 70
     0
  9
$ATTREQ
 70
     1
  9
$HANDLING
 70
     1
  9
$HANDSEED
  5
2939
  9
$SURFTAB1
 70
     6
  9
$SURFTAB2
 70
     6
  9
$SURFTYPE
 70
     6
  9
$SURFU
 70
     6
  9
$SURFV
 70
     6
  9
$UCSNAME
  2

  9
$UCSORG
 10
0.0
 20
0.0
 30
0.0
  9
$UCSXDIR
 10
1.0
 20
0.0
 30
0.0
  9
$UCSYDIR
 10
0.0
 20
1.0
 30
0.0
  9
$PUCSNAME
  2

  9
$PUCSORG
 10
0.0
 20
0.0
 30
0.0
  9
$PUCSXDIR
 10
1.0
 20
0.0
 30
0.0
  9
$PUCSYDIR
 10
0.0
 20
1.0
 30
0.0
  9
$USERI1
 70
     0
  9
$USERI2
 70
     0
  9
$USERI3
 70
     0
  9
$USERI4
 70
     0
  9
$USERI5
 70
     0
  9
$USERR1
 40
0.0
  9
$USERR2
 40
0.0
  9
$USERR3
 40
0.0
  9
$USERR4
 40
0.0
  9
$USERR5
 40
0.0
  9
$WORLDVIEW
 70
     1
  9
$SHADEDGE
 70
     3
  9
$SHADEDIF
 70
    70
  9
$TILEMODE
 70
     0
  9
$MAXACTVP
 70
    16
  9
$PINSBASE
 10
0.0
 20
0.0
 30
0.0
  9
$PLIMCHECK
 70
     0
  9
$PEXTMIN
 10
0.0
 20
0.0
 30
0.0
  9
$PEXTMAX
 10
10.0
 20
7.5
 30
0.0
  9
$PLIMMIN
 10
-0.187029
 20
-0.186938
  9
$PLIMMAX
 10
10.187518
 20
7.829757
  9
$UNITMODE
 70
     0
  9
$VISRETAIN
 70
     0
  9
$PLINEGEN
 70
     0
  9
$PSLTSCALE
 70
     1
  9
$TREEDEPTH
 70
  3020
  9
$PICKSTYLE
 70
     1
  9
$CMLSTYLE
  2
STANDARD
  9
$CMLJUST
 70
     0
  9
$CMLSCALE
 40
1.0
  9
$PROXYGRAPHICS
 70
     1
  9
$MEASUREMENT
 70
     0
  0
ENDSEC
  0
SECTION
  2
CLASSES
  0
CLASS
  1
DICTIONARYVAR
  2
AcDbDictionaryVar
  3
"AutoCAD"
 90
        0
280
     0
281
     0
  0
CLASS
  1
ACDBDICTIONARYWDFLT
  2
AcDbDictionaryWithDefault
  3
AutoCAD 2000
 90
        0
280
     0
281
     0
  0
CLASS
  1
ACDBPLACEHOLDER
  2
AcDbPlaceHolder
  3
AutoCAD 2000
 90
        0
280
     0
281
     0
  0
CLASS
  1
LAYOUT
  2
AcDbLayout
  3
AutoCAD 2000
 90
        0
280
     0
281
     0
  0
CLASS
  1
LONG_TRANSACTION
  2
AcDbLongTransaction
  3
AutoCAD 2000
 90
        0
280
     0
281
     0
  0
CLASS
  1
LWPOLYLINE
  2
AcDbPolyline
  3
"AutoCAD"
 90
        0
280
     0
281
     1
  0
CLASS
  1
HATCH
  2
AcDbHatch
  3
"ACAD_SEDONA"
 90
        0
280
     0
281
     1
  0
CLASS
  1
XRECORD
  2
AcDbXrecord
  3
"<Built In>"
 90
        0
280
     0
281
     0
  0
CLASS
  1
LONG_TRANSACTION
  2
AcDbLongTransaction
  3
AutoCAD 2000
 90
        0
280
     0
281
     0
  0
CLASS
  1
LWPOLYLINE
  2
AcDbPolyline
  3
"AutoCAD"
 90
        0
280
     0
281
     1
  0
CLASS
  1
HATCH
  2
AcDbHatch
  3
"ACAD_SEDONA"
 90
        0
280
     0
281
     1
  0
CLASS
  1
XRECORD
  2
AcDbXrecord
  3
"<Built In>"
 90
        0
280
     0
281
     0
  0
CLASS
  1
LONG_TRANSACTION
  2
AcDbLongTransaction
  3
AutoCAD 2000
 90
        0
280
     0
281
     0
  0
CLASS
  1
LWPOLYLINE
  2
AcDbPolyline
  3
"AutoCAD"
 90
        0
280
     0
281
     1
  0
CLASS
  1
HATCH
  2
AcDbHatch
  3
"ACAD_SEDONA"
 90
        0
280
     0
281
     1
  0
CLASS
  1
XRECORD
  2
AcDbXrecord
  3
"<Built In>"
 90
        0
280
     0
281
     0
  0
CLASS
  1
LONG_TRANSACTION
  2
AcDbLongTransaction
  3
AutoCAD 2000
 90
        0
280
     0
281
     0
  0
CLASS
  1
LWPOLYLINE
  2
AcDbPolyline
  3
"AutoCAD"
 90
        0
280
     0
281
     1
  0
CLASS
  1
HATCH
  2
AcDbHatch
  3
"ACAD_SEDONA"
 90
        0
280
     0
281
     1
  0
CLASS
  1
XRECORD
  2
AcDbXrecord
  3
"<Built In>"
 90
        0
280
     0
281
     0
  0
CLASS
  1
LONG_TRANSACTION
  2
AcDbLongTransaction
  3
AutoCAD 2000
 90
        0
280
     0
281
     0
  0
CLASS
  1
LWPOLYLINE
  2
AcDbPolyline
  3
"AutoCAD"
 90
        0
280
     0
281
     1
  0
CLASS
  1
HATCH
  2
AcDbHatch
  3
"ACAD_SEDONA"
 90
        0
280
     0
281
     1
  0
CLASS
  1
XRECORD
  2
AcDbXrecord
  3
"<Built In>"
 90
        0
280
     0
281
     0
  0
CLASS
  1
LONG_TRANSACTION
  2
AcDbLongTransaction
  3
AutoCAD 2000
 90
        0
280
     0
281
     0
  0
CLASS
  1
LWPOLYLINE
  2
AcDbPolyline
  3
"AutoCAD"
 90
        0
280
     0
281
     1
  0
CLASS
  1
HATCH
  2
AcDbHatch
  3
"ACAD_SEDONA"
 90
        0
280
     0
281
     1
  0
CLASS
  1
XRECORD
  2
AcDbXrecord
  3
"<Built In>"
 90
        0
280
     0
281
     0
  0
ENDSEC
  0
SECTION
  2
TABLES
  0
TABLE
  2
VPORT
  5
469
100
AcDbSymbolTable
 70
     1
  0
VPORT
  5
284F
102
{ACAD_XDICTIONARY
360
2901
102
}
100
AcDbSymbolTableRecord
100
AcDbViewportTableRecord
  2
*ACTIVE
 70
     0
 10
0.0
 20
0.0
 11
1.0
 21
1.0
 12
0.818359
 22
-1.675
 13
0.0
 23
0.0
 14
1.0
 24
1.0
 15
0.0
 25
0.0
 16
0.0
 26
-1.0
 36
0.0
 17
0.0
 27
0.0
 37
0.0
 40
3.757574
 41
1.826316
 42
50.0
 43
0.0
 44
0.0
 50
0.0
 51
0.0
 71
     0
 72
   100
 73
     1
 74
     1
 75
     0
 76
     0
 77
     0
 78
     0
  0
ENDTAB
  0
TABLE
  2
LTYPE
  5
466
100
AcDbSymbolTable
 70
     1
  0
LTYPE
  5
472
100
AcDbSymbolTableRecord
100
AcDbLinetypeTableRecord
  2
BYBLOCK
 70
     0
  3

 72
    65
 73
     0
 40
0.0
  0
LTYPE
  5
473
100
AcDbSymbolTableRecord
100
AcDbLinetypeTableRecord
  2
BYLAYER
 70
     0
  3

 72
    65
 73
     0
 40
0.0
  0
LTYPE
  5
474
100
AcDbSymbolTableRecord
100
AcDbLinetypeTableRecord
  2
CONTINUOUS
 70
     0
  3
Solid line
 72
    65
 73
     0
 40
0.0
  0
ENDTAB
  0
TABLE
  2
LAYER
  5
463
100
AcDbSymbolTable
 70
     8
  0
LAYER
  5
46F
100
AcDbSymbolTableRecord
100
AcDbLayerTableRecord
  2
0
 70
     0
 62
     7
  6
CONTINUOUS
  0
LAYER
  5
485
100
AcDbSymbolTableRecord
100
AcDbLayerTableRecord
  2
AREA1
 70
     0
 62
     7
  6
CONTINUOUS
  0
LAYER
  5
486
100
AcDbSymbolTableRecord
100
AcDbLayerTableRecord
  2
AREA2
 70
     0
 62
     7
  6
CONTINUOUS
  0
LAYER
  5
494
102
{ACAD_XDICTIONARY
360
292E
102
}
100
AcDbSymbolTableRecord
100
AcDbLayerTableRecord
  2
DEFPOINTS
 70
     0
 62
    -7
  6
CONTINUOUS
  0
LAYER
  5
495
100
AcDbSymbolTableRecord
100
AcDbLayerTableRecord
  2
DIMS-MTG-HOLES
 70
     0
 62
    -1
  6
CONTINUOUS
  0
LAYER
  5
4E6
100
AcDbSymbolTableRecord
100
AcDbLayerTableRecord
  2
SCALE
 70
     0
 62
    -7
  6
CONTINUOUS
  0
LAYER
  5
4ED
100
AcDbSymbolTableRecord
100
AcDbLayerTableRecord
  2
SNAP_POINTS
 70
     0
 62
    -1
  6
CONTINUOUS
  0
LAYER
  5
4F1
100
AcDbSymbolTableRecord
100
AcDbLayerTableRecord
  2
ATTRIBUTES
 70
     0
 62
    -7
  6
CONTINUOUS
  0
ENDTAB
  0
TABLE
  2
STYLE
  5
464
100
AcDbSymbolTable
 70
     1
  0
STYLE
  5
470
100
AcDbSymbolTableRecord
100
AcDbTextStyleTableRecord
  2
STANDARD
 70
     0
 40
0.0
 41
1.0
 50
0.0
 71
     0
 42
0.2
  3
txt
  4

  0
ENDTAB
  0
TABLE
  2
VIEW
  5
467
100
AcDbSymbolTable
 70
     0
  0
ENDTAB
  0
TABLE
  2
UCS
  5
468
100
AcDbSymbolTable
 70
     0
  0
ENDTAB
  0
TABLE
  2
APPID
  5
46A
100
AcDbSymbolTable
 70
     2
  0
APPID
  5
471
100
AcDbSymbolTableRecord
100
AcDbRegAppTableRecord
  2
ACAD
 70
     0
  0
APPID
  5
47E
100
AcDbSymbolTableRecord
100
AcDbRegAppTableRecord
  2
AVE_RENDER
 70
     0
  0
ENDTAB
  0
TABLE
  2
DIMSTYLE
  5
46B
100
AcDbSymbolTable
 70
     2
  0
DIMSTYLE
105
49A
102
{ACAD_XDICTIONARY
360
2930
102
}
102
{ACAD_REACTORS
330
2841
102
}
100
AcDbSymbolTableRecord
100
AcDbDimStyleTableRecord
  2
ABECAD_3V
 70
     0
  3

  4

  5

  6

  7

 40
0.0
 41
0.18
 42
0.0625
 43
0.375
 44
0.18
 45
0.0
 46
0.0
 47
0.0
 48
0.0
140
0.09
141
0.09
142
0.0
143
25.4
144
1.0
145
0.0
146
1.5
147
0.09
 71
     0
 72
     0
 73
     0
 74
     1
 75
     0
 76
     0
 77
     0
 78
     4
170
     1
171
     2
172
     0
173
     0
174
     0
175
     0
176
     0
177
     0
178
     0
270
     7
271
     6
272
     6
273
     2
274
     2
340
470
275
     0
280
     0
281
     0
282
     0
283
     1
284
     4
285
     4
286
     4
287
     5
288
     1
  0
DIMSTYLE
105
545
102
{ACAD_XDICTIONARY
360
2934
102
}
100
AcDbSymbolTableRecord
100
AcDbDimStyleTableRecord
  2
ABECAD_3D
 70
     0
  3

  4

  5

  6

  7

 40
1.0
 41
0.09
 42
0.0625
 43
0.375
 44
0.18
 45
0.0
 46
0.0
 47
0.0
 48
0.0
140
0.09
141
0.09
142
0.0
143
25.4
144
1.0
145
0.0
146
1.5
147
0.09
 71
     0
 72
     0
 73
     0
 74
     1
 75
     0
 76
     0
 77
     0
 78
     4
170
     1
171
     2
172
     0
173
     0
174
     0
175
     0
176
     0
177
     0
178
     0
270
     7
271
     6
272
     6
273
     2
274
     2
340
470
275
     0
280
     0
281
     0
282
     0
283
     1
284
     4
285
     4
286
     4
287
     5
288
     1
  0
ENDTAB
  0
TABLE
  2
BLOCK_RECORD
  5
462
100
AcDbSymbolTable
 70
     4
  0
BLOCK_RECORD
  5
478
102
{ACAD_XDICTIONARY
360
4D2
102
}
100
AcDbSymbolTableRecord
100
AcDbBlockTableRecord
  2
*MODEL_SPACE
  0
BLOCK_RECORD
  5
475
102
{ACAD_XDICTIONARY
360
4D0
102
}
100
AcDbSymbolTableRecord
100
AcDbBlockTableRecord
  2
*PAPER_SPACE
  0
BLOCK_RECORD
  5
2558
100
AcDbSymbolTableRecord
100
AcDbBlockTableRecord
  2
*D0
  0
BLOCK_RECORD
  5
2565
100
AcDbSymbolTableRecord
100
AcDbBlockTableRecord
  2
*D1
  0
BLOCK_RECORD
  5
2573
102
{ACAD_XDICTIONARY
360
28FF
102
}
100
AcDbSymbolTableRecord
100
AcDbBlockTableRecord
  2
ABDSB420
  0
BLOCK_RECORD
  5
2842
100
AcDbSymbolTableRecord
100
AcDbBlockTableRecord
  2
*D3
  0
ENDTAB
  0
ENDSEC
  0
SECTION
  2
BLOCKS
  0
BLOCK
  5
48B
100
AcDbEntity
  8
0
100
AcDbBlockBegin
  2
*MODEL_SPACE
 70
     0
 10
0.0
 20
0.0
 30
0.0
  3
*MODEL_SPACE
  1

  0
ENDBLK
  5
48C
100
AcDbEntity
  8
0
100
AcDbBlockEnd
  0
BLOCK
  5
489
100
AcDbEntity
 67
     1
  8
0
100
AcDbBlockBegin
  2
*PAPER_SPACE
 70
     0
 10
0.0
 20
0.0
 30
0.0
  3
*PAPER_SPACE
  1

  0
ENDBLK
  5
48A
100
AcDbEntity
 67
     1
  8
0
100
AcDbBlockEnd
  0
BLOCK
  5
2563
100
AcDbEntity
  8
0
100
AcDbBlockBegin
  2
*D0
 70
     1
 10
0.0
 20
0.0
 30
0.0
  3
*D0
  1

  0
LINE
  5
2559
100
AcDbEntity
  8
AREA1
 62
     0
100
AcDbLine
 10
-1.76
 20
1.3025
 30
0.0
 11
-1.76
 21
1.833577
 31
0.0
1001
ACAD
1000
RTLwPs
1070
   158
  0
LINE
  5
255A
100
AcDbEntity
  8
AREA1
 62
     0
100
AcDbLine
 10
1.76
 20
1.3025
 30
0.0
 11
1.76
 21
1.833577
 31
0.0
1001
ACAD
1000
RTLwPs
1070
   158
  0
LINE
  5
255B
100
AcDbEntity
  8
AREA1
 62
     0
100
AcDbLine
 10
-1.67
 20
1.653577
 30
0.0
 11
-0.69181
 21
1.653577
 31
0.0
1001
ACAD
1000
RTLwPs
1070
   158
  0
LINE
  5
255C
100
AcDbEntity
  8
AREA1
 62
     0
100
AcDbLine
 10
1.67
 20
1.653577
 30
0.0
 11
0.65819
 21
1.653577
 31
0.0
1001
ACAD
1000
RTLwPs
1070
   158
  0
MTEXT
  5
255D
100
AcDbEntity
  8
AREA1
 62
     0
100
AcDbMText
 10
-0.01681
 20
1.653577
 30
0.0
 40
0.09
 41
0.0
 71
     5
 72
     1
  1
\A1;3 33/64 [89.41]
1001
ACAD
1000
MTEXTBEGIN
1070
    73
1070
     1
1070
    44
1040
1.0
1070
    74
1070
     0
1000
MTEXTEND
1000
MTEXTBEGIN
1070
    73
1070
     1
1070
    44
1040
1.0
1070
    74
1070
     0
1000
MTEXTEND
1000
MTEXTBEGIN
1070
    73
1070
     1
1070
    44
1040
1.0
1070
    74
1070
     0
1000
MTEXTEND
1000
MTEXTBEGIN
1070
    73
1070
     1
1070
    44
1040
1.0
1070
    74
1070
     0
1000
MTEXTEND
1000
MTEXTBEGIN
1070
    73
1070
     1
1070
    44
1040
1.0
1070
    74
1070
     0
1000
MTEXTEND
  0
SOLID
  5
255E
100
AcDbEntity
  8
AREA1
 62
     0
100
AcDbTrace
 10
-1.67
 20
1.668577
 30
0.0
 11
-1.67
 21
1.638577
 31
0.0
 12
-1.76
 22
1.653577
 32
0.0
 13
-1.76
 23
1.653577
 33
0.0
  0
SOLID
  5
255F
100
AcDbEntity
  8
AREA1
 62
     0
100
AcDbTrace
 10
1.67
 20
1.668577
 30
0.0
 11
1.67
 21
1.638577
 31
0.0
 12
1.76
 22
1.653577
 32
0.0
 13
1.76
 23
1.653577
 33
0.0
  0
POINT
  5
2560
100
AcDbEntity
  8
DEFPOINTS
 62
     0
100
AcDbPoint
 10
-1.76
 20
1.24
 30
-1.68
  0
POINT
  5
2561
100
AcDbEntity
  8
DEFPOINTS
 62
     0
100
AcDbPoint
 10
1.76
 20
1.24
 30
-1.68
  0
POINT
  5
2562
100
AcDbEntity
  8
DEFPOINTS
 62
     0
100
AcDbPoint
 10
1.76
 20
1.653577
 30
0.0
  0
ENDBLK
  5
2564
100
AcDbEntity
  8
0
100
AcDbBlockEnd
  0
BLOCK
  5
2570
100
AcDbEntity
  8
0
100
AcDbBlockBegin
  2
*D1
 70
     1
 10
0.0
 20
0.0
 30
0.0
  3
*D1
  1

  0
LINE
  5
2566
100
AcDbEntity
  8
AREA1
 62
     0
100
AcDbLine
 10
1.8225
 20
1.24
 30
0.0
 11
2.213548
 21
1.24
 31
0.0
1001
ACAD
1000
RTLwPs
1070
   158
  0
LINE
  5
2567
100
AcDbEntity
  8
AREA1
 62
     0
100
AcDbLine
 10
1.8225
 20
-1.24
 30
0.0
 11
2.213548
 21
-1.24
 31
0.0
1001
ACAD
1000
RTLwPs
1070
   158
  0
LINE
  5
2568
100
AcDbEntity
  8
AREA1
 62
     0
100
AcDbLine
 10
2.033548
 20
1.15
 30
0.0
 11
2.033548
 21
0.626365
 31
0.0
1001
ACAD
1000
RTLwPs
1070
   158
  0
LINE
  5
2569
100
AcDbEntity
  8
AREA1
 62
     0
100
AcDbLine
 10
2.033548
 20
-1.15
 30
0.0
 11
2.033548
 21
-0.723635
 31
0.0
1001
ACAD
1000
RTLwPs
1070
   158
  0
MTEXT
  5
256A
100
AcDbEntity
  8
AREA1
 62
     0
100
AcDbMText
 10
2.033548
 20
-0.048635
 30
0.0
 40
0.09
 41
0.0
 71
     5
 72
     1
  1
\A1;2 31/64 [62.99]
 11
0.0
 21
1.0
 31
0.0
1001
ACAD
1000
MTEXTBEGIN
1070
    73
1070
     1
1070
    44
1040
1.0
1070
    74
1070
     0
1000
MTEXTEND
1000
MTEXTBEGIN
1070
    73
1070
     1
1070
    44
1040
1.0
1070
    74
1070
     0
1000
MTEXTEND
1000
MTEXTBEGIN
1070
    73
1070
     1
1070
    44
1040
1.0
1070
    74
1070
     0
1000
MTEXTEND
1000
MTEXTBEGIN
1070
    73
1070
     1
1070
    44
1040
1.0
1070
    74
1070
     0
1000
MTEXTEND
1000
MTEXTBEGIN
1070
    73
1070
     1
1070
    44
1040
1.0
1070
    74
1070
     0
1000
MTEXTEND
  0
SOLID
  5
256B
100
AcDbEntity
  8
AREA1
 62
     0
100
AcDbTrace
 10
2.018548
 20
1.15
 30
0.0
 11
2.048548
 21
1.15
 31
0.0
 12
2.033548
 22
1.24
 32
0.0
 13
2.033548
 23
1.24
 33
0.0
  0
SOLID
  5
256C
100
AcDbEntity
  8
AREA1
 62
     0
100
AcDbTrace
 10
2.018548
 20
-1.15
 30
0.0
 11
2.048548
 21
-1.15
 31
0.0
 12
2.033548
 22
-1.24
 32
0.0
 13
2.033548
 23
-1.24
 33
0.0
  0
POINT
  5
256D
100
AcDbEntity
  8
DEFPOINTS
 62
     0
100
AcDbPoint
 10
1.76
 20
1.24
 30
-1.68
  0
POINT
  5
256E
100
AcDbEntity
  8
DEFPOINTS
 62
     0
100
AcDbPoint
 10
1.76
 20
-1.24
 30
-1.68
  0
POINT
  5
256F
100
AcDbEntity
  8
DEFPOINTS
 62
     0
100
AcDbPoint
 10
2.033548
 20
-1.24
 30
0.0
  0
ENDBLK
  5
2571
100
AcDbEntity
  8
0
100
AcDbBlockEnd
  0
BLOCK
  5
2834
100
AcDbEntity
  8
0
100
AcDbBlockBegin
  2
ABDSB420
 70
     2
 10
0.0
 20
0.0
 30
0.0
  3
ABDSB420
  1

  0
LINE
  5
2574
100
AcDbEntity
  8
SCALE
100
AcDbLine
 10
2.446377
 20
-0.783756
 30
0.0
 11
3.446377
 21
-0.783756
 31
0.0
  0
LINE
  5
2575
100
AcDbEntity
  8
SCALE
100
AcDbLine
 10
3.446377
 20
-0.783756
 30
0.0
 11
3.446377
 21
-0.883756
 31
0.0
  0
LINE
  5
2576
100
AcDbEntity
  8
SCALE
100
AcDbLine
 10
3.446377
 20
-0.883756
 30
0.0
 11
3.446377
 21
-0.683756
 31
0.0
  0
LINE
  5
2577
100
AcDbEntity
  8
SCALE
100
AcDbLine
 10
2.446377
 20
-0.883756
 30
0.0
 11
2.446377
 21
-0.683756
 31
0.0
  0
LINE
  5
2578
100
AcDbEntity
  8
SCALE
100
AcDbLine
 10
2.446377
 20
-1.183756
 30
0.0
 11
2.446377
 21
-0.983756
 31
0.0
  0
LINE
  5
2579
100
AcDbEntity
  8
SCALE
100
AcDbLine
 10
2.840077
 20
-1.183756
 30
0.0
 11
2.840077
 21
-0.983756
 31
0.0
  0
LINE
  5
257A
100
AcDbEntity
  8
SCALE
100
AcDbLine
 10
2.446377
 20
-1.083756
 30
0.0
 11
2.840077
 21
-1.083756
 31
0.0
  0
TEXT
  5
257B
100
AcDbEntity
  8
SCALE
100
AcDbText
 10
2.505799
 20
-1.038016
 30
0.0
 40
0.0625
  1
[10mm]
100
AcDbText
  0
TEXT
  5
257C
100
AcDbEntity
  8
SCALE
100
AcDbText
 10
2.80966
 20
-0.714707
 30
0.0
 40
0.0625
  1
1 Inch
100
AcDbText
  0
TEXT
  5
257D
100
AcDbEntity
  8
SCALE
100
AcDbText
 10
2.447908
 20
-0.508878
 30
0.0
 40
0.0625
  1
SCALE:
100
AcDbText
  0
LWPOLYLINE
  5
257E
100
AcDbEntity
  8
SCALE
100
AcDbPolyline
 90
        4
 70
     1
 43
0.0
 10
2.388379
 20
-0.403677
 10
3.524007
 20
-0.403677
 10
3.524007
 20
-1.245287
 10
2.388379
 20
-1.245287
  0
ATTDEF
  5
257F
100
AcDbEntity
  8
ATTRIBUTES
100
AcDbText
 10
-1.587072
 20
0.95462
 30
-3.35
 40
0.12
  1
ALLEN-BRADLEY
100
AcDbAttributeDefinition
  3
MANUFACTURER NAME?
  2
AC_VND_LABEL
 70
     1
  0
ATTDEF
  5
2580
100
AcDbEntity
  8
ATTRIBUTES
100
AcDbText
 10
-1.587072
 20
0.70462
 30
-3.35
 40
0.12
  1
194-E25/E32-1756
100
AcDbAttributeDefinition
  3
CATALOG NUMBER?
  2
AC_PART_NO
 70
     1
  0
ATTDEF
  5
2581
100
AcDbEntity
  8
ATTRIBUTES
100
AcDbText
 10
-1.587072
 20
0.45462
 30
-3.35
 40
0.12
  1
LOAD SWITCH, 6P SWITCH, FRONT/DOOR MOUNTED
100
AcDbAttributeDefinition
  3
PART DESCRIPTION?
  2
AC_DESCRIPTION
 70
     1
  0
ATTDEF
  5
2582
100
AcDbEntity
  8
ATTRIBUTES
100
AcDbText
 10
-1.587072
 20
0.20462
 30
-3.35
 40
0.12
  1

100
AcDbAttributeDefinition
  3
DEVICE ID?
  2
DEVICE_ID
 70
     1
  0
ATTDEF
  5
2583
100
AcDbEntity
  8
ATTRIBUTES
100
AcDbText
 10
-1.587072
 20
-0.04538
 30
-3.35
 40
0.12
  1

100
AcDbAttributeDefinition
  3
CUSTOMER PART NUMBER?
  2
AC_CPART_NO
 70
     1
  0
ATTDEF
  5
2584
100
AcDbEntity
  8
ATTRIBUTES
100
AcDbText
 10
-1.587072
 20
-0.29538
 30
-3.35
 40
0.12
  1

100
AcDbAttributeDefinition
  3
CUSTOMER NOTE?
  2
AC_NOTE
 70
     1
  0
ATTDEF
  5
2585
100
AcDbEntity
  8
ATTRIBUTES
100
AcDbText
 10
-1.587072
 20
-0.54538
 30
-3.35
 40
0.12
  1

100
AcDbAttributeDefinition
  3
FASTENER DATA?
  2
FASTENER
 70
     1
  0
ATTDEF
  5
2586
100
AcDbEntity
  8
ATTRIBUTES
100
AcDbText
 10
-1.587072
 20
-0.79538
 30
-3.35
 40
0.12
  1
INCH
100
AcDbAttributeDefinition
  3
UNIT OF SCALE?
  2
AC_SCALE_UNIT
 70
     1
  0
ATTDEF
  5
2587
100
AcDbEntity
  8
ATTRIBUTES
100
AcDbText
 10
-1.587072
 20
-1.04538
 30
-3.35
 40
0.12
  1
0
100
AcDbAttributeDefinition
  3
VIEW CODE?
  2
AC_VIEW_CODE
 70
     1
  0
POLYLINE
  5
2588
100
AcDbEntity
  8
0
100
AcDbPolygonMesh
 66
     1
 10
0.0
 20
0.0
 30
0.0
 70
    16
 71
     6
 72
     3
  0
VERTEX
  5
2589
100
AcDbEntity
  8
0
100
AcDbVertex
100
AcDbPolygonMeshVertex
 10
0.0
 20
-1.24
 30
-3.15
 70
    64
  0
VERTEX
  5
258A
100
AcDbEntity
  8
0
100
AcDbVertex
100
AcDbPolygonMeshVertex
 10
0.0
 20
-1.24
 30
-3.35
 70
    64
  0
VERTEX
  5
258B
100
AcDbEntity
  8
0
100
AcDbVertex
100
AcDbPolygonMeshVertex
 10
0.0
 20
-1.24
 30
-3.35
 70
    64
  0
VERTEX
  5
258C
100
AcDbEntity
  8
0
100
AcDbVertex
100
AcDbPolygonMeshVertex
 10
-1.76
 20
-1.24
 30
-3.15
 70
    64
  0
VERTEX
  5
258D
100
AcDbEntity
  8
0
100
AcDbVertex
100
AcDbPolygonMeshVertex
 10
-1.76
 20
-1.24
 30
-3.35
 70
    64
  0
VERTEX
  5
258E
100
AcDbEntity
  8
0
100
AcDbVertex
100
AcDbPolygonMeshVertex
 10
-1.76
 20
-1.24
 30
-3.35
 70
    64
  0
VERTEX
  5
258F
100
AcDbEntity
  8
0
100
AcDbVertex
100
AcDbPolygonMeshVertex
 10
-1.76
 20
-0.63
 30
-3.15
 70
    64
  0
VERTEX
  5
2590
100
AcDbEntity
  8
0
100
AcDbVertex
100
AcDbPolygonMeshVertex
 10
-1.76
 20
-0.63
 30
-3.35
 70
    64
  0
VERTEX
  5
2591
100
AcDbEntity
  8
0
100
AcDbVertex
100
AcDbPolygonMeshVertex
 10
-1.76
 20
-1.24
 30
-3.35
 70
    64
  0
VERTEX
  5
2592
100
AcDbEntity
  8
0
100
AcDbVertex
100
AcDbPolygonMeshVertex
 10
0.0
 20
-0.63
 30
-3.15
 70
    64
  0
VERTEX
  5
2593
100
AcDbEntity
  8
0
100
AcDbVertex
100
AcDbPolygonMeshVertex
 10
0.0
 20
-0.63
 30
-3.35
 70
    64
  0
VERTEX
  5
2594
100
AcDbEntity
  8
0
100
AcDbVertex
100
AcDbPolygonMeshVertex
 10
0.0
 20
-1.24
 30
-3.35
 70
    64
  0
VERTEX
  5
2595
100
AcDbEntity
  8
0
100
AcDbVertex
100
AcDbPolygonMeshVertex
 10
0.0
 20
-0.63
 30
-3.15
 70
    64
  0
VERTEX
  5
2596
100
AcDbEntity
  8
0
100
AcDbVertex
100
AcDbPolygonMeshVertex
 10
0.0
 20
-0.63
 30
-3.15
 70
    64
  0
VERTEX
  5
2597
100
AcDbEntity
  8
0
100
AcDbVertex
100
AcDbPolygonMeshVertex
 10
0.0
 20
-1.24
 30
-3.15
 70
    64
  0
VERTEX
  5
2598
100
AcDbEntity
  8
0
100
AcDbVertex
100
AcDbPolygonMeshVertex
 10
-1.76
 20
-0.63
 30
-3.15
 70
    64
  0
VERTEX
  5
2599
100
AcDbEntity
  8
0
100
AcDbVertex
100
AcDbPolygonMeshVertex
 10
-1.76
 20
-0.63
 30
-3.15
 70
    64
  0
VERTEX
  5
259A
100
AcDbEntity
  8
0
100
AcDbVertex
100
AcDbPolygonMeshVertex
 10
-1.76
 20
-1.24
 30
-3.15
 70
    64
  0
SEQEND
  5
259B
100
AcDbEntity
  8
0
  0
POLYLINE
  5
259C
100
AcDbEntity
  8
0
100
AcDbPolygonMesh
 66
     1
 10
0.0
 20
0.0
 30
0.0
 70
    16
 71
     6
 72
     3
  0
VERTEX
  5
259D
100
AcDbEntity
  8
0
100
AcDbVertex
100
AcDbPolygonMeshVertex
 10
0.0
 20
-1.24
 30
-1.68
 70
    64
  0
VERTEX
  5
259E
100
AcDbEntity
  8
0
100
AcDbVertex
100
AcDbPolygonMeshVertex
 10
0.0
 20
-1.24
 30
-3.15
 70
    64
  0
VERTEX
  5
259F
100
AcDbEntity
  8
0
100
AcDbVertex
100
AcDbPolygonMeshVertex
 10
0.0
 20
-1.24
 30
-3.15
 70
    64
  0
VERTEX
  5
25A0
100
AcDbEntity
  8
0
100
AcDbVertex
100
AcDbPolygonMeshVertex
 10
-1.76
 20
-1.24
 30
-1.68
 70
    64
  0
VERTEX
  5
25A1
100
AcDbEntity
  8
0
100
AcDbVertex
100
AcDbPolygonMeshVertex
 10
-1.76
 20
-1.24
 30
-3.15
 70
    64
  0
VERTEX
  5
25A2
100
AcDbEntity
  8
0
100
AcDbVertex
100
AcDbPolygonMeshVertex
 10
-1.76
 20
-1.24
 30
-3.15
 70
    64
  0
VERTEX
  5
25A3
100
AcDbEntity
  8
0
100
AcDbVertex
100
AcDbPolygonMeshVertex
 10
-1.76
 20
1.24
 30
-1.68
 70
    64
  0
VERTEX
  5
25A4
100
AcDbEntity
  8
0
100
AcDbVertex
100
AcDbPolygonMeshVertex
 10
-1.76
 20
1.24
 30
-3.15
 70
    64
  0
VERTEX
  5
25A5
100
AcDbEntity
  8
0
100
AcDbVertex
100
AcDbPolygonMeshVertex
 10
-1.76
 20
-1.24
 30
-3.15
 70
    64
  0
VERTEX
  5
25A6
100
AcDbEntity
  8
0
100
AcDbVertex
100
AcDbPolygonMeshVertex
 10
0.0
 20
1.24
 30
-1.68
 70
    64
  0
VERTEX
  5
25A7
100
AcDbEntity
  8
0
100
AcDbVertex
100
AcDbPolygonMeshVertex
 10
0.0
 20
1.24
 30
-3.15
 70
    64
  0
VERTEX
  5
25A8
100
AcDbEntity
  8
0
100
AcDbVertex
100
AcDbPolygonMeshVertex
 10
0.0
 20
-1.24
 30
-3.15
 70
    64
  0
VERTEX
  5
25A9
100
AcDbEntity
  8
0
100
AcDbVertex
100
AcDbPolygonMeshVertex
 10
0.0
 20
1.24
 30
-1.68
 70
    64
  0
VERTEX
  5
25AA
100
AcDbEntity
  8
0
100
AcDbVertex
100
AcDbPolygonMeshVertex
 10
0.0
 20
1.24
 30
-1.68
 70
    64
  0
VERTEX
  5
25AB
100
AcDbEntity
  8
0
100
AcDbVertex
100
AcDbPolygonMeshVertex
 10
0.0
 20
-1.24
 30
-1.68
 70
    64
  0
VERTEX
  5
25AC
100
AcDbEntity
  8
0
100
AcDbVertex
100
AcDbPolygonMeshVertex
 10
-1.76
 20
1.24
 30
-1.68
 70
    64
  0
VERTEX
  5
25AD
100
AcDbEntity
  8
0
100
AcDbVertex
100
AcDbPolygonMeshVertex
 10
-1.76
 20
1.24
 30
-1.68
 70
    64
  0
VERTEX
  5
25AE
100
AcDbEntity
  8
0
100
AcDbVertex
100
AcDbPolygonMeshVertex
 10
-1.76
 20
-1.24
 30
-1.68
 70
    64
  0
SEQEND
  5
25AF
100
AcDbEntity
  8
0
  0
POLYLINE
  5
25B0
100
AcDbEntity
  8
0
100
AcDbPolygonMesh
 66
     1
 10
0.0
 20
0.0
 30
0.0
 70
    16
 71
     6
 72
     3
  0
VERTEX
  5
25B1
100
AcDbEntity
  8
0
100
AcDbVertex
100
AcDbPolygonMeshVertex
 10
0.0
 20
0.71
 30
-3.15
 70
    64
  0
VERTEX
  5
25B2
100
AcDbEntity
  8
0
100
AcDbVertex
100
AcDbPolygonMeshVertex
 10
0.0
 20
0.71
 30
-3.35
 70
    64
  0
VERTEX
  5
25B3
100
AcDbEntity
  8
0
100
AcDbVertex
100
AcDbPolygonMeshVertex
 10
0.0
 20
0.71
 30
-3.35
 70
    64
  0
VERTEX
  5
25B4
100
AcDbEntity
  8
0
100
AcDbVertex
100
AcDbPolygonMeshVertex
 10
-1.76
 20
0.71
 30
-3.15
 70
    64
  0
VERTEX
  5
25B5
100
AcDbEntity
  8
0
100
AcDbVertex
100
AcDbPolygonMeshVertex
 10
-1.76
 20
0.71
 30
-3.35
 70
    64
  0
VERTEX
  5
25B6
100
AcDbEntity
  8
0
100
AcDbVertex
100
AcDbPolygonMeshVertex
 10
-1.76
 20
0.71
 30
-3.35
 70
    64
  0
VERTEX
  5
25B7
100
AcDbEntity
  8
0
100
AcDbVertex
100
AcDbPolygonMeshVertex
 10
-1.76
 20
1.24
 30
-3.15
 70
    64
  0
VERTEX
  5
25B8
100
AcDbEntity
  8
0
100
AcDbVertex
100
AcDbPolygonMeshVertex
 10
-1.76
 20
1.24
 30
-3.35
 70
    64
  0
VERTEX
  5
25B9
100
AcDbEntity
  8
0
100
AcDbVertex
100
AcDbPolygonMeshVertex
 10
-1.76
 20
0.71
 30
-3.35
 70
    64
  0
VERTEX
  5
25BA
100
AcDbEntity
  8
0
100
AcDbVertex
100
AcDbPolygonMeshVertex
 10
0.0
 20
1.24
 30
-3.15
 70
    64
  0
VERTEX
  5
25BB
100
AcDbEntity
  8
0
100
AcDbVertex
100
AcDbPolygonMeshVertex
 10
0.0
 20
1.24
 30
-3.35
 70
    64
  0
VERTEX
  5
25BC
100
AcDbEntity
  8
0
100
AcDbVertex
100
AcDbPolygonMeshVertex
 10
0.0
 20
0.71
 30
-3.35
 70
    64
  0
VERTEX
  5
25BD
100
AcDbEntity
  8
0
100
AcDbVertex
100
AcDbPolygonMeshVertex
 10
0.0
 20
1.24
 30
-3.15
 70
    64
  0
VERTEX
  5
25BE
100
AcDbEntity
  8
0
100
AcDbVertex
100
AcDbPolygonMeshVertex
 10
0.0
 20
1.24
 30
-3.15
 70
    64
  0
VERTEX
  5
25BF
100
AcDbEntity
  8
0
100
AcDbVertex
100
AcDbPolygonMeshVertex
 10
0.0
 20
0.71
 30
-3.15
 70
    64
  0
VERTEX
  5
25C0
100
AcDbEntity
  8
0
100
AcDbVertex
100
AcDbPolygonMeshVertex
 10
-1.76
 20
1.24
 30
-3.15
 70
    64
  0
VERTEX
  5
25C1
100
AcDbEntity
  8
0
100
AcDbVertex
100
AcDbPolygonMeshVertex
 10
-1.76
 20
1.24
 30
-3.15
 70
    64
  0
VERTEX
  5
25C2
100
AcDbEntity
  8
0
100
AcDbVertex
100
AcDbPolygonMeshVertex
 10
-1.76
 20
0.71
 30
-3.15
 70
    64
  0
SEQEND
  5
25C3
100
AcDbEntity
  8
0
  0
POLYLINE
  5
25C4
100
AcDbEntity
  8
0
100
AcDbPolygonMesh
 66
     1
 10
0.0
 20
0.0
 30
0.0
 70
    16
 71
     6
 72
     3
  0
VERTEX
  5
25C5
100
AcDbEntity
  8
0
100
AcDbVertex
100
AcDbPolygonMeshVertex
 10
0.0
 20
-0.64
 30
-0.98
 70
    64
  0
VERTEX
  5
25C6
100
AcDbEntity
  8
0
100
AcDbVertex
100
AcDbPolygonMeshVertex
 10
0.0
 20
-0.64
 30
-1.68
 70
    64
  0
VERTEX
  5
25C7
100
AcDbEntity
  8
0
100
AcDbVertex
100
AcDbPolygonMeshVertex
 10
0.0
 20
-0.64
 30
-1.68
 70
    64
  0
VERTEX
  5
25C8
100
AcDbEntity
  8
0
100
AcDbVertex
100
AcDbPolygonMeshVertex
 10
-1.76
 20
-0.64
 30
-0.98
 70
    64
  0
VERTEX
  5
25C9
100
AcDbEntity
  8
0
100
AcDbVertex
100
AcDbPolygonMeshVertex
 10
-1.76
 20
-0.64
 30
-1.68
 70
    64
  0
VERTEX
  5
25CA
100
AcDbEntity
  8
0
100
AcDbVertex
100
AcDbPolygonMeshVertex
 10
-1.76
 20
-0.64
 30
-1.68
 70
    64
  0
VERTEX
  5
25CB
100
AcDbEntity
  8
0
100
AcDbVertex
100
AcDbPolygonMeshVertex
 10
-1.76
 20
0.64
 30
-0.98
 70
    64
  0
VERTEX
  5
25CC
100
AcDbEntity
  8
0
100
AcDbVertex
100
AcDbPolygonMeshVertex
 10
-1.76
 20
0.64
 30
-1.68
 70
    64
  0
VERTEX
  5
25CD
100
AcDbEntity
  8
0
100
AcDbVertex
100
AcDbPolygonMeshVertex
 10
-1.76
 20
-0.64
 30
-1.68
 70
    64
  0
VERTEX
  5
25CE
100
AcDbEntity
  8
0
100
AcDbVertex
100
AcDbPolygonMeshVertex
 10
0.0
 20
0.64
 30
-0.98
 70
    64
  0
VERTEX
  5
25CF
100
AcDbEntity
  8
0
100
AcDbVertex
100
AcDbPolygonMeshVertex
 10
0.0
 20
0.64
 30
-1.68
 70
    64
  0
VERTEX
  5
25D0
100
AcDbEntity
  8
0
100
AcDbVertex
100
AcDbPolygonMeshVertex
 10
0.0
 20
-0.64
 30
-1.68
 70
    64
  0
VERTEX
  5
25D1
100
AcDbEntity
  8
0
100
AcDbVertex
100
AcDbPolygonMeshVertex
 10
0.0
 20
0.64
 30
-0.98
 70
    64
  0
VERTEX
  5
25D2
100
AcDbEntity
  8
0
100
AcDbVertex
100
AcDbPolygonMeshVertex
 10
0.0
 20
0.64
 30
-0.98
 70
    64
  0
VERTEX
  5
25D3
100
AcDbEntity
  8
0
100
AcDbVertex
100
AcDbPolygonMeshVertex
 10
0.0
 20
-0.64
 30
-0.98
 70
    64
  0
VERTEX
  5
25D4
100
AcDbEntity
  8
0
100
AcDbVertex
100
AcDbPolygonMeshVertex
 10
-1.76
 20
0.64
 30
-0.98
 70
    64
  0
VERTEX
  5
25D5
100
AcDbEntity
  8
0
100
AcDbVertex
100
AcDbPolygonMeshVertex
 10
-1.76
 20
0.64
 30
-0.98
 70
    64
  0
VERTEX
  5
25D6
100
AcDbEntity
  8
0
100
AcDbVertex
100
AcDbPolygonMeshVertex
 10
-1.76
 20
-0.64
 30
-0.98
 70
    64
  0
SEQEND
  5
25D7
100
AcDbEntity
  8
0
  0
POLYLINE
  5
25D8
100
AcDbEntity
  8
0
100
AcDbPolygonMesh
 66
     1
 10
0.0
 20
0.0
 30
0.0
 70
    16
 71
     6
 72
     3
  0
VERTEX
  5
25D9
100
AcDbEntity
  8
0
100
AcDbVertex
100
AcDbPolygonMeshVertex
 10
-1.46
 20
-0.82
 30
-0.98
 70
    64
  0
VERTEX
  5
25DA
100
AcDbEntity
  8
0
100
AcDbVertex
100
AcDbPolygonMeshVertex
 10
-1.46
 20
-0.82
 30
-1.4
 70
    64
  0
VERTEX
  5
25DB
100
AcDbEntity
  8
0
100
AcDbVertex
100
AcDbPolygonMeshVertex
 10
-1.46
 20
-0.82
 30
-1.4
 70
    64
  0
VERTEX
  5
25DC
100
AcDbEntity
  8
0
100
AcDbVertex
100
AcDbPolygonMeshVertex
 10
-1.76
 20
-0.82
 30
-0.98
 70
    64
  0
VERTEX
  5
25DD
100
AcDbEntity
  8
0
100
AcDbVertex
100
AcDbPolygonMeshVertex
 10
-1.76
 20
-0.82
 30
-1.4
 70
    64
  0
VERTEX
  5
25DE
100
AcDbEntity
  8
0
100
AcDbVertex
100
AcDbPolygonMeshVertex
 10
-1.76
 20
-0.82
 30
-1.4
 70
    64
  0
VERTEX
  5
25DF
100
AcDbEntity
  8
0
100
AcDbVertex
100
AcDbPolygonMeshVertex
 10
-1.76
 20
-0.64
 30
-0.98
 70
    64
  0
VERTEX
  5
25E0
100
AcDbEntity
  8
0
100
AcDbVertex
100
AcDbPolygonMeshVertex
 10
-1.76
 20
-0.64
 30
-1.4
 70
    64
  0
VERTEX
  5
25E1
100
AcDbEntity
  8
0
100
AcDbVertex
100
AcDbPolygonMeshVertex
 10
-1.76
 20
-0.82
 30
-1.4
 70
    64
  0
VERTEX
  5
25E2
100
AcDbEntity
  8
0
100
AcDbVertex
100
AcDbPolygonMeshVertex
 10
-1.46
 20
-0.64
 30
-0.98
 70
    64
  0
VERTEX
  5
25E3
100
AcDbEntity
  8
0
100
AcDbVertex
100
AcDbPolygonMeshVertex
 10
-1.46
 20
-0.64
 30
-1.4
 70
    64
  0
VERTEX
  5
25E4
100
AcDbEntity
  8
0
100
AcDbVertex
100
AcDbPolygonMeshVertex
 10
-1.46
 20
-0.82
 30
-1.4
 70
    64
  0
VERTEX
  5
25E5
100
AcDbEntity
  8
0
100
AcDbVertex
100
AcDbPolygonMeshVertex
 10
-1.46
 20
-0.64
 30
-0.98
 70
    64
  0
VERTEX
  5
25E6
100
AcDbEntity
  8
0
100
AcDbVertex
100
AcDbPolygonMeshVertex
 10
-1.46
 20
-0.64
 30
-0.98
 70
    64
  0
VERTEX
  5
25E7
100
AcDbEntity
  8
0
100
AcDbVertex
100
AcDbPolygonMeshVertex
 10
-1.46
 20
-0.82
 30
-0.98
 70
    64
  0
VERTEX
  5
25E8
100
AcDbEntity
  8
0
100
AcDbVertex
100
AcDbPolygonMeshVertex
 10
-1.76
 20
-0.64
 30
-0.98
 70
    64
  0
VERTEX
  5
25E9
100
AcDbEntity
  8
0
100
AcDbVertex
100
AcDbPolygonMeshVertex
 10
-1.76
 20
-0.64
 30
-0.98
 70
    64
  0
VERTEX
  5
25EA
100
AcDbEntity
  8
0
100
AcDbVertex
100
AcDbPolygonMeshVertex
 10
-1.76
 20
-0.82
 30
-0.98
 70
    64
  0
SEQEND
  5
25EB
100
AcDbEntity
  8
0
  0
POLYLINE
  5
25EC
100
AcDbEntity
  8
0
100
AcDbPolygonMesh
 66
     1
 10
0.0
 20
0.0
 30
0.0
 70
    16
 71
     6
 72
     3
  0
VERTEX
  5
25ED
100
AcDbEntity
  8
0
100
AcDbVertex
100
AcDbPolygonMeshVertex
 10
-0.3
 20
-0.82
 30
-0.98
 70
    64
  0
VERTEX
  5
25EE
100
AcDbEntity
  8
0
100
AcDbVertex
100
AcDbPolygonMeshVertex
 10
-0.3
 20
-0.82
 30
-1.4
 70
    64
  0
VERTEX
  5
25EF
100
AcDbEntity
  8
0
100
AcDbVertex
100
AcDbPolygonMeshVertex
 10
-0.3
 20
-0.82
 30
-1.4
 70
    64
  0
VERTEX
  5
25F0
100
AcDbEntity
  8
0
100
AcDbVertex
100
AcDbPolygonMeshVertex
 10
0.0
 20
-0.82
 30
-0.98
 70
    64
  0
VERTEX
  5
25F1
100
AcDbEntity
  8
0
100
AcDbVertex
100
AcDbPolygonMeshVertex
 10
0.0
 20
-0.82
 30
-1.4
 70
    64
  0
VERTEX
  5
25F2
100
AcDbEntity
  8
0
100
AcDbVertex
100
AcDbPolygonMeshVertex
 10
0.0
 20
-0.82
 30
-1.4
 70
    64
  0
VERTEX
  5
25F3
100
AcDbEntity
  8
0
100
AcDbVertex
100
AcDbPolygonMeshVertex
 10
0.0
 20
-0.64
 30
-0.98
 70
    64
  0
VERTEX
  5
25F4
100
AcDbEntity
  8
0
100
AcDbVertex
100
AcDbPolygonMeshVertex
 10
0.0
 20
-0.64
 30
-1.4
 70
    64
  0
VERTEX
  5
25F5
100
AcDbEntity
  8
0
100
AcDbVertex
100
AcDbPolygonMeshVertex
 10
0.0
 20
-0.82
 30
-1.4
 70
    64
  0
VERTEX
  5
25F6
100
AcDbEntity
  8
0
100
AcDbVertex
100
AcDbPolygonMeshVertex
 10
-0.3
 20
-0.64
 30
-0.98
 70
    64
  0
VERTEX
  5
25F7
100
AcDbEntity
  8
0
100
AcDbVertex
100
AcDbPolygonMeshVertex
 10
-0.3
 20
-0.64
 30
-1.4
 70
    64
  0
VERTEX
  5
25F8
100
AcDbEntity
  8
0
100
AcDbVertex
100
AcDbPolygonMeshVertex
 10
-0.3
 20
-0.82
 30
-1.4
 70
    64
  0
VERTEX
  5
25F9
100
AcDbEntity
  8
0
100
AcDbVertex
100
AcDbPolygonMeshVertex
 10
-0.3
 20
-0.64
 30
-0.98
 70
    64
  0
VERTEX
  5
25FA
100
AcDbEntity
  8
0
100
AcDbVertex
100
AcDbPolygonMeshVertex
 10
-0.3
 20
-0.64
 30
-0.98
 70
    64
  0
VERTEX
  5
25FB
100
AcDbEntity
  8
0
100
AcDbVertex
100
AcDbPolygonMeshVertex
 10
-0.3
 20
-0.82
 30
-0.98
 70
    64
  0
VERTEX
  5
25FC
100
AcDbEntity
  8
0
100
AcDbVertex
100
AcDbPolygonMeshVertex
 10
0.0
 20
-0.64
 30
-0.98
 70
    64
  0
VERTEX
  5
25FD
100
AcDbEntity
  8
0
100
AcDbVertex
100
AcDbPolygonMeshVertex
 10
0.0
 20
-0.64
 30
-0.98
 70
    64
  0
VERTEX
  5
25FE
100
AcDbEntity
  8
0
100
AcDbVertex
100
AcDbPolygonMeshVertex
 10
0.0
 20
-0.82
 30
-0.98
 70
    64
  0
SEQEND
  5
25FF
100
AcDbEntity
  8
0
  0
POLYLINE
  5
2600
100
AcDbEntity
  8
0
100
AcDbPolygonMesh
 66
     1
 10
0.0
 20
0.0
 30
0.0
 70
    16
 71
     6
 72
     3
  0
VERTEX
  5
2601
100
AcDbEntity
  8
0
100
AcDbVertex
100
AcDbPolygonMeshVertex
 10
-1.46
 20
0.82
 30
-0.98
 70
    64
  0
VERTEX
  5
2602
100
AcDbEntity
  8
0
100
AcDbVertex
100
AcDbPolygonMeshVertex
 10
-1.46
 20
0.82
 30
-1.4
 70
    64
  0
VERTEX
  5
2603
100
AcDbEntity
  8
0
100
AcDbVertex
100
AcDbPolygonMeshVertex
 10
-1.46
 20
0.82
 30
-1.4
 70
    64
  0
VERTEX
  5
2604
100
AcDbEntity
  8
0
100
AcDbVertex
100
AcDbPolygonMeshVertex
 10
-1.76
 20
0.82
 30
-0.98
 70
    64
  0
VERTEX
  5
2605
100
AcDbEntity
  8
0
100
AcDbVertex
100
AcDbPolygonMeshVertex
 10
-1.76
 20
0.82
 30
-1.4
 70
    64
  0
VERTEX
  5
2606
100
AcDbEntity
  8
0
100
AcDbVertex
100
AcDbPolygonMeshVertex
 10
-1.76
 20
0.82
 30
-1.4
 70
    64
  0
VERTEX
  5
2607
100
AcDbEntity
  8
0
100
AcDbVertex
100
AcDbPolygonMeshVertex
 10
-1.76
 20
0.64
 30
-0.98
 70
    64
  0
VERTEX
  5
2608
100
AcDbEntity
  8
0
100
AcDbVertex
100
AcDbPolygonMeshVertex
 10
-1.76
 20
0.64
 30
-1.4
 70
    64
  0
VERTEX
  5
2609
100
AcDbEntity
  8
0
100
AcDbVertex
100
AcDbPolygonMeshVertex
 10
-1.76
 20
0.82
 30
-1.4
 70
    64
  0
VERTEX
  5
260A
100
AcDbEntity
  8
0
100
AcDbVertex
100
AcDbPolygonMeshVertex
 10
-1.46
 20
0.64
 30
-0.98
 70
    64
  0
VERTEX
  5
260B
100
AcDbEntity
  8
0
100
AcDbVertex
100
AcDbPolygonMeshVertex
 10
-1.46
 20
0.64
 30
-1.4
 70
    64
  0
VERTEX
  5
260C
100
AcDbEntity
  8
0
100
AcDbVertex
100
AcDbPolygonMeshVertex
 10
-1.46
 20
0.82
 30
-1.4
 70
    64
  0
VERTEX
  5
260D
100
AcDbEntity
  8
0
100
AcDbVertex
100
AcDbPolygonMeshVertex
 10
-1.46
 20
0.64
 30
-0.98
 70
    64
  0
VERTEX
  5
260E
100
AcDbEntity
  8
0
100
AcDbVertex
100
AcDbPolygonMeshVertex
 10
-1.46
 20
0.64
 30
-0.98
 70
    64
  0
VERTEX
  5
260F
100
AcDbEntity
  8
0
100
AcDbVertex
100
AcDbPolygonMeshVertex
 10
-1.46
 20
0.82
 30
-0.98
 70
    64
  0
VERTEX
  5
2610
100
AcDbEntity
  8
0
100
AcDbVertex
100
AcDbPolygonMeshVertex
 10
-1.76
 20
0.64
 30
-0.98
 70
    64
  0
VERTEX
  5
2611
100
AcDbEntity
  8
0
100
AcDbVertex
100
AcDbPolygonMeshVertex
 10
-1.76
 20
0.64
 30
-0.98
 70
    64
  0
VERTEX
  5
2612
100
AcDbEntity
  8
0
100
AcDbVertex
100
AcDbPolygonMeshVertex
 10
-1.76
 20
0.82
 30
-0.98
 70
    64
  0
SEQEND
  5
2613
100
AcDbEntity
  8
0
  0
POLYLINE
  5
2614
100
AcDbEntity
  8
0
100
AcDbPolygonMesh
 66
     1
 10
0.0
 20
0.0
 30
0.0
 70
    16
 71
     6
 72
     3
  0
VERTEX
  5
2615
100
AcDbEntity
  8
0
100
AcDbVertex
100
AcDbPolygonMeshVertex
 10
-0.3
 20
0.82
 30
-0.98
 70
    64
  0
VERTEX
  5
2616
100
AcDbEntity
  8
0
100
AcDbVertex
100
AcDbPolygonMeshVertex
 10
-0.3
 20
0.82
 30
-1.4
 70
    64
  0
VERTEX
  5
2617
100
AcDbEntity
  8
0
100
AcDbVertex
100
AcDbPolygonMeshVertex
 10
-0.3
 20
0.82
 30
-1.4
 70
    64
  0
VERTEX
  5
2618
100
AcDbEntity
  8
0
100
AcDbVertex
100
AcDbPolygonMeshVertex
 10
0.0
 20
0.82
 30
-0.98
 70
    64
  0
VERTEX
  5
2619
100
AcDbEntity
  8
0
100
AcDbVertex
100
AcDbPolygonMeshVertex
 10
0.0
 20
0.82
 30
-1.4
 70
    64
  0
VERTEX
  5
261A
100
AcDbEntity
  8
0
100
AcDbVertex
100
AcDbPolygonMeshVertex
 10
0.0
 20
0.82
 30
-1.4
 70
    64
  0
VERTEX
  5
261B
100
AcDbEntity
  8
0
100
AcDbVertex
100
AcDbPolygonMeshVertex
 10
0.0
 20
0.64
 30
-0.98
 70
    64
  0
VERTEX
  5
261C
100
AcDbEntity
  8
0
100
AcDbVertex
100
AcDbPolygonMeshVertex
 10
0.0
 20
0.64
 30
-1.4
 70
    64
  0
VERTEX
  5
261D
100
AcDbEntity
  8
0
100
AcDbVertex
100
AcDbPolygonMeshVertex
 10
0.0
 20
0.82
 30
-1.4
 70
    64
  0
VERTEX
  5
261E
100
AcDbEntity
  8
0
100
AcDbVertex
100
AcDbPolygonMeshVertex
 10
-0.3
 20
0.64
 30
-0.98
 70
    64
  0
VERTEX
  5
261F
100
AcDbEntity
  8
0
100
AcDbVertex
100
AcDbPolygonMeshVertex
 10
-0.3
 20
0.64
 30
-1.4
 70
    64
  0
VERTEX
  5
2620
100
AcDbEntity
  8
0
100
AcDbVertex
100
AcDbPolygonMeshVertex
 10
-0.3
 20
0.82
 30
-1.4
 70
    64
  0
VERTEX
  5
2621
100
AcDbEntity
  8
0
100
AcDbVertex
100
AcDbPolygonMeshVertex
 10
-0.3
 20
0.64
 30
-0.98
 70
    64
  0
VERTEX
  5
2622
100
AcDbEntity
  8
0
100
AcDbVertex
100
AcDbPolygonMeshVertex
 10
-0.3
 20
0.64
 30
-0.98
 70
    64
  0
VERTEX
  5
2623
100
AcDbEntity
  8
0
100
AcDbVertex
100
AcDbPolygonMeshVertex
 10
-0.3
 20
0.82
 30
-0.98
 70
    64
  0
VERTEX
  5
2624
100
AcDbEntity
  8
0
100
AcDbVertex
100
AcDbPolygonMeshVertex
 10
0.0
 20
0.64
 30
-0.98
 70
    64
  0
VERTEX
  5
2625
100
AcDbEntity
  8
0
100
AcDbVertex
100
AcDbPolygonMeshVertex
 10
0.0
 20
0.64
 30
-0.98
 70
    64
  0
VERTEX
  5
2626
100
AcDbEntity
  8
0
100
AcDbVertex
100
AcDbPolygonMeshVertex
 10
0.0
 20
0.82
 30
-0.98
 70
    64
  0
SEQEND
  5
2627
100
AcDbEntity
  8
0
  0
POLYLINE
  5
2628
100
AcDbEntity
  8
0
100
AcDbPolygonMesh
 66
     1
 10
0.0
 20
0.0
 30
0.0
 70
    16
 71
     6
 72
     3
  0
VERTEX
  5
2629
100
AcDbEntity
  8
0
100
AcDbVertex
100
AcDbPolygonMeshVertex
 10
-1.0
 20
-1.52
 30
-3.2
 70
    64
  0
VERTEX
  5
262A
100
AcDbEntity
  8
0
100
AcDbVertex
100
AcDbPolygonMeshVertex
 10
-1.0
 20
-1.52
 30
-3.35
 70
    64
  0
VERTEX
  5
262B
100
AcDbEntity
  8
0
100
AcDbVertex
100
AcDbPolygonMeshVertex
 10
-1.0
 20
-1.52
 30
-3.35
 70
    64
  0
VERTEX
  5
262C
100
AcDbEntity
  8
0
100
AcDbVertex
100
AcDbPolygonMeshVertex
 10
-1.38
 20
-1.52
 30
-3.2
 70
    64
  0
VERTEX
  5
262D
100
AcDbEntity
  8
0
100
AcDbVertex
100
AcDbPolygonMeshVertex
 10
-1.38
 20
-1.52
 30
-3.35
 70
    64
  0
VERTEX
  5
262E
100
AcDbEntity
  8
0
100
AcDbVertex
100
AcDbPolygonMeshVertex
 10
-1.38
 20
-1.52
 30
-3.35
 70
    64
  0
VERTEX
  5
262F
100
AcDbEntity
  8
0
100
AcDbVertex
100
AcDbPolygonMeshVertex
 10
-1.38
 20
-1.24
 30
-3.2
 70
    64
  0
VERTEX
  5
2630
100
AcDbEntity
  8
0
100
AcDbVertex
100
AcDbPolygonMeshVertex
 10
-1.38
 20
-1.24
 30
-3.35
 70
    64
  0
VERTEX
  5
2631
100
AcDbEntity
  8
0
100
AcDbVertex
100
AcDbPolygonMeshVertex
 10
-1.38
 20
-1.52
 30
-3.35
 70
    64
  0
VERTEX
  5
2632
100
AcDbEntity
  8
0
100
AcDbVertex
100
AcDbPolygonMeshVertex
 10
-1.0
 20
-1.24
 30
-3.2
 70
    64
  0
VERTEX
  5
2633
100
AcDbEntity
  8
0
100
AcDbVertex
100
AcDbPolygonMeshVertex
 10
-1.0
 20
-1.24
 30
-3.35
 70
    64
  0
VERTEX
  5
2634
100
AcDbEntity
  8
0
100
AcDbVertex
100
AcDbPolygonMeshVertex
 10
-1.0
 20
-1.52
 30
-3.35
 70
    64
  0
VERTEX
  5
2635
100
AcDbEntity
  8
0
100
AcDbVertex
100
AcDbPolygonMeshVertex
 10
-1.0
 20
-1.24
 30
-3.2
 70
    64
  0
VERTEX
  5
2636
100
AcDbEntity
  8
0
100
AcDbVertex
100
AcDbPolygonMeshVertex
 10
-1.0
 20
-1.24
 30
-3.2
 70
    64
  0
VERTEX
  5
2637
100
AcDbEntity
  8
0
100
AcDbVertex
100
AcDbPolygonMeshVertex
 10
-1.0
 20
-1.52
 30
-3.2
 70
    64
  0
VERTEX
  5
2638
100
AcDbEntity
  8
0
100
AcDbVertex
100
AcDbPolygonMeshVertex
 10
-1.38
 20
-1.24
 30
-3.2
 70
    64
  0
VERTEX
  5
2639
100
AcDbEntity
  8
0
100
AcDbVertex
100
AcDbPolygonMeshVertex
 10
-1.38
 20
-1.24
 30
-3.2
 70
    64
  0
VERTEX
  5
263A
100
AcDbEntity
  8
0
100
AcDbVertex
100
AcDbPolygonMeshVertex
 10
-1.38
 20
-1.52
 30
-3.2
 70
    64
  0
SEQEND
  5
263B
100
AcDbEntity
  8
0
  0
CIRCLE
  5
263C
100
AcDbEntity
  8
0
100
AcDbCircle
 10
-1.19
 20
-1.38
 30
-3.2
 40
0.09
  0
CIRCLE
  5
263D
100
AcDbEntity
  8
0
100
AcDbCircle
 10
-1.19
 20
-1.38
 30
-3.35
 40
0.09
  0
LINE
  5
263E
100
AcDbEntity
  8
DIMS-MTG-HOLES
  6
CONTINUOUS
100
AcDbLine
 10
-1.28
 20
-1.38
 30
-3.35
 11
-1.1
 21
-1.38
 31
-3.35
  0
LINE
  5
263F
100
AcDbEntity
  8
DIMS-MTG-HOLES
  6
CONTINUOUS
100
AcDbLine
 10
-1.19
 20
-1.47
 30
-3.35
 11
-1.19
 21
-1.29
 31
-3.35
  0
POLYLINE
  5
2640
100
AcDbEntity
  8
0
100
AcDbPolygonMesh
 66
     1
 10
0.0
 20
0.0
 30
0.0
 70
    16
 71
     6
 72
     3
  0
VERTEX
  5
2641
100
AcDbEntity
  8
0
100
AcDbVertex
100
AcDbPolygonMeshVertex
 10
-0.4
 20
1.24
 30
-3.2
 70
    64
  0
VERTEX
  5
2642
100
AcDbEntity
  8
0
100
AcDbVertex
100
AcDbPolygonMeshVertex
 10
-0.4
 20
1.24
 30
-3.35
 70
    64
  0
VERTEX
  5
2643
100
AcDbEntity
  8
0
100
AcDbVertex
100
AcDbPolygonMeshVertex
 10
-0.4
 20
1.24
 30
-3.35
 70
    64
  0
VERTEX
  5
2644
100
AcDbEntity
  8
0
100
AcDbVertex
100
AcDbPolygonMeshVertex
 10
-0.78
 20
1.24
 30
-3.2
 70
    64
  0
VERTEX
  5
2645
100
AcDbEntity
  8
0
100
AcDbVertex
100
AcDbPolygonMeshVertex
 10
-0.78
 20
1.24
 30
-3.35
 70
    64
  0
VERTEX
  5
2646
100
AcDbEntity
  8
0
100
AcDbVertex
100
AcDbPolygonMeshVertex
 10
-0.78
 20
1.24
 30
-3.35
 70
    64
  0
VERTEX
  5
2647
100
AcDbEntity
  8
0
100
AcDbVertex
100
AcDbPolygonMeshVertex
 10
-0.78
 20
1.52
 30
-3.2
 70
    64
  0
VERTEX
  5
2648
100
AcDbEntity
  8
0
100
AcDbVertex
100
AcDbPolygonMeshVertex
 10
-0.78
 20
1.52
 30
-3.35
 70
    64
  0
VERTEX
  5
2649
100
AcDbEntity
  8
0
100
AcDbVertex
100
AcDbPolygonMeshVertex
 10
-0.78
 20
1.24
 30
-3.35
 70
    64
  0
VERTEX
  5
264A
100
AcDbEntity
  8
0
100
AcDbVertex
100
AcDbPolygonMeshVertex
 10
-0.4
 20
1.52
 30
-3.2
 70
    64
  0
VERTEX
  5
264B
100
AcDbEntity
  8
0
100
AcDbVertex
100
AcDbPolygonMeshVertex
 10
-0.4
 20
1.52
 30
-3.35
 70
    64
  0
VERTEX
  5
264C
100
AcDbEntity
  8
0
100
AcDbVertex
100
AcDbPolygonMeshVertex
 10
-0.4
 20
1.24
 30
-3.35
 70
    64
  0
VERTEX
  5
264D
100
AcDbEntity
  8
0
100
AcDbVertex
100
AcDbPolygonMeshVertex
 10
-0.4
 20
1.52
 30
-3.2
 70
    64
  0
VERTEX
  5
264E
100
AcDbEntity
  8
0
100
AcDbVertex
100
AcDbPolygonMeshVertex
 10
-0.4
 20
1.52
 30
-3.2
 70
    64
  0
VERTEX
  5
264F
100
AcDbEntity
  8
0
100
AcDbVertex
100
AcDbPolygonMeshVertex
 10
-0.4
 20
1.24
 30
-3.2
 70
    64
  0
VERTEX
  5
2650
100
AcDbEntity
  8
0
100
AcDbVertex
100
AcDbPolygonMeshVertex
 10
-0.78
 20
1.52
 30
-3.2
 70
    64
  0
VERTEX
  5
2651
100
AcDbEntity
  8
0
100
AcDbVertex
100
AcDbPolygonMeshVertex
 10
-0.78
 20
1.52
 30
-3.2
 70
    64
  0
VERTEX
  5
2652
100
AcDbEntity
  8
0
100
AcDbVertex
100
AcDbPolygonMeshVertex
 10
-0.78
 20
1.24
 30
-3.2
 70
    64
  0
SEQEND
  5
2653
100
AcDbEntity
  8
0
  0
LINE
  5
2654
100
AcDbEntity
  8
DIMS-MTG-HOLES
  6
CONTINUOUS
100
AcDbLine
 10
-0.68
 20
1.38
 30
-3.35
 11
-0.5
 21
1.38
 31
-3.35
  0
CIRCLE
  5
2655
100
AcDbEntity
  8
0
100
AcDbCircle
 10
-0.59
 20
1.38
 30
-3.35
 40
0.09
  0
LINE
  5
2656
100
AcDbEntity
  8
DIMS-MTG-HOLES
  6
CONTINUOUS
100
AcDbLine
 10
-0.59
 20
1.29
 30
-3.35
 11
-0.59
 21
1.47
 31
-3.35
  0
CIRCLE
  5
2657
100
AcDbEntity
  8
0
100
AcDbCircle
 10
-0.59
 20
1.38
 30
-3.2
 40
0.09
  0
CIRCLE
  5
2658
100
AcDbEntity
  8
0
100
AcDbCircle
 10
-1.59
 20
-0.71
 30
-0.98
 40
0.05
  0
CIRCLE
  5
2659
100
AcDbEntity
  8
0
100
AcDbCircle
 10
-1.59
 20
0.71
 30
-0.98
 40
0.05
  0
CIRCLE
  5
265A
100
AcDbEntity
  8
0
100
AcDbCircle
 10
-0.17
 20
-0.71
 30
-0.98
 40
0.05
  0
CIRCLE
  5
265B
100
AcDbEntity
  8
0
100
AcDbCircle
 10
-0.17
 20
0.71
 30
-0.98
 40
0.05
  0
LWPOLYLINE
  5
265C
100
AcDbEntity
  8
0
100
AcDbPolyline
 90
       12
 70
     1
 43
0.0
 38
-0.98
 10
-0.703932
 20
-0.085
 10
-0.61
 20
-0.085
 42
0.414214
 10
-0.56
 20
-0.035
 10
-0.56
 20
0.075
 42
0.414214
 10
-0.61
 20
0.125
 10
-0.703932
 20
0.125
 42
0.443094
 10
-1.001655
 20
0.185
 10
-1.15
 20
0.185
 42
0.414214
 10
-1.2
 20
0.135
 10
-1.2
 20
-0.095
 42
0.414214
 10
-1.15
 20
-0.145
 10
-1.001655
 20
-0.145
 42
0.443094
  0
3DFACE
  5
265D
100
AcDbEntity
  8
0
100
AcDbFace
 10
-1.76
 20
0.125
 30
-2.115
 11
-1.76
 21
-0.125
 31
-2.115
 12
-1.76
 22
-0.125
 32
-2.715
 13
-1.76
 23
0.125
 33
-2.715
  0
3DFACE
  5
265E
100
AcDbEntity
  8
0
100
AcDbFace
 10
-1.76
 20
0.125
 30
-2.595
 11
-1.76
 21
-0.125
 31
-2.595
 12
-1.76
 22
-0.125
 32
-2.425
 13
-1.76
 23
0.125
 33
-2.425
  0
POINT
  5
265F
100
AcDbEntity
  8
SNAP_POINTS
100
AcDbPoint
 10
-1.76
 20
0.0
 30
-2.51
  0
3DFACE
  5
2660
100
AcDbEntity
  8
0
100
AcDbFace
 10
0.0
 20
0.125
 30
-2.115
 11
0.0
 21
-0.125
 31
-2.115
 12
0.0
 22
-0.125
 32
-2.715
 13
0.0
 23
0.125
 33
-2.715
  0
3DFACE
  5
2661
100
AcDbEntity
  8
0
100
AcDbFace
 10
0.0
 20
0.125
 30
-2.595
 11
0.0
 21
-0.125
 31
-2.595
 12
0.0
 22
-0.125
 32
-2.425
 13
0.0
 23
0.125
 33
-2.425
  0
CIRCLE
  5
2662
100
AcDbEntity
  8
0
100
AcDbCircle
 10
-1.455
 20
-0.935
 30
-3.35
 40
0.125
  0
LWPOLYLINE
  5
2663
100
AcDbEntity
  8
0
100
AcDbPolyline
 90
        6
 70
     0
 43
0.0
 38
-3.35
 10
-1.44
 20
-1.059097
 10
-1.44
 20
-0.95
 10
-1.395
 20
-0.95
 10
-1.395
 20
-0.92
 10
-1.44
 20
-0.92
 10
-1.44
 20
-0.810903
  0
LWPOLYLINE
  5
2664
100
AcDbEntity
  8
0
100
AcDbPolyline
 90
        6
 70
     0
 43
0.0
 38
-3.35
 10
-1.47
 20
-0.810903
 10
-1.47
 20
-0.92
 10
-1.515
 20
-0.92
 10
-1.515
 20
-0.95
 10
-1.47
 20
-0.95
 10
-1.47
 20
-1.059097
  0
CIRCLE
  5
2665
100
AcDbEntity
  8
0
100
AcDbCircle
 10
-0.305
 20
-0.935
 30
-3.35
 40
0.125
  0
LWPOLYLINE
  5
2666
100
AcDbEntity
  8
0
100
AcDbPolyline
 90
        6
 70
     0
 43
0.0
 38
-3.35
 10
-0.29
 20
-0.810903
 10
-0.29
 20
-0.92
 10
-0.245
 20
-0.92
 10
-0.245
 20
-0.95
 10
-0.29
 20
-0.95
 10
-0.29
 20
-1.059097
  0
LWPOLYLINE
  5
2667
100
AcDbEntity
  8
0
100
AcDbPolyline
 90
        6
 70
     0
 43
0.0
 38
-3.35
 10
-0.32
 20
-1.059097
 10
-0.32
 20
-0.95
 10
-0.365
 20
-0.95
 10
-0.365
 20
-0.92
 10
-0.32
 20
-0.92
 10
-0.32
 20
-0.810903
  0
CIRCLE
  5
2668
100
AcDbEntity
  8
0
100
AcDbCircle
 10
-0.88
 20
-0.935
 30
-3.35
 40
0.125
  0
LWPOLYLINE
  5
2669
100
AcDbEntity
  8
0
100
AcDbPolyline
 90
        6
 70
     0
 43
0.0
 38
-3.35
 10
-0.865
 20
-1.059097
 10
-0.865
 20
-0.95
 10
-0.82
 20
-0.95
 10
-0.82
 20
-0.92
 10
-0.865
 20
-0.92
 10
-0.865
 20
-0.810903
  0
LWPOLYLINE
  5
266A
100
AcDbEntity
  8
0
100
AcDbPolyline
 90
        6
 70
     0
 43
0.0
 38
-3.35
 10
-0.895
 20
-0.810903
 10
-0.895
 20
-0.92
 10
-0.94
 20
-0.92
 10
-0.94
 20
-0.95
 10
-0.895
 20
-0.95
 10
-0.895
 20
-1.059097
  0
3DFACE
  5
266B
100
AcDbEntity
  8
0
100
AcDbFace
 10
-1.56
 20
-1.24
 30
-2.38
 11
-1.34
 21
-1.24
 31
-2.38
 12
-1.34
 22
-1.24
 32
-2.68
 13
-1.56
 23
-1.24
 33
-2.68
  0
3DFACE
  5
266C
100
AcDbEntity
  8
0
100
AcDbFace
 10
-0.2
 20
-1.24
 30
-2.38
 11
-0.42
 21
-1.24
 31
-2.38
 12
-0.42
 22
-1.24
 32
-2.68
 13
-0.2
 23
-1.24
 33
-2.68
  0
3DFACE
  5
266D
100
AcDbEntity
  8
0
100
AcDbFace
 10
-0.99
 20
-1.24
 30
-2.38
 11
-0.77
 21
-1.24
 31
-2.38
 12
-0.77
 22
-1.24
 32
-2.68
 13
-0.99
 23
-1.24
 33
-2.68
  0
CIRCLE
  5
266E
100
AcDbEntity
  8
0
100
AcDbCircle
 10
-1.455
 20
0.935
 30
-3.35
 40
0.125
  0
LWPOLYLINE
  5
266F
100
AcDbEntity
  8
0
100
AcDbPolyline
 90
        6
 70
     0
 43
0.0
 38
-3.35
 10
-1.44
 20
1.059097
 10
-1.44
 20
0.95
 10
-1.395
 20
0.95
 10
-1.395
 20
0.92
 10
-1.44
 20
0.92
 10
-1.44
 20
0.810903
  0
LWPOLYLINE
  5
2670
100
AcDbEntity
  8
0
100
AcDbPolyline
 90
        6
 70
     0
 43
0.0
 38
-3.35
 10
-1.47
 20
0.810903
 10
-1.47
 20
0.92
 10
-1.515
 20
0.92
 10
-1.515
 20
0.95
 10
-1.47
 20
0.95
 10
-1.47
 20
1.059097
  0
LWPOLYLINE
  5
2671
100
AcDbEntity
  8
0
100
AcDbPolyline
 90
        6
 70
     0
 43
0.0
 38
-3.35
 10
-0.895
 20
0.810903
 10
-0.895
 20
0.92
 10
-0.94
 20
0.92
 10
-0.94
 20
0.95
 10
-0.895
 20
0.95
 10
-0.895
 20
1.059097
  0
LWPOLYLINE
  5
2672
100
AcDbEntity
  8
0
100
AcDbPolyline
 90
        6
 70
     0
 43
0.0
 38
-3.35
 10
-0.865
 20
1.059097
 10
-0.865
 20
0.95
 10
-0.82
 20
0.95
 10
-0.82
 20
0.92
 10
-0.865
 20
0.92
 10
-0.865
 20
0.810903
  0
CIRCLE
  5
2673
100
AcDbEntity
  8
0
100
AcDbCircle
 10
-0.88
 20
0.935
 30
-3.35
 40
0.125
  0
LWPOLYLINE
  5
2674
100
AcDbEntity
  8
0
100
AcDbPolyline
 90
        6
 70
     0
 43
0.0
 38
-3.35
 10
-0.32
 20
1.059097
 10
-0.32
 20
0.95
 10
-0.365
 20
0.95
 10
-0.365
 20
0.92
 10
-0.32
 20
0.92
 10
-0.32
 20
0.810903
  0
LWPOLYLINE
  5
2675
100
AcDbEntity
  8
0
100
AcDbPolyline
 90
        6
 70
     0
 43
0.0
 38
-3.35
 10
-0.29
 20
0.810903
 10
-0.29
 20
0.92
 10
-0.245
 20
0.92
 10
-0.245
 20
0.95
 10
-0.29
 20
0.95
 10
-0.29
 20
1.059097
  0
CIRCLE
  5
2676
100
AcDbEntity
  8
0
100
AcDbCircle
 10
-0.305
 20
0.935
 30
-3.35
 40
0.125
  0
3DFACE
  5
2677
100
AcDbEntity
  8
0
100
AcDbFace
 10
-0.2
 20
1.24
 30
-2.38
 11
-0.42
 21
1.24
 31
-2.38
 12
-0.42
 22
1.24
 32
-2.68
 13
-0.2
 23
1.24
 33
-2.68
  0
3DFACE
  5
2678
100
AcDbEntity
  8
0
100
AcDbFace
 10
-0.99
 20
1.24
 30
-2.38
 11
-0.77
 21
1.24
 31
-2.38
 12
-0.77
 22
1.24
 32
-2.68
 13
-0.99
 23
1.24
 33
-2.68
  0
3DFACE
  5
2679
100
AcDbEntity
  8
0
100
AcDbFace
 10
-1.56
 20
1.24
 30
-2.38
 11
-1.34
 21
1.24
 31
-2.38
 12
-1.34
 22
1.24
 32
-2.68
 13
-1.56
 23
1.24
 33
-2.68
  0
3DFACE
  5
267A
100
AcDbEntity
  8
0
100
AcDbFace
 10
0.2
 20
1.24
 30
-2.38
 11
0.42
 21
1.24
 31
-2.38
 12
0.42
 22
1.24
 32
-2.68
 13
0.2
 23
1.24
 33
-2.68
  0
3DFACE
  5
267B
100
AcDbEntity
  8
0
100
AcDbFace
 10
0.77
 20
1.24
 30
-2.38
 11
0.99
 21
1.24
 31
-2.38
 12
0.99
 22
1.24
 32
-2.68
 13
0.77
 23
1.24
 33
-2.68
  0
3DFACE
  5
267C
100
AcDbEntity
  8
0
100
AcDbFace
 10
1.56
 20
1.24
 30
-2.38
 11
1.34
 21
1.24
 31
-2.38
 12
1.34
 22
1.24
 32
-2.68
 13
1.56
 23
1.24
 33
-2.68
  0
CIRCLE
  5
267D
100
AcDbEntity
  8
0
100
AcDbCircle
 10
1.455
 20
0.935
 30
-3.35
 40
0.125
  0
LWPOLYLINE
  5
267E
100
AcDbEntity
  8
0
100
AcDbPolyline
 90
        6
 70
     0
 43
0.0
 38
-3.35
 10
1.47
 20
0.810903
 10
1.47
 20
0.92
 10
1.515
 20
0.92
 10
1.515
 20
0.95
 10
1.47
 20
0.95
 10
1.47
 20
1.059097
  0
LWPOLYLINE
  5
267F
100
AcDbEntity
  8
0
100
AcDbPolyline
 90
        6
 70
     0
 43
0.0
 38
-3.35
 10
1.44
 20
1.059097
 10
1.44
 20
0.95
 10
1.395
 20
0.95
 10
1.395
 20
0.92
 10
1.44
 20
0.92
 10
1.44
 20
0.810903
  0
CIRCLE
  5
2680
100
AcDbEntity
  8
0
100
AcDbCircle
 10
0.88
 20
0.935
 30
-3.35
 40
0.125
  0
LWPOLYLINE
  5
2681
100
AcDbEntity
  8
0
100
AcDbPolyline
 90
        6
 70
     0
 43
0.0
 38
-3.35
 10
0.895
 20
1.059097
 10
0.895
 20
0.95
 10
0.94
 20
0.95
 10
0.94
 20
0.92
 10
0.895
 20
0.92
 10
0.895
 20
0.810903
  0
LWPOLYLINE
  5
2682
100
AcDbEntity
  8
0
100
AcDbPolyline
 90
        6
 70
     0
 43
0.0
 38
-3.35
 10
0.865
 20
0.810903
 10
0.865
 20
0.92
 10
0.82
 20
0.92
 10
0.82
 20
0.95
 10
0.865
 20
0.95
 10
0.865
 20
1.059097
  0
LWPOLYLINE
  5
2683
100
AcDbEntity
  8
0
100
AcDbPolyline
 90
        6
 70
     0
 43
0.0
 38
-3.35
 10
0.29
 20
0.810903
 10
0.29
 20
0.92
 10
0.245
 20
0.92
 10
0.245
 20
0.95
 10
0.29
 20
0.95
 10
0.29
 20
1.059097
  0
LWPOLYLINE
  5
2684
100
AcDbEntity
  8
0
100
AcDbPolyline
 90
        6
 70
     0
 43
0.0
 38
-3.35
 10
0.32
 20
1.059097
 10
0.32
 20
0.95
 10
0.365
 20
0.95
 10
0.365
 20
0.92
 10
0.32
 20
0.92
 10
0.32
 20
0.810903
  0
CIRCLE
  5
2685
100
AcDbEntity
  8
0
100
AcDbCircle
 10
0.305
 20
0.935
 30
-3.35
 40
0.125
  0
3DFACE
  5
2686
100
AcDbEntity
  8
0
100
AcDbFace
 10
0.77
 20
-1.24
 30
-2.38
 11
0.99
 21
-1.24
 31
-2.38
 12
0.99
 22
-1.24
 32
-2.68
 13
0.77
 23
-1.24
 33
-2.68
  0
3DFACE
  5
2687
100
AcDbEntity
  8
0
100
AcDbFace
 10
1.56
 20
-1.24
 30
-2.38
 11
1.34
 21
-1.24
 31
-2.38
 12
1.34
 22
-1.24
 32
-2.68
 13
1.56
 23
-1.24
 33
-2.68
  0
3DFACE
  5
2688
100
AcDbEntity
  8
0
100
AcDbFace
 10
0.2
 20
-1.24
 30
-2.38
 11
0.42
 21
-1.24
 31
-2.38
 12
0.42
 22
-1.24
 32
-2.68
 13
0.2
 23
-1.24
 33
-2.68
  0
LWPOLYLINE
  5
2689
100
AcDbEntity
  8
0
100
AcDbPolyline
 90
        6
 70
     0
 43
0.0
 38
-3.35
 10
0.865
 20
-0.810903
 10
0.865
 20
-0.92
 10
0.82
 20
-0.92
 10
0.82
 20
-0.95
 10
0.865
 20
-0.95
 10
0.865
 20
-1.059097
  0
LWPOLYLINE
  5
268A
100
AcDbEntity
  8
0
100
AcDbPolyline
 90
        6
 70
     0
 43
0.0
 38
-3.35
 10
0.895
 20
-1.059097
 10
0.895
 20
-0.95
 10
0.94
 20
-0.95
 10
0.94
 20
-0.92
 10
0.895
 20
-0.92
 10
0.895
 20
-0.810903
  0
CIRCLE
  5
268B
100
AcDbEntity
  8
0
100
AcDbCircle
 10
0.88
 20
-0.935
 30
-3.35
 40
0.125
  0
LWPOLYLINE
  5
268C
100
AcDbEntity
  8
0
100
AcDbPolyline
 90
        6
 70
     0
 43
0.0
 38
-3.35
 10
1.44
 20
-1.059097
 10
1.44
 20
-0.95
 10
1.395
 20
-0.95
 10
1.395
 20
-0.92
 10
1.44
 20
-0.92
 10
1.44
 20
-0.810903
  0
LWPOLYLINE
  5
268D
100
AcDbEntity
  8
0
100
AcDbPolyline
 90
        6
 70
     0
 43
0.0
 38
-3.35
 10
1.47
 20
-0.810903
 10
1.47
 20
-0.92
 10
1.515
 20
-0.92
 10
1.515
 20
-0.95
 10
1.47
 20
-0.95
 10
1.47
 20
-1.059097
  0
CIRCLE
  5
268E
100
AcDbEntity
  8
0
100
AcDbCircle
 10
1.455
 20
-0.935
 30
-3.35
 40
0.125
  0
LWPOLYLINE
  5
268F
100
AcDbEntity
  8
0
100
AcDbPolyline
 90
        6
 70
     0
 43
0.0
 38
-3.35
 10
0.29
 20
-0.810903
 10
0.29
 20
-0.92
 10
0.245
 20
-0.92
 10
0.245
 20
-0.95
 10
0.29
 20
-0.95
 10
0.29
 20
-1.059097
  0
LWPOLYLINE
  5
2690
100
AcDbEntity
  8
0
100
AcDbPolyline
 90
        6
 70
     0
 43
0.0
 38
-3.35
 10
0.32
 20
-1.059097
 10
0.32
 20
-0.95
 10
0.365
 20
-0.95
 10
0.365
 20
-0.92
 10
0.32
 20
-0.92
 10
0.32
 20
-0.810903
  0
CIRCLE
  5
2691
100
AcDbEntity
  8
0
100
AcDbCircle
 10
0.305
 20
-0.935
 30
-3.35
 40
0.125
  0
POINT
  5
2692
100
AcDbEntity
  8
SNAP_POINTS
100
AcDbPoint
 10
1.76
 20
0.0
 30
-2.51
  0
3DFACE
  5
2693
100
AcDbEntity
  8
0
100
AcDbFace
 10
1.76
 20
0.125
 30
-2.595
 11
1.76
 21
-0.125
 31
-2.595
 12
1.76
 22
-0.125
 32
-2.425
 13
1.76
 23
0.125
 33
-2.425
  0
3DFACE
  5
2694
100
AcDbEntity
  8
0
100
AcDbFace
 10
1.76
 20
0.125
 30
-2.115
 11
1.76
 21
-0.125
 31
-2.115
 12
1.76
 22
-0.125
 32
-2.715
 13
1.76
 23
0.125
 33
-2.715
  0
3DFACE
  5
2695
100
AcDbEntity
  8
0
100
AcDbFace
 10
0.0
 20
0.125
 30
-2.595
 11
0.0
 21
-0.125
 31
-2.595
 12
0.0
 22
-0.125
 32
-2.425
 13
0.0
 23
0.125
 33
-2.425
  0
3DFACE
  5
2696
100
AcDbEntity
  8
0
100
AcDbFace
 10
0.0
 20
0.125
 30
-2.115
 11
0.0
 21
-0.125
 31
-2.115
 12
0.0
 22
-0.125
 32
-2.715
 13
0.0
 23
0.125
 33
-2.715
  0
LWPOLYLINE
  5
2697
100
AcDbEntity
  8
0
100
AcDbPolyline
 90
       12
 70
     1
 43
0.0
 38
-0.98
 10
1.056068
 20
-0.085
 10
1.15
 20
-0.085
 42
0.414214
 10
1.2
 20
-0.035
 10
1.2
 20
0.075
 42
0.414214
 10
1.15
 20
0.125
 10
1.056068
 20
0.125
 42
0.443094
 10
0.758345
 20
0.185
 10
0.61
 20
0.185
 42
0.414214
 10
0.56
 20
0.135
 10
0.56
 20
-0.095
 42
0.414214
 10
0.61
 20
-0.145
 10
0.758345
 20
-0.145
 42
0.443094
  0
CIRCLE
  5
2698
100
AcDbEntity
  8
0
100
AcDbCircle
 10
1.59
 20
0.71
 30
-0.98
 40
0.05
  0
CIRCLE
  5
2699
100
AcDbEntity
  8
0
100
AcDbCircle
 10
1.59
 20
-0.71
 30
-0.98
 40
0.05
  0
CIRCLE
  5
269A
100
AcDbEntity
  8
0
100
AcDbCircle
 10
0.17
 20
0.71
 30
-0.98
 40
0.05
  0
CIRCLE
  5
269B
100
AcDbEntity
  8
0
100
AcDbCircle
 10
0.17
 20
-0.71
 30
-0.98
 40
0.05
  0
CIRCLE
  5
269C
100
AcDbEntity
  8
0
100
AcDbCircle
 10
1.17
 20
1.38
 30
-3.2
 40
0.09
  0
LINE
  5
269D
100
AcDbEntity
  8
DIMS-MTG-HOLES
  6
CONTINUOUS
100
AcDbLine
 10
1.17
 20
1.29
 30
-3.35
 11
1.17
 21
1.47
 31
-3.35
  0
CIRCLE
  5
269E
100
AcDbEntity
  8
0
100
AcDbCircle
 10
1.17
 20
1.38
 30
-3.35
 40
0.09
  0
LINE
  5
269F
100
AcDbEntity
  8
DIMS-MTG-HOLES
  6
CONTINUOUS
100
AcDbLine
 10
1.08
 20
1.38
 30
-3.35
 11
1.26
 21
1.38
 31
-3.35
  0
POLYLINE
  5
26A0
100
AcDbEntity
  8
0
100
AcDbPolygonMesh
 66
     1
 10
0.0
 20
0.0
 30
0.0
 70
    16
 71
     6
 72
     3
  0
VERTEX
  5
26A1
100
AcDbEntity
  8
0
100
AcDbVertex
100
AcDbPolygonMeshVertex
 10
1.36
 20
1.24
 30
-3.2
 70
    64
  0
VERTEX
  5
26A2
100
AcDbEntity
  8
0
100
AcDbVertex
100
AcDbPolygonMeshVertex
 10
1.36
 20
1.24
 30
-3.35
 70
    64
  0
VERTEX
  5
26A3
100
AcDbEntity
  8
0
100
AcDbVertex
100
AcDbPolygonMeshVertex
 10
1.36
 20
1.24
 30
-3.35
 70
    64
  0
VERTEX
  5
26A4
100
AcDbEntity
  8
0
100
AcDbVertex
100
AcDbPolygonMeshVertex
 10
0.98
 20
1.24
 30
-3.2
 70
    64
  0
VERTEX
  5
26A5
100
AcDbEntity
  8
0
100
AcDbVertex
100
AcDbPolygonMeshVertex
 10
0.98
 20
1.24
 30
-3.35
 70
    64
  0
VERTEX
  5
26A6
100
AcDbEntity
  8
0
100
AcDbVertex
100
AcDbPolygonMeshVertex
 10
0.98
 20
1.24
 30
-3.35
 70
    64
  0
VERTEX
  5
26A7
100
AcDbEntity
  8
0
100
AcDbVertex
100
AcDbPolygonMeshVertex
 10
0.98
 20
1.52
 30
-3.2
 70
    64
  0
VERTEX
  5
26A8
100
AcDbEntity
  8
0
100
AcDbVertex
100
AcDbPolygonMeshVertex
 10
0.98
 20
1.52
 30
-3.35
 70
    64
  0
VERTEX
  5
26A9
100
AcDbEntity
  8
0
100
AcDbVertex
100
AcDbPolygonMeshVertex
 10
0.98
 20
1.24
 30
-3.35
 70
    64
  0
VERTEX
  5
26AA
100
AcDbEntity
  8
0
100
AcDbVertex
100
AcDbPolygonMeshVertex
 10
1.36
 20
1.52
 30
-3.2
 70
    64
  0
VERTEX
  5
26AB
100
AcDbEntity
  8
0
100
AcDbVertex
100
AcDbPolygonMeshVertex
 10
1.36
 20
1.52
 30
-3.35
 70
    64
  0
VERTEX
  5
26AC
100
AcDbEntity
  8
0
100
AcDbVertex
100
AcDbPolygonMeshVertex
 10
1.36
 20
1.24
 30
-3.35
 70
    64
  0
VERTEX
  5
26AD
100
AcDbEntity
  8
0
100
AcDbVertex
100
AcDbPolygonMeshVertex
 10
1.36
 20
1.52
 30
-3.2
 70
    64
  0
VERTEX
  5
26AE
100
AcDbEntity
  8
0
100
AcDbVertex
100
AcDbPolygonMeshVertex
 10
1.36
 20
1.52
 30
-3.2
 70
    64
  0
VERTEX
  5
26AF
100
AcDbEntity
  8
0
100
AcDbVertex
100
AcDbPolygonMeshVertex
 10
1.36
 20
1.24
 30
-3.2
 70
    64
  0
VERTEX
  5
26B0
100
AcDbEntity
  8
0
100
AcDbVertex
100
AcDbPolygonMeshVertex
 10
0.98
 20
1.52
 30
-3.2
 70
    64
  0
VERTEX
  5
26B1
100
AcDbEntity
  8
0
100
AcDbVertex
100
AcDbPolygonMeshVertex
 10
0.98
 20
1.52
 30
-3.2
 70
    64
  0
VERTEX
  5
26B2
100
AcDbEntity
  8
0
100
AcDbVertex
100
AcDbPolygonMeshVertex
 10
0.98
 20
1.24
 30
-3.2
 70
    64
  0
SEQEND
  5
26B3
100
AcDbEntity
  8
0
  0
LINE
  5
26B4
100
AcDbEntity
  8
DIMS-MTG-HOLES
  6
CONTINUOUS
100
AcDbLine
 10
0.57
 20
-1.47
 30
-3.35
 11
0.57
 21
-1.29
 31
-3.35
  0
LINE
  5
26B5
100
AcDbEntity
  8
DIMS-MTG-HOLES
  6
CONTINUOUS
100
AcDbLine
 10
0.48
 20
-1.38
 30
-3.35
 11
0.66
 21
-1.38
 31
-3.35
  0
CIRCLE
  5
26B6
100
AcDbEntity
  8
0
100
AcDbCircle
 10
0.57
 20
-1.38
 30
-3.35
 40
0.09
  0
CIRCLE
  5
26B7
100
AcDbEntity
  8
0
100
AcDbCircle
 10
0.57
 20
-1.38
 30
-3.2
 40
0.09
  0
POLYLINE
  5
26B8
100
AcDbEntity
  8
0
100
AcDbPolygonMesh
 66
     1
 10
0.0
 20
0.0
 30
0.0
 70
    16
 71
     6
 72
     3
  0
VERTEX
  5
26B9
100
AcDbEntity
  8
0
100
AcDbVertex
100
AcDbPolygonMeshVertex
 10
0.76
 20
-1.52
 30
-3.2
 70
    64
  0
VERTEX
  5
26BA
100
AcDbEntity
  8
0
100
AcDbVertex
100
AcDbPolygonMeshVertex
 10
0.76
 20
-1.52
 30
-3.35
 70
    64
  0
VERTEX
  5
26BB
100
AcDbEntity
  8
0
100
AcDbVertex
100
AcDbPolygonMeshVertex
 10
0.76
 20
-1.52
 30
-3.35
 70
    64
  0
VERTEX
  5
26BC
100
AcDbEntity
  8
0
100
AcDbVertex
100
AcDbPolygonMeshVertex
 10
0.38
 20
-1.52
 30
-3.2
 70
    64
  0
VERTEX
  5
26BD
100
AcDbEntity
  8
0
100
AcDbVertex
100
AcDbPolygonMeshVertex
 10
0.38
 20
-1.52
 30
-3.35
 70
    64
  0
VERTEX
  5
26BE
100
AcDbEntity
  8
0
100
AcDbVertex
100
AcDbPolygonMeshVertex
 10
0.38
 20
-1.52
 30
-3.35
 70
    64
  0
VERTEX
  5
26BF
100
AcDbEntity
  8
0
100
AcDbVertex
100
AcDbPolygonMeshVertex
 10
0.38
 20
-1.24
 30
-3.2
 70
    64
  0
VERTEX
  5
26C0
100
AcDbEntity
  8
0
100
AcDbVertex
100
AcDbPolygonMeshVertex
 10
0.38
 20
-1.24
 30
-3.35
 70
    64
  0
VERTEX
  5
26C1
100
AcDbEntity
  8
0
100
AcDbVertex
100
AcDbPolygonMeshVertex
 10
0.38
 20
-1.52
 30
-3.35
 70
    64
  0
VERTEX
  5
26C2
100
AcDbEntity
  8
0
100
AcDbVertex
100
AcDbPolygonMeshVertex
 10
0.76
 20
-1.24
 30
-3.2
 70
    64
  0
VERTEX
  5
26C3
100
AcDbEntity
  8
0
100
AcDbVertex
100
AcDbPolygonMeshVertex
 10
0.76
 20
-1.24
 30
-3.35
 70
    64
  0
VERTEX
  5
26C4
100
AcDbEntity
  8
0
100
AcDbVertex
100
AcDbPolygonMeshVertex
 10
0.76
 20
-1.52
 30
-3.35
 70
    64
  0
VERTEX
  5
26C5
100
AcDbEntity
  8
0
100
AcDbVertex
100
AcDbPolygonMeshVertex
 10
0.76
 20
-1.24
 30
-3.2
 70
    64
  0
VERTEX
  5
26C6
100
AcDbEntity
  8
0
100
AcDbVertex
100
AcDbPolygonMeshVertex
 10
0.76
 20
-1.24
 30
-3.2
 70
    64
  0
VERTEX
  5
26C7
100
AcDbEntity
  8
0
100
AcDbVertex
100
AcDbPolygonMeshVertex
 10
0.76
 20
-1.52
 30
-3.2
 70
    64
  0
VERTEX
  5
26C8
100
AcDbEntity
  8
0
100
AcDbVertex
100
AcDbPolygonMeshVertex
 10
0.38
 20
-1.24
 30
-3.2
 70
    64
  0
VERTEX
  5
26C9
100
AcDbEntity
  8
0
100
AcDbVertex
100
AcDbPolygonMeshVertex
 10
0.38
 20
-1.24
 30
-3.2
 70
    64
  0
VERTEX
  5
26CA
100
AcDbEntity
  8
0
100
AcDbVertex
100
AcDbPolygonMeshVertex
 10
0.38
 20
-1.52
 30
-3.2
 70
    64
  0
SEQEND
  5
26CB
100
AcDbEntity
  8
0
  0
POLYLINE
  5
26CC
100
AcDbEntity
  8
0
100
AcDbPolygonMesh
 66
     1
 10
0.0
 20
0.0
 30
0.0
 70
    16
 71
     6
 72
     3
  0
VERTEX
  5
26CD
100
AcDbEntity
  8
0
100
AcDbVertex
100
AcDbPolygonMeshVertex
 10
1.46
 20
0.82
 30
-0.98
 70
    64
  0
VERTEX
  5
26CE
100
AcDbEntity
  8
0
100
AcDbVertex
100
AcDbPolygonMeshVertex
 10
1.46
 20
0.82
 30
-1.4
 70
    64
  0
VERTEX
  5
26CF
100
AcDbEntity
  8
0
100
AcDbVertex
100
AcDbPolygonMeshVertex
 10
1.46
 20
0.82
 30
-1.4
 70
    64
  0
VERTEX
  5
26D0
100
AcDbEntity
  8
0
100
AcDbVertex
100
AcDbPolygonMeshVertex
 10
1.76
 20
0.82
 30
-0.98
 70
    64
  0
VERTEX
  5
26D1
100
AcDbEntity
  8
0
100
AcDbVertex
100
AcDbPolygonMeshVertex
 10
1.76
 20
0.82
 30
-1.4
 70
    64
  0
VERTEX
  5
26D2
100
AcDbEntity
  8
0
100
AcDbVertex
100
AcDbPolygonMeshVertex
 10
1.76
 20
0.82
 30
-1.4
 70
    64
  0
VERTEX
  5
26D3
100
AcDbEntity
  8
0
100
AcDbVertex
100
AcDbPolygonMeshVertex
 10
1.76
 20
0.64
 30
-0.98
 70
    64
  0
VERTEX
  5
26D4
100
AcDbEntity
  8
0
100
AcDbVertex
100
AcDbPolygonMeshVertex
 10
1.76
 20
0.64
 30
-1.4
 70
    64
  0
VERTEX
  5
26D5
100
AcDbEntity
  8
0
100
AcDbVertex
100
AcDbPolygonMeshVertex
 10
1.76
 20
0.82
 30
-1.4
 70
    64
  0
VERTEX
  5
26D6
100
AcDbEntity
  8
0
100
AcDbVertex
100
AcDbPolygonMeshVertex
 10
1.46
 20
0.64
 30
-0.98
 70
    64
  0
VERTEX
  5
26D7
100
AcDbEntity
  8
0
100
AcDbVertex
100
AcDbPolygonMeshVertex
 10
1.46
 20
0.64
 30
-1.4
 70
    64
  0
VERTEX
  5
26D8
100
AcDbEntity
  8
0
100
AcDbVertex
100
AcDbPolygonMeshVertex
 10
1.46
 20
0.82
 30
-1.4
 70
    64
  0
VERTEX
  5
26D9
100
AcDbEntity
  8
0
100
AcDbVertex
100
AcDbPolygonMeshVertex
 10
1.46
 20
0.64
 30
-0.98
 70
    64
  0
VERTEX
  5
26DA
100
AcDbEntity
  8
0
100
AcDbVertex
100
AcDbPolygonMeshVertex
 10
1.46
 20
0.64
 30
-0.98
 70
    64
  0
VERTEX
  5
26DB
100
AcDbEntity
  8
0
100
AcDbVertex
100
AcDbPolygonMeshVertex
 10
1.46
 20
0.82
 30
-0.98
 70
    64
  0
VERTEX
  5
26DC
100
AcDbEntity
  8
0
100
AcDbVertex
100
AcDbPolygonMeshVertex
 10
1.76
 20
0.64
 30
-0.98
 70
    64
  0
VERTEX
  5
26DD
100
AcDbEntity
  8
0
100
AcDbVertex
100
AcDbPolygonMeshVertex
 10
1.76
 20
0.64
 30
-0.98
 70
    64
  0
VERTEX
  5
26DE
100
AcDbEntity
  8
0
100
AcDbVertex
100
AcDbPolygonMeshVertex
 10
1.76
 20
0.82
 30
-0.98
 70
    64
  0
SEQEND
  5
26DF
100
AcDbEntity
  8
0
  0
POLYLINE
  5
26E0
100
AcDbEntity
  8
0
100
AcDbPolygonMesh
 66
     1
 10
0.0
 20
0.0
 30
0.0
 70
    16
 71
     6
 72
     3
  0
VERTEX
  5
26E1
100
AcDbEntity
  8
0
100
AcDbVertex
100
AcDbPolygonMeshVertex
 10
0.3
 20
0.82
 30
-0.98
 70
    64
  0
VERTEX
  5
26E2
100
AcDbEntity
  8
0
100
AcDbVertex
100
AcDbPolygonMeshVertex
 10
0.3
 20
0.82
 30
-1.4
 70
    64
  0
VERTEX
  5
26E3
100
AcDbEntity
  8
0
100
AcDbVertex
100
AcDbPolygonMeshVertex
 10
0.3
 20
0.82
 30
-1.4
 70
    64
  0
VERTEX
  5
26E4
100
AcDbEntity
  8
0
100
AcDbVertex
100
AcDbPolygonMeshVertex
 10
0.0
 20
0.82
 30
-0.98
 70
    64
  0
VERTEX
  5
26E5
100
AcDbEntity
  8
0
100
AcDbVertex
100
AcDbPolygonMeshVertex
 10
0.0
 20
0.82
 30
-1.4
 70
    64
  0
VERTEX
  5
26E6
100
AcDbEntity
  8
0
100
AcDbVertex
100
AcDbPolygonMeshVertex
 10
0.0
 20
0.82
 30
-1.4
 70
    64
  0
VERTEX
  5
26E7
100
AcDbEntity
  8
0
100
AcDbVertex
100
AcDbPolygonMeshVertex
 10
0.0
 20
0.64
 30
-0.98
 70
    64
  0
VERTEX
  5
26E8
100
AcDbEntity
  8
0
100
AcDbVertex
100
AcDbPolygonMeshVertex
 10
0.0
 20
0.64
 30
-1.4
 70
    64
  0
VERTEX
  5
26E9
100
AcDbEntity
  8
0
100
AcDbVertex
100
AcDbPolygonMeshVertex
 10
0.0
 20
0.82
 30
-1.4
 70
    64
  0
VERTEX
  5
26EA
100
AcDbEntity
  8
0
100
AcDbVertex
100
AcDbPolygonMeshVertex
 10
0.3
 20
0.64
 30
-0.98
 70
    64
  0
VERTEX
  5
26EB
100
AcDbEntity
  8
0
100
AcDbVertex
100
AcDbPolygonMeshVertex
 10
0.3
 20
0.64
 30
-1.4
 70
    64
  0
VERTEX
  5
26EC
100
AcDbEntity
  8
0
100
AcDbVertex
100
AcDbPolygonMeshVertex
 10
0.3
 20
0.82
 30
-1.4
 70
    64
  0
VERTEX
  5
26ED
100
AcDbEntity
  8
0
100
AcDbVertex
100
AcDbPolygonMeshVertex
 10
0.3
 20
0.64
 30
-0.98
 70
    64
  0
VERTEX
  5
26EE
100
AcDbEntity
  8
0
100
AcDbVertex
100
AcDbPolygonMeshVertex
 10
0.3
 20
0.64
 30
-0.98
 70
    64
  0
VERTEX
  5
26EF
100
AcDbEntity
  8
0
100
AcDbVertex
100
AcDbPolygonMeshVertex
 10
0.3
 20
0.82
 30
-0.98
 70
    64
  0
VERTEX
  5
26F0
100
AcDbEntity
  8
0
100
AcDbVertex
100
AcDbPolygonMeshVertex
 10
0.0
 20
0.64
 30
-0.98
 70
    64
  0
VERTEX
  5
26F1
100
AcDbEntity
  8
0
100
AcDbVertex
100
AcDbPolygonMeshVertex
 10
0.0
 20
0.64
 30
-0.98
 70
    64
  0
VERTEX
  5
26F2
100
AcDbEntity
  8
0
100
AcDbVertex
100
AcDbPolygonMeshVertex
 10
0.0
 20
0.82
 30
-0.98
 70
    64
  0
SEQEND
  5
26F3
100
AcDbEntity
  8
0
  0
POLYLINE
  5
26F4
100
AcDbEntity
  8
0
100
AcDbPolygonMesh
 66
     1
 10
0.0
 20
0.0
 30
0.0
 70
    16
 71
     6
 72
     3
  0
VERTEX
  5
26F5
100
AcDbEntity
  8
0
100
AcDbVertex
100
AcDbPolygonMeshVertex
 10
1.46
 20
-0.82
 30
-0.98
 70
    64
  0
VERTEX
  5
26F6
100
AcDbEntity
  8
0
100
AcDbVertex
100
AcDbPolygonMeshVertex
 10
1.46
 20
-0.82
 30
-1.4
 70
    64
  0
VERTEX
  5
26F7
100
AcDbEntity
  8
0
100
AcDbVertex
100
AcDbPolygonMeshVertex
 10
1.46
 20
-0.82
 30
-1.4
 70
    64
  0
VERTEX
  5
26F8
100
AcDbEntity
  8
0
100
AcDbVertex
100
AcDbPolygonMeshVertex
 10
1.76
 20
-0.82
 30
-0.98
 70
    64
  0
VERTEX
  5
26F9
100
AcDbEntity
  8
0
100
AcDbVertex
100
AcDbPolygonMeshVertex
 10
1.76
 20
-0.82
 30
-1.4
 70
    64
  0
VERTEX
  5
26FA
100
AcDbEntity
  8
0
100
AcDbVertex
100
AcDbPolygonMeshVertex
 10
1.76
 20
-0.82
 30
-1.4
 70
    64
  0
VERTEX
  5
26FB
100
AcDbEntity
  8
0
100
AcDbVertex
100
AcDbPolygonMeshVertex
 10
1.76
 20
-0.64
 30
-0.98
 70
    64
  0
VERTEX
  5
26FC
100
AcDbEntity
  8
0
100
AcDbVertex
100
AcDbPolygonMeshVertex
 10
1.76
 20
-0.64
 30
-1.4
 70
    64
  0
VERTEX
  5
26FD
100
AcDbEntity
  8
0
100
AcDbVertex
100
AcDbPolygonMeshVertex
 10
1.76
 20
-0.82
 30
-1.4
 70
    64
  0
VERTEX
  5
26FE
100
AcDbEntity
  8
0
100
AcDbVertex
100
AcDbPolygonMeshVertex
 10
1.46
 20
-0.64
 30
-0.98
 70
    64
  0
VERTEX
  5
26FF
100
AcDbEntity
  8
0
100
AcDbVertex
100
AcDbPolygonMeshVertex
 10
1.46
 20
-0.64
 30
-1.4
 70
    64
  0
VERTEX
  5
2700
100
AcDbEntity
  8
0
100
AcDbVertex
100
AcDbPolygonMeshVertex
 10
1.46
 20
-0.82
 30
-1.4
 70
    64
  0
VERTEX
  5
2701
100
AcDbEntity
  8
0
100
AcDbVertex
100
AcDbPolygonMeshVertex
 10
1.46
 20
-0.64
 30
-0.98
 70
    64
  0
VERTEX
  5
2702
100
AcDbEntity
  8
0
100
AcDbVertex
100
AcDbPolygonMeshVertex
 10
1.46
 20
-0.64
 30
-0.98
 70
    64
  0
VERTEX
  5
2703
100
AcDbEntity
  8
0
100
AcDbVertex
100
AcDbPolygonMeshVertex
 10
1.46
 20
-0.82
 30
-0.98
 70
    64
  0
VERTEX
  5
2704
100
AcDbEntity
  8
0
100
AcDbVertex
100
AcDbPolygonMeshVertex
 10
1.76
 20
-0.64
 30
-0.98
 70
    64
  0
VERTEX
  5
2705
100
AcDbEntity
  8
0
100
AcDbVertex
100
AcDbPolygonMeshVertex
 10
1.76
 20
-0.64
 30
-0.98
 70
    64
  0
VERTEX
  5
2706
100
AcDbEntity
  8
0
100
AcDbVertex
100
AcDbPolygonMeshVertex
 10
1.76
 20
-0.82
 30
-0.98
 70
    64
  0
SEQEND
  5
2707
100
AcDbEntity
  8
0
  0
POLYLINE
  5
2708
100
AcDbEntity
  8
0
100
AcDbPolygonMesh
 66
     1
 10
0.0
 20
0.0
 30
0.0
 70
    16
 71
     6
 72
     3
  0
VERTEX
  5
2709
100
AcDbEntity
  8
0
100
AcDbVertex
100
AcDbPolygonMeshVertex
 10
0.3
 20
-0.82
 30
-0.98
 70
    64
  0
VERTEX
  5
270A
100
AcDbEntity
  8
0
100
AcDbVertex
100
AcDbPolygonMeshVertex
 10
0.3
 20
-0.82
 30
-1.4
 70
    64
  0
VERTEX
  5
270B
100
AcDbEntity
  8
0
100
AcDbVertex
100
AcDbPolygonMeshVertex
 10
0.3
 20
-0.82
 30
-1.4
 70
    64
  0
VERTEX
  5
270C
100
AcDbEntity
  8
0
100
AcDbVertex
100
AcDbPolygonMeshVertex
 10
0.0
 20
-0.82
 30
-0.98
 70
    64
  0
VERTEX
  5
270D
100
AcDbEntity
  8
0
100
AcDbVertex
100
AcDbPolygonMeshVertex
 10
0.0
 20
-0.82
 30
-1.4
 70
    64
  0
VERTEX
  5
270E
100
AcDbEntity
  8
0
100
AcDbVertex
100
AcDbPolygonMeshVertex
 10
0.0
 20
-0.82
 30
-1.4
 70
    64
  0
VERTEX
  5
270F
100
AcDbEntity
  8
0
100
AcDbVertex
100
AcDbPolygonMeshVertex
 10
0.0
 20
-0.64
 30
-0.98
 70
    64
  0
VERTEX
  5
2710
100
AcDbEntity
  8
0
100
AcDbVertex
100
AcDbPolygonMeshVertex
 10
0.0
 20
-0.64
 30
-1.4
 70
    64
  0
VERTEX
  5
2711
100
AcDbEntity
  8
0
100
AcDbVertex
100
AcDbPolygonMeshVertex
 10
0.0
 20
-0.82
 30
-1.4
 70
    64
  0
VERTEX
  5
2712
100
AcDbEntity
  8
0
100
AcDbVertex
100
AcDbPolygonMeshVertex
 10
0.3
 20
-0.64
 30
-0.98
 70
    64
  0
VERTEX
  5
2713
100
AcDbEntity
  8
0
100
AcDbVertex
100
AcDbPolygonMeshVertex
 10
0.3
 20
-0.64
 30
-1.4
 70
    64
  0
VERTEX
  5
2714
100
AcDbEntity
  8
0
100
AcDbVertex
100
AcDbPolygonMeshVertex
 10
0.3
 20
-0.82
 30
-1.4
 70
    64
  0
VERTEX
  5
2715
100
AcDbEntity
  8
0
100
AcDbVertex
100
AcDbPolygonMeshVertex
 10
0.3
 20
-0.64
 30
-0.98
 70
    64
  0
VERTEX
  5
2716
100
AcDbEntity
  8
0
100
AcDbVertex
100
AcDbPolygonMeshVertex
 10
0.3
 20
-0.64
 30
-0.98
 70
    64
  0
VERTEX
  5
2717
100
AcDbEntity
  8
0
100
AcDbVertex
100
AcDbPolygonMeshVertex
 10
0.3
 20
-0.82
 30
-0.98
 70
    64
  0
VERTEX
  5
2718
100
AcDbEntity
  8
0
100
AcDbVertex
100
AcDbPolygonMeshVertex
 10
0.0
 20
-0.64
 30
-0.98
 70
    64
  0
VERTEX
  5
2719
100
AcDbEntity
  8
0
100
AcDbVertex
100
AcDbPolygonMeshVertex
 10
0.0
 20
-0.64
 30
-0.98
 70
    64
  0
VERTEX
  5
271A
100
AcDbEntity
  8
0
100
AcDbVertex
100
AcDbPolygonMeshVertex
 10
0.0
 20
-0.82
 30
-0.98
 70
    64
  0
SEQEND
  5
271B
100
AcDbEntity
  8
0
  0
POLYLINE
  5
271C
100
AcDbEntity
  8
0
100
AcDbPolygonMesh
 66
     1
 10
0.0
 20
0.0
 30
0.0
 70
    16
 71
     6
 72
     3
  0
VERTEX
  5
271D
100
AcDbEntity
  8
0
100
AcDbVertex
100
AcDbPolygonMeshVertex
 10
1.76
 20
-0.64
 30
-0.98
 70
    64
  0
VERTEX
  5
271E
100
AcDbEntity
  8
0
100
AcDbVertex
100
AcDbPolygonMeshVertex
 10
1.76
 20
-0.64
 30
-1.68
 70
    64
  0
VERTEX
  5
271F
100
AcDbEntity
  8
0
100
AcDbVertex
100
AcDbPolygonMeshVertex
 10
1.76
 20
-0.64
 30
-1.68
 70
    64
  0
VERTEX
  5
2720
100
AcDbEntity
  8
0
100
AcDbVertex
100
AcDbPolygonMeshVertex
 10
0.0
 20
-0.64
 30
-0.98
 70
    64
  0
VERTEX
  5
2721
100
AcDbEntity
  8
0
100
AcDbVertex
100
AcDbPolygonMeshVertex
 10
0.0
 20
-0.64
 30
-1.68
 70
    64
  0
VERTEX
  5
2722
100
AcDbEntity
  8
0
100
AcDbVertex
100
AcDbPolygonMeshVertex
 10
0.0
 20
-0.64
 30
-1.68
 70
    64
  0
VERTEX
  5
2723
100
AcDbEntity
  8
0
100
AcDbVertex
100
AcDbPolygonMeshVertex
 10
0.0
 20
0.64
 30
-0.98
 70
    64
  0
VERTEX
  5
2724
100
AcDbEntity
  8
0
100
AcDbVertex
100
AcDbPolygonMeshVertex
 10
0.0
 20
0.64
 30
-1.68
 70
    64
  0
VERTEX
  5
2725
100
AcDbEntity
  8
0
100
AcDbVertex
100
AcDbPolygonMeshVertex
 10
0.0
 20
-0.64
 30
-1.68
 70
    64
  0
VERTEX
  5
2726
100
AcDbEntity
  8
0
100
AcDbVertex
100
AcDbPolygonMeshVertex
 10
1.76
 20
0.64
 30
-0.98
 70
    64
  0
VERTEX
  5
2727
100
AcDbEntity
  8
0
100
AcDbVertex
100
AcDbPolygonMeshVertex
 10
1.76
 20
0.64
 30
-1.68
 70
    64
  0
VERTEX
  5
2728
100
AcDbEntity
  8
0
100
AcDbVertex
100
AcDbPolygonMeshVertex
 10
1.76
 20
-0.64
 30
-1.68
 70
    64
  0
VERTEX
  5
2729
100
AcDbEntity
  8
0
100
AcDbVertex
100
AcDbPolygonMeshVertex
 10
1.76
 20
0.64
 30
-0.98
 70
    64
  0
VERTEX
  5
272A
100
AcDbEntity
  8
0
100
AcDbVertex
100
AcDbPolygonMeshVertex
 10
1.76
 20
0.64
 30
-0.98
 70
    64
  0
VERTEX
  5
272B
100
AcDbEntity
  8
0
100
AcDbVertex
100
AcDbPolygonMeshVertex
 10
1.76
 20
-0.64
 30
-0.98
 70
    64
  0
VERTEX
  5
272C
100
AcDbEntity
  8
0
100
AcDbVertex
100
AcDbPolygonMeshVertex
 10
0.0
 20
0.64
 30
-0.98
 70
    64
  0
VERTEX
  5
272D
100
AcDbEntity
  8
0
100
AcDbVertex
100
AcDbPolygonMeshVertex
 10
0.0
 20
0.64
 30
-0.98
 70
    64
  0
VERTEX
  5
272E
100
AcDbEntity
  8
0
100
AcDbVertex
100
AcDbPolygonMeshVertex
 10
0.0
 20
-0.64
 30
-0.98
 70
    64
  0
SEQEND
  5
272F
100
AcDbEntity
  8
0
  0
POLYLINE
  5
2730
100
AcDbEntity
  8
0
100
AcDbPolygonMesh
 66
     1
 10
0.0
 20
0.0
 30
0.0
 70
    16
 71
     6
 72
     3
  0
VERTEX
  5
2731
100
AcDbEntity
  8
0
100
AcDbVertex
100
AcDbPolygonMeshVertex
 10
1.76
 20
0.71
 30
-3.15
 70
    64
  0
VERTEX
  5
2732
100
AcDbEntity
  8
0
100
AcDbVertex
100
AcDbPolygonMeshVertex
 10
1.76
 20
0.71
 30
-3.35
 70
    64
  0
VERTEX
  5
2733
100
AcDbEntity
  8
0
100
AcDbVertex
100
AcDbPolygonMeshVertex
 10
1.76
 20
0.71
 30
-3.35
 70
    64
  0
VERTEX
  5
2734
100
AcDbEntity
  8
0
100
AcDbVertex
100
AcDbPolygonMeshVertex
 10
0.0
 20
0.71
 30
-3.15
 70
    64
  0
VERTEX
  5
2735
100
AcDbEntity
  8
0
100
AcDbVertex
100
AcDbPolygonMeshVertex
 10
0.0
 20
0.71
 30
-3.35
 70
    64
  0
VERTEX
  5
2736
100
AcDbEntity
  8
0
100
AcDbVertex
100
AcDbPolygonMeshVertex
 10
0.0
 20
0.71
 30
-3.35
 70
    64
  0
VERTEX
  5
2737
100
AcDbEntity
  8
0
100
AcDbVertex
100
AcDbPolygonMeshVertex
 10
0.0
 20
1.24
 30
-3.15
 70
    64
  0
VERTEX
  5
2738
100
AcDbEntity
  8
0
100
AcDbVertex
100
AcDbPolygonMeshVertex
 10
0.0
 20
1.24
 30
-3.35
 70
    64
  0
VERTEX
  5
2739
100
AcDbEntity
  8
0
100
AcDbVertex
100
AcDbPolygonMeshVertex
 10
0.0
 20
0.71
 30
-3.35
 70
    64
  0
VERTEX
  5
273A
100
AcDbEntity
  8
0
100
AcDbVertex
100
AcDbPolygonMeshVertex
 10
1.76
 20
1.24
 30
-3.15
 70
    64
  0
VERTEX
  5
273B
100
AcDbEntity
  8
0
100
AcDbVertex
100
AcDbPolygonMeshVertex
 10
1.76
 20
1.24
 30
-3.35
 70
    64
  0
VERTEX
  5
273C
100
AcDbEntity
  8
0
100
AcDbVertex
100
AcDbPolygonMeshVertex
 10
1.76
 20
0.71
 30
-3.35
 70
    64
  0
VERTEX
  5
273D
100
AcDbEntity
  8
0
100
AcDbVertex
100
AcDbPolygonMeshVertex
 10
1.76
 20
1.24
 30
-3.15
 70
    64
  0
VERTEX
  5
273E
100
AcDbEntity
  8
0
100
AcDbVertex
100
AcDbPolygonMeshVertex
 10
1.76
 20
1.24
 30
-3.15
 70
    64
  0
VERTEX
  5
273F
100
AcDbEntity
  8
0
100
AcDbVertex
100
AcDbPolygonMeshVertex
 10
1.76
 20
0.71
 30
-3.15
 70
    64
  0
VERTEX
  5
2740
100
AcDbEntity
  8
0
100
AcDbVertex
100
AcDbPolygonMeshVertex
 10
0.0
 20
1.24
 30
-3.15
 70
    64
  0
VERTEX
  5
2741
100
AcDbEntity
  8
0
100
AcDbVertex
100
AcDbPolygonMeshVertex
 10
0.0
 20
1.24
 30
-3.15
 70
    64
  0
VERTEX
  5
2742
100
AcDbEntity
  8
0
100
AcDbVertex
100
AcDbPolygonMeshVertex
 10
0.0
 20
0.71
 30
-3.15
 70
    64
  0
SEQEND
  5
2743
100
AcDbEntity
  8
0
  0
POLYLINE
  5
2744
100
AcDbEntity
  8
0
100
AcDbPolygonMesh
 66
     1
 10
0.0
 20
0.0
 30
0.0
 70
    16
 71
     6
 72
     3
  0
VERTEX
  5
2745
100
AcDbEntity
  8
0
100
AcDbVertex
100
AcDbPolygonMeshVertex
 10
1.76
 20
-1.24
 30
-1.68
 70
    64
  0
VERTEX
  5
2746
100
AcDbEntity
  8
0
100
AcDbVertex
100
AcDbPolygonMeshVertex
 10
1.76
 20
-1.24
 30
-3.15
 70
    64
  0
VERTEX
  5
2747
100
AcDbEntity
  8
0
100
AcDbVertex
100
AcDbPolygonMeshVertex
 10
1.76
 20
-1.24
 30
-3.15
 70
    64
  0
VERTEX
  5
2748
100
AcDbEntity
  8
0
100
AcDbVertex
100
AcDbPolygonMeshVertex
 10
0.0
 20
-1.24
 30
-1.68
 70
    64
  0
VERTEX
  5
2749
100
AcDbEntity
  8
0
100
AcDbVertex
100
AcDbPolygonMeshVertex
 10
0.0
 20
-1.24
 30
-3.15
 70
    64
  0
VERTEX
  5
274A
100
AcDbEntity
  8
0
100
AcDbVertex
100
AcDbPolygonMeshVertex
 10
0.0
 20
-1.24
 30
-3.15
 70
    64
  0
VERTEX
  5
274B
100
AcDbEntity
  8
0
100
AcDbVertex
100
AcDbPolygonMeshVertex
 10
0.0
 20
1.24
 30
-1.68
 70
    64
  0
VERTEX
  5
274C
100
AcDbEntity
  8
0
100
AcDbVertex
100
AcDbPolygonMeshVertex
 10
0.0
 20
1.24
 30
-3.15
 70
    64
  0
VERTEX
  5
274D
100
AcDbEntity
  8
0
100
AcDbVertex
100
AcDbPolygonMeshVertex
 10
0.0
 20
-1.24
 30
-3.15
 70
    64
  0
VERTEX
  5
274E
100
AcDbEntity
  8
0
100
AcDbVertex
100
AcDbPolygonMeshVertex
 10
1.76
 20
1.24
 30
-1.68
 70
    64
  0
VERTEX
  5
274F
100
AcDbEntity
  8
0
100
AcDbVertex
100
AcDbPolygonMeshVertex
 10
1.76
 20
1.24
 30
-3.15
 70
    64
  0
VERTEX
  5
2750
100
AcDbEntity
  8
0
100
AcDbVertex
100
AcDbPolygonMeshVertex
 10
1.76
 20
-1.24
 30
-3.15
 70
    64
  0
VERTEX
  5
2751
100
AcDbEntity
  8
0
100
AcDbVertex
100
AcDbPolygonMeshVertex
 10
1.76
 20
1.24
 30
-1.68
 70
    64
  0
VERTEX
  5
2752
100
AcDbEntity
  8
0
100
AcDbVertex
100
AcDbPolygonMeshVertex
 10
1.76
 20
1.24
 30
-1.68
 70
    64
  0
VERTEX
  5
2753
100
AcDbEntity
  8
0
100
AcDbVertex
100
AcDbPolygonMeshVertex
 10
1.76
 20
-1.24
 30
-1.68
 70
    64
  0
VERTEX
  5
2754
100
AcDbEntity
  8
0
100
AcDbVertex
100
AcDbPolygonMeshVertex
 10
0.0
 20
1.24
 30
-1.68
 70
    64
  0
VERTEX
  5
2755
100
AcDbEntity
  8
0
100
AcDbVertex
100
AcDbPolygonMeshVertex
 10
0.0
 20
1.24
 30
-1.68
 70
    64
  0
VERTEX
  5
2756
100
AcDbEntity
  8
0
100
AcDbVertex
100
AcDbPolygonMeshVertex
 10
0.0
 20
-1.24
 30
-1.68
 70
    64
  0
SEQEND
  5
2757
100
AcDbEntity
  8
0
  0
POLYLINE
  5
2758
100
AcDbEntity
  8
0
100
AcDbPolygonMesh
 66
     1
 10
0.0
 20
0.0
 30
0.0
 70
    16
 71
     6
 72
     3
  0
VERTEX
  5
2759
100
AcDbEntity
  8
0
100
AcDbVertex
100
AcDbPolygonMeshVertex
 10
1.76
 20
-1.24
 30
-3.15
 70
    64
  0
VERTEX
  5
275A
100
AcDbEntity
  8
0
100
AcDbVertex
100
AcDbPolygonMeshVertex
 10
1.76
 20
-1.24
 30
-3.35
 70
    64
  0
VERTEX
  5
275B
100
AcDbEntity
  8
0
100
AcDbVertex
100
AcDbPolygonMeshVertex
 10
1.76
 20
-1.24
 30
-3.35
 70
    64
  0
VERTEX
  5
275C
100
AcDbEntity
  8
0
100
AcDbVertex
100
AcDbPolygonMeshVertex
 10
0.0
 20
-1.24
 30
-3.15
 70
    64
  0
VERTEX
  5
275D
100
AcDbEntity
  8
0
100
AcDbVertex
100
AcDbPolygonMeshVertex
 10
0.0
 20
-1.24
 30
-3.35
 70
    64
  0
VERTEX
  5
275E
100
AcDbEntity
  8
0
100
AcDbVertex
100
AcDbPolygonMeshVertex
 10
0.0
 20
-1.24
 30
-3.35
 70
    64
  0
VERTEX
  5
275F
100
AcDbEntity
  8
0
100
AcDbVertex
100
AcDbPolygonMeshVertex
 10
0.0
 20
-0.63
 30
-3.15
 70
    64
  0
VERTEX
  5
2760
100
AcDbEntity
  8
0
100
AcDbVertex
100
AcDbPolygonMeshVertex
 10
0.0
 20
-0.63
 30
-3.35
 70
    64
  0
VERTEX
  5
2761
100
AcDbEntity
  8
0
100
AcDbVertex
100
AcDbPolygonMeshVertex
 10
0.0
 20
-1.24
 30
-3.35
 70
    64
  0
VERTEX
  5
2762
100
AcDbEntity
  8
0
100
AcDbVertex
100
AcDbPolygonMeshVertex
 10
1.76
 20
-0.63
 30
-3.15
 70
    64
  0
VERTEX
  5
2763
100
AcDbEntity
  8
0
100
AcDbVertex
100
AcDbPolygonMeshVertex
 10
1.76
 20
-0.63
 30
-3.35
 70
    64
  0
VERTEX
  5
2764
100
AcDbEntity
  8
0
100
AcDbVertex
100
AcDbPolygonMeshVertex
 10
1.76
 20
-1.24
 30
-3.35
 70
    64
  0
VERTEX
  5
2765
100
AcDbEntity
  8
0
100
AcDbVertex
100
AcDbPolygonMeshVertex
 10
1.76
 20
-0.63
 30
-3.15
 70
    64
  0
VERTEX
  5
2766
100
AcDbEntity
  8
0
100
AcDbVertex
100
AcDbPolygonMeshVertex
 10
1.76
 20
-0.63
 30
-3.15
 70
    64
  0
VERTEX
  5
2767
100
AcDbEntity
  8
0
100
AcDbVertex
100
AcDbPolygonMeshVertex
 10
1.76
 20
-1.24
 30
-3.15
 70
    64
  0
VERTEX
  5
2768
100
AcDbEntity
  8
0
100
AcDbVertex
100
AcDbPolygonMeshVertex
 10
0.0
 20
-0.63
 30
-3.15
 70
    64
  0
VERTEX
  5
2769
100
AcDbEntity
  8
0
100
AcDbVertex
100
AcDbPolygonMeshVertex
 10
0.0
 20
-0.63
 30
-3.15
 70
    64
  0
VERTEX
  5
276A
100
AcDbEntity
  8
0
100
AcDbVertex
100
AcDbPolygonMeshVertex
 10
0.0
 20
-1.24
 30
-3.15
 70
    64
  0
SEQEND
  5
276B
100
AcDbEntity
  8
0
  0
LWPOLYLINE
  5
276C
100
AcDbEntity
  8
0
100
AcDbPolyline
 90
       12
 70
     1
 43
0.0
 10
-0.176068
 20
0.105
 10
-0.27
 20
0.105
 42
0.414214
 10
-0.32
 20
0.055
 10
-0.32
 20
-0.055
 42
0.414214
 10
-0.27
 20
-0.105
 10
-0.176068
 20
-0.105
 42
0.443094
 10
0.121655
 20
-0.165
 10
0.27
 20
-0.165
 42
0.414214
 10
0.32
 20
-0.115
 10
0.32
 20
0.115
 42
0.414214
 10
0.27
 20
0.165
 10
0.121655
 20
0.165
 42
0.443094
  0
POINT
  5
276D
100
AcDbEntity
  8
SNAP_POINTS
100
AcDbPoint
 10
0.0
 20
0.0
 30
0.0
  0
POLYLINE
  5
276E
100
AcDbEntity
  8
0
100
AcDbPolygonMesh
 66
     1
 10
0.0
 20
0.0
 30
0.0
 70
    16
 71
     6
 72
     3
  0
VERTEX
  5
276F
100
AcDbEntity
  8
0
100
AcDbVertex
100
AcDbPolygonMeshVertex
 10
1.76
 20
-0.64
 30
0.0
 70
    64
  0
VERTEX
  5
2770
100
AcDbEntity
  8
0
100
AcDbVertex
100
AcDbPolygonMeshVertex
 10
1.76
 20
-0.64
 30
-0.98
 70
    64
  0
VERTEX
  5
2771
100
AcDbEntity
  8
0
100
AcDbVertex
100
AcDbPolygonMeshVertex
 10
1.76
 20
-0.64
 30
-0.98
 70
    64
  0
VERTEX
  5
2772
100
AcDbEntity
  8
0
100
AcDbVertex
100
AcDbPolygonMeshVertex
 10
-1.76
 20
-0.64
 30
0.0
 70
    64
  0
VERTEX
  5
2773
100
AcDbEntity
  8
0
100
AcDbVertex
100
AcDbPolygonMeshVertex
 10
-1.76
 20
-0.64
 30
-0.98
 70
    64
  0
VERTEX
  5
2774
100
AcDbEntity
  8
0
100
AcDbVertex
100
AcDbPolygonMeshVertex
 10
-1.76
 20
-0.64
 30
-0.98
 70
    64
  0
VERTEX
  5
2775
100
AcDbEntity
  8
0
100
AcDbVertex
100
AcDbPolygonMeshVertex
 10
-1.76
 20
0.64
 30
0.0
 70
    64
  0
VERTEX
  5
2776
100
AcDbEntity
  8
0
100
AcDbVertex
100
AcDbPolygonMeshVertex
 10
-1.76
 20
0.64
 30
-0.98
 70
    64
  0
VERTEX
  5
2777
100
AcDbEntity
  8
0
100
AcDbVertex
100
AcDbPolygonMeshVertex
 10
-1.76
 20
-0.64
 30
-0.98
 70
    64
  0
VERTEX
  5
2778
100
AcDbEntity
  8
0
100
AcDbVertex
100
AcDbPolygonMeshVertex
 10
1.76
 20
0.64
 30
0.0
 70
    64
  0
VERTEX
  5
2779
100
AcDbEntity
  8
0
100
AcDbVertex
100
AcDbPolygonMeshVertex
 10
1.76
 20
0.64
 30
-0.98
 70
    64
  0
VERTEX
  5
277A
100
AcDbEntity
  8
0
100
AcDbVertex
100
AcDbPolygonMeshVertex
 10
1.76
 20
-0.64
 30
-0.98
 70
    64
  0
VERTEX
  5
277B
100
AcDbEntity
  8
0
100
AcDbVertex
100
AcDbPolygonMeshVertex
 10
1.76
 20
0.64
 30
0.0
 70
    64
  0
VERTEX
  5
277C
100
AcDbEntity
  8
0
100
AcDbVertex
100
AcDbPolygonMeshVertex
 10
1.76
 20
0.64
 30
0.0
 70
    64
  0
VERTEX
  5
277D
100
AcDbEntity
  8
0
100
AcDbVertex
100
AcDbPolygonMeshVertex
 10
1.76
 20
-0.64
 30
0.0
 70
    64
  0
VERTEX
  5
277E
100
AcDbEntity
  8
0
100
AcDbVertex
100
AcDbPolygonMeshVertex
 10
-1.76
 20
0.64
 30
0.0
 70
    64
  0
VERTEX
  5
277F
100
AcDbEntity
  8
0
100
AcDbVertex
100
AcDbPolygonMeshVertex
 10
-1.76
 20
0.64
 30
0.0
 70
    64
  0
VERTEX
  5
2780
100
AcDbEntity
  8
0
100
AcDbVertex
100
AcDbPolygonMeshVertex
 10
-1.76
 20
-0.64
 30
0.0
 70
    64
  0
SEQEND
  5
2781
100
AcDbEntity
  8
0
  0
POLYLINE
  5
2782
100
AcDbEntity
  8
0
100
AcDbPolygonMesh
 66
     1
 10
0.0
 20
0.0
 30
0.0
 70
    16
 71
     6
 72
     3
  0
VERTEX
  5
2783
100
AcDbEntity
  8
0
100
AcDbVertex
100
AcDbPolygonMeshVertex
 10
-0.61
 20
-0.76
 30
-0.42
 70
    64
  0
VERTEX
  5
2784
100
AcDbEntity
  8
0
100
AcDbVertex
100
AcDbPolygonMeshVertex
 10
-0.61
 20
-0.76
 30
-1.6
 70
    64
  0
VERTEX
  5
2785
100
AcDbEntity
  8
0
100
AcDbVertex
100
AcDbPolygonMeshVertex
 10
-0.61
 20
-0.76
 30
-1.6
 70
    64
  0
VERTEX
  5
2786
100
AcDbEntity
  8
0
100
AcDbVertex
100
AcDbPolygonMeshVertex
 10
-1.34
 20
-0.76
 30
-0.42
 70
    64
  0
VERTEX
  5
2787
100
AcDbEntity
  8
0
100
AcDbVertex
100
AcDbPolygonMeshVertex
 10
-1.34
 20
-0.76
 30
-1.6
 70
    64
  0
VERTEX
  5
2788
100
AcDbEntity
  8
0
100
AcDbVertex
100
AcDbPolygonMeshVertex
 10
-1.34
 20
-0.76
 30
-1.6
 70
    64
  0
VERTEX
  5
2789
100
AcDbEntity
  8
0
100
AcDbVertex
100
AcDbPolygonMeshVertex
 10
-1.34
 20
-0.64
 30
-0.42
 70
    64
  0
VERTEX
  5
278A
100
AcDbEntity
  8
0
100
AcDbVertex
100
AcDbPolygonMeshVertex
 10
-1.34
 20
-0.64
 30
-1.6
 70
    64
  0
VERTEX
  5
278B
100
AcDbEntity
  8
0
100
AcDbVertex
100
AcDbPolygonMeshVertex
 10
-1.34
 20
-0.76
 30
-1.6
 70
    64
  0
VERTEX
  5
278C
100
AcDbEntity
  8
0
100
AcDbVertex
100
AcDbPolygonMeshVertex
 10
-0.61
 20
-0.64
 30
-0.42
 70
    64
  0
VERTEX
  5
278D
100
AcDbEntity
  8
0
100
AcDbVertex
100
AcDbPolygonMeshVertex
 10
-0.61
 20
-0.64
 30
-1.6
 70
    64
  0
VERTEX
  5
278E
100
AcDbEntity
  8
0
100
AcDbVertex
100
AcDbPolygonMeshVertex
 10
-0.61
 20
-0.76
 30
-1.6
 70
    64
  0
VERTEX
  5
278F
100
AcDbEntity
  8
0
100
AcDbVertex
100
AcDbPolygonMeshVertex
 10
-0.61
 20
-0.64
 30
-0.42
 70
    64
  0
VERTEX
  5
2790
100
AcDbEntity
  8
0
100
AcDbVertex
100
AcDbPolygonMeshVertex
 10
-0.61
 20
-0.64
 30
-0.42
 70
    64
  0
VERTEX
  5
2791
100
AcDbEntity
  8
0
100
AcDbVertex
100
AcDbPolygonMeshVertex
 10
-0.61
 20
-0.76
 30
-0.42
 70
    64
  0
VERTEX
  5
2792
100
AcDbEntity
  8
0
100
AcDbVertex
100
AcDbPolygonMeshVertex
 10
-1.34
 20
-0.64
 30
-0.42
 70
    64
  0
VERTEX
  5
2793
100
AcDbEntity
  8
0
100
AcDbVertex
100
AcDbPolygonMeshVertex
 10
-1.34
 20
-0.64
 30
-0.42
 70
    64
  0
VERTEX
  5
2794
100
AcDbEntity
  8
0
100
AcDbVertex
100
AcDbPolygonMeshVertex
 10
-1.34
 20
-0.76
 30
-0.42
 70
    64
  0
SEQEND
  5
2795
100
AcDbEntity
  8
0
  0
POLYLINE
  5
2796
100
AcDbEntity
  8
0
100
AcDbPolygonMesh
 66
     1
 10
0.0
 20
0.0
 30
0.0
 70
    16
 71
     6
 72
     3
  0
VERTEX
  5
2797
100
AcDbEntity
  8
0
100
AcDbVertex
100
AcDbPolygonMeshVertex
 10
-0.59
 20
-0.86
 30
0.0
 70
    64
  0
VERTEX
  5
2798
100
AcDbEntity
  8
0
100
AcDbVertex
100
AcDbPolygonMeshVertex
 10
-0.59
 20
-0.86
 30
-0.42
 70
    64
  0
VERTEX
  5
2799
100
AcDbEntity
  8
0
100
AcDbVertex
100
AcDbPolygonMeshVertex
 10
-0.59
 20
-0.86
 30
-0.42
 70
    64
  0
VERTEX
  5
279A
100
AcDbEntity
  8
0
100
AcDbVertex
100
AcDbPolygonMeshVertex
 10
-0.84
 20
-0.86
 30
0.0
 70
    64
  0
VERTEX
  5
279B
100
AcDbEntity
  8
0
100
AcDbVertex
100
AcDbPolygonMeshVertex
 10
-0.84
 20
-0.86
 30
-0.42
 70
    64
  0
VERTEX
  5
279C
100
AcDbEntity
  8
0
100
AcDbVertex
100
AcDbPolygonMeshVertex
 10
-0.84
 20
-0.86
 30
-0.42
 70
    64
  0
VERTEX
  5
279D
100
AcDbEntity
  8
0
100
AcDbVertex
100
AcDbPolygonMeshVertex
 10
-0.84
 20
-0.64
 30
0.0
 70
    64
  0
VERTEX
  5
279E
100
AcDbEntity
  8
0
100
AcDbVertex
100
AcDbPolygonMeshVertex
 10
-0.84
 20
-0.64
 30
-0.42
 70
    64
  0
VERTEX
  5
279F
100
AcDbEntity
  8
0
100
AcDbVertex
100
AcDbPolygonMeshVertex
 10
-0.84
 20
-0.86
 30
-0.42
 70
    64
  0
VERTEX
  5
27A0
100
AcDbEntity
  8
0
100
AcDbVertex
100
AcDbPolygonMeshVertex
 10
-0.59
 20
-0.64
 30
0.0
 70
    64
  0
VERTEX
  5
27A1
100
AcDbEntity
  8
0
100
AcDbVertex
100
AcDbPolygonMeshVertex
 10
-0.59
 20
-0.64
 30
-0.42
 70
    64
  0
VERTEX
  5
27A2
100
AcDbEntity
  8
0
100
AcDbVertex
100
AcDbPolygonMeshVertex
 10
-0.59
 20
-0.86
 30
-0.42
 70
    64
  0
VERTEX
  5
27A3
100
AcDbEntity
  8
0
100
AcDbVertex
100
AcDbPolygonMeshVertex
 10
-0.59
 20
-0.64
 30
0.0
 70
    64
  0
VERTEX
  5
27A4
100
AcDbEntity
  8
0
100
AcDbVertex
100
AcDbPolygonMeshVertex
 10
-0.59
 20
-0.64
 30
0.0
 70
    64
  0
VERTEX
  5
27A5
100
AcDbEntity
  8
0
100
AcDbVertex
100
AcDbPolygonMeshVertex
 10
-0.59
 20
-0.86
 30
0.0
 70
    64
  0
VERTEX
  5
27A6
100
AcDbEntity
  8
0
100
AcDbVertex
100
AcDbPolygonMeshVertex
 10
-0.84
 20
-0.64
 30
0.0
 70
    64
  0
VERTEX
  5
27A7
100
AcDbEntity
  8
0
100
AcDbVertex
100
AcDbPolygonMeshVertex
 10
-0.84
 20
-0.64
 30
0.0
 70
    64
  0
VERTEX
  5
27A8
100
AcDbEntity
  8
0
100
AcDbVertex
100
AcDbPolygonMeshVertex
 10
-0.84
 20
-0.86
 30
0.0
 70
    64
  0
SEQEND
  5
27A9
100
AcDbEntity
  8
0
  0
CIRCLE
  5
27AA
100
AcDbEntity
  8
0
100
AcDbCircle
 10
-0.715
 20
-0.75
 30
0.0
 40
0.05
  0
POLYLINE
  5
27AB
100
AcDbEntity
  8
0
100
AcDbPolygonMesh
 66
     1
 10
0.0
 20
0.0
 30
0.0
 70
    16
 71
     6
 72
     3
  0
VERTEX
  5
27AC
100
AcDbEntity
  8
0
100
AcDbVertex
100
AcDbPolygonMeshVertex
 10
0.61
 20
-0.76
 30
-0.42
 70
    64
  0
VERTEX
  5
27AD
100
AcDbEntity
  8
0
100
AcDbVertex
100
AcDbPolygonMeshVertex
 10
0.61
 20
-0.76
 30
-1.6
 70
    64
  0
VERTEX
  5
27AE
100
AcDbEntity
  8
0
100
AcDbVertex
100
AcDbPolygonMeshVertex
 10
0.61
 20
-0.76
 30
-1.6
 70
    64
  0
VERTEX
  5
27AF
100
AcDbEntity
  8
0
100
AcDbVertex
100
AcDbPolygonMeshVertex
 10
1.34
 20
-0.76
 30
-0.42
 70
    64
  0
VERTEX
  5
27B0
100
AcDbEntity
  8
0
100
AcDbVertex
100
AcDbPolygonMeshVertex
 10
1.34
 20
-0.76
 30
-1.6
 70
    64
  0
VERTEX
  5
27B1
100
AcDbEntity
  8
0
100
AcDbVertex
100
AcDbPolygonMeshVertex
 10
1.34
 20
-0.76
 30
-1.6
 70
    64
  0
VERTEX
  5
27B2
100
AcDbEntity
  8
0
100
AcDbVertex
100
AcDbPolygonMeshVertex
 10
1.34
 20
-0.64
 30
-0.42
 70
    64
  0
VERTEX
  5
27B3
100
AcDbEntity
  8
0
100
AcDbVertex
100
AcDbPolygonMeshVertex
 10
1.34
 20
-0.64
 30
-1.6
 70
    64
  0
VERTEX
  5
27B4
100
AcDbEntity
  8
0
100
AcDbVertex
100
AcDbPolygonMeshVertex
 10
1.34
 20
-0.76
 30
-1.6
 70
    64
  0
VERTEX
  5
27B5
100
AcDbEntity
  8
0
100
AcDbVertex
100
AcDbPolygonMeshVertex
 10
0.61
 20
-0.64
 30
-0.42
 70
    64
  0
VERTEX
  5
27B6
100
AcDbEntity
  8
0
100
AcDbVertex
100
AcDbPolygonMeshVertex
 10
0.61
 20
-0.64
 30
-1.6
 70
    64
  0
VERTEX
  5
27B7
100
AcDbEntity
  8
0
100
AcDbVertex
100
AcDbPolygonMeshVertex
 10
0.61
 20
-0.76
 30
-1.6
 70
    64
  0
VERTEX
  5
27B8
100
AcDbEntity
  8
0
100
AcDbVertex
100
AcDbPolygonMeshVertex
 10
0.61
 20
-0.64
 30
-0.42
 70
    64
  0
VERTEX
  5
27B9
100
AcDbEntity
  8
0
100
AcDbVertex
100
AcDbPolygonMeshVertex
 10
0.61
 20
-0.64
 30
-0.42
 70
    64
  0
VERTEX
  5
27BA
100
AcDbEntity
  8
0
100
AcDbVertex
100
AcDbPolygonMeshVertex
 10
0.61
 20
-0.76
 30
-0.42
 70
    64
  0
VERTEX
  5
27BB
100
AcDbEntity
  8
0
100
AcDbVertex
100
AcDbPolygonMeshVertex
 10
1.34
 20
-0.64
 30
-0.42
 70
    64
  0
VERTEX
  5
27BC
100
AcDbEntity
  8
0
100
AcDbVertex
100
AcDbPolygonMeshVertex
 10
1.34
 20
-0.64
 30
-0.42
 70
    64
  0
VERTEX
  5
27BD
100
AcDbEntity
  8
0
100
AcDbVertex
100
AcDbPolygonMeshVertex
 10
1.34
 20
-0.76
 30
-0.42
 70
    64
  0
SEQEND
  5
27BE
100
AcDbEntity
  8
0
  0
POLYLINE
  5
27BF
100
AcDbEntity
  8
0
100
AcDbPolygonMesh
 66
     1
 10
0.0
 20
0.0
 30
0.0
 70
    16
 71
     6
 72
     3
  0
VERTEX
  5
27C0
100
AcDbEntity
  8
0
100
AcDbVertex
100
AcDbPolygonMeshVertex
 10
0.59
 20
-0.86
 30
0.0
 70
    64
  0
VERTEX
  5
27C1
100
AcDbEntity
  8
0
100
AcDbVertex
100
AcDbPolygonMeshVertex
 10
0.59
 20
-0.86
 30
-0.42
 70
    64
  0
VERTEX
  5
27C2
100
AcDbEntity
  8
0
100
AcDbVertex
100
AcDbPolygonMeshVertex
 10
0.59
 20
-0.86
 30
-0.42
 70
    64
  0
VERTEX
  5
27C3
100
AcDbEntity
  8
0
100
AcDbVertex
100
AcDbPolygonMeshVertex
 10
0.84
 20
-0.86
 30
0.0
 70
    64
  0
VERTEX
  5
27C4
100
AcDbEntity
  8
0
100
AcDbVertex
100
AcDbPolygonMeshVertex
 10
0.84
 20
-0.86
 30
-0.42
 70
    64
  0
VERTEX
  5
27C5
100
AcDbEntity
  8
0
100
AcDbVertex
100
AcDbPolygonMeshVertex
 10
0.84
 20
-0.86
 30
-0.42
 70
    64
  0
VERTEX
  5
27C6
100
AcDbEntity
  8
0
100
AcDbVertex
100
AcDbPolygonMeshVertex
 10
0.84
 20
-0.64
 30
0.0
 70
    64
  0
VERTEX
  5
27C7
100
AcDbEntity
  8
0
100
AcDbVertex
100
AcDbPolygonMeshVertex
 10
0.84
 20
-0.64
 30
-0.42
 70
    64
  0
VERTEX
  5
27C8
100
AcDbEntity
  8
0
100
AcDbVertex
100
AcDbPolygonMeshVertex
 10
0.84
 20
-0.86
 30
-0.42
 70
    64
  0
VERTEX
  5
27C9
100
AcDbEntity
  8
0
100
AcDbVertex
100
AcDbPolygonMeshVertex
 10
0.59
 20
-0.64
 30
0.0
 70
    64
  0
VERTEX
  5
27CA
100
AcDbEntity
  8
0
100
AcDbVertex
100
AcDbPolygonMeshVertex
 10
0.59
 20
-0.64
 30
-0.42
 70
    64
  0
VERTEX
  5
27CB
100
AcDbEntity
  8
0
100
AcDbVertex
100
AcDbPolygonMeshVertex
 10
0.59
 20
-0.86
 30
-0.42
 70
    64
  0
VERTEX
  5
27CC
100
AcDbEntity
  8
0
100
AcDbVertex
100
AcDbPolygonMeshVertex
 10
0.59
 20
-0.64
 30
0.0
 70
    64
  0
VERTEX
  5
27CD
100
AcDbEntity
  8
0
100
AcDbVertex
100
AcDbPolygonMeshVertex
 10
0.59
 20
-0.64
 30
0.0
 70
    64
  0
VERTEX
  5
27CE
100
AcDbEntity
  8
0
100
AcDbVertex
100
AcDbPolygonMeshVertex
 10
0.59
 20
-0.86
 30
0.0
 70
    64
  0
VERTEX
  5
27CF
100
AcDbEntity
  8
0
100
AcDbVertex
100
AcDbPolygonMeshVertex
 10
0.84
 20
-0.64
 30
0.0
 70
    64
  0
VERTEX
  5
27D0
100
AcDbEntity
  8
0
100
AcDbVertex
100
AcDbPolygonMeshVertex
 10
0.84
 20
-0.64
 30
0.0
 70
    64
  0
VERTEX
  5
27D1
100
AcDbEntity
  8
0
100
AcDbVertex
100
AcDbPolygonMeshVertex
 10
0.84
 20
-0.86
 30
0.0
 70
    64
  0
SEQEND
  5
27D2
100
AcDbEntity
  8
0
  0
CIRCLE
  5
27D3
100
AcDbEntity
  8
0
100
AcDbCircle
 10
0.715
 20
-0.75
 30
0.0
 40
0.05
  0
CIRCLE
  5
27D4
100
AcDbEntity
  8
0
100
AcDbCircle
 10
-0.715
 20
0.75
 30
0.0
 40
0.05
  0
POLYLINE
  5
27D5
100
AcDbEntity
  8
0
100
AcDbPolygonMesh
 66
     1
 10
0.0
 20
0.0
 30
0.0
 70
    16
 71
     6
 72
     3
  0
VERTEX
  5
27D6
100
AcDbEntity
  8
0
100
AcDbVertex
100
AcDbPolygonMeshVertex
 10
-0.59
 20
0.86
 30
0.0
 70
    64
  0
VERTEX
  5
27D7
100
AcDbEntity
  8
0
100
AcDbVertex
100
AcDbPolygonMeshVertex
 10
-0.59
 20
0.86
 30
-0.42
 70
    64
  0
VERTEX
  5
27D8
100
AcDbEntity
  8
0
100
AcDbVertex
100
AcDbPolygonMeshVertex
 10
-0.59
 20
0.86
 30
-0.42
 70
    64
  0
VERTEX
  5
27D9
100
AcDbEntity
  8
0
100
AcDbVertex
100
AcDbPolygonMeshVertex
 10
-0.84
 20
0.86
 30
0.0
 70
    64
  0
VERTEX
  5
27DA
100
AcDbEntity
  8
0
100
AcDbVertex
100
AcDbPolygonMeshVertex
 10
-0.84
 20
0.86
 30
-0.42
 70
    64
  0
VERTEX
  5
27DB
100
AcDbEntity
  8
0
100
AcDbVertex
100
AcDbPolygonMeshVertex
 10
-0.84
 20
0.86
 30
-0.42
 70
    64
  0
VERTEX
  5
27DC
100
AcDbEntity
  8
0
100
AcDbVertex
100
AcDbPolygonMeshVertex
 10
-0.84
 20
0.64
 30
0.0
 70
    64
  0
VERTEX
  5
27DD
100
AcDbEntity
  8
0
100
AcDbVertex
100
AcDbPolygonMeshVertex
 10
-0.84
 20
0.64
 30
-0.42
 70
    64
  0
VERTEX
  5
27DE
100
AcDbEntity
  8
0
100
AcDbVertex
100
AcDbPolygonMeshVertex
 10
-0.84
 20
0.86
 30
-0.42
 70
    64
  0
VERTEX
  5
27DF
100
AcDbEntity
  8
0
100
AcDbVertex
100
AcDbPolygonMeshVertex
 10
-0.59
 20
0.64
 30
0.0
 70
    64
  0
VERTEX
  5
27E0
100
AcDbEntity
  8
0
100
AcDbVertex
100
AcDbPolygonMeshVertex
 10
-0.59
 20
0.64
 30
-0.42
 70
    64
  0
VERTEX
  5
27E1
100
AcDbEntity
  8
0
100
AcDbVertex
100
AcDbPolygonMeshVertex
 10
-0.59
 20
0.86
 30
-0.42
 70
    64
  0
VERTEX
  5
27E2
100
AcDbEntity
  8
0
100
AcDbVertex
100
AcDbPolygonMeshVertex
 10
-0.59
 20
0.64
 30
0.0
 70
    64
  0
VERTEX
  5
27E3
100
AcDbEntity
  8
0
100
AcDbVertex
100
AcDbPolygonMeshVertex
 10
-0.59
 20
0.64
 30
0.0
 70
    64
  0
VERTEX
  5
27E4
100
AcDbEntity
  8
0
100
AcDbVertex
100
AcDbPolygonMeshVertex
 10
-0.59
 20
0.86
 30
0.0
 70
    64
  0
VERTEX
  5
27E5
100
AcDbEntity
  8
0
100
AcDbVertex
100
AcDbPolygonMeshVertex
 10
-0.84
 20
0.64
 30
0.0
 70
    64
  0
VERTEX
  5
27E6
100
AcDbEntity
  8
0
100
AcDbVertex
100
AcDbPolygonMeshVertex
 10
-0.84
 20
0.64
 30
0.0
 70
    64
  0
VERTEX
  5
27E7
100
AcDbEntity
  8
0
100
AcDbVertex
100
AcDbPolygonMeshVertex
 10
-0.84
 20
0.86
 30
0.0
 70
    64
  0
SEQEND
  5
27E8
100
AcDbEntity
  8
0
  0
POLYLINE
  5
27E9
100
AcDbEntity
  8
0
100
AcDbPolygonMesh
 66
     1
 10
0.0
 20
0.0
 30
0.0
 70
    16
 71
     6
 72
     3
  0
VERTEX
  5
27EA
100
AcDbEntity
  8
0
100
AcDbVertex
100
AcDbPolygonMeshVertex
 10
-0.61
 20
0.76
 30
-0.42
 70
    64
  0
VERTEX
  5
27EB
100
AcDbEntity
  8
0
100
AcDbVertex
100
AcDbPolygonMeshVertex
 10
-0.61
 20
0.76
 30
-1.6
 70
    64
  0
VERTEX
  5
27EC
100
AcDbEntity
  8
0
100
AcDbVertex
100
AcDbPolygonMeshVertex
 10
-0.61
 20
0.76
 30
-1.6
 70
    64
  0
VERTEX
  5
27ED
100
AcDbEntity
  8
0
100
AcDbVertex
100
AcDbPolygonMeshVertex
 10
-1.34
 20
0.76
 30
-0.42
 70
    64
  0
VERTEX
  5
27EE
100
AcDbEntity
  8
0
100
AcDbVertex
100
AcDbPolygonMeshVertex
 10
-1.34
 20
0.76
 30
-1.6
 70
    64
  0
VERTEX
  5
27EF
100
AcDbEntity
  8
0
100
AcDbVertex
100
AcDbPolygonMeshVertex
 10
-1.34
 20
0.76
 30
-1.6
 70
    64
  0
VERTEX
  5
27F0
100
AcDbEntity
  8
0
100
AcDbVertex
100
AcDbPolygonMeshVertex
 10
-1.34
 20
0.64
 30
-0.42
 70
    64
  0
VERTEX
  5
27F1
100
AcDbEntity
  8
0
100
AcDbVertex
100
AcDbPolygonMeshVertex
 10
-1.34
 20
0.64
 30
-1.6
 70
    64
  0
VERTEX
  5
27F2
100
AcDbEntity
  8
0
100
AcDbVertex
100
AcDbPolygonMeshVertex
 10
-1.34
 20
0.76
 30
-1.6
 70
    64
  0
VERTEX
  5
27F3
100
AcDbEntity
  8
0
100
AcDbVertex
100
AcDbPolygonMeshVertex
 10
-0.61
 20
0.64
 30
-0.42
 70
    64
  0
VERTEX
  5
27F4
100
AcDbEntity
  8
0
100
AcDbVertex
100
AcDbPolygonMeshVertex
 10
-0.61
 20
0.64
 30
-1.6
 70
    64
  0
VERTEX
  5
27F5
100
AcDbEntity
  8
0
100
AcDbVertex
100
AcDbPolygonMeshVertex
 10
-0.61
 20
0.76
 30
-1.6
 70
    64
  0
VERTEX
  5
27F6
100
AcDbEntity
  8
0
100
AcDbVertex
100
AcDbPolygonMeshVertex
 10
-0.61
 20
0.64
 30
-0.42
 70
    64
  0
VERTEX
  5
27F7
100
AcDbEntity
  8
0
100
AcDbVertex
100
AcDbPolygonMeshVertex
 10
-0.61
 20
0.64
 30
-0.42
 70
    64
  0
VERTEX
  5
27F8
100
AcDbEntity
  8
0
100
AcDbVertex
100
AcDbPolygonMeshVertex
 10
-0.61
 20
0.76
 30
-0.42
 70
    64
  0
VERTEX
  5
27F9
100
AcDbEntity
  8
0
100
AcDbVertex
100
AcDbPolygonMeshVertex
 10
-1.34
 20
0.64
 30
-0.42
 70
    64
  0
VERTEX
  5
27FA
100
AcDbEntity
  8
0
100
AcDbVertex
100
AcDbPolygonMeshVertex
 10
-1.34
 20
0.64
 30
-0.42
 70
    64
  0
VERTEX
  5
27FB
100
AcDbEntity
  8
0
100
AcDbVertex
100
AcDbPolygonMeshVertex
 10
-1.34
 20
0.76
 30
-0.42
 70
    64
  0
SEQEND
  5
27FC
100
AcDbEntity
  8
0
  0
CIRCLE
  5
27FD
100
AcDbEntity
  8
0
100
AcDbCircle
 10
0.715
 20
0.75
 30
0.0
 40
0.05
  0
POLYLINE
  5
27FE
100
AcDbEntity
  8
0
100
AcDbPolygonMesh
 66
     1
 10
0.0
 20
0.0
 30
0.0
 70
    16
 71
     6
 72
     3
  0
VERTEX
  5
27FF
100
AcDbEntity
  8
0
100
AcDbVertex
100
AcDbPolygonMeshVertex
 10
0.61
 20
0.76
 30
-0.42
 70
    64
  0
VERTEX
  5
2800
100
AcDbEntity
  8
0
100
AcDbVertex
100
AcDbPolygonMeshVertex
 10
0.61
 20
0.76
 30
-1.6
 70
    64
  0
VERTEX
  5
2801
100
AcDbEntity
  8
0
100
AcDbVertex
100
AcDbPolygonMeshVertex
 10
0.61
 20
0.76
 30
-1.6
 70
    64
  0
VERTEX
  5
2802
100
AcDbEntity
  8
0
100
AcDbVertex
100
AcDbPolygonMeshVertex
 10
1.34
 20
0.76
 30
-0.42
 70
    64
  0
VERTEX
  5
2803
100
AcDbEntity
  8
0
100
AcDbVertex
100
AcDbPolygonMeshVertex
 10
1.34
 20
0.76
 30
-1.6
 70
    64
  0
VERTEX
  5
2804
100
AcDbEntity
  8
0
100
AcDbVertex
100
AcDbPolygonMeshVertex
 10
1.34
 20
0.76
 30
-1.6
 70
    64
  0
VERTEX
  5
2805
100
AcDbEntity
  8
0
100
AcDbVertex
100
AcDbPolygonMeshVertex
 10
1.34
 20
0.64
 30
-0.42
 70
    64
  0
VERTEX
  5
2806
100
AcDbEntity
  8
0
100
AcDbVertex
100
AcDbPolygonMeshVertex
 10
1.34
 20
0.64
 30
-1.6
 70
    64
  0
VERTEX
  5
2807
100
AcDbEntity
  8
0
100
AcDbVertex
100
AcDbPolygonMeshVertex
 10
1.34
 20
0.76
 30
-1.6
 70
    64
  0
VERTEX
  5
2808
100
AcDbEntity
  8
0
100
AcDbVertex
100
AcDbPolygonMeshVertex
 10
0.61
 20
0.64
 30
-0.42
 70
    64
  0
VERTEX
  5
2809
100
AcDbEntity
  8
0
100
AcDbVertex
100
AcDbPolygonMeshVertex
 10
0.61
 20
0.64
 30
-1.6
 70
    64
  0
VERTEX
  5
280A
100
AcDbEntity
  8
0
100
AcDbVertex
100
AcDbPolygonMeshVertex
 10
0.61
 20
0.76
 30
-1.6
 70
    64
  0
VERTEX
  5
280B
100
AcDbEntity
  8
0
100
AcDbVertex
100
AcDbPolygonMeshVertex
 10
0.61
 20
0.64
 30
-0.42
 70
    64
  0
VERTEX
  5
280C
100
AcDbEntity
  8
0
100
AcDbVertex
100
AcDbPolygonMeshVertex
 10
0.61
 20
0.64
 30
-0.42
 70
    64
  0
VERTEX
  5
280D
100
AcDbEntity
  8
0
100
AcDbVertex
100
AcDbPolygonMeshVertex
 10
0.61
 20
0.76
 30
-0.42
 70
    64
  0
VERTEX
  5
280E
100
AcDbEntity
  8
0
100
AcDbVertex
100
AcDbPolygonMeshVertex
 10
1.34
 20
0.64
 30
-0.42
 70
    64
  0
VERTEX
  5
280F
100
AcDbEntity
  8
0
100
AcDbVertex
100
AcDbPolygonMeshVertex
 10
1.34
 20
0.64
 30
-0.42
 70
    64
  0
VERTEX
  5
2810
100
AcDbEntity
  8
0
100
AcDbVertex
100
AcDbPolygonMeshVertex
 10
1.34
 20
0.76
 30
-0.42
 70
    64
  0
SEQEND
  5
2811
100
AcDbEntity
  8
0
  0
POLYLINE
  5
2812
100
AcDbEntity
  8
0
100
AcDbPolygonMesh
 66
     1
 10
0.0
 20
0.0
 30
0.0
 70
    16
 71
     6
 72
     3
  0
VERTEX
  5
2813
100
AcDbEntity
  8
0
100
AcDbVertex
100
AcDbPolygonMeshVertex
 10
0.59
 20
0.86
 30
0.0
 70
    64
  0
VERTEX
  5
2814
100
AcDbEntity
  8
0
100
AcDbVertex
100
AcDbPolygonMeshVertex
 10
0.59
 20
0.86
 30
-0.42
 70
    64
  0
VERTEX
  5
2815
100
AcDbEntity
  8
0
100
AcDbVertex
100
AcDbPolygonMeshVertex
 10
0.59
 20
0.86
 30
-0.42
 70
    64
  0
VERTEX
  5
2816
100
AcDbEntity
  8
0
100
AcDbVertex
100
AcDbPolygonMeshVertex
 10
0.84
 20
0.86
 30
0.0
 70
    64
  0
VERTEX
  5
2817
100
AcDbEntity
  8
0
100
AcDbVertex
100
AcDbPolygonMeshVertex
 10
0.84
 20
0.86
 30
-0.42
 70
    64
  0
VERTEX
  5
2818
100
AcDbEntity
  8
0
100
AcDbVertex
100
AcDbPolygonMeshVertex
 10
0.84
 20
0.86
 30
-0.42
 70
    64
  0
VERTEX
  5
2819
100
AcDbEntity
  8
0
100
AcDbVertex
100
AcDbPolygonMeshVertex
 10
0.84
 20
0.64
 30
0.0
 70
    64
  0
VERTEX
  5
281A
100
AcDbEntity
  8
0
100
AcDbVertex
100
AcDbPolygonMeshVertex
 10
0.84
 20
0.64
 30
-0.42
 70
    64
  0
VERTEX
  5
281B
100
AcDbEntity
  8
0
100
AcDbVertex
100
AcDbPolygonMeshVertex
 10
0.84
 20
0.86
 30
-0.42
 70
    64
  0
VERTEX
  5
281C
100
AcDbEntity
  8
0
100
AcDbVertex
100
AcDbPolygonMeshVertex
 10
0.59
 20
0.64
 30
0.0
 70
    64
  0
VERTEX
  5
281D
100
AcDbEntity
  8
0
100
AcDbVertex
100
AcDbPolygonMeshVertex
 10
0.59
 20
0.64
 30
-0.42
 70
    64
  0
VERTEX
  5
281E
100
AcDbEntity
  8
0
100
AcDbVertex
100
AcDbPolygonMeshVertex
 10
0.59
 20
0.86
 30
-0.42
 70
    64
  0
VERTEX
  5
281F
100
AcDbEntity
  8
0
100
AcDbVertex
100
AcDbPolygonMeshVertex
 10
0.59
 20
0.64
 30
0.0
 70
    64
  0
VERTEX
  5
2820
100
AcDbEntity
  8
0
100
AcDbVertex
100
AcDbPolygonMeshVertex
 10
0.59
 20
0.64
 30
0.0
 70
    64
  0
VERTEX
  5
2821
100
AcDbEntity
  8
0
100
AcDbVertex
100
AcDbPolygonMeshVertex
 10
0.59
 20
0.86
 30
0.0
 70
    64
  0
VERTEX
  5
2822
100
AcDbEntity
  8
0
100
AcDbVertex
100
AcDbPolygonMeshVertex
 10
0.84
 20
0.64
 30
0.0
 70
    64
  0
VERTEX
  5
2823
100
AcDbEntity
  8
0
100
AcDbVertex
100
AcDbPolygonMeshVertex
 10
0.84
 20
0.64
 30
0.0
 70
    64
  0
VERTEX
  5
2824
100
AcDbEntity
  8
0
100
AcDbVertex
100
AcDbPolygonMeshVertex
 10
0.84
 20
0.86
 30
0.0
 70
    64
  0
SEQEND
  5
2825
100
AcDbEntity
  8
0
  0
TEXT
  5
2826
100
AcDbEntity
  8
0
100
AcDbText
 10
-1.660868
 20
-1.20488
 30
-3.35
 40
0.12
  1
2 T1
100
AcDbText
  0
TEXT
  5
2827
100
AcDbEntity
  8
0
100
AcDbText
 10
-1.083927
 20
-1.20488
 30
-3.35
 40
0.12
  1
4 T2
100
AcDbText
  0
TEXT
  5
2828
100
AcDbEntity
  8
0
100
AcDbText
 10
-0.491518
 20
-1.20488
 30
-3.35
 40
0.12
  1
6 T3
100
AcDbText
  0
TEXT
  5
2829
100
AcDbEntity
  8
0
100
AcDbText
 10
1.205696
 20
-1.20488
 30
-3.35
 40
0.12
  1
12 T6
100
AcDbText
  0
TEXT
  5
282A
100
AcDbEntity
  8
0
100
AcDbText
 10
0.613286
 20
-1.20488
 30
-3.35
 40
0.12
  1
10 T5
100
AcDbText
  0
TEXT
  5
282B
100
AcDbEntity
  8
0
100
AcDbText
 10
0.099132
 20
-1.20488
 30
-3.35
 40
0.12
  1
8 T4
100
AcDbText
  0
TEXT
  5
282C
100
AcDbEntity
  8
0
100
AcDbText
 10
1.24138
 20
1.080522
 30
-3.35
 40
0.12
  1
11 L6
100
AcDbText
  0
TEXT
  5
282D
100
AcDbEntity
  8
0
100
AcDbText
 10
0.64897
 20
1.080522
 30
-3.35
 40
0.12
  1
9 L5
100
AcDbText
  0
TEXT
  5
282E
100
AcDbEntity
  8
0
100
AcDbText
 10
0.099132
 20
1.080522
 30
-3.35
 40
0.12
  1
7 L4
100
AcDbText
  0
TEXT
  5
282F
100
AcDbEntity
  8
0
100
AcDbText
 10
-0.491518
 20
1.080522
 30
-3.35
 40
0.12
  1
5 L3
100
AcDbText
  0
TEXT
  5
2830
100
AcDbEntity
  8
0
100
AcDbText
 10
-1.083927
 20
1.080522
 30
-3.35
 40
0.12
  1
3 L2
100
AcDbText
  0
TEXT
  5
2831
100
AcDbEntity
  8
0
100
AcDbText
 10
-1.660868
 20
1.080522
 30
-3.35
 40
0.12
  1
1 L1
100
AcDbText
  0
DIMENSION
  5
2832
100
AcDbEntity
  8
AREA1
100
AcDbDimension
  2
*D0
 10
1.76
 20
1.653577
 30
0.0
 11
-0.01681
 21
1.653577
 31
0.0
 70
   160
  3
ABECAD_3D
100
AcDbAlignedDimension
 13
-1.76
 23
1.24
 33
-1.68
 14
1.76
 24
1.24
 34
-1.68
100
AcDbRotatedDimension
  0
DIMENSION
  5
2833
100
AcDbEntity
  8
AREA1
100
AcDbDimension
  2
*D1
 10
2.033548
 20
-1.24
 30
0.0
 11
2.033548
 21
-0.048635
 31
0.0
 70
   160
  3
ABECAD_3D
100
AcDbAlignedDimension
 13
1.76
 23
1.24
 33
-1.68
 14
1.76
 24
-1.24
 34
-1.68
 50
90.0
100
AcDbRotatedDimension
  0
ENDBLK
  5
2835
100
AcDbEntity
  8
0
100
AcDbBlockEnd
  0
BLOCK
  5
284D
100
AcDbEntity
  8
0
100
AcDbBlockBegin
  2
*D3
 70
     1
 10
0.0
 20
0.0
 30
0.0
  3
*D3
  1

  0
LINE
  5
2843
100
AcDbEntity
  8
AREA2
 62
     0
100
AcDbLine
 10
1.8225
 20
0.0
 30
0.0
 11
2.266146
 21
0.0
 31
0.0
1001
ACAD
1000
RTLwPs
1070
   158
  0
LINE
  5
2844
100
AcDbEntity
  8
AREA2
 62
     0
100
AcDbLine
 10
1.8225
 20
-3.339914
 30
0.0
 11
2.266146
 21
-3.339914
 31
0.0
1001
ACAD
1000
RTLwPs
1070
   158
  0
LINE
  5
2845
100
AcDbEntity
  8
AREA2
 62
     0
100
AcDbLine
 10
2.086146
 20
-0.18
 30
0.0
 11
2.086146
 21
-1.087388
 31
0.0
1001
ACAD
1000
RTLwPs
1070
   158
  0
LINE
  5
2846
100
AcDbEntity
  8
AREA2
 62
     0
100
AcDbLine
 10
2.086146
 20
-3.159914
 30
0.0
 11
2.086146
 21
-2.407388
 31
0.0
1001
ACAD
1000
RTLwPs
1070
   158
  0
MTEXT
  5
2847
100
AcDbEntity
  8
AREA2
 62
     0
100
AcDbMText
 10
2.086146
 20
-1.747388
 30
0.0
 40
0.09
 41
0.0
 71
     5
 72
     1
  1
\A1;3 11/32 [84.83]
 11
0.0
 21
1.0
 31
0.0
1001
ACAD
1000
MTEXTBEGIN
1070
    73
1070
     1
1070
    44
1040
1.0
1070
    74
1070
     0
1000
MTEXTEND
1000
MTEXTBEGIN
1070
    73
1070
     1
1070
    44
1040
1.0
1070
    74
1070
     0
1000
MTEXTEND
1000
MTEXTBEGIN
1070
    73
1070
     1
1070
    44
1040
1.0
1070
    74
1070
     0
1000
MTEXTEND
1000
MTEXTBEGIN
1070
    73
1070
     1
1070
    44
1040
1.0
1070
    74
1070
     0
1000
MTEXTEND
  0
SOLID
  5
2848
100
AcDbEntity
  8
AREA2
 62
     0
100
AcDbTrace
 10
2.056146
 20
-0.18
 30
0.0
 11
2.116146
 21
-0.18
 31
0.0
 12
2.086146
 22
0.0
 32
0.0
 13
2.086146
 23
0.0
 33
0.0
  0
SOLID
  5
2849
100
AcDbEntity
  8
AREA2
 62
     0
100
AcDbTrace
 10
2.056146
 20
-3.159914
 30
0.0
 11
2.116146
 21
-3.159914
 31
0.0
 12
2.086146
 22
-3.339914
 32
0.0
 13
2.086146
 23
-3.339914
 33
0.0
  0
POINT
  5
284A
100
AcDbEntity
  8
DEFPOINTS
 62
     0
100
AcDbPoint
 10
1.76
 20
0.0
 30
0.64
  0
POINT
  5
284B
100
AcDbEntity
  8
DEFPOINTS
 62
     0
100
AcDbPoint
 10
1.76
 20
-3.339914
 30
0.64
  0
POINT
  5
284C
100
AcDbEntity
  8
DEFPOINTS
 62
     0
100
AcDbPoint
 10
2.086146
 20
-3.339914
 30
0.0
  0
ENDBLK
  5
284E
100
AcDbEntity
  8
0
100
AcDbBlockEnd
  0
ENDSEC
  0
SECTION
  2
ENTITIES
  0
INSERT
  5
2836
100
AcDbEntity
  8
0
100
AcDbBlockReference
 66
     1
  2
ABDSB420
 10
0.0
 20
0.0
 30
0.0
  0
ATTRIB
  5
2838
100
AcDbEntity
  8
ATTRIBUTES
100
AcDbText
 10
-1.587072
 20
0.95462
 30
-3.35
 40
0.12
  1
ALLEN-BRADLEY
100
AcDbAttribute
  2
AC_VND_LABEL
 70
     1
  0
ATTRIB
  5
2839
100
AcDbEntity
  8
ATTRIBUTES
100
AcDbText
 10
-1.587072
 20
0.70462
 30
-3.35
 40
0.12
  1
194-E25/E32-1756
100
AcDbAttribute
  2
AC_PART_NO
 70
     1
  0
ATTRIB
  5
283A
100
AcDbEntity
  8
ATTRIBUTES
100
AcDbText
 10
-1.587072
 20
0.45462
 30
-3.35
 40
0.12
  1
LOAD SWITCH, 6P SWITCH, FRONT/DOOR MOUNTED
100
AcDbAttribute
  2
AC_DESCRIPTION
 70
     1
  0
ATTRIB
  5
283B
100
AcDbEntity
  8
ATTRIBUTES
100
AcDbText
 10
-1.587072
 20
0.20462
 30
-3.35
 40
0.12
  1

100
AcDbAttribute
  2
DEVICE_ID
 70
     1
  0
ATTRIB
  5
283C
100
AcDbEntity
  8
ATTRIBUTES
100
AcDbText
 10
-1.587072
 20
-0.04538
 30
-3.35
 40
0.12
  1

100
AcDbAttribute
  2
AC_CPART_NO
 70
     1
  0
ATTRIB
  5
283D
100
AcDbEntity
  8
ATTRIBUTES
100
AcDbText
 10
-1.587072
 20
-0.29538
 30
-3.35
 40
0.12
  1

100
AcDbAttribute
  2
AC_NOTE
 70
     1
  0
ATTRIB
  5
283E
100
AcDbEntity
  8
ATTRIBUTES
100
AcDbText
 10
-1.587072
 20
-0.54538
 30
-3.35
 40
0.12
  1

100
AcDbAttribute
  2
FASTENER
 70
     1
  0
ATTRIB
  5
283F
100
AcDbEntity
  8
ATTRIBUTES
100
AcDbText
 10
-1.587072
 20
-0.79538
 30
-3.35
 40
0.12
  1
INCH
100
AcDbAttribute
  2
AC_SCALE_UNIT
 70
     1
  0
ATTRIB
  5
2840
100
AcDbEntity
  8
ATTRIBUTES
100
AcDbText
 10
-1.587072
 20
-1.04538
 30
-3.35
 40
0.12
  1
0
100
AcDbAttribute
  2
AC_VIEW_CODE
 70
     1
  0
SEQEND
  5
2837
100
AcDbEntity
  8
0
  0
DIMENSION
  5
2841
100
AcDbEntity
  8
AREA2
100
AcDbDimension
  2
*D3
 10
2.086146
 20
0.0
 30
-3.339914
 11
2.086146
 21
-1.747388
 31
0.0
 70
   160
210
0.0
220
-1.0
230
0.0
  3
ABECAD_3V
100
AcDbAlignedDimension
 13
1.76
 23
-0.64
 33
0.0
 14
1.76
 24
-0.64
 34
-3.339914
 50
90.0
100
AcDbRotatedDimension
1001
ACAD
1000
DSTYLE
1002
{
1070
    40
1040
1.0
1002
}
  0
VIEWPORT
  5
2C
102
{ACAD_XDICTIONARY
360
2924
102
}
100
AcDbEntity
 67
     1
  8
0
100
AcDbViewport
 10
4.999849
 20
3.750155
 30
0.0
 40
14.605422
 41
7.605506
 68
     1
 69
     1
1001
ACAD
1000
MVIEW
1002
{
1070
    16
1010
0.0
1020
0.0
1030
0.0
1010
0.0
1020
0.0
1030
1.0
1040
0.0
1040
7.605506
1040
4.999849
1040
3.750155
1040
50.0
1040
0.0
1040
0.0
1070
     0
1070
   100
1070
     1
1070
     1
1070
     0
1070
     0
1070
     0
1070
     0
1040
0.0
1040
0.0
1040
0.0
1040
1.0
1040
1.0
1040
0.0
1040
0.0
1070
     0
1002
{
1002
}
1002
}
  0
VIEWPORT
  5
2D
102
{ACAD_XDICTIONARY
360
2926
102
}
100
AcDbEntity
 67
     1
  8
0
100
AcDbViewport
 10
2.5
 20
5.625
 30
0.0
 40
5.0
 41
3.75
 68
     3
 69
     2
1001
ACAD
1000
MVIEW
1002
{
1070
    16
1010
0.0
1020
0.0
1030
0.0
1010
0.0
1020
0.0
1030
1.0
1040
0.0
1040
4.128047
1040
0.316556
1040
0.156789
1040
50.0
1040
0.0
1040
0.0
1070
     0
1070
   100
1070
     1
1070
     0
1070
     0
1070
     0
1070
     0
1070
     0
1040
0.0
1040
0.0
1040
0.0
1040
1.0
1040
1.0
1040
0.0
1040
0.0
1070
     0
1002
{
1003
AREA2
1002
}
1002
}
  0
VIEWPORT
  5
2E
102
{ACAD_XDICTIONARY
360
2928
102
}
100
AcDbEntity
 67
     1
  8
0
100
AcDbViewport
 10
2.5
 20
1.875
 30
0.0
 40
5.0
 41
3.75
 68
     4
 69
     3
1001
ACAD
1000
MVIEW
1002
{
1070
    16
1010
0.0
1020
0.0
1030
0.0
1010
0.0
1020
-1.0
1030
0.0
1040
0.0
1040
4.128047
1040
0.3636
1040
-1.659363
1040
50.0
1040
0.0
1040
0.0
1070
     0
1070
   100
1070
     1
1070
     0
1070
     0
1070
     0
1070
     0
1070
     0
1040
0.0
1040
0.0
1040
0.0
1040
1.0
1040
1.0
1040
0.0
1040
0.0
1070
     0
1002
{
1003
AREA1
1002
}
1002
}
  0
VIEWPORT
  5
2F
102
{ACAD_XDICTIONARY
360
292A
102
}
100
AcDbEntity
 67
     1
  8
0
100
AcDbViewport
 10
7.5
 20
3.75
 30
0.0
 40
5.0
 41
7.5
 68
     2
 69
     4
1001
ACAD
1000
MVIEW
1002
{
1070
    16
1010
0.0
1020
0.0
1030
0.0
1010
-1.0
1020
-1.0
1030
1.0
1040
0.0
1040
9.455469
1040
-0.08735
1040
-0.127847
1040
50.0
1040
0.0
1040
0.0
1070
     0
1070
   100
1070
     1
1070
     0
1070
     0
1070
     0
1070
     0
1070
     0
1040
0.0
1040
0.0
1040
0.0
1040
1.0
1040
1.0
1040
0.0
1040
0.0
1070
     0
1002
{
1003
AREA1
1003
AREA2
1002
}
1002
}
  0
TEXT
  5
42D
100
AcDbEntity
 67
     1
  8
0
100
AcDbText
 10
5.253785
 20
7.092701
 30
0.0
 40
0.2
  1
194E-E25/E32-1756
100
AcDbText
  0
TEXT
  5
431
100
AcDbEntity
 67
     1
  8
0
100
AcDbText
 10
5.253785
 20
6.759368
 30
0.0
 40
0.2
  1
LOAD SWITCH, 6P, FRONT/
100
AcDbText
1001
ACAD
1000
R13OBJECT
1002
{
1005
42D
1002
}
  0
TEXT
  5
6C2
100
AcDbEntity
 67
     1
  8
0
100
AcDbText
 10
5.253785
 20
6.43306
 30
0.0
 40
0.2
  1
DOOR MOUNTING
100
AcDbText
1001
ACAD
1000
R13OBJECT
1002
{
1005
42D
1002
}
  0
ENDSEC
  0
SECTION
  2
OBJECTS
  0
DICTIONARY
  5
46D
100
AcDbDictionary
  3
ACAD_GROUP
350
46E
  3
ACAD_LAYOUT
350
49E
  3
ACAD_MLINESTYLE
350
47B
  3
ACAD_PLOTSETTINGS
350
49F
  3
ACAD_PLOTSTYLENAME
350
49C
  3
ACDBHEADERROUNDTRIPXREC
350
2903
  3
ACDBVARIABLEDICTIONARY
350
48D
  3
DWGPROPS
350
2850
  0
DICTIONARY
  5
2901
100
AcDbDictionary
280
     1
  3
ACAD_XREC_ROUNDTRIP
360
2902
  0
DICTIONARY
  5
292E
100
AcDbDictionary
280
     1
  3
ACAD_XREC_ROUNDTRIP
360
292F
  0
DICTIONARY
  5
2930
100
AcDbDictionary
280
     1
  3
ACAD_XREC_ROUNDTRIP
360
2931
  0
DICTIONARY
  5
2934
100
AcDbDictionary
280
     1
  3
ACAD_XREC_ROUNDTRIP
360
2935
  0
DICTIONARY
  5
4D2
100
AcDbDictionary
280
     1
  3
ACAD_LAYOUTSELFREF
360
292D
  0
DICTIONARY
  5
4D0
100
AcDbDictionary
280
     1
  3
ACAD_LAYOUTSELFREF
360
292C
  0
DICTIONARY
  5
28FF
100
AcDbDictionary
280
     1
  3
ACAD_XREC_ROUNDTRIP
360
2900
  0
DICTIONARY
  5
2924
100
AcDbDictionary
280
     1
  3
ACAD_XREC_ROUNDTRIP
360
2925
  0
DICTIONARY
  5
2926
100
AcDbDictionary
280
     1
  3
ACAD_XREC_ROUNDTRIP
360
2927
  0
DICTIONARY
  5
2928
100
AcDbDictionary
280
     1
  3
ACAD_XREC_ROUNDTRIP
360
2929
  0
DICTIONARY
  5
292A
100
AcDbDictionary
280
     1
  3
ACAD_XREC_ROUNDTRIP
360
292B
  0
DICTIONARY
  5
46E
102
{ACAD_REACTORS
330
46D
102
}
100
AcDbDictionary
  0
DICTIONARY
  5
49E
102
{ACAD_XDICTIONARY
360
2932
102
}
102
{ACAD_REACTORS
330
46D
102
}
100
AcDbDictionary
  3
LAYOUT1
350
4A1
  3
MODEL
350
4A0
  0
DICTIONARY
  5
47B
102
{ACAD_REACTORS
330
46D
102
}
100
AcDbDictionary
  3
STANDARD
350
47C
  0
DICTIONARY
  5
49F
102
{ACAD_REACTORS
330
46D
102
}
100
AcDbDictionary
  0
ACAD_PROXY_OBJECT
  5
49C
102
{ACAD_REACTORS
330
46D
102
}
100
AcDbProxyObject
 90
      499
 91
      501
 93
       86
310
405010041939BDC9B585B0
350
49D
340
49D
 94
        0
  0
DICTIONARY
  5
2903
102
{ACAD_REACTORS
330
46D
102
}
100
AcDbDictionary
  3
CEPSNTYPE
350
290D
  3
DIMSTYLEDATA
350
2911
  3
FINGERPRINTGUID
350
290E
  3
HYPERLINKBASE
350
2906
  3
INSUNITS
350
290C
  3
LAYOUTDICT
350
2908
  3
LWETCUNION
350
290B
  3
PLOTSETDICT
350
2909
  3
PLOTSTYLNAMDICT
350
290A
  3
PSVPSCALE
350
2910
  3
PUCSBASE
350
2914
  3
PUCSORGBACK
350
291A
  3
PUCSORGBOTTOM
350
2916
  3
PUCSORGFRONT
350
2919
  3
PUCSORGLEFT
350
2917
  3
PUCSORGRIGHT
350
2918
  3
PUCSORGTOP
350
2915
  3
PUCSORTHOREF
350
2912
  3
PUCSORTHOVIEW
350
2913
  3
STYLESHEET
350
2907
  3
TSTACKALIGN
350
2904
  3
TSTACKSIZE
350
2905
  3
UCSBASE
350
291D
  3
UCSORGBACK
350
2923
  3
UCSORGBOTTOM
350
291F
  3
UCSORGFRONT
350
2922
  3
UCSORGLEFT
350
2920
  3
UCSORGRIGHT
350
2921
  3
UCSORGTOP
350
291E
  3
UCSORTHOREF
350
291B
  3
UCSORTHOVIEW
350
291C
  3
VERSIONGUID
350
290F
  0
DICTIONARY
  5
48D
102
{ACAD_REACTORS
330
46D
102
}
100
AcDbDictionary
  3
DIMADEC
350
48E
  0
XRECORD
  5
2850
102
{ACAD_REACTORS
330
46D
102
}
100
AcDbXrecord
  1
DWGPROPS COOKIE
  2

  3

  4

  6

  7

  8
colin
  9

300
=
301
=
302
=
303
=
304
=
305
=
306
=
307
=
308
=
309
=
 40
0.127137
 41
2451726.480029
 42
2451841.545407
  1

 90
        0
  0
XRECORD
  5
2902
102
{ACAD_REACTORS
330
2901
102
}
100
AcDbXrecord
102
EXTNAMES
  1
*ACTIVE
  2
*Active
102
UCS
 74
     0
 71
     1
 10
0.0
 20
0.0
 30
0.0
 10
1.0
 20
0.0
 30
0.0
 10
0.0
 20
0.0
 30
1.0
146
0.0
 79
     3
102
VIEW
281
     0
  0
XRECORD
  5
292F
102
{ACAD_REACTORS
330
292E
102
}
100
AcDbXrecord
102
PLOTBIT
280
     0
  0
XRECORD
  5
2931
102
{ACAD_REACTORS
330
2930
102
}
100
AcDbXrecord
102
ACADR14ROUNDTRIP
1000
DSTYLE
1002
{
1070
   276
 70
     2
1070
   277
 70
     5
1070
   279
 70
     2
1070
   289
 70
     2
1002
}
  0
XRECORD
  5
2935
102
{ACAD_REACTORS
330
2934
102
}
100
AcDbXrecord
102
ACADR14ROUNDTRIP
1000
DSTYLE
1002
{
1070
   276
 70
     2
1070
   277
 70
     5
1070
   279
 70
     2
1070
   289
 70
     2
1002
}
  0
XRECORD
  5
292D
102
{ACAD_REACTORS
330
4D2
102
}
100
AcDbXrecord
340
478
  0
XRECORD
  5
292C
102
{ACAD_REACTORS
330
4D0
102
}
100
AcDbXrecord
340
475
  0
XRECORD
  5
2900
102
{ACAD_REACTORS
330
28FF
102
}
100
AcDbXrecord
102
EXTNAMES
  1
ABDSB420
  2
abdsb420
  0
XRECORD
  5
2925
102
{ACAD_REACTORS
330
2924
102
}
100
AcDbXrecord
102
UCS
 74
     0
 71
     1
 10
0.0
 20
0.0
 30
0.0
 10
1.0
 20
0.0
 30
0.0
 10
0.0
 20
1.0
 30
0.0
146
0.0
 79
     0
102
VIEW
281
     0
102
NEWVIEWCONTROL
280
     4
  0
XRECORD
  5
2927
102
{ACAD_REACTORS
330
2926
102
}
100
AcDbXrecord
102
UCS
 74
     0
 71
     1
 10
0.0
 20
0.0
 30
0.0
 10
1.0
 20
0.0
 30
0.0
 10
0.0
 20
1.0
 30
0.0
146
0.0
 79
     1
102
VIEW
281
     0
102
NEWVIEWCONTROL
280
     4
  0
XRECORD
  5
2929
102
{ACAD_REACTORS
330
2928
102
}
100
AcDbXrecord
102
UCS
 74
     0
 71
     1
 10
0.0
 20
0.0
 30
0.0
 10
1.0
 20
0.0
 30
0.0
 10
0.0
 20
0.0
 30
1.0
146
0.0
 79
     3
102
VIEW
281
     0
102
NEWVIEWCONTROL
280
     4
  0
XRECORD
  5
292B
102
{ACAD_REACTORS
330
292A
102
}
100
AcDbXrecord
102
UCS
 74
     0
 71
     1
 10
0.0
 20
0.0
 30
0.0
 10
1.0
 20
0.0
 30
0.0
 10
0.0
 20
1.0
 30
0.0
146
0.0
 79
     1
102
VIEW
281
     0
102
NEWVIEWCONTROL
280
     4
  0
DICTIONARY
  5
2932
100
AcDbDictionary
280
     1
  3
ACAD_XREC_ROUNDTRIP
360
2933
  0
ACAD_PROXY_OBJECT
  5
4A1
102
{ACAD_REACTORS
330
49E
102
}
100
AcDbProxyObject
 90
      499
 91
      503
 93
     2044
310
91D4850204C617365724A65742035303030205365726965732050434C20362C008000000C0BB1B1440000000102F06C510000000000BC1B1440000000002E06C5100000000C0CCFC6A4000000018199D9C501064C6574746572A901406AA427D84144352EEE3F47D11959985D5B1D08148C4D081C195B88185CDCDA59DB9B5
310
95B9D1CCB98DD18A30EDE3B1BBFDBC0FC1D572C8D6D0C833F1A2B3054E9249F0FD074C61796F75743140501A97D7DB4AA43C31EFF91E46EBA53B71EFD1B32A15809809100B2537F8EAD447D02A6A6A00200C0093BD106FC0000F06EE366FABE00001413D8FD3E6F04424FF2920002440160B7F435600079000000CF48875D0
310
73D0
330
475
330
2C
340
0
340
0
 94
        0
  0
ACAD_PROXY_OBJECT
  5
4A0
102
{ACAD_REACTORS
330
49E
102
}
100
AcDbProxyObject
 90
      499
 91
      503
 93
      924
310
91D4850204C617365724A65742035303030205365726965732050434C20362C01AAAAAAAAA547D11959985D5B1D08148C4D081C195B88185CDCDA59DB9B595B9D1CCB98DD18A69054D6F64656C901A800000000000000000000000000000000000000000000A1000000000000008902A6A6AAAA0
330
478
330
0
340
0
340
0
 94
        0
  0
MLINESTYLE
  5
47C
102
{ACAD_REACTORS
330
47B
102
}
100
AcDbMlineStyle
  2
STANDARD
 70
     0
  3

 62
   256
 51
90.0
 52
90.0
 71
     2
 49
0.5
 62
   256
  6
BYLAYER
 49
-0.5
 62
   256
  6
BYLAYER
  0
ACAD_PROXY_OBJECT
  5
49D
102
{ACAD_REACTORS
330
49C
102
}
100
AcDbProxyObject
 90
      499
 91
      502
 93
        0
 94
        0
  0
XRECORD
  5
290D
102
{ACAD_REACTORS
330
2903
102
}
100
AcDbXrecord
 90
        0
  0
XRECORD
  5
2911
102
{ACAD_REACTORS
330
2903
102
}
100
AcDbXrecord
1000
DSTYLE
1002
{
1070
   276
 70
     2
1070
   277
 70
     5
1070
   279
 70
     2
1070
   289
 70
     2
1002
}
  0
XRECORD
  5
290E
102
{ACAD_REACTORS
330
2903
102
}
100
AcDbXrecord
  1
{6E0CF4B5-225E-11D4-A150-00A0CC3303EC}
  0
XRECORD
  5
2906
102
{ACAD_REACTORS
330
2903
102
}
100
AcDbXrecord
  1

  0
XRECORD
  5
290C
102
{ACAD_REACTORS
330
2903
102
}
100
AcDbXrecord
 90
        0
  0
XRECORD
  5
2908
102
{ACAD_REACTORS
330
2903
102
}
100
AcDbXrecord
340
49E
  0
XRECORD
  5
290B
102
{ACAD_REACTORS
330
2903
102
}
100
AcDbXrecord
 90
    14877
  0
XRECORD
  5
2909
102
{ACAD_REACTORS
330
2903
102
}
100
AcDbXrecord
340
49F
  0
XRECORD
  5
290A
102
{ACAD_REACTORS
330
2903
102
}
100
AcDbXrecord
340
49C
  0
XRECORD
  5
2910
102
{ACAD_REACTORS
330
2903
102
}
100
AcDbXrecord
 40
0.0
  0
XRECORD
  5
2914
102
{ACAD_REACTORS
330
2903
102
}
100
AcDbXrecord
340
0
  0
XRECORD
  5
291A
102
{ACAD_REACTORS
330
2903
102
}
100
AcDbXrecord
 10
0.0
 20
0.0
 30
0.0
  0
XRECORD
  5
2916
102
{ACAD_REACTORS
330
2903
102
}
100
AcDbXrecord
 10
0.0
 20
0.0
 30
0.0
  0
XRECORD
  5
2919
102
{ACAD_REACTORS
330
2903
102
}
100
AcDbXrecord
 10
0.0
 20
0.0
 30
0.0
  0
XRECORD
  5
2917
102
{ACAD_REACTORS
330
2903
102
}
100
AcDbXrecord
 10
0.0
 20
0.0
 30
0.0
  0
XRECORD
  5
2918
102
{ACAD_REACTORS
330
2903
102
}
100
AcDbXrecord
 10
0.0
 20
0.0
 30
0.0
  0
XRECORD
  5
2915
102
{ACAD_REACTORS
330
2903
102
}
100
AcDbXrecord
 10
0.0
 20
0.0
 30
0.0
  0
XRECORD
  5
2912
102
{ACAD_REACTORS
330
2903
102
}
100
AcDbXrecord
340
0
  0
XRECORD
  5
2913
102
{ACAD_REACTORS
330
2903
102
}
100
AcDbXrecord
 70
     0
  0
XRECORD
  5
2907
102
{ACAD_REACTORS
330
2903
102
}
100
AcDbXrecord
  1

  0
XRECORD
  5
2904
102
{ACAD_REACTORS
330
2903
102
}
100
AcDbXrecord
 90
        1
  0
XRECORD
  5
2905
102
{ACAD_REACTORS
330
2903
102
}
100
AcDbXrecord
 90
       70
  0
XRECORD
  5
291D
102
{ACAD_REACTORS
330
2903
102
}
100
AcDbXrecord
340
0
  0
XRECORD
  5
2923
102
{ACAD_REACTORS
330
2903
102
}
100
AcDbXrecord
 10
0.0
 20
0.0
 30
0.0
  0
XRECORD
  5
291F
102
{ACAD_REACTORS
330
2903
102
}
100
AcDbXrecord
 10
0.0
 20
0.0
 30
0.0
  0
XRECORD
  5
2922
102
{ACAD_REACTORS
330
2903
102
}
100
AcDbXrecord
 10
0.0
 20
0.0
 30
0.0
  0
XRECORD
  5
2920
102
{ACAD_REACTORS
330
2903
102
}
100
AcDbXrecord
 10
0.0
 20
0.0
 30
0.0
  0
XRECORD
  5
2921
102
{ACAD_REACTORS
330
2903
102
}
100
AcDbXrecord
 10
0.0
 20
0.0
 30
0.0
  0
XRECORD
  5
291E
102
{ACAD_REACTORS
330
2903
102
}
100
AcDbXrecord
 10
0.0
 20
0.0
 30
0.0
  0
XRECORD
  5
291B
102
{ACAD_REACTORS
330
2903
102
}
100
AcDbXrecord
340
0
  0
XRECORD
  5
291C
102
{ACAD_REACTORS
330
2903
102
}
100
AcDbXrecord
 70
     1
  0
XRECORD
  5
290F
102
{ACAD_REACTORS
330
2903
102
}
100
AcDbXrecord
  1
{28AEF60E-E6DF-4DC5-B513-4E91A6C4BB60}
  0
DICTIONARYVAR
  5
48E
102
{ACAD_REACTORS
330
48D
102
}
100
DictionaryVariables
280
     0
  1
0
  0
XRECORD
  5
2933
102
{ACAD_REACTORS
330
2932
102
}
100
AcDbXrecord
102
EXTNAMES
  1
LAYOUT1
  2
Layout1
  1
MODEL
  2
Model
  0
ENDSEC
  0
EOF
