  0
SECTION
  2
HEADER
  9
$ACADVER
  1
AC1014
  9
$ACADMAINTVER
 70
     8
  9
$DWGCODEPAGE
  3
ANSI_1252
  9
$INSBASE
 10
0.0
 20
0.0
 30
0.0
  9
$EXTMIN
 10
-1.467923
 20
-2.655348
 30
-0.159569
  9
$EXTMAX
 10
1.959174
 20
1.3398
 30
1.270431
  9
$LIMMIN
 10
0.0
 20
0.0
  9
$LIMMAX
 10
12.0
 20
9.0
  9
$ORTHOMODE
 70
     0
  9
$REGENMODE
 70
     1
  9
$FILLMODE
 70
     1
  9
$QTEXTMODE
 70
     0
  9
$MIRRTEXT
 70
     1
  9
$DRAGMODE
 70
     2
  9
$LTSCALE
 40
1.0
  9
$OSMODE
 70
    37
  9
$ATTMODE
 70
     0
  9
$TEXTSIZE
 40
0.2
  9
$TRACEWID
 40
0.05
  9
$TEXTSTYLE
  7
STANDARD
  9
$CLAYER
  8
0
  9
$CELTYPE
  6
BYLAYER
  9
$CECOLOR
 62
   256
  9
$CELTSCALE
 40
1.0
  9
$DELOBJ
 70
     1
  9
$DISPSILH
 70
     0
  9
$DIMSCALE
 40
0.0
  9
$DIMASZ
 40
0.18
  9
$DIMEXO
 40
0.0625
  9
$DIMDLI
 40
0.375
  9
$DIMRND
 40
0.0
  9
$DIMDLE
 40
0.0
  9
$DIMEXE
 40
0.18
  9
$DIMTP
 40
0.0
  9
$DIMTM
 40
0.0
  9
$DIMTXT
 40
0.13
  9
$DIMCEN
 40
0.09
  9
$DIMTSZ
 40
0.0
  9
$DIMTOL
 70
     0
  9
$DIMLIM
 70
     0
  9
$DIMTIH
 70
     0
  9
$DIMTOH
 70
     1
  9
$DIMSE1
 70
     0
  9
$DIMSE2
 70
     0
  9
$DIMTAD
 70
     0
  9
$DIMZIN
 70
     4
  9
$DIMBLK
  1

  9
$DIMASO
 70
     1
  9
$DIMSHO
 70
     1
  9
$DIMPOST
  1

  9
$DIMAPOST
  1

  9
$DIMALT
 70
     1
  9
$DIMALTD
 70
     2
  9
$DIMALTF
 40
25.4
  9
$DIMLFAC
 40
1.0
  9
$DIMTOFL
 70
     0
  9
$DIMTVP
 40
0.0
  9
$DIMTIX
 70
     0
  9
$DIMSOXD
 70
     0
  9
$DIMSAH
 70
     0
  9
$DIMBLK1
  1

  9
$DIMBLK2
  1

  9
$DIMSTYLE
  2
ABECAD_3V
  9
$DIMCLRD
 70
     0
  9
$DIMCLRE
 70
     0
  9
$DIMCLRT
 70
     0
  9
$DIMTFAC
 40
1.5
  9
$DIMGAP
 40
0.09
  9
$DIMJUST
 70
     0
  9
$DIMSD1
 70
     0
  9
$DIMSD2
 70
     0
  9
$DIMTOLJ
 70
     1
  9
$DIMTZIN
 70
     4
  9
$DIMALTZ
 70
     4
  9
$DIMALTTZ
 70
     4
  9
$DIMFIT
 70
     5
  9
$DIMUPT
 70
     1
  9
$DIMUNIT
 70
     7
  9
$DIMDEC
 70
     6
  9
$DIMTDEC
 70
     6
  9
$DIMALTU
 70
     2
  9
$DIMALTTD
 70
     2
  9
$DIMTXSTY
  7
STANDARD
  9
$DIMAUNIT
 70
     0
  9
$LUNITS
 70
     2
  9
$LUPREC
 70
     6
  9
$SKETCHINC
 40
0.1
  9
$FILLETRAD
 40
0.0
  9
$AUNITS
 70
     0
  9
$AUPREC
 70
     0
  9
$MENU
  1
acad
  9
$ELEVATION
 40
0.0
  9
$PELEVATION
 40
0.0
  9
$THICKNESS
 40
0.0
  9
$LIMCHECK
 70
     0
  9
$BLIPMODE
 70
     0
  9
$CHAMFERA
 40
0.0
  9
$CHAMFERB
 40
0.0
  9
$CHAMFERC
 40
0.0
  9
$CHAMFERD
 40
0.0
  9
$SKPOLY
 70
     0
  9
$TDCREATE
 40
2451726.438362384
  9
$TDUPDATE
 40
2452010.731455555
  9
$TDINDWG
 40
0.2471148148
  9
$TDUSRTIMER
 40
0.2471148148
  9
$USRTIMER
 70
     1
  9
$ANGBASE
 50
0.0
  9
$ANGDIR
 70
     0
  9
$PDMODE
 70
     3
  9
$PDSIZE
 40
0.18
  9
$PLINEWID
 40
0.0
  9
$COORDS
 70
     1
  9
$SPLFRAME
 70
     0
  9
$SPLINETYPE
 70
     6
  9
$SPLINESEGS
 70
     8
  9
$ATTDIA
 70
     0
  9
$ATTREQ
 70
     1
  9
$HANDLING
 70
     1
  9
$HANDSEED
  5
D060
  9
$SURFTAB1
 70
     6
  9
$SURFTAB2
 70
     6
  9
$SURFTYPE
 70
     6
  9
$SURFU
 70
     6
  9
$SURFV
 70
     6
  9
$UCSNAME
  2

  9
$UCSORG
 10
0.0
 20
0.0
 30
0.0
  9
$UCSXDIR
 10
1.0
 20
0.0
 30
0.0
  9
$UCSYDIR
 10
0.0
 20
1.0
 30
0.0
  9
$PUCSNAME
  2

  9
$PUCSORG
 10
0.0
 20
0.0
 30
0.0
  9
$PUCSXDIR
 10
1.0
 20
0.0
 30
0.0
  9
$PUCSYDIR
 10
0.0
 20
1.0
 30
0.0
  9
$USERI1
 70
     0
  9
$USERI2
 70
     0
  9
$USERI3
 70
     0
  9
$USERI4
 70
     0
  9
$USERI5
 70
     0
  9
$USERR1
 40
0.0
  9
$USERR2
 40
0.0
  9
$USERR3
 40
0.0
  9
$USERR4
 40
0.0
  9
$USERR5
 40
0.0
  9
$WORLDVIEW
 70
     1
  9
$SHADEDGE
 70
     3
  9
$SHADEDIF
 70
    70
  9
$TILEMODE
 70
     0
  9
$MAXACTVP
 70
    16
  9
$PINSBASE
 10
0.0
 20
0.0
 30
0.0
  9
$PLIMCHECK
 70
     0
  9
$PEXTMIN
 10
-0.000548
 20
-0.000025
 30
0.0
  9
$PEXTMAX
 10
10.000245
 20
7.500336
 30
0.0
  9
$PLIMMIN
 10
-0.187029
 20
-0.186938
  9
$PLIMMAX
 10
10.187518
 20
7.829757
  9
$UNITMODE
 70
     0
  9
$VISRETAIN
 70
     0
  9
$PLINEGEN
 70
     0
  9
$PSLTSCALE
 70
     1
  9
$TREEDEPTH
 70
  3020
  9
$PICKSTYLE
 70
     1
  9
$CMLSTYLE
  2
STANDARD
  9
$CMLJUST
 70
     0
  9
$CMLSCALE
 40
1.0
  9
$PROXYGRAPHICS
 70
     1
  9
$MEASUREMENT
 70
     0
  0
ENDSEC
  0
SECTION
  2
CLASSES
  0
CLASS
  1
DICTIONARYVAR
  2
AcDbDictionaryVar
  3
"AutoCAD"
 90
        0
280
     0
281
     0
  0
CLASS
  1
ACDBDICTIONARYWDFLT
  2
AcDbDictionaryWithDefault
  3
AutoCAD 2000
 90
        0
280
     0
281
     0
  0
CLASS
  1
ACDBPLACEHOLDER
  2
AcDbPlaceHolder
  3
AutoCAD 2000
 90
        0
280
     0
281
     0
  0
CLASS
  1
LAYOUT
  2
AcDbLayout
  3
AutoCAD 2000
 90
        0
280
     0
281
     0
  0
CLASS
  1
LONG_TRANSACTION
  2
AcDbLongTransaction
  3
AutoCAD 2000
 90
        0
280
     0
281
     0
  0
CLASS
  1
LWPOLYLINE
  2
AcDbPolyline
  3
"AutoCAD"
 90
        0
280
     0
281
     1
  0
CLASS
  1
HATCH
  2
AcDbHatch
  3
"ACAD_SEDONA"
 90
        0
280
     0
281
     1
  0
CLASS
  1
XRECORD
  2
AcDbXrecord
  3
"<Built In>"
 90
        0
280
     0
281
     0
  0
CLASS
  1
LONG_TRANSACTION
  2
AcDbLongTransaction
  3
AutoCAD 2000
 90
        0
280
     0
281
     0
  0
CLASS
  1
LWPOLYLINE
  2
AcDbPolyline
  3
"AutoCAD"
 90
        0
280
     0
281
     1
  0
CLASS
  1
HATCH
  2
AcDbHatch
  3
"ACAD_SEDONA"
 90
        0
280
     0
281
     1
  0
CLASS
  1
XRECORD
  2
AcDbXrecord
  3
"<Built In>"
 90
        0
280
     0
281
     0
  0
CLASS
  1
LONG_TRANSACTION
  2
AcDbLongTransaction
  3
AutoCAD 2000
 90
        0
280
     0
281
     0
  0
CLASS
  1
LWPOLYLINE
  2
AcDbPolyline
  3
"AutoCAD"
 90
        0
280
     0
281
     1
  0
CLASS
  1
HATCH
  2
AcDbHatch
  3
"ACAD_SEDONA"
 90
        0
280
     0
281
     1
  0
CLASS
  1
XRECORD
  2
AcDbXrecord
  3
"<Built In>"
 90
        0
280
     0
281
     0
  0
CLASS
  1
LONG_TRANSACTION
  2
AcDbLongTransaction
  3
AutoCAD 2000
 90
        0
280
     0
281
     0
  0
CLASS
  1
LWPOLYLINE
  2
AcDbPolyline
  3
"AutoCAD"
 90
        0
280
     0
281
     1
  0
CLASS
  1
HATCH
  2
AcDbHatch
  3
"ACAD_SEDONA"
 90
        0
280
     0
281
     1
  0
CLASS
  1
XRECORD
  2
AcDbXrecord
  3
"<Built In>"
 90
        0
280
     0
281
     0
  0
CLASS
  1
LONG_TRANSACTION
  2
AcDbLongTransaction
  3
AutoCAD 2000
 90
        0
280
     0
281
     0
  0
CLASS
  1
LWPOLYLINE
  2
AcDbPolyline
  3
"AutoCAD"
 90
        0
280
     0
281
     1
  0
CLASS
  1
HATCH
  2
AcDbHatch
  3
"ACAD_SEDONA"
 90
        0
280
     0
281
     1
  0
CLASS
  1
XRECORD
  2
AcDbXrecord
  3
"<Built In>"
 90
        0
280
     0
281
     0
  0
CLASS
  1
LONG_TRANSACTION
  2
AcDbLongTransaction
  3
AutoCAD 2000
 90
        0
280
     0
281
     0
  0
CLASS
  1
LWPOLYLINE
  2
AcDbPolyline
  3
"AutoCAD"
 90
        0
280
     0
281
     1
  0
CLASS
  1
HATCH
  2
AcDbHatch
  3
"ACAD_SEDONA"
 90
        0
280
     0
281
     1
  0
CLASS
  1
XRECORD
  2
AcDbXrecord
  3
"<Built In>"
 90
        0
280
     0
281
     0
  0
CLASS
  1
LONG_TRANSACTION
  2
AcDbLongTransaction
  3
AutoCAD 2000
 90
        0
280
     0
281
     0
  0
CLASS
  1
LWPOLYLINE
  2
AcDbPolyline
  3
"AutoCAD"
 90
        0
280
     0
281
     1
  0
CLASS
  1
HATCH
  2
AcDbHatch
  3
"ACAD_SEDONA"
 90
        0
280
     0
281
     1
  0
CLASS
  1
XRECORD
  2
AcDbXrecord
  3
"<Built In>"
 90
        0
280
     0
281
     0
  0
CLASS
  1
LONG_TRANSACTION
  2
AcDbLongTransaction
  3
AutoCAD 2000
 90
        0
280
     0
281
     0
  0
CLASS
  1
LWPOLYLINE
  2
AcDbPolyline
  3
"AutoCAD"
 90
        0
280
     0
281
     1
  0
CLASS
  1
HATCH
  2
AcDbHatch
  3
"ACAD_SEDONA"
 90
        0
280
     0
281
     1
  0
CLASS
  1
XRECORD
  2
AcDbXrecord
  3
"<Built In>"
 90
        0
280
     0
281
     0
  0
CLASS
  1
LONG_TRANSACTION
  2
AcDbLongTransaction
  3
AutoCAD 2000
 90
        0
280
     0
281
     0
  0
CLASS
  1
LWPOLYLINE
  2
AcDbPolyline
  3
"AutoCAD"
 90
        0
280
     0
281
     1
  0
CLASS
  1
HATCH
  2
AcDbHatch
  3
"ACAD_SEDONA"
 90
        0
280
     0
281
     1
  0
CLASS
  1
XRECORD
  2
AcDbXrecord
  3
"<Built In>"
 90
        0
280
     0
281
     0
  0
CLASS
  1
LONG_TRANSACTION
  2
AcDbLongTransaction
  3
AutoCAD 2000
 90
        0
280
     0
281
     0
  0
CLASS
  1
LWPOLYLINE
  2
AcDbPolyline
  3
"AutoCAD"
 90
        0
280
     0
281
     1
  0
CLASS
  1
HATCH
  2
AcDbHatch
  3
"ACAD_SEDONA"
 90
        0
280
     0
281
     1
  0
CLASS
  1
XRECORD
  2
AcDbXrecord
  3
"<Built In>"
 90
        0
280
     0
281
     0
  0
CLASS
  1
LONG_TRANSACTION
  2
AcDbLongTransaction
  3
AutoCAD 2000
 90
        0
280
     0
281
     0
  0
CLASS
  1
LWPOLYLINE
  2
AcDbPolyline
  3
"AutoCAD"
 90
        0
280
     0
281
     1
  0
CLASS
  1
HATCH
  2
AcDbHatch
  3
"ACAD_SEDONA"
 90
        0
280
     0
281
     1
  0
CLASS
  1
XRECORD
  2
AcDbXrecord
  3
"<Built In>"
 90
        0
280
     0
281
     0
  0
CLASS
  1
LONG_TRANSACTION
  2
AcDbLongTransaction
  3
AutoCAD 2000
 90
        0
280
     0
281
     0
  0
CLASS
  1
LWPOLYLINE
  2
AcDbPolyline
  3
"AutoCAD"
 90
        0
280
     0
281
     1
  0
CLASS
  1
HATCH
  2
AcDbHatch
  3
"ACAD_SEDONA"
 90
        0
280
     0
281
     1
  0
CLASS
  1
XRECORD
  2
AcDbXrecord
  3
"<Built In>"
 90
        0
280
     0
281
     0
  0
CLASS
  1
LONG_TRANSACTION
  2
AcDbLongTransaction
  3
AutoCAD 2000
 90
        0
280
     0
281
     0
  0
CLASS
  1
LWPOLYLINE
  2
AcDbPolyline
  3
"AutoCAD"
 90
        0
280
     0
281
     1
  0
CLASS
  1
HATCH
  2
AcDbHatch
  3
"ACAD_SEDONA"
 90
        0
280
     0
281
     1
  0
CLASS
  1
XRECORD
  2
AcDbXrecord
  3
"<Built In>"
 90
        0
280
     0
281
     0
  0
CLASS
  1
LONG_TRANSACTION
  2
AcDbLongTransaction
  3
AutoCAD 2000
 90
        0
280
     0
281
     0
  0
CLASS
  1
LWPOLYLINE
  2
AcDbPolyline
  3
"AutoCAD"
 90
        0
280
     0
281
     1
  0
CLASS
  1
HATCH
  2
AcDbHatch
  3
"ACAD_SEDONA"
 90
        0
280
     0
281
     1
  0
CLASS
  1
XRECORD
  2
AcDbXrecord
  3
"<Built In>"
 90
        0
280
     0
281
     0
  0
ENDSEC
  0
SECTION
  2
TABLES
  0
TABLE
  2
VPORT
  5
469
100
AcDbSymbolTable
 70
     1
  0
VPORT
  5
CFEF
102
{ACAD_XDICTIONARY
360
D028
102
}
100
AcDbSymbolTableRecord
100
AcDbViewportTableRecord
  2
*ACTIVE
 70
     0
 10
0.0
 20
0.0
 11
1.0
 21
1.0
 12
0.330024
 22
-1.501129
 13
0.0
 23
0.0
 14
1.0
 24
1.0
 15
0.0
 25
0.0
 16
0.0
 26
0.0
 36
1.0
 17
-0.084399
 27
0.843356
 37
0.0
 40
4.040894
 41
1.82218
 42
50.0
 43
0.0
 44
0.0
 50
0.0
 51
0.0
 71
     0
 72
   100
 73
     1
 74
     1
 75
     0
 76
     0
 77
     0
 78
     0
  0
ENDTAB
  0
TABLE
  2
LTYPE
  5
466
100
AcDbSymbolTable
 70
     1
  0
LTYPE
  5
472
100
AcDbSymbolTableRecord
100
AcDbLinetypeTableRecord
  2
BYBLOCK
 70
     0
  3

 72
    65
 73
     0
 40
0.0
  0
LTYPE
  5
473
100
AcDbSymbolTableRecord
100
AcDbLinetypeTableRecord
  2
BYLAYER
 70
     0
  3

 72
    65
 73
     0
 40
0.0
  0
LTYPE
  5
474
100
AcDbSymbolTableRecord
100
AcDbLinetypeTableRecord
  2
CONTINUOUS
 70
     0
  3
Solid line
 72
    65
 73
     0
 40
0.0
  0
ENDTAB
  0
TABLE
  2
LAYER
  5
463
100
AcDbSymbolTable
 70
     8
  0
LAYER
  5
46F
100
AcDbSymbolTableRecord
100
AcDbLayerTableRecord
  2
0
 70
     0
 62
     7
  6
CONTINUOUS
  0
LAYER
  5
485
100
AcDbSymbolTableRecord
100
AcDbLayerTableRecord
  2
AREA1
 70
     0
 62
     7
  6
CONTINUOUS
  0
LAYER
  5
486
100
AcDbSymbolTableRecord
100
AcDbLayerTableRecord
  2
AREA2
 70
     0
 62
     7
  6
CONTINUOUS
  0
LAYER
  5
494
102
{ACAD_XDICTIONARY
360
D055
102
}
100
AcDbSymbolTableRecord
100
AcDbLayerTableRecord
  2
DEFPOINTS
 70
     0
 62
    -7
  6
CONTINUOUS
  0
LAYER
  5
495
100
AcDbSymbolTableRecord
100
AcDbLayerTableRecord
  2
DIMS-MTG-HOLES
 70
     0
 62
    -1
  6
CONTINUOUS
  0
LAYER
  5
4E6
100
AcDbSymbolTableRecord
100
AcDbLayerTableRecord
  2
SCALE
 70
     0
 62
    -7
  6
CONTINUOUS
  0
LAYER
  5
4ED
100
AcDbSymbolTableRecord
100
AcDbLayerTableRecord
  2
SNAP_POINTS
 70
     0
 62
    -1
  6
CONTINUOUS
  0
LAYER
  5
4F1
100
AcDbSymbolTableRecord
100
AcDbLayerTableRecord
  2
ATTRIBUTES
 70
     0
 62
    -7
  6
CONTINUOUS
  0
ENDTAB
  0
TABLE
  2
STYLE
  5
464
100
AcDbSymbolTable
 70
     1
  0
STYLE
  5
470
100
AcDbSymbolTableRecord
100
AcDbTextStyleTableRecord
  2
STANDARD
 70
     0
 40
0.0
 41
1.0
 50
0.0
 71
     0
 42
0.2
  3
txt
  4

  0
ENDTAB
  0
TABLE
  2
VIEW
  5
467
100
AcDbSymbolTable
 70
     0
  0
ENDTAB
  0
TABLE
  2
UCS
  5
468
100
AcDbSymbolTable
 70
     0
  0
ENDTAB
  0
TABLE
  2
APPID
  5
46A
100
AcDbSymbolTable
 70
     2
  0
APPID
  5
471
100
AcDbSymbolTableRecord
100
AcDbRegAppTableRecord
  2
ACAD
 70
     0
  0
APPID
  5
47E
100
AcDbSymbolTableRecord
100
AcDbRegAppTableRecord
  2
AVE_RENDER
 70
     0
  0
ENDTAB
  0
TABLE
  2
DIMSTYLE
  5
46B
100
AcDbSymbolTable
 70
     2
  0
DIMSTYLE
105
49A
102
{ACAD_XDICTIONARY
360
D057
102
}
102
{ACAD_REACTORS
330
CFD9
102
}
100
AcDbSymbolTableRecord
100
AcDbDimStyleTableRecord
  2
ABECAD_3V
 70
     0
  3

  4

  5

  6

  7

 40
0.0
 41
0.18
 42
0.0625
 43
0.375
 44
0.18
 45
0.0
 46
0.0
 47
0.0
 48
0.0
140
0.13
141
0.09
142
0.0
143
25.4
144
1.0
145
0.0
146
1.5
147
0.09
 71
     0
 72
     0
 73
     0
 74
     1
 75
     0
 76
     0
 77
     0
 78
     4
170
     1
171
     2
172
     0
173
     0
174
     0
175
     0
176
     0
177
     0
178
     0
270
     7
271
     6
272
     6
273
     2
274
     2
340
470
275
     0
280
     0
281
     0
282
     0
283
     1
284
     4
285
     4
286
     4
287
     5
288
     1
  0
DIMSTYLE
105
512
102
{ACAD_XDICTIONARY
360
D05B
102
}
102
{ACAD_REACTORS
330
CF90
330
CF91
102
}
100
AcDbSymbolTableRecord
100
AcDbDimStyleTableRecord
  2
ABECAD_3D
 70
     0
  3

  4

  5

  6

  7

 40
1.0
 41
0.18
 42
0.0625
 43
0.375
 44
0.18
 45
0.0
 46
0.0
 47
0.0
 48
0.0
140
0.18
141
0.09
142
0.0
143
25.4
144
1.0
145
0.0
146
1.5
147
0.09
 71
     0
 72
     0
 73
     0
 74
     1
 75
     0
 76
     0
 77
     0
 78
     4
170
     1
171
     2
172
     0
173
     0
174
     0
175
     0
176
     0
177
     0
178
     0
270
     7
271
     6
272
     6
273
     2
274
     2
340
470
275
     0
280
     0
281
     0
282
     0
283
     1
284
     4
285
     4
286
     4
287
     5
288
     1
  0
ENDTAB
  0
TABLE
  2
BLOCK_RECORD
  5
462
100
AcDbSymbolTable
 70
     3
  0
BLOCK_RECORD
  5
478
102
{ACAD_XDICTIONARY
360
4D2
102
}
100
AcDbSymbolTableRecord
100
AcDbBlockTableRecord
  2
*MODEL_SPACE
  0
BLOCK_RECORD
  5
475
102
{ACAD_XDICTIONARY
360
4D0
102
}
100
AcDbSymbolTableRecord
100
AcDbBlockTableRecord
  2
*PAPER_SPACE
  0
BLOCK_RECORD
  5
CF9D
100
AcDbSymbolTableRecord
100
AcDbBlockTableRecord
  2
*D0
  0
BLOCK_RECORD
  5
CFA9
100
AcDbSymbolTableRecord
100
AcDbBlockTableRecord
  2
*D1
  0
BLOCK_RECORD
  5
CFDA
100
AcDbSymbolTableRecord
100
AcDbBlockTableRecord
  2
*D2
  0
ENDTAB
  0
ENDSEC
  0
SECTION
  2
BLOCKS
  0
BLOCK
  5
48B
100
AcDbEntity
  8
0
100
AcDbBlockBegin
  2
*MODEL_SPACE
 70
     0
 10
0.0
 20
0.0
 30
0.0
  3
*MODEL_SPACE
  1

  0
ENDBLK
  5
48C
100
AcDbEntity
  8
0
100
AcDbBlockEnd
  0
BLOCK
  5
489
100
AcDbEntity
 67
     1
  8
0
100
AcDbBlockBegin
  2
*PAPER_SPACE
 70
     0
 10
0.0
 20
0.0
 30
0.0
  3
*PAPER_SPACE
  1

  0
ENDBLK
  5
48A
100
AcDbEntity
 67
     1
  8
0
100
AcDbBlockEnd
  0
BLOCK
  5
CFA7
100
AcDbEntity
  8
0
100
AcDbBlockBegin
  2
*D0
 70
     1
 10
0.0
 20
0.0
 30
0.0
  3
*D0
  1

  0
LINE
  5
CFC7
100
AcDbEntity
  8
AREA1
 62
     0
100
AcDbLine
 10
0.4755
 20
0.45
 30
0.0
 11
-1.220485
 21
0.45
 31
0.0
1001
ACAD
1000
RTLwPs
1070
   158
  0
LINE
  5
CFC8
100
AcDbEntity
  8
AREA1
 62
     0
100
AcDbLine
 10
-0.0625
 20
-1.71
 30
0.0
 11
-1.220485
 21
-1.71
 31
0.0
1001
ACAD
1000
RTLwPs
1070
   158
  0
LINE
  5
CFC9
100
AcDbEntity
  8
AREA1
 62
     0
100
AcDbLine
 10
-1.040485
 20
0.27
 30
0.0
 11
-1.040485
 21
-1.53
 31
0.0
1001
ACAD
1000
RTLwPs
1070
   158
  0
MTEXT
  5
CFCA
100
AcDbEntity
  8
AREA1
 62
     0
100
AcDbMText
 10
-1.377923
 20
-0.635198
 30
0.0
 40
0.18
 41
0.0
 71
     5
 72
     1
  1
\A1;2 5/32 [54.86]
 11
0.0
 21
1.0
 31
0.0
1001
ACAD
1000
MTEXTBEGIN
1070
    73
1070
     1
1070
    44
1040
1.0
1070
    74
1070
     0
1000
MTEXTEND
1000
MTEXTBEGIN
1070
    73
1070
     1
1070
    44
1040
1.0
1070
    74
1070
     0
1000
MTEXTEND
  0
SOLID
  5
CFCB
100
AcDbEntity
  8
AREA1
 62
     0
100
AcDbTrace
 10
-1.070485
 20
0.27
 30
0.0
 11
-1.010485
 21
0.27
 31
0.0
 12
-1.040485
 22
0.45
 32
0.0
 13
-1.040485
 23
0.45
 33
0.0
  0
SOLID
  5
CFCC
100
AcDbEntity
  8
AREA1
 62
     0
100
AcDbTrace
 10
-1.070485
 20
-1.53
 30
0.0
 11
-1.010485
 21
-1.53
 31
0.0
 12
-1.040485
 22
-1.71
 32
0.0
 13
-1.040485
 23
-1.71
 33
0.0
  0
POINT
  5
CFCD
100
AcDbEntity
  8
DEFPOINTS
 62
     0
100
AcDbPoint
 10
0.538
 20
0.45
 30
0.0
  0
POINT
  5
CFCE
100
AcDbEntity
  8
DEFPOINTS
 62
     0
100
AcDbPoint
 10
0.0
 20
-1.71
 30
0.0
  0
POINT
  5
CFCF
100
AcDbEntity
  8
DEFPOINTS
 62
     0
100
AcDbPoint
 10
-1.040485
 20
-1.71
 30
0.0
  0
ENDBLK
  5
CFA8
100
AcDbEntity
  8
0
100
AcDbBlockEnd
  0
BLOCK
  5
CFB3
100
AcDbEntity
  8
0
100
AcDbBlockBegin
  2
*D1
 70
     1
 10
0.0
 20
0.0
 30
0.0
  3
*D1
  1

  0
LINE
  5
CFD0
100
AcDbEntity
  8
AREA1
 62
     0
100
AcDbLine
 10
-0.377
 20
-0.0275
 30
0.0
 11
-0.377
 21
1.088065
 31
0.0
1001
ACAD
1000
RTLwPs
1070
   158
  0
LINE
  5
CFD1
100
AcDbEntity
  8
AREA1
 62
     0
100
AcDbLine
 10
1.953
 20
-0.0275
 30
0.0
 11
1.953
 21
1.088065
 31
0.0
1001
ACAD
1000
RTLwPs
1070
   158
  0
LINE
  5
CFD2
100
AcDbEntity
  8
AREA1
 62
     0
100
AcDbLine
 10
-0.197
 20
0.908065
 30
0.0
 11
1.773
 21
0.908065
 31
0.0
1001
ACAD
1000
RTLwPs
1070
   158
  0
MTEXT
  5
CFD3
100
AcDbEntity
  8
AREA1
 62
     0
100
AcDbMText
 10
0.819174
 20
1.2498
 30
0.0
 40
0.18
 41
0.0
 71
     5
 72
     1
  1
\A1;2 21/64 [59.18]
1001
ACAD
1000
MTEXTBEGIN
1070
    73
1070
     1
1070
    44
1040
1.0
1070
    74
1070
     0
1000
MTEXTEND
1000
MTEXTBEGIN
1070
    73
1070
     1
1070
    44
1040
1.0
1070
    74
1070
     0
1000
MTEXTEND
  0
SOLID
  5
CFD4
100
AcDbEntity
  8
AREA1
 62
     0
100
AcDbTrace
 10
-0.197
 20
0.938065
 30
0.0
 11
-0.197
 21
0.878065
 31
0.0
 12
-0.377
 22
0.908065
 32
0.0
 13
-0.377
 23
0.908065
 33
0.0
  0
SOLID
  5
CFD5
100
AcDbEntity
  8
AREA1
 62
     0
100
AcDbTrace
 10
1.773
 20
0.938065
 30
0.0
 11
1.773
 21
0.878065
 31
0.0
 12
1.953
 22
0.908065
 32
0.0
 13
1.953
 23
0.908065
 33
0.0
  0
POINT
  5
CFD6
100
AcDbEntity
  8
DEFPOINTS
 62
     0
100
AcDbPoint
 10
-0.377
 20
-0.09
 30
0.187
  0
POINT
  5
CFD7
100
AcDbEntity
  8
DEFPOINTS
 62
     0
100
AcDbPoint
 10
1.953
 20
-0.09
 30
0.187
  0
POINT
  5
CFD8
100
AcDbEntity
  8
DEFPOINTS
 62
     0
100
AcDbPoint
 10
1.953
 20
0.908065
 30
0.0
  0
ENDBLK
  5
CFB4
100
AcDbEntity
  8
0
100
AcDbBlockEnd
  0
BLOCK
  5
CFE4
100
AcDbEntity
  8
0
100
AcDbBlockBegin
  2
*D2
 70
     1
 10
0.0
 20
0.0
 30
0.0
  3
*D2
  1

  0
LINE
  5
CFE6
100
AcDbEntity
  8
AREA2
 62
     0
100
AcDbLine
 10
0.7255
 20
0.97
 30
0.0
 11
-0.764003
 21
0.97
 31
0.0
1001
ACAD
1000
RTLwPs
1070
   158
  0
LINE
  5
CFE7
100
AcDbEntity
  8
AREA2
 62
     0
100
AcDbLine
 10
-0.0625
 20
0.0
 30
0.0
 11
-0.764003
 21
0.0
 31
0.0
1001
ACAD
1000
RTLwPs
1070
   158
  0
LINE
  5
CFE8
100
AcDbEntity
  8
AREA2
 62
     0
100
AcDbLine
 10
-0.584003
 20
0.79
 30
0.0
 11
-0.584003
 21
0.18
 31
0.0
1001
ACAD
1000
RTLwPs
1070
   158
  0
MTEXT
  5
CFE9
100
AcDbEntity
  8
AREA2
 62
     0
100
AcDbMText
 10
-0.887658
 20
0.555431
 30
0.0
 40
0.13
 41
0.0
 71
     5
 72
     1
  1
\A1;31/32 [24.64]
 11
0.0
 21
1.0
 31
0.0
1001
ACAD
1000
MTEXTBEGIN
1070
    73
1070
     1
1070
    44
1040
1.0
1070
    74
1070
     0
1000
MTEXTEND
1000
MTEXTBEGIN
1070
    73
1070
     1
1070
    44
1040
1.0
1070
    74
1070
     0
1000
MTEXTEND
  0
SOLID
  5
CFEA
100
AcDbEntity
  8
AREA2
 62
     0
100
AcDbTrace
 10
-0.614003
 20
0.79
 30
0.0
 11
-0.554003
 21
0.79
 31
0.0
 12
-0.584003
 22
0.97
 32
0.0
 13
-0.584003
 23
0.97
 33
0.0
  0
SOLID
  5
CFEB
100
AcDbEntity
  8
AREA2
 62
     0
100
AcDbTrace
 10
-0.614003
 20
0.18
 30
0.0
 11
-0.554003
 21
0.18
 31
0.0
 12
-0.584003
 22
0.0
 32
0.0
 13
-0.584003
 23
0.0
 33
0.0
  0
POINT
  5
CFEC
100
AcDbEntity
  8
DEFPOINTS
 62
     0
100
AcDbPoint
 10
0.788
 20
0.97
 30
0.69
  0
POINT
  5
CFED
100
AcDbEntity
  8
DEFPOINTS
 62
     0
100
AcDbPoint
 10
0.0
 20
0.0
 30
0.0
  0
POINT
  5
CFEE
100
AcDbEntity
  8
DEFPOINTS
 62
     0
100
AcDbPoint
 10
-0.584003
 20
0.0
 30
0.0
  0
ENDBLK
  5
CFE5
100
AcDbEntity
  8
0
100
AcDbBlockEnd
  0
ENDSEC
  0
SECTION
  2
ENTITIES
  0
ARC
  5
CEBB
100
AcDbEntity
  8
0
100
AcDbCircle
 10
0.788
 20
-0.69
 30
0.97
 40
0.1875
100
AcDbArc
 50
288.662979
 51
251.337067
  0
CIRCLE
  5
CEBC
100
AcDbEntity
  8
0
100
AcDbCircle
 10
0.788
 20
0.224508
 30
0.77
 40
0.054688
  0
CIRCLE
  5
CEBD
100
AcDbEntity
  8
0
100
AcDbCircle
 10
0.788
 20
-0.26
 30
0.97
 40
0.03
  0
LINE
  5
CEBE
100
AcDbEntity
  8
0
100
AcDbLine
 10
0.848
 20
-0.9975
 30
0.97
 11
0.728
 21
-0.9975
 31
0.97
  0
CIRCLE
  5
CEBF
100
AcDbEntity
  8
0
100
AcDbCircle
 10
1.7645
 20
-0.249344
 30
0.77
 40
0.054688
  0
CIRCLE
  5
CEC0
100
AcDbEntity
  8
0
100
AcDbCircle
 10
1.182
 20
0.12
 30
0.77
 40
0.054688
  0
CIRCLE
  5
CEC1
100
AcDbEntity
  8
0
100
AcDbCircle
 10
1.179142
 20
-0.511372
 30
0.97
 40
0.03
  0
CIRCLE
  5
CEC2
100
AcDbEntity
  8
0
100
AcDbCircle
 10
1.020476
 20
-0.328261
 30
0.97
 40
0.03
  0
CIRCLE
  5
CEC3
100
AcDbEntity
  8
0
100
AcDbCircle
 10
1.7645
 20
-1.130656
 30
0.77
 40
0.054688
  0
CIRCLE
  5
CEC4
100
AcDbEntity
  8
0
100
AcDbCircle
 10
1.213623
 20
-0.751196
 30
0.97
 40
0.03
  0
CIRCLE
  5
CEC5
100
AcDbEntity
  8
0
100
AcDbCircle
 10
1.112972
 20
-0.97159
 30
0.97
 40
0.03
  0
LINE
  5
CEC6
100
AcDbEntity
  8
0
100
AcDbLine
 10
0.848
 20
-0.867641
 30
0.97
 11
0.848
 21
-0.9975
 31
0.97
  0
CIRCLE
  5
CEC7
100
AcDbEntity
  8
0
100
AcDbCircle
 10
0.909145
 20
-1.102582
 30
0.97
 40
0.03
  0
CIRCLE
  5
CEC8
100
AcDbEntity
  8
0
100
AcDbCircle
 10
1.182
 20
-1.5
 30
0.77
 40
0.054688
  0
CIRCLE
  5
CEC9
100
AcDbEntity
  8
0
100
AcDbCircle
 10
0.897375
 20
-1.604508
 30
0.77
 40
0.054688
  0
CIRCLE
  5
CECA
100
AcDbEntity
  8
0
100
AcDbCircle
 10
0.393999
 20
0.12
 30
0.77
 40
0.054688
  0
CIRCLE
  5
CECB
100
AcDbEntity
  8
0
100
AcDbCircle
 10
0.396858
 20
-0.511371
 30
0.97
 40
0.03
  0
CIRCLE
  5
CECC
100
AcDbEntity
  8
0
100
AcDbCircle
 10
0.555524
 20
-0.328261
 30
0.97
 40
0.03
  0
CIRCLE
  5
CECD
100
AcDbEntity
  8
0
100
AcDbCircle
 10
-0.188501
 20
-0.249344
 30
0.77
 40
0.054688
  0
LINE
  5
CECE
100
AcDbEntity
  8
0
100
AcDbLine
 10
0.728
 20
-0.9975
 30
0.97
 11
0.728
 21
-0.867641
 31
0.97
  0
CIRCLE
  5
CECF
100
AcDbEntity
  8
0
100
AcDbCircle
 10
0.463028
 20
-0.97159
 30
0.97
 40
0.03
  0
CIRCLE
  5
CED0
100
AcDbEntity
  8
0
100
AcDbCircle
 10
0.666855
 20
-1.102582
 30
0.97
 40
0.03
  0
CIRCLE
  5
CED1
100
AcDbEntity
  8
0
100
AcDbCircle
 10
0.362377
 20
-0.751195
 30
0.97
 40
0.03
  0
CIRCLE
  5
CED2
100
AcDbEntity
  8
0
100
AcDbCircle
 10
0.393999
 20
-1.5
 30
0.77
 40
0.054688
  0
CIRCLE
  5
CED3
100
AcDbEntity
  8
0
100
AcDbCircle
 10
0.678625
 20
-1.604508
 30
0.77
 40
0.054688
  0
CIRCLE
  5
CED4
100
AcDbEntity
  8
0
100
AcDbCircle
 10
-0.188501
 20
-1.130656
 30
0.77
 40
0.054688
  0
TEXT
  5
CED5
100
AcDbEntity
  8
0
100
AcDbText
 10
0.886235
 20
-1.519399
 30
0.77
 40
0.12
  1
1
100
AcDbText
  0
TEXT
  5
CED6
100
AcDbEntity
  8
0
100
AcDbText
 10
1.140862
 20
-1.420916
 30
0.77
 40
0.12
  1
2
100
AcDbText
  0
TEXT
  5
CED7
100
AcDbEntity
  8
0
100
AcDbText
 10
1.72408
 20
-1.040512
 30
0.77
 40
0.12
  1
3
100
AcDbText
  0
TEXT
  5
CED8
100
AcDbEntity
  8
0
100
AcDbText
 10
1.7263
 20
-0.449954
 30
0.77
 40
0.12
  1
4
100
AcDbText
  0
TEXT
  5
CED9
100
AcDbEntity
  8
0
100
AcDbText
 10
1.141318
 20
-0.083691
 30
0.77
 40
0.12
  1
5
100
AcDbText
  0
TEXT
  5
CEDA
100
AcDbEntity
  8
0
100
AcDbText
 10
0.747402
 20
0.020072
 30
0.77
 40
0.12
  1
6
100
AcDbText
  0
TEXT
  5
CEDB
100
AcDbEntity
  8
0
100
AcDbText
 10
0.35012
 20
-0.086236
 30
0.77
 40
0.12
  1
7
100
AcDbText
  0
TEXT
  5
CEDC
100
AcDbEntity
  8
0
100
AcDbText
 10
-0.232701
 20
-0.440457
 30
0.77
 40
0.12
  1
8
100
AcDbText
  0
TEXT
  5
CEDD
100
AcDbEntity
  8
0
100
AcDbText
 10
-0.221998
 20
-1.054088
 30
0.77
 40
0.12
  1
9
100
AcDbText
  0
TEXT
  5
CEDE
100
AcDbEntity
  8
0
100
AcDbText
 10
0.321326
 20
-1.418349
 30
0.77
 40
0.12
  1
10
100
AcDbText
  0
TEXT
  5
CEDF
100
AcDbEntity
  8
0
100
AcDbText
 10
0.620644
 20
-1.523274
 30
0.77
 40
0.12
  1
11
100
AcDbText
  0
CIRCLE
  5
CEE0
100
AcDbEntity
  8
0
100
AcDbCircle
 39
0.2
 10
0.788
 20
-0.69
 30
0.77
 40
0.55
  0
POLYLINE
  5
CEE1
100
AcDbEntity
  8
0
100
AcDbPolygonMesh
 66
     1
 10
0.0
 20
0.0
 30
0.0
 70
    16
 71
     6
 72
     3
  0
VERTEX
  5
CEE2
100
AcDbEntity
  8
0
100
AcDbVertex
100
AcDbPolygonMeshVertex
 10
1.038
 20
0.33
 30
0.1
 70
    64
  0
VERTEX
  5
CEE3
100
AcDbEntity
  8
0
100
AcDbVertex
100
AcDbPolygonMeshVertex
 10
1.038
 20
0.33
 30
0.0
 70
    64
  0
VERTEX
  5
CEE4
100
AcDbEntity
  8
0
100
AcDbVertex
100
AcDbPolygonMeshVertex
 10
1.038
 20
0.33
 30
0.0
 70
    64
  0
VERTEX
  5
CEE5
100
AcDbEntity
  8
0
100
AcDbVertex
100
AcDbPolygonMeshVertex
 10
0.538
 20
0.33
 30
0.1
 70
    64
  0
VERTEX
  5
CEE6
100
AcDbEntity
  8
0
100
AcDbVertex
100
AcDbPolygonMeshVertex
 10
0.538
 20
0.33
 30
0.0
 70
    64
  0
VERTEX
  5
CEE7
100
AcDbEntity
  8
0
100
AcDbVertex
100
AcDbPolygonMeshVertex
 10
0.538
 20
0.33
 30
0.0
 70
    64
  0
VERTEX
  5
CEE8
100
AcDbEntity
  8
0
100
AcDbVertex
100
AcDbPolygonMeshVertex
 10
0.538
 20
0.45
 30
0.1
 70
    64
  0
VERTEX
  5
CEE9
100
AcDbEntity
  8
0
100
AcDbVertex
100
AcDbPolygonMeshVertex
 10
0.538
 20
0.45
 30
0.0
 70
    64
  0
VERTEX
  5
CEEA
100
AcDbEntity
  8
0
100
AcDbVertex
100
AcDbPolygonMeshVertex
 10
0.538
 20
0.33
 30
0.0
 70
    64
  0
VERTEX
  5
CEEB
100
AcDbEntity
  8
0
100
AcDbVertex
100
AcDbPolygonMeshVertex
 10
1.038
 20
0.45
 30
0.1
 70
    64
  0
VERTEX
  5
CEEC
100
AcDbEntity
  8
0
100
AcDbVertex
100
AcDbPolygonMeshVertex
 10
1.038
 20
0.45
 30
0.0
 70
    64
  0
VERTEX
  5
CEED
100
AcDbEntity
  8
0
100
AcDbVertex
100
AcDbPolygonMeshVertex
 10
1.038
 20
0.33
 30
0.0
 70
    64
  0
VERTEX
  5
CEEE
100
AcDbEntity
  8
0
100
AcDbVertex
100
AcDbPolygonMeshVertex
 10
1.038
 20
0.45
 30
0.1
 70
    64
  0
VERTEX
  5
CEEF
100
AcDbEntity
  8
0
100
AcDbVertex
100
AcDbPolygonMeshVertex
 10
1.038
 20
0.45
 30
0.1
 70
    64
  0
VERTEX
  5
CEF0
100
AcDbEntity
  8
0
100
AcDbVertex
100
AcDbPolygonMeshVertex
 10
1.038
 20
0.33
 30
0.1
 70
    64
  0
VERTEX
  5
CEF1
100
AcDbEntity
  8
0
100
AcDbVertex
100
AcDbPolygonMeshVertex
 10
0.538
 20
0.45
 30
0.1
 70
    64
  0
VERTEX
  5
CEF2
100
AcDbEntity
  8
0
100
AcDbVertex
100
AcDbPolygonMeshVertex
 10
0.538
 20
0.45
 30
0.1
 70
    64
  0
VERTEX
  5
CEF3
100
AcDbEntity
  8
0
100
AcDbVertex
100
AcDbPolygonMeshVertex
 10
0.538
 20
0.33
 30
0.1
 70
    64
  0
SEQEND
  5
CEF4
100
AcDbEntity
  8
0
  0
ATTDEF
  5
CEF5
100
AcDbEntity
  8
ATTRIBUTES
100
AcDbText
 10
0.024602
 20
0.145681
 30
0.0
 40
0.12
  1
ALLEN-BRADLEY
100
AcDbAttributeDefinition
  3
Manufacturer name
  2
AC_VND_LABEL
 70
     1
  0
ATTDEF
  5
CEF6
100
AcDbEntity
  8
ATTRIBUTES
100
AcDbText
 10
0.024602
 20
-0.034219
 30
0.0
 40
0.12
  1
700-HN126
100
AcDbAttributeDefinition
  3
Manufacturer part number
  2
AC_PART_NO
 70
     1
  0
ATTDEF
  5
CEF7
100
AcDbEntity
  8
ATTRIBUTES
100
AcDbText
 10
0.024602
 20
-0.214119
 30
0.0
 40
0.12
  1
CONTROL RELAY; GENERAL PURPOSE SOCKET; 11 PIN
100
AcDbAttributeDefinition
  3
Manufacturer part description
  2
AC_DESCRIPTION
 70
     1
  0
ATTDEF
  5
CEF8
100
AcDbEntity
  8
ATTRIBUTES
100
AcDbText
 10
0.024602
 20
-0.394019
 30
0.0
 40
0.12
  1

100
AcDbAttributeDefinition
  3
Device ID
  2
DEVICE_ID
 70
     1
  0
ATTDEF
  5
CEF9
100
AcDbEntity
  8
ATTRIBUTES
100
AcDbText
 10
0.024602
 20
-0.573919
 30
0.0
 40
0.12
  1

100
AcDbAttributeDefinition
  3
Customer part number
  2
AC_CPART_NO
 70
     1
  0
ATTDEF
  5
CEFA
100
AcDbEntity
  8
ATTRIBUTES
100
AcDbText
 10
0.024602
 20
-0.753819
 30
0.0
 40
0.12
  1

100
AcDbAttributeDefinition
  3
Customer note
  2
AC_NOTE
 70
     1
  0
ATTDEF
  5
CEFB
100
AcDbEntity
  8
ATTRIBUTES
100
AcDbText
 10
0.024602
 20
-0.933719
 30
0.0
 40
0.12
  1

100
AcDbAttributeDefinition
  3
Fastener Data
  2
FASTENER
 70
     1
  0
ATTDEF
  5
CEFC
100
AcDbEntity
  8
ATTRIBUTES
100
AcDbText
 10
0.024602
 20
-1.113619
 30
0.0
 40
0.12
  1
INCH
100
AcDbAttributeDefinition
  3
Unit of scale (meter, mm, or inch)
  2
AC_SCALE_UNIT
 70
     1
  0
ATTDEF
  5
CEFD
100
AcDbEntity
  8
ATTRIBUTES
100
AcDbText
 10
0.024602
 20
-1.293519
 30
0.0
 40
0.12
  1
0
100
AcDbAttributeDefinition
  3
View code (top, front, right, etc.)
  2
AC_VIEW_CODE
 70
     1
  0
POLYLINE
  5
CEFE
100
AcDbEntity
  8
0
100
AcDbPolygonMesh
 66
     1
 10
0.0
 20
0.0
 30
0.0
 70
    16
 71
     6
 72
     3
  0
VERTEX
  5
CEFF
100
AcDbEntity
  8
0
100
AcDbVertex
100
AcDbPolygonMeshVertex
 10
1.576
 20
-0.09
 30
0.77
 70
    64
  0
VERTEX
  5
CF00
100
AcDbEntity
  8
0
100
AcDbVertex
100
AcDbPolygonMeshVertex
 10
1.576
 20
-0.09
 30
0.187
 70
    64
  0
VERTEX
  5
CF01
100
AcDbEntity
  8
0
100
AcDbVertex
100
AcDbPolygonMeshVertex
 10
1.576
 20
-0.09
 30
0.187
 70
    64
  0
VERTEX
  5
CF02
100
AcDbEntity
  8
0
100
AcDbVertex
100
AcDbPolygonMeshVertex
 10
1.953
 20
-0.09
 30
0.77
 70
    64
  0
VERTEX
  5
CF03
100
AcDbEntity
  8
0
100
AcDbVertex
100
AcDbPolygonMeshVertex
 10
1.953
 20
-0.09
 30
0.187
 70
    64
  0
VERTEX
  5
CF04
100
AcDbEntity
  8
0
100
AcDbVertex
100
AcDbPolygonMeshVertex
 10
1.953
 20
-0.09
 30
0.187
 70
    64
  0
VERTEX
  5
CF05
100
AcDbEntity
  8
0
100
AcDbVertex
100
AcDbPolygonMeshVertex
 10
1.953
 20
-1.29
 30
0.77
 70
    64
  0
VERTEX
  5
CF06
100
AcDbEntity
  8
0
100
AcDbVertex
100
AcDbPolygonMeshVertex
 10
1.953
 20
-1.29
 30
0.187
 70
    64
  0
VERTEX
  5
CF07
100
AcDbEntity
  8
0
100
AcDbVertex
100
AcDbPolygonMeshVertex
 10
1.953
 20
-0.09
 30
0.187
 70
    64
  0
VERTEX
  5
CF08
100
AcDbEntity
  8
0
100
AcDbVertex
100
AcDbPolygonMeshVertex
 10
1.576
 20
-1.29
 30
0.77
 70
    64
  0
VERTEX
  5
CF09
100
AcDbEntity
  8
0
100
AcDbVertex
100
AcDbPolygonMeshVertex
 10
1.576
 20
-1.29
 30
0.187
 70
    64
  0
VERTEX
  5
CF0A
100
AcDbEntity
  8
0
100
AcDbVertex
100
AcDbPolygonMeshVertex
 10
1.576
 20
-0.09
 30
0.187
 70
    64
  0
VERTEX
  5
CF0B
100
AcDbEntity
  8
0
100
AcDbVertex
100
AcDbPolygonMeshVertex
 10
1.576
 20
-1.29
 30
0.77
 70
    64
  0
VERTEX
  5
CF0C
100
AcDbEntity
  8
0
100
AcDbVertex
100
AcDbPolygonMeshVertex
 10
1.576
 20
-1.29
 30
0.77
 70
    64
  0
VERTEX
  5
CF0D
100
AcDbEntity
  8
0
100
AcDbVertex
100
AcDbPolygonMeshVertex
 10
1.576
 20
-0.09
 30
0.77
 70
    64
  0
VERTEX
  5
CF0E
100
AcDbEntity
  8
0
100
AcDbVertex
100
AcDbPolygonMeshVertex
 10
1.953
 20
-1.29
 30
0.77
 70
    64
  0
VERTEX
  5
CF0F
100
AcDbEntity
  8
0
100
AcDbVertex
100
AcDbPolygonMeshVertex
 10
1.953
 20
-1.29
 30
0.77
 70
    64
  0
VERTEX
  5
CF10
100
AcDbEntity
  8
0
100
AcDbVertex
100
AcDbPolygonMeshVertex
 10
1.953
 20
-0.09
 30
0.77
 70
    64
  0
SEQEND
  5
CF11
100
AcDbEntity
  8
0
  0
POLYLINE
  5
CF12
100
AcDbEntity
  8
0
100
AcDbPolygonMesh
 66
     1
 10
0.0
 20
0.0
 30
0.0
 70
    16
 71
     6
 72
     3
  0
VERTEX
  5
CF13
100
AcDbEntity
  8
0
100
AcDbVertex
100
AcDbPolygonMeshVertex
 10
-0.377
 20
-0.09
 30
0.77
 70
    64
  0
VERTEX
  5
CF14
100
AcDbEntity
  8
0
100
AcDbVertex
100
AcDbPolygonMeshVertex
 10
-0.377
 20
-0.09
 30
0.187
 70
    64
  0
VERTEX
  5
CF15
100
AcDbEntity
  8
0
100
AcDbVertex
100
AcDbPolygonMeshVertex
 10
-0.377
 20
-0.09
 30
0.187
 70
    64
  0
VERTEX
  5
CF16
100
AcDbEntity
  8
0
100
AcDbVertex
100
AcDbPolygonMeshVertex
 10
0.0
 20
-0.09
 30
0.77
 70
    64
  0
VERTEX
  5
CF17
100
AcDbEntity
  8
0
100
AcDbVertex
100
AcDbPolygonMeshVertex
 10
0.0
 20
-0.09
 30
0.187
 70
    64
  0
VERTEX
  5
CF18
100
AcDbEntity
  8
0
100
AcDbVertex
100
AcDbPolygonMeshVertex
 10
0.0
 20
-0.09
 30
0.187
 70
    64
  0
VERTEX
  5
CF19
100
AcDbEntity
  8
0
100
AcDbVertex
100
AcDbPolygonMeshVertex
 10
0.0
 20
-1.29
 30
0.77
 70
    64
  0
VERTEX
  5
CF1A
100
AcDbEntity
  8
0
100
AcDbVertex
100
AcDbPolygonMeshVertex
 10
0.0
 20
-1.29
 30
0.187
 70
    64
  0
VERTEX
  5
CF1B
100
AcDbEntity
  8
0
100
AcDbVertex
100
AcDbPolygonMeshVertex
 10
0.0
 20
-0.09
 30
0.187
 70
    64
  0
VERTEX
  5
CF1C
100
AcDbEntity
  8
0
100
AcDbVertex
100
AcDbPolygonMeshVertex
 10
-0.377
 20
-1.29
 30
0.77
 70
    64
  0
VERTEX
  5
CF1D
100
AcDbEntity
  8
0
100
AcDbVertex
100
AcDbPolygonMeshVertex
 10
-0.377
 20
-1.29
 30
0.187
 70
    64
  0
VERTEX
  5
CF1E
100
AcDbEntity
  8
0
100
AcDbVertex
100
AcDbPolygonMeshVertex
 10
-0.377
 20
-0.09
 30
0.187
 70
    64
  0
VERTEX
  5
CF1F
100
AcDbEntity
  8
0
100
AcDbVertex
100
AcDbPolygonMeshVertex
 10
-0.377
 20
-1.29
 30
0.77
 70
    64
  0
VERTEX
  5
CF20
100
AcDbEntity
  8
0
100
AcDbVertex
100
AcDbPolygonMeshVertex
 10
-0.377
 20
-1.29
 30
0.77
 70
    64
  0
VERTEX
  5
CF21
100
AcDbEntity
  8
0
100
AcDbVertex
100
AcDbPolygonMeshVertex
 10
-0.377
 20
-0.09
 30
0.77
 70
    64
  0
VERTEX
  5
CF22
100
AcDbEntity
  8
0
100
AcDbVertex
100
AcDbPolygonMeshVertex
 10
0.0
 20
-1.29
 30
0.77
 70
    64
  0
VERTEX
  5
CF23
100
AcDbEntity
  8
0
100
AcDbVertex
100
AcDbPolygonMeshVertex
 10
0.0
 20
-1.29
 30
0.77
 70
    64
  0
VERTEX
  5
CF24
100
AcDbEntity
  8
0
100
AcDbVertex
100
AcDbPolygonMeshVertex
 10
0.0
 20
-0.09
 30
0.77
 70
    64
  0
SEQEND
  5
CF25
100
AcDbEntity
  8
0
  0
POLYLINE
  5
CF26
100
AcDbEntity
  8
0
100
AcDbPolygonMesh
 66
     1
 10
0.0
 20
0.0
 30
0.0
 70
    16
 71
     6
 72
     3
  0
VERTEX
  5
CF27
100
AcDbEntity
  8
0
100
AcDbVertex
100
AcDbPolygonMeshVertex
 10
1.576
 20
-1.71
 30
0.187
 70
    64
  0
VERTEX
  5
CF28
100
AcDbEntity
  8
0
100
AcDbVertex
100
AcDbPolygonMeshVertex
 10
1.576
 20
-1.71
 30
0.0
 70
    64
  0
VERTEX
  5
CF29
100
AcDbEntity
  8
0
100
AcDbVertex
100
AcDbPolygonMeshVertex
 10
1.576
 20
-1.71
 30
0.0
 70
    64
  0
VERTEX
  5
CF2A
100
AcDbEntity
  8
0
100
AcDbVertex
100
AcDbPolygonMeshVertex
 10
0.0
 20
-1.71
 30
0.187
 70
    64
  0
VERTEX
  5
CF2B
100
AcDbEntity
  8
0
100
AcDbVertex
100
AcDbPolygonMeshVertex
 10
0.0
 20
-1.71
 30
0.0
 70
    64
  0
VERTEX
  5
CF2C
100
AcDbEntity
  8
0
100
AcDbVertex
100
AcDbPolygonMeshVertex
 10
0.0
 20
-1.71
 30
0.0
 70
    64
  0
VERTEX
  5
CF2D
100
AcDbEntity
  8
0
100
AcDbVertex
100
AcDbPolygonMeshVertex
 10
0.0
 20
-1.38
 30
0.187
 70
    64
  0
VERTEX
  5
CF2E
100
AcDbEntity
  8
0
100
AcDbVertex
100
AcDbPolygonMeshVertex
 10
0.0
 20
-1.38
 30
0.0
 70
    64
  0
VERTEX
  5
CF2F
100
AcDbEntity
  8
0
100
AcDbVertex
100
AcDbPolygonMeshVertex
 10
0.0
 20
-1.71
 30
0.0
 70
    64
  0
VERTEX
  5
CF30
100
AcDbEntity
  8
0
100
AcDbVertex
100
AcDbPolygonMeshVertex
 10
1.576
 20
-1.38
 30
0.187
 70
    64
  0
VERTEX
  5
CF31
100
AcDbEntity
  8
0
100
AcDbVertex
100
AcDbPolygonMeshVertex
 10
1.576
 20
-1.38
 30
0.0
 70
    64
  0
VERTEX
  5
CF32
100
AcDbEntity
  8
0
100
AcDbVertex
100
AcDbPolygonMeshVertex
 10
1.576
 20
-1.71
 30
0.0
 70
    64
  0
VERTEX
  5
CF33
100
AcDbEntity
  8
0
100
AcDbVertex
100
AcDbPolygonMeshVertex
 10
1.576
 20
-1.38
 30
0.187
 70
    64
  0
VERTEX
  5
CF34
100
AcDbEntity
  8
0
100
AcDbVertex
100
AcDbPolygonMeshVertex
 10
1.576
 20
-1.38
 30
0.187
 70
    64
  0
VERTEX
  5
CF35
100
AcDbEntity
  8
0
100
AcDbVertex
100
AcDbPolygonMeshVertex
 10
1.576
 20
-1.71
 30
0.187
 70
    64
  0
VERTEX
  5
CF36
100
AcDbEntity
  8
0
100
AcDbVertex
100
AcDbPolygonMeshVertex
 10
0.0
 20
-1.38
 30
0.187
 70
    64
  0
VERTEX
  5
CF37
100
AcDbEntity
  8
0
100
AcDbVertex
100
AcDbPolygonMeshVertex
 10
0.0
 20
-1.38
 30
0.187
 70
    64
  0
VERTEX
  5
CF38
100
AcDbEntity
  8
0
100
AcDbVertex
100
AcDbPolygonMeshVertex
 10
0.0
 20
-1.71
 30
0.187
 70
    64
  0
SEQEND
  5
CF39
100
AcDbEntity
  8
0
  0
POLYLINE
  5
CF3A
100
AcDbEntity
  8
0
100
AcDbPolygonMesh
 66
     1
 10
0.0
 20
0.0
 30
0.0
 70
    16
 71
     6
 72
     3
  0
VERTEX
  5
CF3B
100
AcDbEntity
  8
0
100
AcDbVertex
100
AcDbPolygonMeshVertex
 10
1.576
 20
-1.71
 30
0.77
 70
    64
  0
VERTEX
  5
CF3C
100
AcDbEntity
  8
0
100
AcDbVertex
100
AcDbPolygonMeshVertex
 10
1.576
 20
-1.71
 30
0.187
 70
    64
  0
VERTEX
  5
CF3D
100
AcDbEntity
  8
0
100
AcDbVertex
100
AcDbPolygonMeshVertex
 10
1.576
 20
-1.71
 30
0.187
 70
    64
  0
VERTEX
  5
CF3E
100
AcDbEntity
  8
0
100
AcDbVertex
100
AcDbPolygonMeshVertex
 10
0.0
 20
-1.71
 30
0.77
 70
    64
  0
VERTEX
  5
CF3F
100
AcDbEntity
  8
0
100
AcDbVertex
100
AcDbPolygonMeshVertex
 10
0.0
 20
-1.71
 30
0.187
 70
    64
  0
VERTEX
  5
CF40
100
AcDbEntity
  8
0
100
AcDbVertex
100
AcDbPolygonMeshVertex
 10
0.0
 20
-1.71
 30
0.187
 70
    64
  0
VERTEX
  5
CF41
100
AcDbEntity
  8
0
100
AcDbVertex
100
AcDbPolygonMeshVertex
 10
0.0
 20
-1.29
 30
0.77
 70
    64
  0
VERTEX
  5
CF42
100
AcDbEntity
  8
0
100
AcDbVertex
100
AcDbPolygonMeshVertex
 10
0.0
 20
-1.29
 30
0.187
 70
    64
  0
VERTEX
  5
CF43
100
AcDbEntity
  8
0
100
AcDbVertex
100
AcDbPolygonMeshVertex
 10
0.0
 20
-1.71
 30
0.187
 70
    64
  0
VERTEX
  5
CF44
100
AcDbEntity
  8
0
100
AcDbVertex
100
AcDbPolygonMeshVertex
 10
1.576
 20
-1.29
 30
0.77
 70
    64
  0
VERTEX
  5
CF45
100
AcDbEntity
  8
0
100
AcDbVertex
100
AcDbPolygonMeshVertex
 10
1.576
 20
-1.29
 30
0.187
 70
    64
  0
VERTEX
  5
CF46
100
AcDbEntity
  8
0
100
AcDbVertex
100
AcDbPolygonMeshVertex
 10
1.576
 20
-1.71
 30
0.187
 70
    64
  0
VERTEX
  5
CF47
100
AcDbEntity
  8
0
100
AcDbVertex
100
AcDbPolygonMeshVertex
 10
1.576
 20
-1.29
 30
0.77
 70
    64
  0
VERTEX
  5
CF48
100
AcDbEntity
  8
0
100
AcDbVertex
100
AcDbPolygonMeshVertex
 10
1.576
 20
-1.29
 30
0.77
 70
    64
  0
VERTEX
  5
CF49
100
AcDbEntity
  8
0
100
AcDbVertex
100
AcDbPolygonMeshVertex
 10
1.576
 20
-1.71
 30
0.77
 70
    64
  0
VERTEX
  5
CF4A
100
AcDbEntity
  8
0
100
AcDbVertex
100
AcDbPolygonMeshVertex
 10
0.0
 20
-1.29
 30
0.77
 70
    64
  0
VERTEX
  5
CF4B
100
AcDbEntity
  8
0
100
AcDbVertex
100
AcDbPolygonMeshVertex
 10
0.0
 20
-1.29
 30
0.77
 70
    64
  0
VERTEX
  5
CF4C
100
AcDbEntity
  8
0
100
AcDbVertex
100
AcDbPolygonMeshVertex
 10
0.0
 20
-1.71
 30
0.77
 70
    64
  0
SEQEND
  5
CF4D
100
AcDbEntity
  8
0
  0
POLYLINE
  5
CF4E
100
AcDbEntity
  8
0
100
AcDbPolygonMesh
 66
     1
 10
0.0
 20
0.0
 30
0.0
 70
    16
 71
     6
 72
     3
  0
VERTEX
  5
CF4F
100
AcDbEntity
  8
0
100
AcDbVertex
100
AcDbPolygonMeshVertex
 10
1.576
 20
-1.29
 30
0.77
 70
    64
  0
VERTEX
  5
CF50
100
AcDbEntity
  8
0
100
AcDbVertex
100
AcDbPolygonMeshVertex
 10
1.576
 20
-1.29
 30
0.187
 70
    64
  0
VERTEX
  5
CF51
100
AcDbEntity
  8
0
100
AcDbVertex
100
AcDbPolygonMeshVertex
 10
1.576
 20
-1.29
 30
0.187
 70
    64
  0
VERTEX
  5
CF52
100
AcDbEntity
  8
0
100
AcDbVertex
100
AcDbPolygonMeshVertex
 10
0.0
 20
-1.29
 30
0.77
 70
    64
  0
VERTEX
  5
CF53
100
AcDbEntity
  8
0
100
AcDbVertex
100
AcDbPolygonMeshVertex
 10
0.0
 20
-1.29
 30
0.187
 70
    64
  0
VERTEX
  5
CF54
100
AcDbEntity
  8
0
100
AcDbVertex
100
AcDbPolygonMeshVertex
 10
0.0
 20
-1.29
 30
0.187
 70
    64
  0
VERTEX
  5
CF55
100
AcDbEntity
  8
0
100
AcDbVertex
100
AcDbPolygonMeshVertex
 10
0.0
 20
-0.09
 30
0.77
 70
    64
  0
VERTEX
  5
CF56
100
AcDbEntity
  8
0
100
AcDbVertex
100
AcDbPolygonMeshVertex
 10
0.0
 20
-0.09
 30
0.187
 70
    64
  0
VERTEX
  5
CF57
100
AcDbEntity
  8
0
100
AcDbVertex
100
AcDbPolygonMeshVertex
 10
0.0
 20
-1.29
 30
0.187
 70
    64
  0
VERTEX
  5
CF58
100
AcDbEntity
  8
0
100
AcDbVertex
100
AcDbPolygonMeshVertex
 10
1.576
 20
-0.09
 30
0.77
 70
    64
  0
VERTEX
  5
CF59
100
AcDbEntity
  8
0
100
AcDbVertex
100
AcDbPolygonMeshVertex
 10
1.576
 20
-0.09
 30
0.187
 70
    64
  0
VERTEX
  5
CF5A
100
AcDbEntity
  8
0
100
AcDbVertex
100
AcDbPolygonMeshVertex
 10
1.576
 20
-1.29
 30
0.187
 70
    64
  0
VERTEX
  5
CF5B
100
AcDbEntity
  8
0
100
AcDbVertex
100
AcDbPolygonMeshVertex
 10
1.576
 20
-0.09
 30
0.77
 70
    64
  0
VERTEX
  5
CF5C
100
AcDbEntity
  8
0
100
AcDbVertex
100
AcDbPolygonMeshVertex
 10
1.576
 20
-0.09
 30
0.77
 70
    64
  0
VERTEX
  5
CF5D
100
AcDbEntity
  8
0
100
AcDbVertex
100
AcDbPolygonMeshVertex
 10
1.576
 20
-1.29
 30
0.77
 70
    64
  0
VERTEX
  5
CF5E
100
AcDbEntity
  8
0
100
AcDbVertex
100
AcDbPolygonMeshVertex
 10
0.0
 20
-0.09
 30
0.77
 70
    64
  0
VERTEX
  5
CF5F
100
AcDbEntity
  8
0
100
AcDbVertex
100
AcDbPolygonMeshVertex
 10
0.0
 20
-0.09
 30
0.77
 70
    64
  0
VERTEX
  5
CF60
100
AcDbEntity
  8
0
100
AcDbVertex
100
AcDbPolygonMeshVertex
 10
0.0
 20
-1.29
 30
0.77
 70
    64
  0
SEQEND
  5
CF61
100
AcDbEntity
  8
0
  0
POLYLINE
  5
CF62
100
AcDbEntity
  8
0
100
AcDbPolygonMesh
 66
     1
 10
0.0
 20
0.0
 30
0.0
 70
    16
 71
     6
 72
     3
  0
VERTEX
  5
CF63
100
AcDbEntity
  8
0
100
AcDbVertex
100
AcDbPolygonMeshVertex
 10
1.576
 20
0.0
 30
0.187
 70
    64
  0
VERTEX
  5
CF64
100
AcDbEntity
  8
0
100
AcDbVertex
100
AcDbPolygonMeshVertex
 10
1.576
 20
0.0
 30
0.0
 70
    64
  0
VERTEX
  5
CF65
100
AcDbEntity
  8
0
100
AcDbVertex
100
AcDbPolygonMeshVertex
 10
1.576
 20
0.0
 30
0.0
 70
    64
  0
VERTEX
  5
CF66
100
AcDbEntity
  8
0
100
AcDbVertex
100
AcDbPolygonMeshVertex
 10
0.0
 20
0.0
 30
0.187
 70
    64
  0
VERTEX
  5
CF67
100
AcDbEntity
  8
0
100
AcDbVertex
100
AcDbPolygonMeshVertex
 10
0.0
 20
0.0
 30
0.0
 70
    64
  0
VERTEX
  5
CF68
100
AcDbEntity
  8
0
100
AcDbVertex
100
AcDbPolygonMeshVertex
 10
0.0
 20
0.0
 30
0.0
 70
    64
  0
VERTEX
  5
CF69
100
AcDbEntity
  8
0
100
AcDbVertex
100
AcDbPolygonMeshVertex
 10
0.0
 20
0.33
 30
0.187
 70
    64
  0
VERTEX
  5
CF6A
100
AcDbEntity
  8
0
100
AcDbVertex
100
AcDbPolygonMeshVertex
 10
0.0
 20
0.33
 30
0.0
 70
    64
  0
VERTEX
  5
CF6B
100
AcDbEntity
  8
0
100
AcDbVertex
100
AcDbPolygonMeshVertex
 10
0.0
 20
0.0
 30
0.0
 70
    64
  0
VERTEX
  5
CF6C
100
AcDbEntity
  8
0
100
AcDbVertex
100
AcDbPolygonMeshVertex
 10
1.576
 20
0.33
 30
0.187
 70
    64
  0
VERTEX
  5
CF6D
100
AcDbEntity
  8
0
100
AcDbVertex
100
AcDbPolygonMeshVertex
 10
1.576
 20
0.33
 30
0.0
 70
    64
  0
VERTEX
  5
CF6E
100
AcDbEntity
  8
0
100
AcDbVertex
100
AcDbPolygonMeshVertex
 10
1.576
 20
0.0
 30
0.0
 70
    64
  0
VERTEX
  5
CF6F
100
AcDbEntity
  8
0
100
AcDbVertex
100
AcDbPolygonMeshVertex
 10
1.576
 20
0.33
 30
0.187
 70
    64
  0
VERTEX
  5
CF70
100
AcDbEntity
  8
0
100
AcDbVertex
100
AcDbPolygonMeshVertex
 10
1.576
 20
0.33
 30
0.187
 70
    64
  0
VERTEX
  5
CF71
100
AcDbEntity
  8
0
100
AcDbVertex
100
AcDbPolygonMeshVertex
 10
1.576
 20
0.0
 30
0.187
 70
    64
  0
VERTEX
  5
CF72
100
AcDbEntity
  8
0
100
AcDbVertex
100
AcDbPolygonMeshVertex
 10
0.0
 20
0.33
 30
0.187
 70
    64
  0
VERTEX
  5
CF73
100
AcDbEntity
  8
0
100
AcDbVertex
100
AcDbPolygonMeshVertex
 10
0.0
 20
0.33
 30
0.187
 70
    64
  0
VERTEX
  5
CF74
100
AcDbEntity
  8
0
100
AcDbVertex
100
AcDbPolygonMeshVertex
 10
0.0
 20
0.0
 30
0.187
 70
    64
  0
SEQEND
  5
CF75
100
AcDbEntity
  8
0
  0
POLYLINE
  5
CF76
100
AcDbEntity
  8
0
100
AcDbPolygonMesh
 66
     1
 10
0.0
 20
0.0
 30
0.0
 70
    16
 71
     6
 72
     3
  0
VERTEX
  5
CF77
100
AcDbEntity
  8
0
100
AcDbVertex
100
AcDbPolygonMeshVertex
 10
1.576
 20
-0.09
 30
0.77
 70
    64
  0
VERTEX
  5
CF78
100
AcDbEntity
  8
0
100
AcDbVertex
100
AcDbPolygonMeshVertex
 10
1.576
 20
-0.09
 30
0.187
 70
    64
  0
VERTEX
  5
CF79
100
AcDbEntity
  8
0
100
AcDbVertex
100
AcDbPolygonMeshVertex
 10
1.576
 20
-0.09
 30
0.187
 70
    64
  0
VERTEX
  5
CF7A
100
AcDbEntity
  8
0
100
AcDbVertex
100
AcDbPolygonMeshVertex
 10
0.0
 20
-0.09
 30
0.77
 70
    64
  0
VERTEX
  5
CF7B
100
AcDbEntity
  8
0
100
AcDbVertex
100
AcDbPolygonMeshVertex
 10
0.0
 20
-0.09
 30
0.187
 70
    64
  0
VERTEX
  5
CF7C
100
AcDbEntity
  8
0
100
AcDbVertex
100
AcDbPolygonMeshVertex
 10
0.0
 20
-0.09
 30
0.187
 70
    64
  0
VERTEX
  5
CF7D
100
AcDbEntity
  8
0
100
AcDbVertex
100
AcDbPolygonMeshVertex
 10
0.0
 20
0.33
 30
0.77
 70
    64
  0
VERTEX
  5
CF7E
100
AcDbEntity
  8
0
100
AcDbVertex
100
AcDbPolygonMeshVertex
 10
0.0
 20
0.33
 30
0.187
 70
    64
  0
VERTEX
  5
CF7F
100
AcDbEntity
  8
0
100
AcDbVertex
100
AcDbPolygonMeshVertex
 10
0.0
 20
-0.09
 30
0.187
 70
    64
  0
VERTEX
  5
CF80
100
AcDbEntity
  8
0
100
AcDbVertex
100
AcDbPolygonMeshVertex
 10
1.576
 20
0.33
 30
0.77
 70
    64
  0
VERTEX
  5
CF81
100
AcDbEntity
  8
0
100
AcDbVertex
100
AcDbPolygonMeshVertex
 10
1.576
 20
0.33
 30
0.187
 70
    64
  0
VERTEX
  5
CF82
100
AcDbEntity
  8
0
100
AcDbVertex
100
AcDbPolygonMeshVertex
 10
1.576
 20
-0.09
 30
0.187
 70
    64
  0
VERTEX
  5
CF83
100
AcDbEntity
  8
0
100
AcDbVertex
100
AcDbPolygonMeshVertex
 10
1.576
 20
0.33
 30
0.77
 70
    64
  0
VERTEX
  5
CF84
100
AcDbEntity
  8
0
100
AcDbVertex
100
AcDbPolygonMeshVertex
 10
1.576
 20
0.33
 30
0.77
 70
    64
  0
VERTEX
  5
CF85
100
AcDbEntity
  8
0
100
AcDbVertex
100
AcDbPolygonMeshVertex
 10
1.576
 20
-0.09
 30
0.77
 70
    64
  0
VERTEX
  5
CF86
100
AcDbEntity
  8
0
100
AcDbVertex
100
AcDbPolygonMeshVertex
 10
0.0
 20
0.33
 30
0.77
 70
    64
  0
VERTEX
  5
CF87
100
AcDbEntity
  8
0
100
AcDbVertex
100
AcDbPolygonMeshVertex
 10
0.0
 20
0.33
 30
0.77
 70
    64
  0
VERTEX
  5
CF88
100
AcDbEntity
  8
0
100
AcDbVertex
100
AcDbPolygonMeshVertex
 10
0.0
 20
-0.09
 30
0.77
 70
    64
  0
SEQEND
  5
CF89
100
AcDbEntity
  8
0
  0
POINT
  5
CF8A
100
AcDbEntity
  8
DIMS-MTG-HOLES
100
AcDbPoint
 10
0.0
 20
0.0
 30
0.0
  0
POINT
  5
CF8B
100
AcDbEntity
  8
DIMS-MTG-HOLES
100
AcDbPoint
 10
0.788
 20
-0.69
 30
0.97
  0
POINT
  5
CF8C
100
AcDbEntity
  8
DIMS-MTG-HOLES
100
AcDbPoint
 10
-0.242
 20
-0.69
 30
0.0
  0
POINT
  5
CF8D
100
AcDbEntity
  8
DIMS-MTG-HOLES
100
AcDbPoint
 10
1.818
 20
-0.69
 30
0.0
  0
CIRCLE
  5
CF8E
100
AcDbEntity
  8
0
100
AcDbCircle
 10
-0.245
 20
-0.69
 30
0.77
 40
0.08
  0
CIRCLE
  5
CF8F
100
AcDbEntity
  8
0
100
AcDbCircle
 10
1.818
 20
-0.69
 30
0.77
 40
0.08
  0
DIMENSION
  5
CF90
100
AcDbEntity
  8
AREA1
100
AcDbDimension
  2
*D0
 10
-1.040485
 20
-1.71
 30
0.0
 11
-1.377923
 21
-0.635198
 31
0.0
 70
   160
  3
ABECAD_3D
100
AcDbAlignedDimension
 13
0.538
 23
0.45
 33
0.0
 14
0.0
 24
-1.71
 34
0.0
 50
90.0
100
AcDbRotatedDimension
  0
DIMENSION
  5
CF91
100
AcDbEntity
  8
AREA1
100
AcDbDimension
  2
*D1
 10
1.953
 20
0.908065
 30
0.0
 11
0.819174
 21
1.2498
 31
0.0
 70
   160
  3
ABECAD_3D
100
AcDbAlignedDimension
 13
-0.377
 23
-0.09
 33
0.187
 14
1.953
 24
-0.09
 34
0.187
100
AcDbRotatedDimension
  0
LWPOLYLINE
  5
CF92
100
AcDbEntity
  8
SCALE
100
AcDbPolyline
 90
        4
 70
     1
 43
0.0
 10
0.184835
 20
-1.813738
 10
1.320463
 20
-1.813738
 10
1.320463
 20
-2.655348
 10
0.184835
 20
-2.655348
  0
LINE
  5
CF93
100
AcDbEntity
  8
SCALE
100
AcDbLine
 10
0.242833
 20
-2.193817
 30
0.0
 11
1.242833
 21
-2.193817
 31
0.0
  0
LINE
  5
CF94
100
AcDbEntity
  8
SCALE
100
AcDbLine
 10
0.242833
 20
-2.493817
 30
0.0
 11
0.636533
 21
-2.493817
 31
0.0
  0
LINE
  5
CF95
100
AcDbEntity
  8
SCALE
100
AcDbLine
 10
0.242833
 20
-2.293817
 30
0.0
 11
0.242833
 21
-2.093817
 31
0.0
  0
TEXT
  5
CF96
100
AcDbEntity
  8
SCALE
100
AcDbText
 10
0.298809
 20
-2.446132
 30
0.0
 40
0.0625
  1
[10mm]
100
AcDbText
  0
LINE
  5
CF97
100
AcDbEntity
  8
SCALE
100
AcDbLine
 10
0.242833
 20
-2.593817
 30
0.0
 11
0.242833
 21
-2.393817
 31
0.0
  0
TEXT
  5
CF98
100
AcDbEntity
  8
SCALE
100
AcDbText
 10
0.244364
 20
-1.91894
 30
0.0
 40
0.0625
  1
SCALE:
100
AcDbText
  0
LINE
  5
CF99
100
AcDbEntity
  8
SCALE
100
AcDbLine
 10
0.636533
 20
-2.593817
 30
0.0
 11
0.636533
 21
-2.393817
 31
0.0
  0
TEXT
  5
CF9A
100
AcDbEntity
  8
SCALE
100
AcDbText
 10
0.606116
 20
-2.124768
 30
0.0
 40
0.0625
  1
1 Inch
100
AcDbText
  0
LINE
  5
CF9B
100
AcDbEntity
  8
SCALE
100
AcDbLine
 10
1.242833
 20
-2.193817
 30
0.0
 11
1.242833
 21
-2.293817
 31
0.0
  0
LINE
  5
CF9C
100
AcDbEntity
  8
SCALE
100
AcDbLine
 10
1.242833
 20
-2.293817
 30
0.0
 11
1.242833
 21
-2.093817
 31
0.0
  0
DIMENSION
  5
CFD9
100
AcDbEntity
  8
AREA2
100
AcDbDimension
  2
*D2
 10
-0.584003
 20
0.0
 30
0.0
 11
-0.887658
 21
0.555431
 31
0.0
 70
   160
210
0.0
220
-1.0
230
0.0
  3
ABECAD_3V
100
AcDbAlignedDimension
 13
0.788
 23
-0.69
 33
0.97
 14
0.0
 24
0.0
 34
0.0
 50
90.0
100
AcDbRotatedDimension
1001
ACAD
1000
DSTYLE
1002
{
1070
    40
1040
1.0
1002
}
  0
VIEWPORT
  5
2C
102
{ACAD_XDICTIONARY
360
D04B
102
}
100
AcDbEntity
 67
     1
  8
0
100
AcDbViewport
 10
6.178018
 20
3.82141
 30
0.0
 40
12.730094
 41
8.016695
 68
     1
 69
     1
1001
ACAD
1000
MVIEW
1002
{
1070
    16
1010
0.0
1020
0.0
1030
0.0
1010
0.0
1020
0.0
1030
1.0
1040
0.0
1040
8.016695
1040
6.178018
1040
3.82141
1040
50.0
1040
0.0
1040
0.0
1070
     0
1070
   100
1070
     1
1070
     1
1070
     0
1070
     0
1070
     0
1070
     0
1040
0.0
1040
0.0
1040
0.0
1040
1.0
1040
1.0
1040
0.0
1040
0.0
1070
     0
1002
{
1002
}
1002
}
  0
VIEWPORT
  5
2D
102
{ACAD_XDICTIONARY
360
D04D
102
}
100
AcDbEntity
 67
     1
  8
0
100
AcDbViewport
 10
2.5
 20
5.625
 30
0.0
 40
5.0
 41
3.75
 68
     4
 69
     2
1001
ACAD
1000
MVIEW
1002
{
1070
    16
1010
0.0
1020
0.0
1030
0.0
1010
0.0
1020
0.0
1030
1.0
1040
0.0
1040
4.103674
1040
0.32949
1040
-0.336353
1040
50.0
1040
0.0
1040
0.0
1070
     0
1070
   100
1070
     1
1070
     0
1070
     0
1070
     0
1070
     0
1070
     0
1040
0.0
1040
0.0
1040
0.0
1040
1.0
1040
1.0
1040
0.0
1040
0.0
1070
     0
1002
{
1003
AREA2
1002
}
1002
}
  0
VIEWPORT
  5
2E
102
{ACAD_XDICTIONARY
360
D04F
102
}
100
AcDbEntity
 67
     1
  8
0
100
AcDbViewport
 10
2.5
 20
1.875
 30
0.0
 40
5.0
 41
3.75
 68
     3
 69
     3
1001
ACAD
1000
MVIEW
1002
{
1070
    16
1010
0.0
1020
0.0
1030
0.0
1010
0.0
1020
-1.0
1030
0.0
1040
0.0
1040
3.856565
1040
0.312757
1040
0.490088
1040
50.0
1040
0.0
1040
0.0
1070
     0
1070
   100
1070
     1
1070
     0
1070
     0
1070
     0
1070
     0
1070
     0
1040
0.0
1040
0.0
1040
0.0
1040
1.0
1040
1.0
1040
0.0
1040
0.0
1070
     0
1002
{
1003
AREA1
1002
}
1002
}
  0
VIEWPORT
  5
2F
102
{ACAD_XDICTIONARY
360
D051
102
}
100
AcDbEntity
 67
     1
  8
0
100
AcDbViewport
 10
7.5
 20
3.75
 30
0.0
 40
5.0
 41
7.5
 68
     2
 69
     4
1001
ACAD
1000
MVIEW
1002
{
1070
    16
1010
0.0
1020
0.0
1030
0.0
1010
-1.0
1020
-1.0
1030
1.0
1040
0.0
1040
5.261125
1040
1.029945
1040
0.921221
1040
50.0
1040
0.0
1040
0.0
1070
     0
1070
   100
1070
     1
1070
     0
1070
     0
1070
     0
1070
     0
1070
     0
1040
0.0
1040
0.0
1040
0.0
1040
1.0
1040
1.0
1040
0.0
1040
0.0
1070
     0
1002
{
1003
AREA1
1003
AREA2
1002
}
1002
}
  0
TEXT
  5
42D
100
AcDbEntity
 67
     1
  8
0
100
AcDbText
 10
5.253785
 20
7.092701
 30
0.0
 40
0.2
  1
700-HN126
100
AcDbText
  0
TEXT
  5
431
100
AcDbEntity
 67
     1
  8
0
100
AcDbText
 10
5.253785
 20
6.759368
 30
0.0
 40
0.2
  1
CONTROL RELAY; GENERAL 
100
AcDbText
1001
ACAD
1000
R13OBJECT
1002
{
1005
42D
1002
}
  0
TEXT
  5
BD09
100
AcDbEntity
 67
     1
  8
0
100
AcDbText
 10
5.253785
 20
6.40835
 30
0.0
 40
0.2
  1
PURPOSE SOCKET; 11 PIN
100
AcDbText
1001
ACAD
1000
R13OBJECT
1002
{
1005
42D
1002
}
  0
ENDSEC
  0
SECTION
  2
OBJECTS
  0
DICTIONARY
  5
46D
100
AcDbDictionary
  3
ACAD_GROUP
350
46E
  3
ACAD_LAYOUT
350
49E
  3
ACAD_MLINESTYLE
350
47B
  3
ACAD_PLOTSETTINGS
350
49F
  3
ACAD_PLOTSTYLENAME
350
49C
  3
ACDBHEADERROUNDTRIPXREC
350
D02A
  3
ACDBVARIABLEDICTIONARY
350
48D
  0
DICTIONARY
  5
D028
100
AcDbDictionary
280
     1
  3
ACAD_XREC_ROUNDTRIP
360
D029
  0
DICTIONARY
  5
D055
100
AcDbDictionary
280
     1
  3
ACAD_XREC_ROUNDTRIP
360
D056
  0
DICTIONARY
  5
D057
100
AcDbDictionary
280
     1
  3
ACAD_XREC_ROUNDTRIP
360
D058
  0
DICTIONARY
  5
D05B
100
AcDbDictionary
280
     1
  3
ACAD_XREC_ROUNDTRIP
360
D05C
  0
DICTIONARY
  5
4D2
100
AcDbDictionary
280
     1
  3
ACAD_LAYOUTSELFREF
360
D054
  0
DICTIONARY
  5
4D0
100
AcDbDictionary
280
     1
  3
ACAD_LAYOUTSELFREF
360
D053
  0
DICTIONARY
  5
D04B
100
AcDbDictionary
280
     1
  3
ACAD_XREC_ROUNDTRIP
360
D04C
  0
DICTIONARY
  5
D04D
100
AcDbDictionary
280
     1
  3
ACAD_XREC_ROUNDTRIP
360
D04E
  0
DICTIONARY
  5
D04F
100
AcDbDictionary
280
     1
  3
ACAD_XREC_ROUNDTRIP
360
D050
  0
DICTIONARY
  5
D051
100
AcDbDictionary
280
     1
  3
ACAD_XREC_ROUNDTRIP
360
D052
  0
DICTIONARY
  5
46E
102
{ACAD_REACTORS
330
46D
102
}
100
AcDbDictionary
  0
DICTIONARY
  5
49E
102
{ACAD_XDICTIONARY
360
D059
102
}
102
{ACAD_REACTORS
330
46D
102
}
100
AcDbDictionary
  3
LAYOUT1
350
4A1
  3
MODEL
350
4A0
  0
DICTIONARY
  5
47B
102
{ACAD_REACTORS
330
46D
102
}
100
AcDbDictionary
  3
STANDARD
350
47C
  0
DICTIONARY
  5
49F
102
{ACAD_REACTORS
330
46D
102
}
100
AcDbDictionary
  0
ACAD_PROXY_OBJECT
  5
49C
102
{ACAD_REACTORS
330
46D
102
}
100
AcDbProxyObject
 90
      499
 91
      501
 93
       86
310
405010041939BDC9B585B0
350
49D
340
49D
 94
        0
  0
DICTIONARY
  5
D02A
102
{ACAD_REACTORS
330
46D
102
}
100
AcDbDictionary
  3
CEPSNTYPE
350
D034
  3
DIMSTYLEDATA
350
D038
  3
FINGERPRINTGUID
350
D035
  3
HYPERLINKBASE
350
D02D
  3
INSUNITS
350
D033
  3
LAYOUTDICT
350
D02F
  3
LWETCUNION
350
D032
  3
PLOTSETDICT
350
D030
  3
PLOTSTYLNAMDICT
350
D031
  3
PSVPSCALE
350
D037
  3
PUCSBASE
350
D03B
  3
PUCSORGBACK
350
D041
  3
PUCSORGBOTTOM
350
D03D
  3
PUCSORGFRONT
350
D040
  3
PUCSORGLEFT
350
D03E
  3
PUCSORGRIGHT
350
D03F
  3
PUCSORGTOP
350
D03C
  3
PUCSORTHOREF
350
D039
  3
PUCSORTHOVIEW
350
D03A
  3
STYLESHEET
350
D02E
  3
TSTACKALIGN
350
D02B
  3
TSTACKSIZE
350
D02C
  3
UCSBASE
350
D044
  3
UCSORGBACK
350
D04A
  3
UCSORGBOTTOM
350
D046
  3
UCSORGFRONT
350
D049
  3
UCSORGLEFT
350
D047
  3
UCSORGRIGHT
350
D048
  3
UCSORGTOP
350
D045
  3
UCSORTHOREF
350
D042
  3
UCSORTHOVIEW
350
D043
  3
VERSIONGUID
350
D036
  0
DICTIONARY
  5
48D
102
{ACAD_REACTORS
330
46D
102
}
100
AcDbDictionary
  3
DIMADEC
350
48E
  0
XRECORD
  5
D029
102
{ACAD_REACTORS
330
D028
102
}
100
AcDbXrecord
102
EXTNAMES
  1
*ACTIVE
  2
*Active
102
UCS
 74
     0
 71
     1
 10
0.0
 20
0.0
 30
0.0
 10
1.0
 20
0.0
 30
0.0
 10
0.0
 20
1.0
 30
0.0
146
0.0
 79
     1
102
VIEW
281
     1
  0
XRECORD
  5
D056
102
{ACAD_REACTORS
330
D055
102
}
100
AcDbXrecord
102
PLOTBIT
280
     0
  0
XRECORD
  5
D058
102
{ACAD_REACTORS
330
D057
102
}
100
AcDbXrecord
102
ACADR14ROUNDTRIP
1000
DSTYLE
1002
{
1070
   276
 70
     2
1070
   277
 70
     5
1070
   279
 70
     2
1002
}
  0
XRECORD
  5
D05C
102
{ACAD_REACTORS
330
D05B
102
}
100
AcDbXrecord
102
ACADR14ROUNDTRIP
1000
DSTYLE
1002
{
1070
   276
 70
     2
1070
   277
 70
     5
1070
   279
 70
     2
1070
   289
 70
     2
1002
}
  0
XRECORD
  5
D054
102
{ACAD_REACTORS
330
4D2
102
}
100
AcDbXrecord
340
478
  0
XRECORD
  5
D053
102
{ACAD_REACTORS
330
4D0
102
}
100
AcDbXrecord
340
475
  0
XRECORD
  5
D04C
102
{ACAD_REACTORS
330
D04B
102
}
100
AcDbXrecord
102
UCS
 74
     0
 71
     1
 10
0.0
 20
0.0
 30
0.0
 10
1.0
 20
0.0
 30
0.0
 10
0.0
 20
1.0
 30
0.0
146
0.0
 79
     0
102
VIEW
281
     0
102
NEWVIEWCONTROL
280
     4
  0
XRECORD
  5
D04E
102
{ACAD_REACTORS
330
D04D
102
}
100
AcDbXrecord
102
UCS
 74
     0
 71
     1
 10
0.0
 20
0.0
 30
0.0
 10
1.0
 20
0.0
 30
0.0
 10
0.0
 20
1.0
 30
0.0
146
0.0
 79
     1
102
VIEW
281
     0
102
NEWVIEWCONTROL
280
     4
  0
XRECORD
  5
D050
102
{ACAD_REACTORS
330
D04F
102
}
100
AcDbXrecord
102
UCS
 74
     0
 71
     1
 10
0.0
 20
0.0
 30
0.0
 10
1.0
 20
0.0
 30
0.0
 10
0.0
 20
0.0
 30
1.0
146
0.0
 79
     3
102
VIEW
281
     0
102
NEWVIEWCONTROL
280
     4
  0
XRECORD
  5
D052
102
{ACAD_REACTORS
330
D051
102
}
100
AcDbXrecord
102
UCS
 74
     0
 71
     1
 10
0.0
 20
0.0
 30
0.0
 10
1.0
 20
0.0
 30
0.0
 10
0.0
 20
1.0
 30
0.0
146
0.0
 79
     0
102
VIEW
281
     0
102
NEWVIEWCONTROL
280
     4
  0
DICTIONARY
  5
D059
100
AcDbDictionary
280
     1
  3
ACAD_XREC_ROUNDTRIP
360
D05A
  0
ACAD_PROXY_OBJECT
  5
4A1
102
{ACAD_REACTORS
330
49E
102
}
100
AcDbProxyObject
 90
      499
 91
      503
 93
     2044
310
91D4850204C617365724A65742035303030205365726965732050434C20362C008000000C0BB1B1440000000102F06C510000000000BC1B1440000000002E06C5100000000C0CCFC6A4000000018199D9C501064C6574746572A901406AA427D84144352EEE3F47D11959985D5B1D08148C4D081C195B88185CDCDA59DB9B5
310
95B9D1CCB98DD18A30EDE3B1BBFDBC0FC1D572C8D6D0C833F1A2B3054E9249F0FD074C61796F75743140501A97D7DB4AA43C31EFF91E46EBA53B71EFD1B32A15809809100B2537F8EAD447D02A6A6A00200C0093BD106FC0000F06EE366FABE00201F20307FD62FC4424FF2920002440160B7F435600079000000004000C06
310
23E0
330
475
330
2C
340
0
340
0
 94
        0
  0
ACAD_PROXY_OBJECT
  5
4A0
102
{ACAD_REACTORS
330
49E
102
}
100
AcDbProxyObject
 90
      499
 91
      503
 93
      924
310
91D4850204C617365724A65742035303030205365726965732050434C20362C01AAAAAAAAA547D11959985D5B1D08148C4D081C195B88185CDCDA59DB9B595B9D1CCB98DD18A69054D6F64656C901A800000000000000000000000000000000000000000000A1000000000000008902A6A6AAAA0
330
478
330
0
340
0
340
0
 94
        0
  0
MLINESTYLE
  5
47C
102
{ACAD_REACTORS
330
47B
102
}
100
AcDbMlineStyle
  2
STANDARD
 70
     0
  3

 62
   256
 51
90.0
 52
90.0
 71
     2
 49
0.5
 62
   256
  6
BYLAYER
 49
-0.5
 62
   256
  6
BYLAYER
  0
ACAD_PROXY_OBJECT
  5
49D
102
{ACAD_REACTORS
330
49C
102
}
100
AcDbProxyObject
 90
      499
 91
      502
 93
        0
 94
        0
  0
XRECORD
  5
D034
102
{ACAD_REACTORS
330
D02A
102
}
100
AcDbXrecord
 90
        0
  0
XRECORD
  5
D038
102
{ACAD_REACTORS
330
D02A
102
}
100
AcDbXrecord
1000
DSTYLE
1002
{
1070
   276
 70
     2
1070
   277
 70
     5
1070
   279
 70
     2
1002
}
  0
XRECORD
  5
D035
102
{ACAD_REACTORS
330
D02A
102
}
100
AcDbXrecord
  1
{6E0CF4B5-225E-11D4-A150-00A0CC3303EC}
  0
XRECORD
  5
D02D
102
{ACAD_REACTORS
330
D02A
102
}
100
AcDbXrecord
  1

  0
XRECORD
  5
D033
102
{ACAD_REACTORS
330
D02A
102
}
100
AcDbXrecord
 90
        0
  0
XRECORD
  5
D02F
102
{ACAD_REACTORS
330
D02A
102
}
100
AcDbXrecord
340
49E
  0
XRECORD
  5
D032
102
{ACAD_REACTORS
330
D02A
102
}
100
AcDbXrecord
 90
    14877
  0
XRECORD
  5
D030
102
{ACAD_REACTORS
330
D02A
102
}
100
AcDbXrecord
340
49F
  0
XRECORD
  5
D031
102
{ACAD_REACTORS
330
D02A
102
}
100
AcDbXrecord
340
49C
  0
XRECORD
  5
D037
102
{ACAD_REACTORS
330
D02A
102
}
100
AcDbXrecord
 40
0.0
  0
XRECORD
  5
D03B
102
{ACAD_REACTORS
330
D02A
102
}
100
AcDbXrecord
340
0
  0
XRECORD
  5
D041
102
{ACAD_REACTORS
330
D02A
102
}
100
AcDbXrecord
 10
0.0
 20
0.0
 30
0.0
  0
XRECORD
  5
D03D
102
{ACAD_REACTORS
330
D02A
102
}
100
AcDbXrecord
 10
0.0
 20
0.0
 30
0.0
  0
XRECORD
  5
D040
102
{ACAD_REACTORS
330
D02A
102
}
100
AcDbXrecord
 10
0.0
 20
0.0
 30
0.0
  0
XRECORD
  5
D03E
102
{ACAD_REACTORS
330
D02A
102
}
100
AcDbXrecord
 10
0.0
 20
0.0
 30
0.0
  0
XRECORD
  5
D03F
102
{ACAD_REACTORS
330
D02A
102
}
100
AcDbXrecord
 10
0.0
 20
0.0
 30
0.0
  0
XRECORD
  5
D03C
102
{ACAD_REACTORS
330
D02A
102
}
100
AcDbXrecord
 10
0.0
 20
0.0
 30
0.0
  0
XRECORD
  5
D039
102
{ACAD_REACTORS
330
D02A
102
}
100
AcDbXrecord
340
0
  0
XRECORD
  5
D03A
102
{ACAD_REACTORS
330
D02A
102
}
100
AcDbXrecord
 70
     0
  0
XRECORD
  5
D02E
102
{ACAD_REACTORS
330
D02A
102
}
100
AcDbXrecord
  1

  0
XRECORD
  5
D02B
102
{ACAD_REACTORS
330
D02A
102
}
100
AcDbXrecord
 90
        1
  0
XRECORD
  5
D02C
102
{ACAD_REACTORS
330
D02A
102
}
100
AcDbXrecord
 90
       70
  0
XRECORD
  5
D044
102
{ACAD_REACTORS
330
D02A
102
}
100
AcDbXrecord
340
0
  0
XRECORD
  5
D04A
102
{ACAD_REACTORS
330
D02A
102
}
100
AcDbXrecord
 10
0.0
 20
0.0
 30
0.0
  0
XRECORD
  5
D046
102
{ACAD_REACTORS
330
D02A
102
}
100
AcDbXrecord
 10
0.0
 20
0.0
 30
0.0
  0
XRECORD
  5
D049
102
{ACAD_REACTORS
330
D02A
102
}
100
AcDbXrecord
 10
0.0
 20
0.0
 30
0.0
  0
XRECORD
  5
D047
102
{ACAD_REACTORS
330
D02A
102
}
100
AcDbXrecord
 10
0.0
 20
0.0
 30
0.0
  0
XRECORD
  5
D048
102
{ACAD_REACTORS
330
D02A
102
}
100
AcDbXrecord
 10
0.0
 20
0.0
 30
0.0
  0
XRECORD
  5
D045
102
{ACAD_REACTORS
330
D02A
102
}
100
AcDbXrecord
 10
0.0
 20
0.0
 30
0.0
  0
XRECORD
  5
D042
102
{ACAD_REACTORS
330
D02A
102
}
100
AcDbXrecord
340
0
  0
XRECORD
  5
D043
102
{ACAD_REACTORS
330
D02A
102
}
100
AcDbXrecord
 70
     1
  0
XRECORD
  5
D036
102
{ACAD_REACTORS
330
D02A
102
}
100
AcDbXrecord
  1
{61DF6A57-6917-4078-A1BB-1121B7D2BFDF}
  0
DICTIONARYVAR
  5
48E
102
{ACAD_REACTORS
330
48D
102
}
100
DictionaryVariables
280
     0
  1
0
  0
XRECORD
  5
D05A
102
{ACAD_REACTORS
330
D059
102
}
100
AcDbXrecord
102
EXTNAMES
  1
LAYOUT1
  2
Layout1
  1
MODEL
  2
Model
  0
ENDSEC
  0
EOF
