  0
SECTION
  2
HEADER
  9
$ACADVER
  1
AC1014
  9
$ACADMAINTVER
 70
     8
  9
$DWGCODEPAGE
  3
ANSI_1252
  9
$INSBASE
 10
0.0
 20
0.0
 30
0.0
  9
$EXTMIN
 10
-1.220485
 20
-2.655348
 30
0.0
  9
$EXTMAX
 10
1.953
 20
1.088065
 30
0.97
  9
$LIMMIN
 10
0.0
 20
0.0
  9
$LIMMAX
 10
12.0
 20
9.0
  9
$ORTHOMODE
 70
     0
  9
$REGENMODE
 70
     1
  9
$FILLMODE
 70
     1
  9
$QTEXTMODE
 70
     0
  9
$MIRRTEXT
 70
     1
  9
$DRAGMODE
 70
     2
  9
$LTSCALE
 40
1.0
  9
$OSMODE
 70
    37
  9
$ATTMODE
 70
     1
  9
$TEXTSIZE
 40
0.12
  9
$TRACEWID
 40
0.05
  9
$TEXTSTYLE
  7
STANDARD
  9
$CLAYER
  8
0
  9
$CELTYPE
  6
BYLAYER
  9
$CECOLOR
 62
   256
  9
$CELTSCALE
 40
1.0
  9
$DELOBJ
 70
     1
  9
$DISPSILH
 70
     0
  9
$DIMSCALE
 40
1.0
  9
$DIMASZ
 40
0.18
  9
$DIMEXO
 40
0.0625
  9
$DIMDLI
 40
0.375
  9
$DIMRND
 40
0.0
  9
$DIMDLE
 40
0.0
  9
$DIMEXE
 40
0.18
  9
$DIMTP
 40
0.0
  9
$DIMTM
 40
0.0
  9
$DIMTXT
 40
0.125
  9
$DIMCEN
 40
0.09
  9
$DIMTSZ
 40
0.0
  9
$DIMTOL
 70
     0
  9
$DIMLIM
 70
     0
  9
$DIMTIH
 70
     0
  9
$DIMTOH
 70
     1
  9
$DIMSE1
 70
     0
  9
$DIMSE2
 70
     0
  9
$DIMTAD
 70
     0
  9
$DIMZIN
 70
     4
  9
$DIMBLK
  1

  9
$DIMASO
 70
     1
  9
$DIMSHO
 70
     1
  9
$DIMPOST
  1

  9
$DIMAPOST
  1

  9
$DIMALT
 70
     1
  9
$DIMALTD
 70
     2
  9
$DIMALTF
 40
25.4
  9
$DIMLFAC
 40
1.0
  9
$DIMTOFL
 70
     0
  9
$DIMTVP
 40
0.0
  9
$DIMTIX
 70
     0
  9
$DIMSOXD
 70
     0
  9
$DIMSAH
 70
     0
  9
$DIMBLK1
  1

  9
$DIMBLK2
  1

  9
$DIMSTYLE
  2
ABECAD_3D
  9
$DIMCLRD
 70
     0
  9
$DIMCLRE
 70
     0
  9
$DIMCLRT
 70
     0
  9
$DIMTFAC
 40
1.5
  9
$DIMGAP
 40
0.09
  9
$DIMJUST
 70
     0
  9
$DIMSD1
 70
     0
  9
$DIMSD2
 70
     0
  9
$DIMTOLJ
 70
     1
  9
$DIMTZIN
 70
     4
  9
$DIMALTZ
 70
     4
  9
$DIMALTTZ
 70
     4
  9
$DIMFIT
 70
     5
  9
$DIMUPT
 70
     1
  9
$DIMUNIT
 70
     7
  9
$DIMDEC
 70
     6
  9
$DIMTDEC
 70
     6
  9
$DIMALTU
 70
     2
  9
$DIMALTTD
 70
     2
  9
$DIMTXSTY
  7
STANDARD
  9
$DIMAUNIT
 70
     0
  9
$LUNITS
 70
     2
  9
$LUPREC
 70
     4
  9
$SKETCHINC
 40
0.1
  9
$FILLETRAD
 40
0.0
  9
$AUNITS
 70
     0
  9
$AUPREC
 70
     0
  9
$MENU
  1
ACAD
  9
$ELEVATION
 40
0.0
  9
$PELEVATION
 40
0.0
  9
$THICKNESS
 40
0.0
  9
$LIMCHECK
 70
     0
  9
$BLIPMODE
 70
     0
  9
$CHAMFERA
 40
0.0
  9
$CHAMFERB
 40
0.0
  9
$CHAMFERC
 40
0.0
  9
$CHAMFERD
 40
0.0
  9
$SKPOLY
 70
     0
  9
$TDCREATE
 40
2451726.438389120
  9
$TDUPDATE
 40
2452010.484623958
  9
$TDINDWG
 40
0.2264668981
  9
$TDUSRTIMER
 40
0.2264668981
  9
$USRTIMER
 70
     1
  9
$ANGBASE
 50
0.0
  9
$ANGDIR
 70
     0
  9
$PDMODE
 70
     3
  9
$PDSIZE
 40
0.09
  9
$PLINEWID
 40
0.0
  9
$COORDS
 70
     1
  9
$SPLFRAME
 70
     1
  9
$SPLINETYPE
 70
     6
  9
$SPLINESEGS
 70
     8
  9
$ATTDIA
 70
     0
  9
$ATTREQ
 70
     1
  9
$HANDLING
 70
     1
  9
$HANDSEED
  5
4FFF5
  9
$SURFTAB1
 70
     6
  9
$SURFTAB2
 70
     6
  9
$SURFTYPE
 70
     6
  9
$SURFU
 70
     6
  9
$SURFV
 70
     6
  9
$UCSNAME
  2

  9
$UCSORG
 10
0.0
 20
0.0
 30
0.0
  9
$UCSXDIR
 10
1.0
 20
0.0
 30
0.0
  9
$UCSYDIR
 10
0.0
 20
1.0
 30
0.0
  9
$PUCSNAME
  2

  9
$PUCSORG
 10
0.0
 20
0.0
 30
0.0
  9
$PUCSXDIR
 10
1.0
 20
0.0
 30
0.0
  9
$PUCSYDIR
 10
0.0
 20
1.0
 30
0.0
  9
$USERI1
 70
     0
  9
$USERI2
 70
     0
  9
$USERI3
 70
     0
  9
$USERI4
 70
     0
  9
$USERI5
 70
     0
  9
$USERR1
 40
0.0
  9
$USERR2
 40
0.0
  9
$USERR3
 40
0.0
  9
$USERR4
 40
0.0
  9
$USERR5
 40
0.0
  9
$WORLDVIEW
 70
     1
  9
$SHADEDGE
 70
     3
  9
$SHADEDIF
 70
    70
  9
$TILEMODE
 70
     1
  9
$MAXACTVP
 70
    16
  9
$PINSBASE
 10
0.0
 20
0.0
 30
0.0
  9
$PLIMCHECK
 70
     0
  9
$PEXTMIN
 10
1.000000E+20
 20
1.000000E+20
 30
1.000000E+20
  9
$PEXTMAX
 10
-1.000000E+20
 20
-1.000000E+20
 30
-1.000000E+20
  9
$PLIMMIN
 10
0.0
 20
0.0
  9
$PLIMMAX
 10
12.0
 20
9.0
  9
$UNITMODE
 70
     0
  9
$VISRETAIN
 70
     0
  9
$PLINEGEN
 70
     0
  9
$PSLTSCALE
 70
     1
  9
$TREEDEPTH
 70
  3020
  9
$PICKSTYLE
 70
     1
  9
$CMLSTYLE
  2
STANDARD
  9
$CMLJUST
 70
     0
  9
$CMLSCALE
 40
1.0
  9
$PROXYGRAPHICS
 70
     1
  9
$MEASUREMENT
 70
     0
  0
ENDSEC
  0
SECTION
  2
CLASSES
  0
CLASS
  1
DICTIONARYVAR
  2
AcDbDictionaryVar
  3
"AutoCAD"
 90
        0
280
     0
281
     0
  0
CLASS
  1
ACDBDICTIONARYWDFLT
  2
AcDbDictionaryWithDefault
  3
AutoCAD 2000
 90
        0
280
     0
281
     0
  0
CLASS
  1
ACDBPLACEHOLDER
  2
AcDbPlaceHolder
  3
AutoCAD 2000
 90
        0
280
     0
281
     0
  0
CLASS
  1
LAYOUT
  2
AcDbLayout
  3
AutoCAD 2000
 90
        0
280
     0
281
     0
  0
CLASS
  1
LONG_TRANSACTION
  2
AcDbLongTransaction
  3
AutoCAD 2000
 90
        0
280
     0
281
     0
  0
CLASS
  1
LWPOLYLINE
  2
AcDbPolyline
  3
"AutoCAD"
 90
        0
280
     0
281
     1
  0
CLASS
  1
HATCH
  2
AcDbHatch
  3
"ACAD_SEDONA"
 90
        0
280
     0
281
     1
  0
CLASS
  1
XRECORD
  2
AcDbXrecord
  3
"<Built In>"
 90
        0
280
     0
281
     0
  0
CLASS
  1
LONG_TRANSACTION
  2
AcDbLongTransaction
  3
AutoCAD 2000
 90
        0
280
     0
281
     0
  0
CLASS
  1
LWPOLYLINE
  2
AcDbPolyline
  3
"AutoCAD"
 90
        0
280
     0
281
     1
  0
CLASS
  1
HATCH
  2
AcDbHatch
  3
"ACAD_SEDONA"
 90
        0
280
     0
281
     1
  0
CLASS
  1
XRECORD
  2
AcDbXrecord
  3
"<Built In>"
 90
        0
280
     0
281
     0
  0
CLASS
  1
LONG_TRANSACTION
  2
AcDbLongTransaction
  3
AutoCAD 2000
 90
        0
280
     0
281
     0
  0
CLASS
  1
LWPOLYLINE
  2
AcDbPolyline
  3
"AutoCAD"
 90
        0
280
     0
281
     1
  0
CLASS
  1
HATCH
  2
AcDbHatch
  3
"ACAD_SEDONA"
 90
        0
280
     0
281
     1
  0
CLASS
  1
XRECORD
  2
AcDbXrecord
  3
"<Built In>"
 90
        0
280
     0
281
     0
  0
CLASS
  1
LONG_TRANSACTION
  2
AcDbLongTransaction
  3
AutoCAD 2000
 90
        0
280
     0
281
     0
  0
CLASS
  1
LWPOLYLINE
  2
AcDbPolyline
  3
"AutoCAD"
 90
        0
280
     0
281
     1
  0
CLASS
  1
HATCH
  2
AcDbHatch
  3
"ACAD_SEDONA"
 90
        0
280
     0
281
     1
  0
CLASS
  1
XRECORD
  2
AcDbXrecord
  3
"<Built In>"
 90
        0
280
     0
281
     0
  0
CLASS
  1
LONG_TRANSACTION
  2
AcDbLongTransaction
  3
AutoCAD 2000
 90
        0
280
     0
281
     0
  0
CLASS
  1
LWPOLYLINE
  2
AcDbPolyline
  3
"AutoCAD"
 90
        0
280
     0
281
     1
  0
CLASS
  1
HATCH
  2
AcDbHatch
  3
"ACAD_SEDONA"
 90
        0
280
     0
281
     1
  0
CLASS
  1
XRECORD
  2
AcDbXrecord
  3
"<Built In>"
 90
        0
280
     0
281
     0
  0
CLASS
  1
LONG_TRANSACTION
  2
AcDbLongTransaction
  3
AutoCAD 2000
 90
        0
280
     0
281
     0
  0
CLASS
  1
LWPOLYLINE
  2
AcDbPolyline
  3
"AutoCAD"
 90
        0
280
     0
281
     1
  0
CLASS
  1
HATCH
  2
AcDbHatch
  3
"ACAD_SEDONA"
 90
        0
280
     0
281
     1
  0
CLASS
  1
XRECORD
  2
AcDbXrecord
  3
"<Built In>"
 90
        0
280
     0
281
     0
  0
CLASS
  1
LONG_TRANSACTION
  2
AcDbLongTransaction
  3
AutoCAD 2000
 90
        0
280
     0
281
     0
  0
CLASS
  1
LWPOLYLINE
  2
AcDbPolyline
  3
"AutoCAD"
 90
        0
280
     0
281
     1
  0
CLASS
  1
HATCH
  2
AcDbHatch
  3
"ACAD_SEDONA"
 90
        0
280
     0
281
     1
  0
CLASS
  1
XRECORD
  2
AcDbXrecord
  3
"<Built In>"
 90
        0
280
     0
281
     0
  0
CLASS
  1
LONG_TRANSACTION
  2
AcDbLongTransaction
  3
AutoCAD 2000
 90
        0
280
     0
281
     0
  0
CLASS
  1
LWPOLYLINE
  2
AcDbPolyline
  3
"AutoCAD"
 90
        0
280
     0
281
     1
  0
CLASS
  1
HATCH
  2
AcDbHatch
  3
"ACAD_SEDONA"
 90
        0
280
     0
281
     1
  0
CLASS
  1
XRECORD
  2
AcDbXrecord
  3
"<Built In>"
 90
        0
280
     0
281
     0
  0
CLASS
  1
LONG_TRANSACTION
  2
AcDbLongTransaction
  3
AutoCAD 2000
 90
        0
280
     0
281
     0
  0
CLASS
  1
LWPOLYLINE
  2
AcDbPolyline
  3
"AutoCAD"
 90
        0
280
     0
281
     1
  0
CLASS
  1
HATCH
  2
AcDbHatch
  3
"ACAD_SEDONA"
 90
        0
280
     0
281
     1
  0
CLASS
  1
XRECORD
  2
AcDbXrecord
  3
"<Built In>"
 90
        0
280
     0
281
     0
  0
CLASS
  1
LONG_TRANSACTION
  2
AcDbLongTransaction
  3
AutoCAD 2000
 90
        0
280
     0
281
     0
  0
CLASS
  1
LWPOLYLINE
  2
AcDbPolyline
  3
"AutoCAD"
 90
        0
280
     0
281
     1
  0
CLASS
  1
HATCH
  2
AcDbHatch
  3
"ACAD_SEDONA"
 90
        0
280
     0
281
     1
  0
CLASS
  1
XRECORD
  2
AcDbXrecord
  3
"<Built In>"
 90
        0
280
     0
281
     0
  0
CLASS
  1
LONG_TRANSACTION
  2
AcDbLongTransaction
  3
AutoCAD 2000
 90
        0
280
     0
281
     0
  0
CLASS
  1
LWPOLYLINE
  2
AcDbPolyline
  3
"AutoCAD"
 90
        0
280
     0
281
     1
  0
CLASS
  1
HATCH
  2
AcDbHatch
  3
"ACAD_SEDONA"
 90
        0
280
     0
281
     1
  0
CLASS
  1
XRECORD
  2
AcDbXrecord
  3
"<Built In>"
 90
        0
280
     0
281
     0
  0
CLASS
  1
LONG_TRANSACTION
  2
AcDbLongTransaction
  3
AutoCAD 2000
 90
        0
280
     0
281
     0
  0
CLASS
  1
LWPOLYLINE
  2
AcDbPolyline
  3
"AutoCAD"
 90
        0
280
     0
281
     1
  0
CLASS
  1
HATCH
  2
AcDbHatch
  3
"ACAD_SEDONA"
 90
        0
280
     0
281
     1
  0
CLASS
  1
XRECORD
  2
AcDbXrecord
  3
"<Built In>"
 90
        0
280
     0
281
     0
  0
ENDSEC
  0
SECTION
  2
TABLES
  0
TABLE
  2
VPORT
  5
458C7
100
AcDbSymbolTable
 70
     1
  0
VPORT
  5
4FFC4
102
{ACAD_XDICTIONARY
360
4FFC7
102
}
100
AcDbSymbolTableRecord
100
AcDbViewportTableRecord
  2
*ACTIVE
 70
     0
 10
0.0
 20
0.0
 11
1.0
 21
1.0
 12
-0.197233
 22
0.096713
 13
0.0
 23
0.0
 14
0.25
 24
0.25
 15
0.25
 25
0.25
 16
0.0
 26
0.0
 36
1.0
 17
0.563444
 27
-0.880137
 37
1.686493
 40
3.807492
 41
1.960674
 42
50.0
 43
0.0
 44
0.0
 50
0.0
 51
0.0
 71
     0
 72
 20000
 73
     1
 74
     1
 75
     0
 76
     0
 77
     0
 78
     0
  0
ENDTAB
  0
TABLE
  2
LTYPE
  5
458C4
100
AcDbSymbolTable
 70
     1
  0
LTYPE
  5
458D0
100
AcDbSymbolTableRecord
100
AcDbLinetypeTableRecord
  2
BYBLOCK
 70
     0
  3

 72
    65
 73
     0
 40
0.0
  0
LTYPE
  5
458D1
100
AcDbSymbolTableRecord
100
AcDbLinetypeTableRecord
  2
BYLAYER
 70
     0
  3

 72
    65
 73
     0
 40
0.0
  0
LTYPE
  5
458D2
100
AcDbSymbolTableRecord
100
AcDbLinetypeTableRecord
  2
CONTINUOUS
 70
     0
  3
Solid line
 72
    65
 73
     0
 40
0.0
  0
ENDTAB
  0
TABLE
  2
LAYER
  5
458C1
100
AcDbSymbolTable
 70
     7
  0
LAYER
  5
458CD
100
AcDbSymbolTableRecord
100
AcDbLayerTableRecord
  2
0
 70
     0
 62
     7
  6
CONTINUOUS
  0
LAYER
  5
458EA
100
AcDbSymbolTableRecord
100
AcDbLayerTableRecord
  2
DIMS-MTG-HOLES
 70
     0
 62
     1
  6
CONTINUOUS
  0
LAYER
  5
458EB
100
AcDbSymbolTableRecord
100
AcDbLayerTableRecord
  2
ATTRIBUTES
 70
     0
 62
     7
  6
CONTINUOUS
  0
LAYER
  5
4593B
102
{ACAD_XDICTIONARY
360
4FFF0
102
}
100
AcDbSymbolTableRecord
100
AcDbLayerTableRecord
  2
AREA1
 70
     0
 62
    -7
  6
CONTINUOUS
  0
LAYER
  5
45940
102
{ACAD_XDICTIONARY
360
4FFC5
102
}
100
AcDbSymbolTableRecord
100
AcDbLayerTableRecord
  2
DEFPOINTS
 70
     0
 62
    -7
  6
CONTINUOUS
  0
LAYER
  5
45954
100
AcDbSymbolTableRecord
100
AcDbLayerTableRecord
  2
SCALE
 70
     0
 62
    -7
  6
CONTINUOUS
  0
LAYER
  5
4D59A
100
AcDbSymbolTableRecord
100
AcDbLayerTableRecord
  2
SNAP_POINTS
 70
     0
 62
    -1
  6
CONTINUOUS
  0
ENDTAB
  0
TABLE
  2
STYLE
  5
458C2
100
AcDbSymbolTable
 70
     1
  0
STYLE
  5
458CE
100
AcDbSymbolTableRecord
100
AcDbTextStyleTableRecord
  2
STANDARD
 70
     0
 40
0.0
 41
1.0
 50
0.0
 71
     0
 42
0.12
  3
txt
  4

  0
ENDTAB
  0
TABLE
  2
VIEW
  5
458C5
100
AcDbSymbolTable
 70
     0
  0
ENDTAB
  0
TABLE
  2
UCS
  5
458C6
100
AcDbSymbolTable
 70
     0
  0
ENDTAB
  0
TABLE
  2
APPID
  5
458C8
100
AcDbSymbolTable
 70
     1
  0
APPID
  5
458CF
100
AcDbSymbolTableRecord
100
AcDbRegAppTableRecord
  2
ACAD
 70
     0
  0
ENDTAB
  0
TABLE
  2
DIMSTYLE
  5
458C9
100
AcDbSymbolTable
 70
     1
  0
DIMSTYLE
105
458F6
102
{ACAD_XDICTIONARY
360
4FFEC
102
}
102
{ACAD_REACTORS
330
4FF2C
330
4FF3A
102
}
100
AcDbSymbolTableRecord
100
AcDbDimStyleTableRecord
  2
ABECAD_3D
 70
     0
  3

  4

  5

  6

  7

 40
1.0
 41
0.18
 42
0.0625
 43
0.375
 44
0.18
 45
0.0
 46
0.0
 47
0.0
 48
0.0
140
0.125
141
0.09
142
0.0
143
25.4
144
1.0
145
0.0
146
1.5
147
0.09
 71
     0
 72
     0
 73
     0
 74
     1
 75
     0
 76
     0
 77
     0
 78
     4
170
     1
171
     2
172
     0
173
     0
174
     0
175
     0
176
     0
177
     0
178
     0
270
     7
271
     6
272
     6
273
     2
274
     2
340
458CE
275
     0
280
     0
281
     0
282
     0
283
     1
284
     4
285
     4
286
     4
287
     5
288
     1
  0
ENDTAB
  0
TABLE
  2
BLOCK_RECORD
  5
458C0
100
AcDbSymbolTable
 70
     2
  0
BLOCK_RECORD
  5
458D6
102
{ACAD_XDICTIONARY
360
4592C
102
}
100
AcDbSymbolTableRecord
100
AcDbBlockTableRecord
  2
*MODEL_SPACE
  0
BLOCK_RECORD
  5
458D3
102
{ACAD_XDICTIONARY
360
4592A
102
}
100
AcDbSymbolTableRecord
100
AcDbBlockTableRecord
  2
*PAPER_SPACE
  0
BLOCK_RECORD
  5
4FF2D
100
AcDbSymbolTableRecord
100
AcDbBlockTableRecord
  2
*D0
  0
BLOCK_RECORD
  5
4FF3B
100
AcDbSymbolTableRecord
100
AcDbBlockTableRecord
  2
*D1
  0
ENDTAB
  0
ENDSEC
  0
SECTION
  2
BLOCKS
  0
BLOCK
  5
458DF
100
AcDbEntity
  8
0
100
AcDbBlockBegin
  2
*MODEL_SPACE
 70
     0
 10
0.0
 20
0.0
 30
0.0
  3
*MODEL_SPACE
  1

  0
ENDBLK
  5
458E0
100
AcDbEntity
  8
0
100
AcDbBlockEnd
  0
BLOCK
  5
458DD
100
AcDbEntity
 67
     1
  8
0
100
AcDbBlockBegin
  2
*PAPER_SPACE
 70
     0
 10
0.0
 20
0.0
 30
0.0
  3
*PAPER_SPACE
  1

  0
ENDBLK
  5
458DE
100
AcDbEntity
 67
     1
  8
0
100
AcDbBlockEnd
  0
BLOCK
  5
4FF38
100
AcDbEntity
  8
0
100
AcDbBlockBegin
  2
*D0
 70
     1
 10
0.0
 20
0.0
 30
0.0
  3
*D0
  1

  0
LINE
  5
4FF2E
100
AcDbEntity
  8
AREA1
 62
     0
100
AcDbLine
 10
0.4755
 20
0.45
 30
0.0
 11
-1.220485
 21
0.45
 31
0.0
1001
ACAD
1000
RTLwPs
1070
   158
  0
LINE
  5
4FF2F
100
AcDbEntity
  8
AREA1
 62
     0
100
AcDbLine
 10
-0.0625
 20
-1.71
 30
0.0
 11
-1.220485
 21
-1.71
 31
0.0
1001
ACAD
1000
RTLwPs
1070
   158
  0
LINE
  5
4FF30
100
AcDbEntity
  8
AREA1
 62
     0
100
AcDbLine
 10
-1.040485
 20
0.27
 30
0.0
 11
-1.040485
 21
0.225635
 31
0.0
1001
ACAD
1000
RTLwPs
1070
   158
  0
LINE
  5
4FF31
100
AcDbEntity
  8
AREA1
 62
     0
100
AcDbLine
 10
-1.040485
 20
-1.53
 30
0.0
 11
-1.040485
 21
-1.496031
 31
0.0
1001
ACAD
1000
RTLwPs
1070
   158
  0
MTEXT
  5
4FF32
100
AcDbEntity
  8
AREA1
 62
     0
100
AcDbMText
 10
-1.040485
 20
-0.635198
 30
0.0
 40
0.125
 41
0.0
 71
     5
 72
     1
  1
\A1;2 5/32 [54.86]
 11
0.0
 21
1.0
 31
0.0
1001
ACAD
1000
MTEXTBEGIN
1070
    73
1070
     1
1070
    44
1040
1.0
1070
    74
1070
     0
1000
MTEXTEND
1000
MTEXTBEGIN
1070
    73
1070
     1
1070
    44
1040
1.0
1070
    74
1070
     0
1000
MTEXTEND
1000
MTEXTBEGIN
1070
    73
1070
     1
1070
    44
1040
1.0
1070
    74
1070
     0
1000
MTEXTEND
  0
SOLID
  5
4FF33
100
AcDbEntity
  8
AREA1
 62
     0
100
AcDbTrace
 10
-1.070485
 20
0.27
 30
0.0
 11
-1.010485
 21
0.27
 31
0.0
 12
-1.040485
 22
0.45
 32
0.0
 13
-1.040485
 23
0.45
 33
0.0
  0
SOLID
  5
4FF34
100
AcDbEntity
  8
AREA1
 62
     0
100
AcDbTrace
 10
-1.070485
 20
-1.53
 30
0.0
 11
-1.010485
 21
-1.53
 31
0.0
 12
-1.040485
 22
-1.71
 32
0.0
 13
-1.040485
 23
-1.71
 33
0.0
  0
POINT
  5
4FF35
100
AcDbEntity
  8
DEFPOINTS
 62
     0
100
AcDbPoint
 10
0.538
 20
0.45
 30
0.0
  0
POINT
  5
4FF36
100
AcDbEntity
  8
DEFPOINTS
 62
     0
100
AcDbPoint
 10
0.0
 20
-1.71
 30
0.0
  0
POINT
  5
4FF37
100
AcDbEntity
  8
DEFPOINTS
 62
     0
100
AcDbPoint
 10
-1.040485
 20
-1.71
 30
0.0
  0
ENDBLK
  5
4FF39
100
AcDbEntity
  8
0
100
AcDbBlockEnd
  0
BLOCK
  5
4FF46
100
AcDbEntity
  8
0
100
AcDbBlockBegin
  2
*D1
 70
     1
 10
0.0
 20
0.0
 30
0.0
  3
*D1
  1

  0
LINE
  5
4FF3C
100
AcDbEntity
  8
AREA1
 62
     0
100
AcDbLine
 10
-0.377
 20
-0.0275
 30
0.0
 11
-0.377
 21
1.088065
 31
0.0
1001
ACAD
1000
RTLwPs
1070
   158
  0
LINE
  5
4FF3D
100
AcDbEntity
  8
AREA1
 62
     0
100
AcDbLine
 10
1.953
 20
-0.0275
 30
0.0
 11
1.953
 21
1.088065
 31
0.0
1001
ACAD
1000
RTLwPs
1070
   158
  0
LINE
  5
4FF3E
100
AcDbEntity
  8
AREA1
 62
     0
100
AcDbLine
 10
-0.197
 20
0.908065
 30
0.0
 11
-0.062493
 21
0.908065
 31
0.0
1001
ACAD
1000
RTLwPs
1070
   158
  0
LINE
  5
4FF3F
100
AcDbEntity
  8
AREA1
 62
     0
100
AcDbLine
 10
1.773
 20
0.908065
 30
0.0
 11
1.700841
 21
0.908065
 31
0.0
1001
ACAD
1000
RTLwPs
1070
   158
  0
MTEXT
  5
4FF40
100
AcDbEntity
  8
AREA1
 62
     0
100
AcDbMText
 10
0.819174
 20
0.908065
 30
0.0
 40
0.125
 41
0.0
 71
     5
 72
     1
  1
\A1;2 21/64 [59.18]
1001
ACAD
1000
MTEXTBEGIN
1070
    73
1070
     1
1070
    44
1040
1.0
1070
    74
1070
     0
1000
MTEXTEND
1000
MTEXTBEGIN
1070
    73
1070
     1
1070
    44
1040
1.0
1070
    74
1070
     0
1000
MTEXTEND
1000
MTEXTBEGIN
1070
    73
1070
     1
1070
    44
1040
1.0
1070
    74
1070
     0
1000
MTEXTEND
  0
SOLID
  5
4FF41
100
AcDbEntity
  8
AREA1
 62
     0
100
AcDbTrace
 10
-0.197
 20
0.938065
 30
0.0
 11
-0.197
 21
0.878065
 31
0.0
 12
-0.377
 22
0.908065
 32
0.0
 13
-0.377
 23
0.908065
 33
0.0
  0
SOLID
  5
4FF42
100
AcDbEntity
  8
AREA1
 62
     0
100
AcDbTrace
 10
1.773
 20
0.938065
 30
0.0
 11
1.773
 21
0.878065
 31
0.0
 12
1.953
 22
0.908065
 32
0.0
 13
1.953
 23
0.908065
 33
0.0
  0
POINT
  5
4FF43
100
AcDbEntity
  8
DEFPOINTS
 62
     0
100
AcDbPoint
 10
-0.377
 20
-0.09
 30
0.187
  0
POINT
  5
4FF44
100
AcDbEntity
  8
DEFPOINTS
 62
     0
100
AcDbPoint
 10
1.953
 20
-0.09
 30
0.187
  0
POINT
  5
4FF45
100
AcDbEntity
  8
DEFPOINTS
 62
     0
100
AcDbPoint
 10
1.953
 20
0.908065
 30
0.0
  0
ENDBLK
  5
4FF47
100
AcDbEntity
  8
0
100
AcDbBlockEnd
  0
ENDSEC
  0
SECTION
  2
ENTITIES
  0
ARC
  5
4FE57
100
AcDbEntity
  8
0
100
AcDbCircle
 10
0.788
 20
-0.69
 30
0.97
 40
0.1875
100
AcDbArc
 50
288.662979
 51
251.337067
  0
CIRCLE
  5
4FE58
100
AcDbEntity
  8
0
100
AcDbCircle
 10
0.788
 20
0.224508
 30
0.77
 40
0.054688
  0
CIRCLE
  5
4FE59
100
AcDbEntity
  8
0
100
AcDbCircle
 10
0.788
 20
-0.26
 30
0.97
 40
0.03
  0
LINE
  5
4FE5A
100
AcDbEntity
  8
0
100
AcDbLine
 10
0.848
 20
-0.9975
 30
0.97
 11
0.728
 21
-0.9975
 31
0.97
  0
CIRCLE
  5
4FE5B
100
AcDbEntity
  8
0
100
AcDbCircle
 10
1.7645
 20
-0.249344
 30
0.77
 40
0.054688
  0
CIRCLE
  5
4FE5C
100
AcDbEntity
  8
0
100
AcDbCircle
 10
1.182
 20
0.12
 30
0.77
 40
0.054688
  0
CIRCLE
  5
4FE5D
100
AcDbEntity
  8
0
100
AcDbCircle
 10
1.179142
 20
-0.511372
 30
0.97
 40
0.03
  0
CIRCLE
  5
4FE5E
100
AcDbEntity
  8
0
100
AcDbCircle
 10
1.020476
 20
-0.328261
 30
0.97
 40
0.03
  0
CIRCLE
  5
4FE5F
100
AcDbEntity
  8
0
100
AcDbCircle
 10
1.7645
 20
-1.130656
 30
0.77
 40
0.054688
  0
CIRCLE
  5
4FE60
100
AcDbEntity
  8
0
100
AcDbCircle
 10
1.213623
 20
-0.751196
 30
0.97
 40
0.03
  0
CIRCLE
  5
4FE61
100
AcDbEntity
  8
0
100
AcDbCircle
 10
1.112972
 20
-0.97159
 30
0.97
 40
0.03
  0
LINE
  5
4FE62
100
AcDbEntity
  8
0
100
AcDbLine
 10
0.848
 20
-0.867641
 30
0.97
 11
0.848
 21
-0.9975
 31
0.97
  0
CIRCLE
  5
4FE63
100
AcDbEntity
  8
0
100
AcDbCircle
 10
0.909145
 20
-1.102582
 30
0.97
 40
0.03
  0
CIRCLE
  5
4FE64
100
AcDbEntity
  8
0
100
AcDbCircle
 10
1.182
 20
-1.5
 30
0.77
 40
0.054688
  0
CIRCLE
  5
4FE65
100
AcDbEntity
  8
0
100
AcDbCircle
 10
0.897375
 20
-1.604508
 30
0.77
 40
0.054688
  0
CIRCLE
  5
4FE66
100
AcDbEntity
  8
0
100
AcDbCircle
 10
0.393999
 20
0.12
 30
0.77
 40
0.054688
  0
CIRCLE
  5
4FE67
100
AcDbEntity
  8
0
100
AcDbCircle
 10
0.396858
 20
-0.511371
 30
0.97
 40
0.03
  0
CIRCLE
  5
4FE68
100
AcDbEntity
  8
0
100
AcDbCircle
 10
0.555524
 20
-0.328261
 30
0.97
 40
0.03
  0
CIRCLE
  5
4FE69
100
AcDbEntity
  8
0
100
AcDbCircle
 10
-0.188501
 20
-0.249344
 30
0.77
 40
0.054688
  0
LINE
  5
4FE6A
100
AcDbEntity
  8
0
100
AcDbLine
 10
0.728
 20
-0.9975
 30
0.97
 11
0.728
 21
-0.867641
 31
0.97
  0
CIRCLE
  5
4FE6B
100
AcDbEntity
  8
0
100
AcDbCircle
 10
0.463028
 20
-0.97159
 30
0.97
 40
0.03
  0
CIRCLE
  5
4FE6C
100
AcDbEntity
  8
0
100
AcDbCircle
 10
0.666855
 20
-1.102582
 30
0.97
 40
0.03
  0
CIRCLE
  5
4FE6D
100
AcDbEntity
  8
0
100
AcDbCircle
 10
0.362377
 20
-0.751195
 30
0.97
 40
0.03
  0
CIRCLE
  5
4FE6E
100
AcDbEntity
  8
0
100
AcDbCircle
 10
0.393999
 20
-1.5
 30
0.77
 40
0.054688
  0
CIRCLE
  5
4FE6F
100
AcDbEntity
  8
0
100
AcDbCircle
 10
0.678625
 20
-1.604508
 30
0.77
 40
0.054688
  0
CIRCLE
  5
4FE70
100
AcDbEntity
  8
0
100
AcDbCircle
 10
-0.188501
 20
-1.130656
 30
0.77
 40
0.054688
  0
TEXT
  5
4FE71
100
AcDbEntity
  8
0
100
AcDbText
 10
0.886235
 20
-1.519399
 30
0.77
 40
0.12
  1
1
100
AcDbText
  0
TEXT
  5
4FE72
100
AcDbEntity
  8
0
100
AcDbText
 10
1.140862
 20
-1.420916
 30
0.77
 40
0.12
  1
2
100
AcDbText
  0
TEXT
  5
4FE73
100
AcDbEntity
  8
0
100
AcDbText
 10
1.72408
 20
-1.040512
 30
0.77
 40
0.12
  1
3
100
AcDbText
  0
TEXT
  5
4FE74
100
AcDbEntity
  8
0
100
AcDbText
 10
1.7263
 20
-0.449954
 30
0.77
 40
0.12
  1
4
100
AcDbText
  0
TEXT
  5
4FE75
100
AcDbEntity
  8
0
100
AcDbText
 10
1.141318
 20
-0.083691
 30
0.77
 40
0.12
  1
5
100
AcDbText
  0
TEXT
  5
4FE76
100
AcDbEntity
  8
0
100
AcDbText
 10
0.747402
 20
0.020072
 30
0.77
 40
0.12
  1
6
100
AcDbText
  0
TEXT
  5
4FE77
100
AcDbEntity
  8
0
100
AcDbText
 10
0.35012
 20
-0.086236
 30
0.77
 40
0.12
  1
7
100
AcDbText
  0
TEXT
  5
4FE78
100
AcDbEntity
  8
0
100
AcDbText
 10
-0.232701
 20
-0.440457
 30
0.77
 40
0.12
  1
8
100
AcDbText
  0
TEXT
  5
4FE79
100
AcDbEntity
  8
0
100
AcDbText
 10
-0.221998
 20
-1.054088
 30
0.77
 40
0.12
  1
9
100
AcDbText
  0
TEXT
  5
4FE7A
100
AcDbEntity
  8
0
100
AcDbText
 10
0.321326
 20
-1.418349
 30
0.77
 40
0.12
  1
10
100
AcDbText
  0
TEXT
  5
4FE7B
100
AcDbEntity
  8
0
100
AcDbText
 10
0.620644
 20
-1.523274
 30
0.77
 40
0.12
  1
11
100
AcDbText
  0
CIRCLE
  5
4FE7C
100
AcDbEntity
  8
0
100
AcDbCircle
 39
0.2
 10
0.788
 20
-0.69
 30
0.77
 40
0.55
  0
POLYLINE
  5
4FE7D
100
AcDbEntity
  8
0
100
AcDbPolygonMesh
 66
     1
 10
0.0
 20
0.0
 30
0.0
 70
    16
 71
     6
 72
     3
  0
VERTEX
  5
4FE7E
100
AcDbEntity
  8
0
100
AcDbVertex
100
AcDbPolygonMeshVertex
 10
1.038
 20
0.33
 30
0.1
 70
    64
  0
VERTEX
  5
4FE7F
100
AcDbEntity
  8
0
100
AcDbVertex
100
AcDbPolygonMeshVertex
 10
1.038
 20
0.33
 30
0.0
 70
    64
  0
VERTEX
  5
4FE80
100
AcDbEntity
  8
0
100
AcDbVertex
100
AcDbPolygonMeshVertex
 10
1.038
 20
0.33
 30
0.0
 70
    64
  0
VERTEX
  5
4FE81
100
AcDbEntity
  8
0
100
AcDbVertex
100
AcDbPolygonMeshVertex
 10
0.538
 20
0.33
 30
0.1
 70
    64
  0
VERTEX
  5
4FE82
100
AcDbEntity
  8
0
100
AcDbVertex
100
AcDbPolygonMeshVertex
 10
0.538
 20
0.33
 30
0.0
 70
    64
  0
VERTEX
  5
4FE83
100
AcDbEntity
  8
0
100
AcDbVertex
100
AcDbPolygonMeshVertex
 10
0.538
 20
0.33
 30
0.0
 70
    64
  0
VERTEX
  5
4FE84
100
AcDbEntity
  8
0
100
AcDbVertex
100
AcDbPolygonMeshVertex
 10
0.538
 20
0.45
 30
0.1
 70
    64
  0
VERTEX
  5
4FE85
100
AcDbEntity
  8
0
100
AcDbVertex
100
AcDbPolygonMeshVertex
 10
0.538
 20
0.45
 30
0.0
 70
    64
  0
VERTEX
  5
4FE86
100
AcDbEntity
  8
0
100
AcDbVertex
100
AcDbPolygonMeshVertex
 10
0.538
 20
0.33
 30
0.0
 70
    64
  0
VERTEX
  5
4FE87
100
AcDbEntity
  8
0
100
AcDbVertex
100
AcDbPolygonMeshVertex
 10
1.038
 20
0.45
 30
0.1
 70
    64
  0
VERTEX
  5
4FE88
100
AcDbEntity
  8
0
100
AcDbVertex
100
AcDbPolygonMeshVertex
 10
1.038
 20
0.45
 30
0.0
 70
    64
  0
VERTEX
  5
4FE89
100
AcDbEntity
  8
0
100
AcDbVertex
100
AcDbPolygonMeshVertex
 10
1.038
 20
0.33
 30
0.0
 70
    64
  0
VERTEX
  5
4FE8A
100
AcDbEntity
  8
0
100
AcDbVertex
100
AcDbPolygonMeshVertex
 10
1.038
 20
0.45
 30
0.1
 70
    64
  0
VERTEX
  5
4FE8B
100
AcDbEntity
  8
0
100
AcDbVertex
100
AcDbPolygonMeshVertex
 10
1.038
 20
0.45
 30
0.1
 70
    64
  0
VERTEX
  5
4FE8C
100
AcDbEntity
  8
0
100
AcDbVertex
100
AcDbPolygonMeshVertex
 10
1.038
 20
0.33
 30
0.1
 70
    64
  0
VERTEX
  5
4FE8D
100
AcDbEntity
  8
0
100
AcDbVertex
100
AcDbPolygonMeshVertex
 10
0.538
 20
0.45
 30
0.1
 70
    64
  0
VERTEX
  5
4FE8E
100
AcDbEntity
  8
0
100
AcDbVertex
100
AcDbPolygonMeshVertex
 10
0.538
 20
0.45
 30
0.1
 70
    64
  0
VERTEX
  5
4FE8F
100
AcDbEntity
  8
0
100
AcDbVertex
100
AcDbPolygonMeshVertex
 10
0.538
 20
0.33
 30
0.1
 70
    64
  0
SEQEND
  5
4FE90
100
AcDbEntity
  8
0
  0
ATTDEF
  5
4FE91
100
AcDbEntity
  8
ATTRIBUTES
100
AcDbText
 10
0.024602
 20
0.145681
 30
0.0
 40
0.12
  1
ALLEN-BRADLEY
100
AcDbAttributeDefinition
  3
Manufacturer name
  2
AC_VND_LABEL
 70
     1
  0
ATTDEF
  5
4FE92
100
AcDbEntity
  8
ATTRIBUTES
100
AcDbText
 10
0.024602
 20
-0.034219
 30
0.0
 40
0.12
  1
700-HN126
100
AcDbAttributeDefinition
  3
Manufacturer part number
  2
AC_PART_NO
 70
     1
  0
ATTDEF
  5
4FE93
100
AcDbEntity
  8
ATTRIBUTES
100
AcDbText
 10
0.024602
 20
-0.214119
 30
0.0
 40
0.12
  1
CONTROL RELAY; GENERAL PURPOSE SOCKET; 11 PIN
100
AcDbAttributeDefinition
  3
Manufacturer part description
  2
AC_DESCRIPTION
 70
     1
  0
ATTDEF
  5
4FE94
100
AcDbEntity
  8
ATTRIBUTES
100
AcDbText
 10
0.024602
 20
-0.394019
 30
0.0
 40
0.12
  1

100
AcDbAttributeDefinition
  3
Device ID
  2
DEVICE_ID
 70
     1
  0
ATTDEF
  5
4FE95
100
AcDbEntity
  8
ATTRIBUTES
100
AcDbText
 10
0.024602
 20
-0.573919
 30
0.0
 40
0.12
  1

100
AcDbAttributeDefinition
  3
Customer part number
  2
AC_CPART_NO
 70
     1
  0
ATTDEF
  5
4FE96
100
AcDbEntity
  8
ATTRIBUTES
100
AcDbText
 10
0.024602
 20
-0.753819
 30
0.0
 40
0.12
  1

100
AcDbAttributeDefinition
  3
Customer note
  2
AC_NOTE
 70
     1
  0
ATTDEF
  5
4FE97
100
AcDbEntity
  8
ATTRIBUTES
100
AcDbText
 10
0.024602
 20
-0.933719
 30
0.0
 40
0.12
  1

100
AcDbAttributeDefinition
  3
Fastener Data
  2
FASTENER
 70
     1
  0
ATTDEF
  5
4FE98
100
AcDbEntity
  8
ATTRIBUTES
100
AcDbText
 10
0.024602
 20
-1.113619
 30
0.0
 40
0.12
  1
INCH
100
AcDbAttributeDefinition
  3
Unit of scale (meter, mm, or inch)
  2
AC_SCALE_UNIT
 70
     1
  0
ATTDEF
  5
4FE99
100
AcDbEntity
  8
ATTRIBUTES
100
AcDbText
 10
0.024602
 20
-1.293519
 30
0.0
 40
0.12
  1
0
100
AcDbAttributeDefinition
  3
View code (top, front, right, etc.)
  2
AC_VIEW_CODE
 70
     1
  0
POLYLINE
  5
4FE9A
100
AcDbEntity
  8
0
100
AcDbPolygonMesh
 66
     1
 10
0.0
 20
0.0
 30
0.0
 70
    16
 71
     6
 72
     3
  0
VERTEX
  5
4FE9B
100
AcDbEntity
  8
0
100
AcDbVertex
100
AcDbPolygonMeshVertex
 10
1.576
 20
-0.09
 30
0.77
 70
    64
  0
VERTEX
  5
4FE9C
100
AcDbEntity
  8
0
100
AcDbVertex
100
AcDbPolygonMeshVertex
 10
1.576
 20
-0.09
 30
0.187
 70
    64
  0
VERTEX
  5
4FE9D
100
AcDbEntity
  8
0
100
AcDbVertex
100
AcDbPolygonMeshVertex
 10
1.576
 20
-0.09
 30
0.187
 70
    64
  0
VERTEX
  5
4FE9E
100
AcDbEntity
  8
0
100
AcDbVertex
100
AcDbPolygonMeshVertex
 10
1.953
 20
-0.09
 30
0.77
 70
    64
  0
VERTEX
  5
4FE9F
100
AcDbEntity
  8
0
100
AcDbVertex
100
AcDbPolygonMeshVertex
 10
1.953
 20
-0.09
 30
0.187
 70
    64
  0
VERTEX
  5
4FEA0
100
AcDbEntity
  8
0
100
AcDbVertex
100
AcDbPolygonMeshVertex
 10
1.953
 20
-0.09
 30
0.187
 70
    64
  0
VERTEX
  5
4FEA1
100
AcDbEntity
  8
0
100
AcDbVertex
100
AcDbPolygonMeshVertex
 10
1.953
 20
-1.29
 30
0.77
 70
    64
  0
VERTEX
  5
4FEA2
100
AcDbEntity
  8
0
100
AcDbVertex
100
AcDbPolygonMeshVertex
 10
1.953
 20
-1.29
 30
0.187
 70
    64
  0
VERTEX
  5
4FEA3
100
AcDbEntity
  8
0
100
AcDbVertex
100
AcDbPolygonMeshVertex
 10
1.953
 20
-0.09
 30
0.187
 70
    64
  0
VERTEX
  5
4FEA4
100
AcDbEntity
  8
0
100
AcDbVertex
100
AcDbPolygonMeshVertex
 10
1.576
 20
-1.29
 30
0.77
 70
    64
  0
VERTEX
  5
4FEA5
100
AcDbEntity
  8
0
100
AcDbVertex
100
AcDbPolygonMeshVertex
 10
1.576
 20
-1.29
 30
0.187
 70
    64
  0
VERTEX
  5
4FEA6
100
AcDbEntity
  8
0
100
AcDbVertex
100
AcDbPolygonMeshVertex
 10
1.576
 20
-0.09
 30
0.187
 70
    64
  0
VERTEX
  5
4FEA7
100
AcDbEntity
  8
0
100
AcDbVertex
100
AcDbPolygonMeshVertex
 10
1.576
 20
-1.29
 30
0.77
 70
    64
  0
VERTEX
  5
4FEA8
100
AcDbEntity
  8
0
100
AcDbVertex
100
AcDbPolygonMeshVertex
 10
1.576
 20
-1.29
 30
0.77
 70
    64
  0
VERTEX
  5
4FEA9
100
AcDbEntity
  8
0
100
AcDbVertex
100
AcDbPolygonMeshVertex
 10
1.576
 20
-0.09
 30
0.77
 70
    64
  0
VERTEX
  5
4FEAA
100
AcDbEntity
  8
0
100
AcDbVertex
100
AcDbPolygonMeshVertex
 10
1.953
 20
-1.29
 30
0.77
 70
    64
  0
VERTEX
  5
4FEAB
100
AcDbEntity
  8
0
100
AcDbVertex
100
AcDbPolygonMeshVertex
 10
1.953
 20
-1.29
 30
0.77
 70
    64
  0
VERTEX
  5
4FEAC
100
AcDbEntity
  8
0
100
AcDbVertex
100
AcDbPolygonMeshVertex
 10
1.953
 20
-0.09
 30
0.77
 70
    64
  0
SEQEND
  5
4FEAD
100
AcDbEntity
  8
0
  0
POLYLINE
  5
4FEAE
100
AcDbEntity
  8
0
100
AcDbPolygonMesh
 66
     1
 10
0.0
 20
0.0
 30
0.0
 70
    16
 71
     6
 72
     3
  0
VERTEX
  5
4FEAF
100
AcDbEntity
  8
0
100
AcDbVertex
100
AcDbPolygonMeshVertex
 10
-0.377
 20
-0.09
 30
0.77
 70
    64
  0
VERTEX
  5
4FEB0
100
AcDbEntity
  8
0
100
AcDbVertex
100
AcDbPolygonMeshVertex
 10
-0.377
 20
-0.09
 30
0.187
 70
    64
  0
VERTEX
  5
4FEB1
100
AcDbEntity
  8
0
100
AcDbVertex
100
AcDbPolygonMeshVertex
 10
-0.377
 20
-0.09
 30
0.187
 70
    64
  0
VERTEX
  5
4FEB2
100
AcDbEntity
  8
0
100
AcDbVertex
100
AcDbPolygonMeshVertex
 10
0.0
 20
-0.09
 30
0.77
 70
    64
  0
VERTEX
  5
4FEB3
100
AcDbEntity
  8
0
100
AcDbVertex
100
AcDbPolygonMeshVertex
 10
0.0
 20
-0.09
 30
0.187
 70
    64
  0
VERTEX
  5
4FEB4
100
AcDbEntity
  8
0
100
AcDbVertex
100
AcDbPolygonMeshVertex
 10
0.0
 20
-0.09
 30
0.187
 70
    64
  0
VERTEX
  5
4FEB5
100
AcDbEntity
  8
0
100
AcDbVertex
100
AcDbPolygonMeshVertex
 10
0.0
 20
-1.29
 30
0.77
 70
    64
  0
VERTEX
  5
4FEB6
100
AcDbEntity
  8
0
100
AcDbVertex
100
AcDbPolygonMeshVertex
 10
0.0
 20
-1.29
 30
0.187
 70
    64
  0
VERTEX
  5
4FEB7
100
AcDbEntity
  8
0
100
AcDbVertex
100
AcDbPolygonMeshVertex
 10
0.0
 20
-0.09
 30
0.187
 70
    64
  0
VERTEX
  5
4FEB8
100
AcDbEntity
  8
0
100
AcDbVertex
100
AcDbPolygonMeshVertex
 10
-0.377
 20
-1.29
 30
0.77
 70
    64
  0
VERTEX
  5
4FEB9
100
AcDbEntity
  8
0
100
AcDbVertex
100
AcDbPolygonMeshVertex
 10
-0.377
 20
-1.29
 30
0.187
 70
    64
  0
VERTEX
  5
4FEBA
100
AcDbEntity
  8
0
100
AcDbVertex
100
AcDbPolygonMeshVertex
 10
-0.377
 20
-0.09
 30
0.187
 70
    64
  0
VERTEX
  5
4FEBB
100
AcDbEntity
  8
0
100
AcDbVertex
100
AcDbPolygonMeshVertex
 10
-0.377
 20
-1.29
 30
0.77
 70
    64
  0
VERTEX
  5
4FEBC
100
AcDbEntity
  8
0
100
AcDbVertex
100
AcDbPolygonMeshVertex
 10
-0.377
 20
-1.29
 30
0.77
 70
    64
  0
VERTEX
  5
4FEBD
100
AcDbEntity
  8
0
100
AcDbVertex
100
AcDbPolygonMeshVertex
 10
-0.377
 20
-0.09
 30
0.77
 70
    64
  0
VERTEX
  5
4FEBE
100
AcDbEntity
  8
0
100
AcDbVertex
100
AcDbPolygonMeshVertex
 10
0.0
 20
-1.29
 30
0.77
 70
    64
  0
VERTEX
  5
4FEBF
100
AcDbEntity
  8
0
100
AcDbVertex
100
AcDbPolygonMeshVertex
 10
0.0
 20
-1.29
 30
0.77
 70
    64
  0
VERTEX
  5
4FEC0
100
AcDbEntity
  8
0
100
AcDbVertex
100
AcDbPolygonMeshVertex
 10
0.0
 20
-0.09
 30
0.77
 70
    64
  0
SEQEND
  5
4FEC1
100
AcDbEntity
  8
0
  0
POLYLINE
  5
4FEC2
100
AcDbEntity
  8
0
100
AcDbPolygonMesh
 66
     1
 10
0.0
 20
0.0
 30
0.0
 70
    16
 71
     6
 72
     3
  0
VERTEX
  5
4FEC3
100
AcDbEntity
  8
0
100
AcDbVertex
100
AcDbPolygonMeshVertex
 10
1.576
 20
-1.71
 30
0.187
 70
    64
  0
VERTEX
  5
4FEC4
100
AcDbEntity
  8
0
100
AcDbVertex
100
AcDbPolygonMeshVertex
 10
1.576
 20
-1.71
 30
0.0
 70
    64
  0
VERTEX
  5
4FEC5
100
AcDbEntity
  8
0
100
AcDbVertex
100
AcDbPolygonMeshVertex
 10
1.576
 20
-1.71
 30
0.0
 70
    64
  0
VERTEX
  5
4FEC6
100
AcDbEntity
  8
0
100
AcDbVertex
100
AcDbPolygonMeshVertex
 10
0.0
 20
-1.71
 30
0.187
 70
    64
  0
VERTEX
  5
4FEC7
100
AcDbEntity
  8
0
100
AcDbVertex
100
AcDbPolygonMeshVertex
 10
0.0
 20
-1.71
 30
0.0
 70
    64
  0
VERTEX
  5
4FEC8
100
AcDbEntity
  8
0
100
AcDbVertex
100
AcDbPolygonMeshVertex
 10
0.0
 20
-1.71
 30
0.0
 70
    64
  0
VERTEX
  5
4FEC9
100
AcDbEntity
  8
0
100
AcDbVertex
100
AcDbPolygonMeshVertex
 10
0.0
 20
-1.38
 30
0.187
 70
    64
  0
VERTEX
  5
4FECA
100
AcDbEntity
  8
0
100
AcDbVertex
100
AcDbPolygonMeshVertex
 10
0.0
 20
-1.38
 30
0.0
 70
    64
  0
VERTEX
  5
4FECB
100
AcDbEntity
  8
0
100
AcDbVertex
100
AcDbPolygonMeshVertex
 10
0.0
 20
-1.71
 30
0.0
 70
    64
  0
VERTEX
  5
4FECC
100
AcDbEntity
  8
0
100
AcDbVertex
100
AcDbPolygonMeshVertex
 10
1.576
 20
-1.38
 30
0.187
 70
    64
  0
VERTEX
  5
4FECD
100
AcDbEntity
  8
0
100
AcDbVertex
100
AcDbPolygonMeshVertex
 10
1.576
 20
-1.38
 30
0.0
 70
    64
  0
VERTEX
  5
4FECE
100
AcDbEntity
  8
0
100
AcDbVertex
100
AcDbPolygonMeshVertex
 10
1.576
 20
-1.71
 30
0.0
 70
    64
  0
VERTEX
  5
4FECF
100
AcDbEntity
  8
0
100
AcDbVertex
100
AcDbPolygonMeshVertex
 10
1.576
 20
-1.38
 30
0.187
 70
    64
  0
VERTEX
  5
4FED0
100
AcDbEntity
  8
0
100
AcDbVertex
100
AcDbPolygonMeshVertex
 10
1.576
 20
-1.38
 30
0.187
 70
    64
  0
VERTEX
  5
4FED1
100
AcDbEntity
  8
0
100
AcDbVertex
100
AcDbPolygonMeshVertex
 10
1.576
 20
-1.71
 30
0.187
 70
    64
  0
VERTEX
  5
4FED2
100
AcDbEntity
  8
0
100
AcDbVertex
100
AcDbPolygonMeshVertex
 10
0.0
 20
-1.38
 30
0.187
 70
    64
  0
VERTEX
  5
4FED3
100
AcDbEntity
  8
0
100
AcDbVertex
100
AcDbPolygonMeshVertex
 10
0.0
 20
-1.38
 30
0.187
 70
    64
  0
VERTEX
  5
4FED4
100
AcDbEntity
  8
0
100
AcDbVertex
100
AcDbPolygonMeshVertex
 10
0.0
 20
-1.71
 30
0.187
 70
    64
  0
SEQEND
  5
4FED5
100
AcDbEntity
  8
0
  0
POLYLINE
  5
4FED6
100
AcDbEntity
  8
0
100
AcDbPolygonMesh
 66
     1
 10
0.0
 20
0.0
 30
0.0
 70
    16
 71
     6
 72
     3
  0
VERTEX
  5
4FED7
100
AcDbEntity
  8
0
100
AcDbVertex
100
AcDbPolygonMeshVertex
 10
1.576
 20
-1.71
 30
0.77
 70
    64
  0
VERTEX
  5
4FED8
100
AcDbEntity
  8
0
100
AcDbVertex
100
AcDbPolygonMeshVertex
 10
1.576
 20
-1.71
 30
0.187
 70
    64
  0
VERTEX
  5
4FED9
100
AcDbEntity
  8
0
100
AcDbVertex
100
AcDbPolygonMeshVertex
 10
1.576
 20
-1.71
 30
0.187
 70
    64
  0
VERTEX
  5
4FEDA
100
AcDbEntity
  8
0
100
AcDbVertex
100
AcDbPolygonMeshVertex
 10
0.0
 20
-1.71
 30
0.77
 70
    64
  0
VERTEX
  5
4FEDB
100
AcDbEntity
  8
0
100
AcDbVertex
100
AcDbPolygonMeshVertex
 10
0.0
 20
-1.71
 30
0.187
 70
    64
  0
VERTEX
  5
4FEDC
100
AcDbEntity
  8
0
100
AcDbVertex
100
AcDbPolygonMeshVertex
 10
0.0
 20
-1.71
 30
0.187
 70
    64
  0
VERTEX
  5
4FEDD
100
AcDbEntity
  8
0
100
AcDbVertex
100
AcDbPolygonMeshVertex
 10
0.0
 20
-1.29
 30
0.77
 70
    64
  0
VERTEX
  5
4FEDE
100
AcDbEntity
  8
0
100
AcDbVertex
100
AcDbPolygonMeshVertex
 10
0.0
 20
-1.29
 30
0.187
 70
    64
  0
VERTEX
  5
4FEDF
100
AcDbEntity
  8
0
100
AcDbVertex
100
AcDbPolygonMeshVertex
 10
0.0
 20
-1.71
 30
0.187
 70
    64
  0
VERTEX
  5
4FEE0
100
AcDbEntity
  8
0
100
AcDbVertex
100
AcDbPolygonMeshVertex
 10
1.576
 20
-1.29
 30
0.77
 70
    64
  0
VERTEX
  5
4FEE1
100
AcDbEntity
  8
0
100
AcDbVertex
100
AcDbPolygonMeshVertex
 10
1.576
 20
-1.29
 30
0.187
 70
    64
  0
VERTEX
  5
4FEE2
100
AcDbEntity
  8
0
100
AcDbVertex
100
AcDbPolygonMeshVertex
 10
1.576
 20
-1.71
 30
0.187
 70
    64
  0
VERTEX
  5
4FEE3
100
AcDbEntity
  8
0
100
AcDbVertex
100
AcDbPolygonMeshVertex
 10
1.576
 20
-1.29
 30
0.77
 70
    64
  0
VERTEX
  5
4FEE4
100
AcDbEntity
  8
0
100
AcDbVertex
100
AcDbPolygonMeshVertex
 10
1.576
 20
-1.29
 30
0.77
 70
    64
  0
VERTEX
  5
4FEE5
100
AcDbEntity
  8
0
100
AcDbVertex
100
AcDbPolygonMeshVertex
 10
1.576
 20
-1.71
 30
0.77
 70
    64
  0
VERTEX
  5
4FEE6
100
AcDbEntity
  8
0
100
AcDbVertex
100
AcDbPolygonMeshVertex
 10
0.0
 20
-1.29
 30
0.77
 70
    64
  0
VERTEX
  5
4FEE7
100
AcDbEntity
  8
0
100
AcDbVertex
100
AcDbPolygonMeshVertex
 10
0.0
 20
-1.29
 30
0.77
 70
    64
  0
VERTEX
  5
4FEE8
100
AcDbEntity
  8
0
100
AcDbVertex
100
AcDbPolygonMeshVertex
 10
0.0
 20
-1.71
 30
0.77
 70
    64
  0
SEQEND
  5
4FEE9
100
AcDbEntity
  8
0
  0
POLYLINE
  5
4FEEA
100
AcDbEntity
  8
0
100
AcDbPolygonMesh
 66
     1
 10
0.0
 20
0.0
 30
0.0
 70
    16
 71
     6
 72
     3
  0
VERTEX
  5
4FEEB
100
AcDbEntity
  8
0
100
AcDbVertex
100
AcDbPolygonMeshVertex
 10
1.576
 20
-1.29
 30
0.77
 70
    64
  0
VERTEX
  5
4FEEC
100
AcDbEntity
  8
0
100
AcDbVertex
100
AcDbPolygonMeshVertex
 10
1.576
 20
-1.29
 30
0.187
 70
    64
  0
VERTEX
  5
4FEED
100
AcDbEntity
  8
0
100
AcDbVertex
100
AcDbPolygonMeshVertex
 10
1.576
 20
-1.29
 30
0.187
 70
    64
  0
VERTEX
  5
4FEEE
100
AcDbEntity
  8
0
100
AcDbVertex
100
AcDbPolygonMeshVertex
 10
0.0
 20
-1.29
 30
0.77
 70
    64
  0
VERTEX
  5
4FEEF
100
AcDbEntity
  8
0
100
AcDbVertex
100
AcDbPolygonMeshVertex
 10
0.0
 20
-1.29
 30
0.187
 70
    64
  0
VERTEX
  5
4FEF0
100
AcDbEntity
  8
0
100
AcDbVertex
100
AcDbPolygonMeshVertex
 10
0.0
 20
-1.29
 30
0.187
 70
    64
  0
VERTEX
  5
4FEF1
100
AcDbEntity
  8
0
100
AcDbVertex
100
AcDbPolygonMeshVertex
 10
0.0
 20
-0.09
 30
0.77
 70
    64
  0
VERTEX
  5
4FEF2
100
AcDbEntity
  8
0
100
AcDbVertex
100
AcDbPolygonMeshVertex
 10
0.0
 20
-0.09
 30
0.187
 70
    64
  0
VERTEX
  5
4FEF3
100
AcDbEntity
  8
0
100
AcDbVertex
100
AcDbPolygonMeshVertex
 10
0.0
 20
-1.29
 30
0.187
 70
    64
  0
VERTEX
  5
4FEF4
100
AcDbEntity
  8
0
100
AcDbVertex
100
AcDbPolygonMeshVertex
 10
1.576
 20
-0.09
 30
0.77
 70
    64
  0
VERTEX
  5
4FEF5
100
AcDbEntity
  8
0
100
AcDbVertex
100
AcDbPolygonMeshVertex
 10
1.576
 20
-0.09
 30
0.187
 70
    64
  0
VERTEX
  5
4FEF6
100
AcDbEntity
  8
0
100
AcDbVertex
100
AcDbPolygonMeshVertex
 10
1.576
 20
-1.29
 30
0.187
 70
    64
  0
VERTEX
  5
4FEF7
100
AcDbEntity
  8
0
100
AcDbVertex
100
AcDbPolygonMeshVertex
 10
1.576
 20
-0.09
 30
0.77
 70
    64
  0
VERTEX
  5
4FEF8
100
AcDbEntity
  8
0
100
AcDbVertex
100
AcDbPolygonMeshVertex
 10
1.576
 20
-0.09
 30
0.77
 70
    64
  0
VERTEX
  5
4FEF9
100
AcDbEntity
  8
0
100
AcDbVertex
100
AcDbPolygonMeshVertex
 10
1.576
 20
-1.29
 30
0.77
 70
    64
  0
VERTEX
  5
4FEFA
100
AcDbEntity
  8
0
100
AcDbVertex
100
AcDbPolygonMeshVertex
 10
0.0
 20
-0.09
 30
0.77
 70
    64
  0
VERTEX
  5
4FEFB
100
AcDbEntity
  8
0
100
AcDbVertex
100
AcDbPolygonMeshVertex
 10
0.0
 20
-0.09
 30
0.77
 70
    64
  0
VERTEX
  5
4FEFC
100
AcDbEntity
  8
0
100
AcDbVertex
100
AcDbPolygonMeshVertex
 10
0.0
 20
-1.29
 30
0.77
 70
    64
  0
SEQEND
  5
4FEFD
100
AcDbEntity
  8
0
  0
POLYLINE
  5
4FEFE
100
AcDbEntity
  8
0
100
AcDbPolygonMesh
 66
     1
 10
0.0
 20
0.0
 30
0.0
 70
    16
 71
     6
 72
     3
  0
VERTEX
  5
4FEFF
100
AcDbEntity
  8
0
100
AcDbVertex
100
AcDbPolygonMeshVertex
 10
1.576
 20
0.0
 30
0.187
 70
    64
  0
VERTEX
  5
4FF00
100
AcDbEntity
  8
0
100
AcDbVertex
100
AcDbPolygonMeshVertex
 10
1.576
 20
0.0
 30
0.0
 70
    64
  0
VERTEX
  5
4FF01
100
AcDbEntity
  8
0
100
AcDbVertex
100
AcDbPolygonMeshVertex
 10
1.576
 20
0.0
 30
0.0
 70
    64
  0
VERTEX
  5
4FF02
100
AcDbEntity
  8
0
100
AcDbVertex
100
AcDbPolygonMeshVertex
 10
0.0
 20
0.0
 30
0.187
 70
    64
  0
VERTEX
  5
4FF03
100
AcDbEntity
  8
0
100
AcDbVertex
100
AcDbPolygonMeshVertex
 10
0.0
 20
0.0
 30
0.0
 70
    64
  0
VERTEX
  5
4FF04
100
AcDbEntity
  8
0
100
AcDbVertex
100
AcDbPolygonMeshVertex
 10
0.0
 20
0.0
 30
0.0
 70
    64
  0
VERTEX
  5
4FF05
100
AcDbEntity
  8
0
100
AcDbVertex
100
AcDbPolygonMeshVertex
 10
0.0
 20
0.33
 30
0.187
 70
    64
  0
VERTEX
  5
4FF06
100
AcDbEntity
  8
0
100
AcDbVertex
100
AcDbPolygonMeshVertex
 10
0.0
 20
0.33
 30
0.0
 70
    64
  0
VERTEX
  5
4FF07
100
AcDbEntity
  8
0
100
AcDbVertex
100
AcDbPolygonMeshVertex
 10
0.0
 20
0.0
 30
0.0
 70
    64
  0
VERTEX
  5
4FF08
100
AcDbEntity
  8
0
100
AcDbVertex
100
AcDbPolygonMeshVertex
 10
1.576
 20
0.33
 30
0.187
 70
    64
  0
VERTEX
  5
4FF09
100
AcDbEntity
  8
0
100
AcDbVertex
100
AcDbPolygonMeshVertex
 10
1.576
 20
0.33
 30
0.0
 70
    64
  0
VERTEX
  5
4FF0A
100
AcDbEntity
  8
0
100
AcDbVertex
100
AcDbPolygonMeshVertex
 10
1.576
 20
0.0
 30
0.0
 70
    64
  0
VERTEX
  5
4FF0B
100
AcDbEntity
  8
0
100
AcDbVertex
100
AcDbPolygonMeshVertex
 10
1.576
 20
0.33
 30
0.187
 70
    64
  0
VERTEX
  5
4FF0C
100
AcDbEntity
  8
0
100
AcDbVertex
100
AcDbPolygonMeshVertex
 10
1.576
 20
0.33
 30
0.187
 70
    64
  0
VERTEX
  5
4FF0D
100
AcDbEntity
  8
0
100
AcDbVertex
100
AcDbPolygonMeshVertex
 10
1.576
 20
0.0
 30
0.187
 70
    64
  0
VERTEX
  5
4FF0E
100
AcDbEntity
  8
0
100
AcDbVertex
100
AcDbPolygonMeshVertex
 10
0.0
 20
0.33
 30
0.187
 70
    64
  0
VERTEX
  5
4FF0F
100
AcDbEntity
  8
0
100
AcDbVertex
100
AcDbPolygonMeshVertex
 10
0.0
 20
0.33
 30
0.187
 70
    64
  0
VERTEX
  5
4FF10
100
AcDbEntity
  8
0
100
AcDbVertex
100
AcDbPolygonMeshVertex
 10
0.0
 20
0.0
 30
0.187
 70
    64
  0
SEQEND
  5
4FF11
100
AcDbEntity
  8
0
  0
POLYLINE
  5
4FF12
100
AcDbEntity
  8
0
100
AcDbPolygonMesh
 66
     1
 10
0.0
 20
0.0
 30
0.0
 70
    16
 71
     6
 72
     3
  0
VERTEX
  5
4FF13
100
AcDbEntity
  8
0
100
AcDbVertex
100
AcDbPolygonMeshVertex
 10
1.576
 20
-0.09
 30
0.77
 70
    64
  0
VERTEX
  5
4FF14
100
AcDbEntity
  8
0
100
AcDbVertex
100
AcDbPolygonMeshVertex
 10
1.576
 20
-0.09
 30
0.187
 70
    64
  0
VERTEX
  5
4FF15
100
AcDbEntity
  8
0
100
AcDbVertex
100
AcDbPolygonMeshVertex
 10
1.576
 20
-0.09
 30
0.187
 70
    64
  0
VERTEX
  5
4FF16
100
AcDbEntity
  8
0
100
AcDbVertex
100
AcDbPolygonMeshVertex
 10
0.0
 20
-0.09
 30
0.77
 70
    64
  0
VERTEX
  5
4FF17
100
AcDbEntity
  8
0
100
AcDbVertex
100
AcDbPolygonMeshVertex
 10
0.0
 20
-0.09
 30
0.187
 70
    64
  0
VERTEX
  5
4FF18
100
AcDbEntity
  8
0
100
AcDbVertex
100
AcDbPolygonMeshVertex
 10
0.0
 20
-0.09
 30
0.187
 70
    64
  0
VERTEX
  5
4FF19
100
AcDbEntity
  8
0
100
AcDbVertex
100
AcDbPolygonMeshVertex
 10
0.0
 20
0.33
 30
0.77
 70
    64
  0
VERTEX
  5
4FF1A
100
AcDbEntity
  8
0
100
AcDbVertex
100
AcDbPolygonMeshVertex
 10
0.0
 20
0.33
 30
0.187
 70
    64
  0
VERTEX
  5
4FF1B
100
AcDbEntity
  8
0
100
AcDbVertex
100
AcDbPolygonMeshVertex
 10
0.0
 20
-0.09
 30
0.187
 70
    64
  0
VERTEX
  5
4FF1C
100
AcDbEntity
  8
0
100
AcDbVertex
100
AcDbPolygonMeshVertex
 10
1.576
 20
0.33
 30
0.77
 70
    64
  0
VERTEX
  5
4FF1D
100
AcDbEntity
  8
0
100
AcDbVertex
100
AcDbPolygonMeshVertex
 10
1.576
 20
0.33
 30
0.187
 70
    64
  0
VERTEX
  5
4FF1E
100
AcDbEntity
  8
0
100
AcDbVertex
100
AcDbPolygonMeshVertex
 10
1.576
 20
-0.09
 30
0.187
 70
    64
  0
VERTEX
  5
4FF1F
100
AcDbEntity
  8
0
100
AcDbVertex
100
AcDbPolygonMeshVertex
 10
1.576
 20
0.33
 30
0.77
 70
    64
  0
VERTEX
  5
4FF20
100
AcDbEntity
  8
0
100
AcDbVertex
100
AcDbPolygonMeshVertex
 10
1.576
 20
0.33
 30
0.77
 70
    64
  0
VERTEX
  5
4FF21
100
AcDbEntity
  8
0
100
AcDbVertex
100
AcDbPolygonMeshVertex
 10
1.576
 20
-0.09
 30
0.77
 70
    64
  0
VERTEX
  5
4FF22
100
AcDbEntity
  8
0
100
AcDbVertex
100
AcDbPolygonMeshVertex
 10
0.0
 20
0.33
 30
0.77
 70
    64
  0
VERTEX
  5
4FF23
100
AcDbEntity
  8
0
100
AcDbVertex
100
AcDbPolygonMeshVertex
 10
0.0
 20
0.33
 30
0.77
 70
    64
  0
VERTEX
  5
4FF24
100
AcDbEntity
  8
0
100
AcDbVertex
100
AcDbPolygonMeshVertex
 10
0.0
 20
-0.09
 30
0.77
 70
    64
  0
SEQEND
  5
4FF25
100
AcDbEntity
  8
0
  0
POINT
  5
4FF26
100
AcDbEntity
  8
SNAP_POINTS
100
AcDbPoint
 10
0.0
 20
0.0
 30
0.0
  0
POINT
  5
4FF27
100
AcDbEntity
  8
SNAP_POINTS
100
AcDbPoint
 10
0.788
 20
-0.69
 30
0.97
  0
POINT
  5
4FF28
100
AcDbEntity
  8
DIMS-MTG-HOLES
100
AcDbPoint
 10
-0.242
 20
-0.69
 30
0.0
  0
POINT
  5
4FF29
100
AcDbEntity
  8
DIMS-MTG-HOLES
100
AcDbPoint
 10
1.818
 20
-0.69
 30
0.0
  0
CIRCLE
  5
4FF2A
100
AcDbEntity
  8
0
100
AcDbCircle
 10
-0.245
 20
-0.69
 30
0.77
 40
0.08
  0
CIRCLE
  5
4FF2B
100
AcDbEntity
  8
0
100
AcDbCircle
 10
1.818
 20
-0.69
 30
0.77
 40
0.08
  0
DIMENSION
  5
4FF2C
100
AcDbEntity
  8
AREA1
100
AcDbDimension
  2
*D0
 10
-1.040485
 20
-1.71
 30
0.0
 11
-1.040485
 21
-0.635198
 31
0.0
 70
   160
  3
ABECAD_3D
100
AcDbAlignedDimension
 13
0.538
 23
0.45
 33
0.0
 14
0.0
 24
-1.71
 34
0.0
 50
90.0
100
AcDbRotatedDimension
  0
DIMENSION
  5
4FF3A
100
AcDbEntity
  8
AREA1
100
AcDbDimension
  2
*D1
 10
1.953
 20
0.908065
 30
0.0
 11
0.819174
 21
0.908065
 31
0.0
 70
   160
  3
ABECAD_3D
100
AcDbAlignedDimension
 13
-0.377
 23
-0.09
 33
0.187
 14
1.953
 24
-0.09
 34
0.187
100
AcDbRotatedDimension
  0
LWPOLYLINE
  5
4FF57
100
AcDbEntity
  8
SCALE
100
AcDbPolyline
 90
        4
 70
     1
 43
0.0
 10
0.184835
 20
-1.813738
 10
1.320463
 20
-1.813738
 10
1.320463
 20
-2.655348
 10
0.184835
 20
-2.655348
  0
LINE
  5
4FF58
100
AcDbEntity
  8
SCALE
100
AcDbLine
 10
0.242833
 20
-2.193817
 30
0.0
 11
1.242833
 21
-2.193817
 31
0.0
  0
LINE
  5
4FF59
100
AcDbEntity
  8
SCALE
100
AcDbLine
 10
0.242833
 20
-2.493817
 30
0.0
 11
0.636533
 21
-2.493817
 31
0.0
  0
LINE
  5
4FF5A
100
AcDbEntity
  8
SCALE
100
AcDbLine
 10
0.242833
 20
-2.293817
 30
0.0
 11
0.242833
 21
-2.093817
 31
0.0
  0
TEXT
  5
4FF5B
100
AcDbEntity
  8
SCALE
100
AcDbText
 10
0.298809
 20
-2.446132
 30
0.0
 40
0.0625
  1
[10mm]
100
AcDbText
  0
LINE
  5
4FF5C
100
AcDbEntity
  8
SCALE
100
AcDbLine
 10
0.242833
 20
-2.593817
 30
0.0
 11
0.242833
 21
-2.393817
 31
0.0
  0
TEXT
  5
4FF5D
100
AcDbEntity
  8
SCALE
100
AcDbText
 10
0.244364
 20
-1.91894
 30
0.0
 40
0.0625
  1
SCALE:
100
AcDbText
  0
LINE
  5
4FF5E
100
AcDbEntity
  8
SCALE
100
AcDbLine
 10
0.636533
 20
-2.593817
 30
0.0
 11
0.636533
 21
-2.393817
 31
0.0
  0
TEXT
  5
4FF5F
100
AcDbEntity
  8
SCALE
100
AcDbText
 10
0.606116
 20
-2.124768
 30
0.0
 40
0.0625
  1
1 Inch
100
AcDbText
  0
LINE
  5
4FF60
100
AcDbEntity
  8
SCALE
100
AcDbLine
 10
1.242833
 20
-2.193817
 30
0.0
 11
1.242833
 21
-2.293817
 31
0.0
  0
LINE
  5
4FF61
100
AcDbEntity
  8
SCALE
100
AcDbLine
 10
1.242833
 20
-2.293817
 30
0.0
 11
1.242833
 21
-2.093817
 31
0.0
  0
ENDSEC
  0
SECTION
  2
OBJECTS
  0
DICTIONARY
  5
458CB
100
AcDbDictionary
  3
ACAD_GROUP
350
458CC
  3
ACAD_LAYOUT
350
458FB
  3
ACAD_MLINESTYLE
350
458D9
  3
ACAD_PLOTSETTINGS
350
458FC
  3
ACAD_PLOTSTYLENAME
350
458F9
  3
ACDBHEADERROUNDTRIPXREC
350
4FFC9
  3
ACDBVARIABLEDICTIONARY
350
458E1
  3
DWGPROPS
350
45901
  0
DICTIONARY
  5
4FFC7
100
AcDbDictionary
280
     1
  3
ACAD_XREC_ROUNDTRIP
360
4FFC8
  0
DICTIONARY
  5
4FFF0
100
AcDbDictionary
280
     1
  3
ACAD_XREC_ROUNDTRIP
360
4FFF1
  0
DICTIONARY
  5
4FFC5
100
AcDbDictionary
280
     1
  3
ACAD_XREC_ROUNDTRIP
360
4FFC6
  0
DICTIONARY
  5
4FFEC
100
AcDbDictionary
280
     1
  3
ACAD_XREC_ROUNDTRIP
360
4FFED
  0
DICTIONARY
  5
4592C
100
AcDbDictionary
280
     1
  3
ACAD_LAYOUTSELFREF
360
4FFEB
  0
DICTIONARY
  5
4592A
100
AcDbDictionary
280
     1
  3
ACAD_LAYOUTSELFREF
360
4FFEA
  0
DICTIONARY
  5
458CC
102
{ACAD_REACTORS
330
458CB
102
}
100
AcDbDictionary
  0
DICTIONARY
  5
458FB
102
{ACAD_XDICTIONARY
360
4FFEE
102
}
102
{ACAD_REACTORS
330
458CB
102
}
100
AcDbDictionary
  3
LAYOUT1
350
458FE
  3
MODEL
350
458FD
  0
DICTIONARY
  5
458D9
102
{ACAD_REACTORS
330
458CB
102
}
100
AcDbDictionary
  3
STANDARD
350
458DA
  0
DICTIONARY
  5
458FC
102
{ACAD_REACTORS
330
458CB
102
}
100
AcDbDictionary
  0
ACAD_PROXY_OBJECT
  5
458F9
102
{ACAD_REACTORS
330
458CB
102
}
100
AcDbProxyObject
 90
      499
 91
      501
 93
       86
310
405010041939BDC9B585B0
350
458FA
340
458FA
 94
        0
  0
DICTIONARY
  5
4FFC9
102
{ACAD_REACTORS
330
458CB
102
}
100
AcDbDictionary
  3
CEPSNTYPE
350
4FFD3
  3
DIMSTYLEDATA
350
4FFD7
  3
FINGERPRINTGUID
350
4FFD4
  3
HYPERLINKBASE
350
4FFCC
  3
INSUNITS
350
4FFD2
  3
LAYOUTDICT
350
4FFCE
  3
LWETCUNION
350
4FFD1
  3
PLOTSETDICT
350
4FFCF
  3
PLOTSTYLNAMDICT
350
4FFD0
  3
PSVPSCALE
350
4FFD6
  3
PUCSBASE
350
4FFDA
  3
PUCSORGBACK
350
4FFE0
  3
PUCSORGBOTTOM
350
4FFDC
  3
PUCSORGFRONT
350
4FFDF
  3
PUCSORGLEFT
350
4FFDD
  3
PUCSORGRIGHT
350
4FFDE
  3
PUCSORGTOP
350
4FFDB
  3
PUCSORTHOREF
350
4FFD8
  3
PUCSORTHOVIEW
350
4FFD9
  3
STYLESHEET
350
4FFCD
  3
TSTACKALIGN
350
4FFCA
  3
TSTACKSIZE
350
4FFCB
  3
UCSBASE
350
4FFE3
  3
UCSORGBACK
350
4FFE9
  3
UCSORGBOTTOM
350
4FFE5
  3
UCSORGFRONT
350
4FFE8
  3
UCSORGLEFT
350
4FFE6
  3
UCSORGRIGHT
350
4FFE7
  3
UCSORGTOP
350
4FFE4
  3
UCSORTHOREF
350
4FFE1
  3
UCSORTHOVIEW
350
4FFE2
  3
VERSIONGUID
350
4FFD5
  0
DICTIONARY
  5
458E1
102
{ACAD_REACTORS
330
458CB
102
}
100
AcDbDictionary
  3
DIMADEC
350
458E2
  0
XRECORD
  5
45901
102
{ACAD_REACTORS
330
458CB
102
}
100
AcDbXrecord
  1
DWGPROPS COOKIE
  2

  3

  4

  6

  7

  8
colin
  9

300
=
301
=
302
=
303
=
304
=
305
=
306
=
307
=
308
=
309
=
 40
0.000599
 41
2451670.444777
 42
2451670.445376
  1

 90
        0
  0
XRECORD
  5
4FFC8
102
{ACAD_REACTORS
330
4FFC7
102
}
100
AcDbXrecord
102
EXTNAMES
  1
*ACTIVE
  2
*Active
102
UCS
 74
     0
 71
     1
 10
0.0
 20
0.0
 30
0.0
 10
1.0
 20
0.0
 30
0.0
 10
0.0
 20
1.0
 30
0.0
146
0.0
 79
     1
102
VIEW
281
     1
  0
XRECORD
  5
4FFF1
102
{ACAD_REACTORS
330
4FFF0
102
}
100
AcDbXrecord
102
PLOTBIT
280
     0
  0
XRECORD
  5
4FFC6
102
{ACAD_REACTORS
330
4FFC5
102
}
100
AcDbXrecord
102
EXTNAMES
  1
DEFPOINTS
  2
Defpoints
102
PLOTBIT
280
     0
  0
XRECORD
  5
4FFED
102
{ACAD_REACTORS
330
4FFEC
102
}
100
AcDbXrecord
102
ACADR14ROUNDTRIP
1000
DSTYLE
1002
{
1070
   276
 70
     2
1070
   277
 70
     5
1070
   279
 70
     2
1002
}
  0
XRECORD
  5
4FFEB
102
{ACAD_REACTORS
330
4592C
102
}
100
AcDbXrecord
340
458D6
  0
XRECORD
  5
4FFEA
102
{ACAD_REACTORS
330
4592A
102
}
100
AcDbXrecord
340
458D3
  0
DICTIONARY
  5
4FFEE
100
AcDbDictionary
280
     1
  3
ACAD_XREC_ROUNDTRIP
360
4FFEF
  0
ACAD_PROXY_OBJECT
  5
458FE
102
{ACAD_REACTORS
330
458FB
102
}
100
AcDbProxyObject
 90
      499
 91
      503
 93
     1348
310
91D4850204C617365724A65742035303030205365726965732050434C20362C00AAAAAA416AA547D11959985D5B1D08148C4D081C195B88185CDCDA59DB9B595B9D1CCB98DD1891069074C61796F75743140501A800000000000000000000000000000000000000000000A1000000000000008902A6A6A10232D5E076BC551
310
0408CB5781DAF154410232D5E076BC5510408CB5781DAF15C410232D5E076BC5710408CB5781DAF15C40
330
458D3
330
0
340
0
340
0
 94
        0
  0
ACAD_PROXY_OBJECT
  5
458FD
102
{ACAD_REACTORS
330
458FB
102
}
100
AcDbProxyObject
 90
      499
 91
      503
 93
      924
310
91D4850204C617365724A65742035303030205365726965732050434C20362C01AAAAAAAAA547D11959985D5B1D08148C4D081C195B88185CDCDA59DB9B595B9D1CCB98DD18A69054D6F64656C901A800000000000000000000000000000000000000000000A1000000000000008902A6A6AAAA0
330
458D6
330
0
340
0
340
0
 94
        0
  0
MLINESTYLE
  5
458DA
102
{ACAD_REACTORS
330
458D9
102
}
100
AcDbMlineStyle
  2
STANDARD
 70
     0
  3

 62
   256
 51
90.0
 52
90.0
 71
     2
 49
0.5
 62
   256
  6
BYLAYER
 49
-0.5
 62
   256
  6
BYLAYER
  0
ACAD_PROXY_OBJECT
  5
458FA
102
{ACAD_REACTORS
330
458F9
102
}
100
AcDbProxyObject
 90
      499
 91
      502
 93
        0
 94
        0
  0
XRECORD
  5
4FFD3
102
{ACAD_REACTORS
330
4FFC9
102
}
100
AcDbXrecord
 90
        0
  0
XRECORD
  5
4FFD7
102
{ACAD_REACTORS
330
4FFC9
102
}
100
AcDbXrecord
1000
DSTYLE
1002
{
1070
   276
 70
     2
1070
   277
 70
     5
1070
   279
 70
     2
1002
}
  0
XRECORD
  5
4FFD4
102
{ACAD_REACTORS
330
4FFC9
102
}
100
AcDbXrecord
  1
{6E0CF4B8-225E-11D4-A150-00A0CC3303EC}
  0
XRECORD
  5
4FFCC
102
{ACAD_REACTORS
330
4FFC9
102
}
100
AcDbXrecord
  1

  0
XRECORD
  5
4FFD2
102
{ACAD_REACTORS
330
4FFC9
102
}
100
AcDbXrecord
 90
        0
  0
XRECORD
  5
4FFCE
102
{ACAD_REACTORS
330
4FFC9
102
}
100
AcDbXrecord
340
458FB
  0
XRECORD
  5
4FFD1
102
{ACAD_REACTORS
330
4FFC9
102
}
100
AcDbXrecord
 90
    14877
  0
XRECORD
  5
4FFCF
102
{ACAD_REACTORS
330
4FFC9
102
}
100
AcDbXrecord
340
458FC
  0
XRECORD
  5
4FFD0
102
{ACAD_REACTORS
330
4FFC9
102
}
100
AcDbXrecord
340
458F9
  0
XRECORD
  5
4FFD6
102
{ACAD_REACTORS
330
4FFC9
102
}
100
AcDbXrecord
 40
0.0
  0
XRECORD
  5
4FFDA
102
{ACAD_REACTORS
330
4FFC9
102
}
100
AcDbXrecord
340
0
  0
XRECORD
  5
4FFE0
102
{ACAD_REACTORS
330
4FFC9
102
}
100
AcDbXrecord
 10
0.0
 20
0.0
 30
0.0
  0
XRECORD
  5
4FFDC
102
{ACAD_REACTORS
330
4FFC9
102
}
100
AcDbXrecord
 10
0.0
 20
0.0
 30
0.0
  0
XRECORD
  5
4FFDF
102
{ACAD_REACTORS
330
4FFC9
102
}
100
AcDbXrecord
 10
0.0
 20
0.0
 30
0.0
  0
XRECORD
  5
4FFDD
102
{ACAD_REACTORS
330
4FFC9
102
}
100
AcDbXrecord
 10
0.0
 20
0.0
 30
0.0
  0
XRECORD
  5
4FFDE
102
{ACAD_REACTORS
330
4FFC9
102
}
100
AcDbXrecord
 10
0.0
 20
0.0
 30
0.0
  0
XRECORD
  5
4FFDB
102
{ACAD_REACTORS
330
4FFC9
102
}
100
AcDbXrecord
 10
0.0
 20
0.0
 30
0.0
  0
XRECORD
  5
4FFD8
102
{ACAD_REACTORS
330
4FFC9
102
}
100
AcDbXrecord
340
0
  0
XRECORD
  5
4FFD9
102
{ACAD_REACTORS
330
4FFC9
102
}
100
AcDbXrecord
 70
     0
  0
XRECORD
  5
4FFCD
102
{ACAD_REACTORS
330
4FFC9
102
}
100
AcDbXrecord
  1

  0
XRECORD
  5
4FFCA
102
{ACAD_REACTORS
330
4FFC9
102
}
100
AcDbXrecord
 90
        1
  0
XRECORD
  5
4FFCB
102
{ACAD_REACTORS
330
4FFC9
102
}
100
AcDbXrecord
 90
       70
  0
XRECORD
  5
4FFE3
102
{ACAD_REACTORS
330
4FFC9
102
}
100
AcDbXrecord
340
0
  0
XRECORD
  5
4FFE9
102
{ACAD_REACTORS
330
4FFC9
102
}
100
AcDbXrecord
 10
0.0
 20
0.0
 30
0.0
  0
XRECORD
  5
4FFE5
102
{ACAD_REACTORS
330
4FFC9
102
}
100
AcDbXrecord
 10
0.0
 20
0.0
 30
0.0
  0
XRECORD
  5
4FFE8
102
{ACAD_REACTORS
330
4FFC9
102
}
100
AcDbXrecord
 10
0.0
 20
0.0
 30
0.0
  0
XRECORD
  5
4FFE6
102
{ACAD_REACTORS
330
4FFC9
102
}
100
AcDbXrecord
 10
0.0
 20
0.0
 30
0.0
  0
XRECORD
  5
4FFE7
102
{ACAD_REACTORS
330
4FFC9
102
}
100
AcDbXrecord
 10
0.0
 20
0.0
 30
0.0
  0
XRECORD
  5
4FFE4
102
{ACAD_REACTORS
330
4FFC9
102
}
100
AcDbXrecord
 10
0.0
 20
0.0
 30
0.0
  0
XRECORD
  5
4FFE1
102
{ACAD_REACTORS
330
4FFC9
102
}
100
AcDbXrecord
340
0
  0
XRECORD
  5
4FFE2
102
{ACAD_REACTORS
330
4FFC9
102
}
100
AcDbXrecord
 70
     1
  0
XRECORD
  5
4FFD5
102
{ACAD_REACTORS
330
4FFC9
102
}
100
AcDbXrecord
  1
{A4A2C4D0-E39B-4325-9948-2862B98207F4}
  0
DICTIONARYVAR
  5
458E2
102
{ACAD_REACTORS
330
458E1
102
}
100
DictionaryVariables
280
     0
  1
0
  0
XRECORD
  5
4FFEF
102
{ACAD_REACTORS
330
4FFEE
102
}
100
AcDbXrecord
102
EXTNAMES
  1
LAYOUT1
  2
Layout1
  1
MODEL
  2
Model
  0
ENDSEC
  0
EOF
