  0
SECTION
  2
HEADER
  9
$ACADVER
  1
AC1014
  9
$ACADMAINTVER
 70
     8
  9
$DWGCODEPAGE
  3
ANSI_1252
  9
$INSBASE
 10
0.0
 20
0.0
 30
0.0
  9
$EXTMIN
 10
-0.84472
 20
-3.085433
 30
0.0
  9
$EXTMAX
 10
1.189538
 20
1.526498
 30
1.0
  9
$LIMMIN
 10
0.0
 20
0.0
  9
$LIMMAX
 10
12.0
 20
9.0
  9
$ORTHOMODE
 70
     0
  9
$REGENMODE
 70
     1
  9
$FILLMODE
 70
     1
  9
$QTEXTMODE
 70
     0
  9
$MIRRTEXT
 70
     1
  9
$DRAGMODE
 70
     2
  9
$LTSCALE
 40
1.0
  9
$OSMODE
 70
    37
  9
$ATTMODE
 70
     1
  9
$TEXTSIZE
 40
0.12
  9
$TRACEWID
 40
0.05
  9
$TEXTSTYLE
  7
STANDARD
  9
$CLAYER
  8
0
  9
$CELTYPE
  6
BYLAYER
  9
$CECOLOR
 62
   256
  9
$CELTSCALE
 40
1.0
  9
$DELOBJ
 70
     1
  9
$DISPSILH
 70
     0
  9
$DIMSCALE
 40
1.0
  9
$DIMASZ
 40
0.18
  9
$DIMEXO
 40
0.0625
  9
$DIMDLI
 40
0.375
  9
$DIMRND
 40
0.0
  9
$DIMDLE
 40
0.0
  9
$DIMEXE
 40
0.18
  9
$DIMTP
 40
0.0
  9
$DIMTM
 40
0.0
  9
$DIMTXT
 40
0.125
  9
$DIMCEN
 40
0.09
  9
$DIMTSZ
 40
0.0
  9
$DIMTOL
 70
     0
  9
$DIMLIM
 70
     0
  9
$DIMTIH
 70
     0
  9
$DIMTOH
 70
     1
  9
$DIMSE1
 70
     0
  9
$DIMSE2
 70
     0
  9
$DIMTAD
 70
     0
  9
$DIMZIN
 70
     4
  9
$DIMBLK
  1

  9
$DIMASO
 70
     1
  9
$DIMSHO
 70
     1
  9
$DIMPOST
  1

  9
$DIMAPOST
  1

  9
$DIMALT
 70
     1
  9
$DIMALTD
 70
     2
  9
$DIMALTF
 40
25.4
  9
$DIMLFAC
 40
1.0
  9
$DIMTOFL
 70
     0
  9
$DIMTVP
 40
0.0
  9
$DIMTIX
 70
     0
  9
$DIMSOXD
 70
     0
  9
$DIMSAH
 70
     0
  9
$DIMBLK1
  1

  9
$DIMBLK2
  1

  9
$DIMSTYLE
  2
ABECAD_3D
  9
$DIMCLRD
 70
     0
  9
$DIMCLRE
 70
     0
  9
$DIMCLRT
 70
     0
  9
$DIMTFAC
 40
1.5
  9
$DIMGAP
 40
0.09
  9
$DIMJUST
 70
     0
  9
$DIMSD1
 70
     0
  9
$DIMSD2
 70
     0
  9
$DIMTOLJ
 70
     1
  9
$DIMTZIN
 70
     4
  9
$DIMALTZ
 70
     4
  9
$DIMALTTZ
 70
     4
  9
$DIMFIT
 70
     5
  9
$DIMUPT
 70
     1
  9
$DIMUNIT
 70
     7
  9
$DIMDEC
 70
     6
  9
$DIMTDEC
 70
     6
  9
$DIMALTU
 70
     2
  9
$DIMALTTD
 70
     2
  9
$DIMTXSTY
  7
STANDARD
  9
$DIMAUNIT
 70
     0
  9
$LUNITS
 70
     2
  9
$LUPREC
 70
     4
  9
$SKETCHINC
 40
0.1
  9
$FILLETRAD
 40
0.0
  9
$AUNITS
 70
     0
  9
$AUPREC
 70
     0
  9
$MENU
  1
ACAD
  9
$ELEVATION
 40
0.0
  9
$PELEVATION
 40
0.0
  9
$THICKNESS
 40
0.0
  9
$LIMCHECK
 70
     0
  9
$BLIPMODE
 70
     0
  9
$CHAMFERA
 40
0.0
  9
$CHAMFERB
 40
0.0
  9
$CHAMFERC
 40
0.0
  9
$CHAMFERD
 40
0.0
  9
$SKPOLY
 70
     0
  9
$TDCREATE
 40
2451726.438389120
  9
$TDUPDATE
 40
2452010.484590856
  9
$TDINDWG
 40
0.2065074074
  9
$TDUSRTIMER
 40
0.2065074074
  9
$USRTIMER
 70
     1
  9
$ANGBASE
 50
0.0
  9
$ANGDIR
 70
     0
  9
$PDMODE
 70
     3
  9
$PDSIZE
 40
0.09
  9
$PLINEWID
 40
0.0
  9
$COORDS
 70
     1
  9
$SPLFRAME
 70
     1
  9
$SPLINETYPE
 70
     6
  9
$SPLINESEGS
 70
     8
  9
$ATTDIA
 70
     0
  9
$ATTREQ
 70
     1
  9
$HANDLING
 70
     1
  9
$HANDSEED
  5
4F6A3
  9
$SURFTAB1
 70
     6
  9
$SURFTAB2
 70
     6
  9
$SURFTYPE
 70
     6
  9
$SURFU
 70
     6
  9
$SURFV
 70
     6
  9
$UCSNAME
  2

  9
$UCSORG
 10
0.0
 20
0.0
 30
0.0
  9
$UCSXDIR
 10
1.0
 20
0.0
 30
0.0
  9
$UCSYDIR
 10
0.0
 20
1.0
 30
0.0
  9
$PUCSNAME
  2

  9
$PUCSORG
 10
0.0
 20
0.0
 30
0.0
  9
$PUCSXDIR
 10
1.0
 20
0.0
 30
0.0
  9
$PUCSYDIR
 10
0.0
 20
1.0
 30
0.0
  9
$USERI1
 70
     0
  9
$USERI2
 70
     0
  9
$USERI3
 70
     0
  9
$USERI4
 70
     0
  9
$USERI5
 70
     0
  9
$USERR1
 40
0.0
  9
$USERR2
 40
0.0
  9
$USERR3
 40
0.0
  9
$USERR4
 40
0.0
  9
$USERR5
 40
0.0
  9
$WORLDVIEW
 70
     1
  9
$SHADEDGE
 70
     3
  9
$SHADEDIF
 70
    70
  9
$TILEMODE
 70
     1
  9
$MAXACTVP
 70
    16
  9
$PINSBASE
 10
0.0
 20
0.0
 30
0.0
  9
$PLIMCHECK
 70
     0
  9
$PEXTMIN
 10
1.000000E+20
 20
1.000000E+20
 30
1.000000E+20
  9
$PEXTMAX
 10
-1.000000E+20
 20
-1.000000E+20
 30
-1.000000E+20
  9
$PLIMMIN
 10
0.0
 20
0.0
  9
$PLIMMAX
 10
12.0
 20
9.0
  9
$UNITMODE
 70
     0
  9
$VISRETAIN
 70
     0
  9
$PLINEGEN
 70
     0
  9
$PSLTSCALE
 70
     1
  9
$TREEDEPTH
 70
  3020
  9
$PICKSTYLE
 70
     1
  9
$CMLSTYLE
  2
STANDARD
  9
$CMLJUST
 70
     0
  9
$CMLSCALE
 40
1.0
  9
$PROXYGRAPHICS
 70
     1
  9
$MEASUREMENT
 70
     0
  0
ENDSEC
  0
SECTION
  2
CLASSES
  0
CLASS
  1
DICTIONARYVAR
  2
AcDbDictionaryVar
  3
"AutoCAD"
 90
        0
280
     0
281
     0
  0
CLASS
  1
ACDBDICTIONARYWDFLT
  2
AcDbDictionaryWithDefault
  3
AutoCAD 2000
 90
        0
280
     0
281
     0
  0
CLASS
  1
ACDBPLACEHOLDER
  2
AcDbPlaceHolder
  3
AutoCAD 2000
 90
        0
280
     0
281
     0
  0
CLASS
  1
LAYOUT
  2
AcDbLayout
  3
AutoCAD 2000
 90
        0
280
     0
281
     0
  0
CLASS
  1
LONG_TRANSACTION
  2
AcDbLongTransaction
  3
AutoCAD 2000
 90
        0
280
     0
281
     0
  0
CLASS
  1
LWPOLYLINE
  2
AcDbPolyline
  3
"AutoCAD"
 90
        0
280
     0
281
     1
  0
CLASS
  1
HATCH
  2
AcDbHatch
  3
"ACAD_SEDONA"
 90
        0
280
     0
281
     1
  0
CLASS
  1
XRECORD
  2
AcDbXrecord
  3
"<Built In>"
 90
        0
280
     0
281
     0
  0
CLASS
  1
LONG_TRANSACTION
  2
AcDbLongTransaction
  3
AutoCAD 2000
 90
        0
280
     0
281
     0
  0
CLASS
  1
LWPOLYLINE
  2
AcDbPolyline
  3
"AutoCAD"
 90
        0
280
     0
281
     1
  0
CLASS
  1
HATCH
  2
AcDbHatch
  3
"ACAD_SEDONA"
 90
        0
280
     0
281
     1
  0
CLASS
  1
XRECORD
  2
AcDbXrecord
  3
"<Built In>"
 90
        0
280
     0
281
     0
  0
CLASS
  1
LONG_TRANSACTION
  2
AcDbLongTransaction
  3
AutoCAD 2000
 90
        0
280
     0
281
     0
  0
CLASS
  1
LWPOLYLINE
  2
AcDbPolyline
  3
"AutoCAD"
 90
        0
280
     0
281
     1
  0
CLASS
  1
HATCH
  2
AcDbHatch
  3
"ACAD_SEDONA"
 90
        0
280
     0
281
     1
  0
CLASS
  1
XRECORD
  2
AcDbXrecord
  3
"<Built In>"
 90
        0
280
     0
281
     0
  0
CLASS
  1
LONG_TRANSACTION
  2
AcDbLongTransaction
  3
AutoCAD 2000
 90
        0
280
     0
281
     0
  0
CLASS
  1
LWPOLYLINE
  2
AcDbPolyline
  3
"AutoCAD"
 90
        0
280
     0
281
     1
  0
CLASS
  1
HATCH
  2
AcDbHatch
  3
"ACAD_SEDONA"
 90
        0
280
     0
281
     1
  0
CLASS
  1
XRECORD
  2
AcDbXrecord
  3
"<Built In>"
 90
        0
280
     0
281
     0
  0
CLASS
  1
LONG_TRANSACTION
  2
AcDbLongTransaction
  3
AutoCAD 2000
 90
        0
280
     0
281
     0
  0
CLASS
  1
LWPOLYLINE
  2
AcDbPolyline
  3
"AutoCAD"
 90
        0
280
     0
281
     1
  0
CLASS
  1
HATCH
  2
AcDbHatch
  3
"ACAD_SEDONA"
 90
        0
280
     0
281
     1
  0
CLASS
  1
XRECORD
  2
AcDbXrecord
  3
"<Built In>"
 90
        0
280
     0
281
     0
  0
CLASS
  1
LONG_TRANSACTION
  2
AcDbLongTransaction
  3
AutoCAD 2000
 90
        0
280
     0
281
     0
  0
CLASS
  1
LWPOLYLINE
  2
AcDbPolyline
  3
"AutoCAD"
 90
        0
280
     0
281
     1
  0
CLASS
  1
HATCH
  2
AcDbHatch
  3
"ACAD_SEDONA"
 90
        0
280
     0
281
     1
  0
CLASS
  1
XRECORD
  2
AcDbXrecord
  3
"<Built In>"
 90
        0
280
     0
281
     0
  0
CLASS
  1
LONG_TRANSACTION
  2
AcDbLongTransaction
  3
AutoCAD 2000
 90
        0
280
     0
281
     0
  0
CLASS
  1
LWPOLYLINE
  2
AcDbPolyline
  3
"AutoCAD"
 90
        0
280
     0
281
     1
  0
CLASS
  1
HATCH
  2
AcDbHatch
  3
"ACAD_SEDONA"
 90
        0
280
     0
281
     1
  0
CLASS
  1
XRECORD
  2
AcDbXrecord
  3
"<Built In>"
 90
        0
280
     0
281
     0
  0
CLASS
  1
LONG_TRANSACTION
  2
AcDbLongTransaction
  3
AutoCAD 2000
 90
        0
280
     0
281
     0
  0
CLASS
  1
LWPOLYLINE
  2
AcDbPolyline
  3
"AutoCAD"
 90
        0
280
     0
281
     1
  0
CLASS
  1
HATCH
  2
AcDbHatch
  3
"ACAD_SEDONA"
 90
        0
280
     0
281
     1
  0
CLASS
  1
XRECORD
  2
AcDbXrecord
  3
"<Built In>"
 90
        0
280
     0
281
     0
  0
CLASS
  1
LONG_TRANSACTION
  2
AcDbLongTransaction
  3
AutoCAD 2000
 90
        0
280
     0
281
     0
  0
CLASS
  1
LWPOLYLINE
  2
AcDbPolyline
  3
"AutoCAD"
 90
        0
280
     0
281
     1
  0
CLASS
  1
HATCH
  2
AcDbHatch
  3
"ACAD_SEDONA"
 90
        0
280
     0
281
     1
  0
CLASS
  1
XRECORD
  2
AcDbXrecord
  3
"<Built In>"
 90
        0
280
     0
281
     0
  0
CLASS
  1
LONG_TRANSACTION
  2
AcDbLongTransaction
  3
AutoCAD 2000
 90
        0
280
     0
281
     0
  0
CLASS
  1
LWPOLYLINE
  2
AcDbPolyline
  3
"AutoCAD"
 90
        0
280
     0
281
     1
  0
CLASS
  1
HATCH
  2
AcDbHatch
  3
"ACAD_SEDONA"
 90
        0
280
     0
281
     1
  0
CLASS
  1
XRECORD
  2
AcDbXrecord
  3
"<Built In>"
 90
        0
280
     0
281
     0
  0
CLASS
  1
LONG_TRANSACTION
  2
AcDbLongTransaction
  3
AutoCAD 2000
 90
        0
280
     0
281
     0
  0
CLASS
  1
LWPOLYLINE
  2
AcDbPolyline
  3
"AutoCAD"
 90
        0
280
     0
281
     1
  0
CLASS
  1
HATCH
  2
AcDbHatch
  3
"ACAD_SEDONA"
 90
        0
280
     0
281
     1
  0
CLASS
  1
XRECORD
  2
AcDbXrecord
  3
"<Built In>"
 90
        0
280
     0
281
     0
  0
CLASS
  1
LONG_TRANSACTION
  2
AcDbLongTransaction
  3
AutoCAD 2000
 90
        0
280
     0
281
     0
  0
CLASS
  1
LWPOLYLINE
  2
AcDbPolyline
  3
"AutoCAD"
 90
        0
280
     0
281
     1
  0
CLASS
  1
HATCH
  2
AcDbHatch
  3
"ACAD_SEDONA"
 90
        0
280
     0
281
     1
  0
CLASS
  1
XRECORD
  2
AcDbXrecord
  3
"<Built In>"
 90
        0
280
     0
281
     0
  0
ENDSEC
  0
SECTION
  2
TABLES
  0
TABLE
  2
VPORT
  5
458C7
100
AcDbSymbolTable
 70
     1
  0
VPORT
  5
4F672
102
{ACAD_XDICTIONARY
360
4F675
102
}
100
AcDbSymbolTableRecord
100
AcDbViewportTableRecord
  2
*ACTIVE
 70
     0
 10
0.0
 20
0.0
 11
1.0
 21
1.0
 12
-0.390852
 22
0.100832
 13
0.0
 23
0.0
 14
0.25
 24
0.25
 15
0.25
 25
0.25
 16
0.0
 26
0.0
 36
1.0
 17
0.563444
 27
-0.880137
 37
1.686493
 40
4.690522
 41
1.960674
 42
50.0
 43
0.0
 44
0.0
 50
0.0
 51
0.0
 71
     0
 72
 20000
 73
     1
 74
     1
 75
     0
 76
     0
 77
     0
 78
     0
  0
ENDTAB
  0
TABLE
  2
LTYPE
  5
458C4
100
AcDbSymbolTable
 70
     1
  0
LTYPE
  5
458D0
100
AcDbSymbolTableRecord
100
AcDbLinetypeTableRecord
  2
BYBLOCK
 70
     0
  3

 72
    65
 73
     0
 40
0.0
  0
LTYPE
  5
458D1
100
AcDbSymbolTableRecord
100
AcDbLinetypeTableRecord
  2
BYLAYER
 70
     0
  3

 72
    65
 73
     0
 40
0.0
  0
LTYPE
  5
458D2
100
AcDbSymbolTableRecord
100
AcDbLinetypeTableRecord
  2
CONTINUOUS
 70
     0
  3
Solid line
 72
    65
 73
     0
 40
0.0
  0
ENDTAB
  0
TABLE
  2
LAYER
  5
458C1
100
AcDbSymbolTable
 70
     7
  0
LAYER
  5
458CD
100
AcDbSymbolTableRecord
100
AcDbLayerTableRecord
  2
0
 70
     0
 62
     7
  6
CONTINUOUS
  0
LAYER
  5
458EA
100
AcDbSymbolTableRecord
100
AcDbLayerTableRecord
  2
DIMS-MTG-HOLES
 70
     0
 62
     1
  6
CONTINUOUS
  0
LAYER
  5
458EB
100
AcDbSymbolTableRecord
100
AcDbLayerTableRecord
  2
ATTRIBUTES
 70
     0
 62
     7
  6
CONTINUOUS
  0
LAYER
  5
4593B
102
{ACAD_XDICTIONARY
360
4F69E
102
}
100
AcDbSymbolTableRecord
100
AcDbLayerTableRecord
  2
AREA1
 70
     0
 62
    -7
  6
CONTINUOUS
  0
LAYER
  5
45940
102
{ACAD_XDICTIONARY
360
4F673
102
}
100
AcDbSymbolTableRecord
100
AcDbLayerTableRecord
  2
DEFPOINTS
 70
     0
 62
    -7
  6
CONTINUOUS
  0
LAYER
  5
45954
100
AcDbSymbolTableRecord
100
AcDbLayerTableRecord
  2
SCALE
 70
     0
 62
    -7
  6
CONTINUOUS
  0
LAYER
  5
4D59A
100
AcDbSymbolTableRecord
100
AcDbLayerTableRecord
  2
SNAP_POINTS
 70
     0
 62
    -1
  6
CONTINUOUS
  0
ENDTAB
  0
TABLE
  2
STYLE
  5
458C2
100
AcDbSymbolTable
 70
     1
  0
STYLE
  5
458CE
100
AcDbSymbolTableRecord
100
AcDbTextStyleTableRecord
  2
STANDARD
 70
     0
 40
0.0
 41
1.0
 50
0.0
 71
     0
 42
0.12
  3
txt
  4

  0
ENDTAB
  0
TABLE
  2
VIEW
  5
458C5
100
AcDbSymbolTable
 70
     0
  0
ENDTAB
  0
TABLE
  2
UCS
  5
458C6
100
AcDbSymbolTable
 70
     0
  0
ENDTAB
  0
TABLE
  2
APPID
  5
458C8
100
AcDbSymbolTable
 70
     1
  0
APPID
  5
458CF
100
AcDbSymbolTableRecord
100
AcDbRegAppTableRecord
  2
ACAD
 70
     0
  0
ENDTAB
  0
TABLE
  2
DIMSTYLE
  5
458C9
100
AcDbSymbolTable
 70
     1
  0
DIMSTYLE
105
458F6
102
{ACAD_XDICTIONARY
360
4F69A
102
}
102
{ACAD_REACTORS
330
4F5D2
330
4F5E0
102
}
100
AcDbSymbolTableRecord
100
AcDbDimStyleTableRecord
  2
ABECAD_3D
 70
     0
  3

  4

  5

  6

  7

 40
1.0
 41
0.18
 42
0.0625
 43
0.375
 44
0.18
 45
0.0
 46
0.0
 47
0.0
 48
0.0
140
0.125
141
0.09
142
0.0
143
25.4
144
1.0
145
0.0
146
1.5
147
0.09
 71
     0
 72
     0
 73
     0
 74
     1
 75
     0
 76
     0
 77
     0
 78
     4
170
     1
171
     2
172
     0
173
     0
174
     0
175
     0
176
     0
177
     0
178
     0
270
     7
271
     6
272
     6
273
     2
274
     2
340
458CE
275
     0
280
     0
281
     0
282
     0
283
     1
284
     4
285
     4
286
     4
287
     5
288
     1
  0
ENDTAB
  0
TABLE
  2
BLOCK_RECORD
  5
458C0
100
AcDbSymbolTable
 70
     2
  0
BLOCK_RECORD
  5
458D6
102
{ACAD_XDICTIONARY
360
4592C
102
}
100
AcDbSymbolTableRecord
100
AcDbBlockTableRecord
  2
*MODEL_SPACE
  0
BLOCK_RECORD
  5
458D3
102
{ACAD_XDICTIONARY
360
4592A
102
}
100
AcDbSymbolTableRecord
100
AcDbBlockTableRecord
  2
*PAPER_SPACE
  0
BLOCK_RECORD
  5
4F5D3
100
AcDbSymbolTableRecord
100
AcDbBlockTableRecord
  2
*D0
  0
BLOCK_RECORD
  5
4F5E1
100
AcDbSymbolTableRecord
100
AcDbBlockTableRecord
  2
*D1
  0
ENDTAB
  0
ENDSEC
  0
SECTION
  2
BLOCKS
  0
BLOCK
  5
458DF
100
AcDbEntity
  8
0
100
AcDbBlockBegin
  2
*MODEL_SPACE
 70
     0
 10
0.0
 20
0.0
 30
0.0
  3
*MODEL_SPACE
  1

  0
ENDBLK
  5
458E0
100
AcDbEntity
  8
0
100
AcDbBlockEnd
  0
BLOCK
  5
458DD
100
AcDbEntity
 67
     1
  8
0
100
AcDbBlockBegin
  2
*PAPER_SPACE
 70
     0
 10
0.0
 20
0.0
 30
0.0
  3
*PAPER_SPACE
  1

  0
ENDBLK
  5
458DE
100
AcDbEntity
 67
     1
  8
0
100
AcDbBlockEnd
  0
BLOCK
  5
4F5DE
100
AcDbEntity
  8
0
100
AcDbBlockBegin
  2
*D0
 70
     1
 10
0.0
 20
0.0
 30
0.0
  3
*D0
  1

  0
LINE
  5
4F5D4
100
AcDbEntity
  8
AREA1
 62
     0
100
AcDbLine
 10
0.035
 20
0.76
 30
0.0
 11
-0.84472
 21
0.76
 31
0.0
1001
ACAD
1000
RTLwPs
1070
   158
  0
LINE
  5
4F5D5
100
AcDbEntity
  8
AREA1
 62
     0
100
AcDbLine
 10
-0.0625
 20
-1.99
 30
0.0
 11
-0.84472
 21
-1.99
 31
0.0
1001
ACAD
1000
RTLwPs
1070
   158
  0
LINE
  5
4F5D6
100
AcDbEntity
  8
AREA1
 62
     0
100
AcDbLine
 10
-0.66472
 20
0.58
 30
0.0
 11
-0.66472
 21
0.18073
 31
0.0
1001
ACAD
1000
RTLwPs
1070
   158
  0
LINE
  5
4F5D7
100
AcDbEntity
  8
AREA1
 62
     0
100
AcDbLine
 10
-0.66472
 20
-1.81
 30
0.0
 11
-0.66472
 21
-1.415937
 31
0.0
1001
ACAD
1000
RTLwPs
1070
   158
  0
MTEXT
  5
4F5D8
100
AcDbEntity
  8
AREA1
 62
     0
100
AcDbMText
 10
-0.66472
 20
-0.617604
 30
0.0
 40
0.125
 41
0.0
 71
     5
 72
     1
  1
\A1;2 3/4 [69.85]
 11
0.0
 21
1.0
 31
0.0
1001
ACAD
1000
MTEXTBEGIN
1070
    73
1070
     1
1070
    44
1040
1.0
1070
    74
1070
     0
1000
MTEXTEND
1000
MTEXTBEGIN
1070
    73
1070
     1
1070
    44
1040
1.0
1070
    74
1070
     0
1000
MTEXTEND
1000
MTEXTBEGIN
1070
    73
1070
     1
1070
    44
1040
1.0
1070
    74
1070
     0
1000
MTEXTEND
  0
SOLID
  5
4F5D9
100
AcDbEntity
  8
AREA1
 62
     0
100
AcDbTrace
 10
-0.69472
 20
0.58
 30
0.0
 11
-0.63472
 21
0.58
 31
0.0
 12
-0.66472
 22
0.76
 32
0.0
 13
-0.66472
 23
0.76
 33
0.0
  0
SOLID
  5
4F5DA
100
AcDbEntity
  8
AREA1
 62
     0
100
AcDbTrace
 10
-0.69472
 20
-1.81
 30
0.0
 11
-0.63472
 21
-1.81
 31
0.0
 12
-0.66472
 22
-1.99
 32
0.0
 13
-0.66472
 23
-1.99
 33
0.0
  0
POINT
  5
4F5DB
100
AcDbEntity
  8
DEFPOINTS
 62
     0
100
AcDbPoint
 10
0.0975
 20
0.76
 30
0.0
  0
POINT
  5
4F5DC
100
AcDbEntity
  8
DEFPOINTS
 62
     0
100
AcDbPoint
 10
0.0
 20
-1.99
 30
0.0
  0
POINT
  5
4F5DD
100
AcDbEntity
  8
DEFPOINTS
 62
     0
100
AcDbPoint
 10
-0.66472
 20
-1.99
 30
0.0
  0
ENDBLK
  5
4F5DF
100
AcDbEntity
  8
0
100
AcDbBlockEnd
  0
BLOCK
  5
4F5EB
100
AcDbEntity
  8
0
100
AcDbBlockBegin
  2
*D1
 70
     1
 10
0.0
 20
0.0
 30
0.0
  3
*D1
  1

  0
LINE
  5
4F5ED
100
AcDbEntity
  8
AREA1
 62
     0
100
AcDbLine
 10
-0.15
 20
-0.187863
 30
0.0
 11
-0.15
 21
1.266064
 31
0.0
1001
ACAD
1000
RTLwPs
1070
   158
  0
LINE
  5
4F5EE
100
AcDbEntity
  8
AREA1
 62
     0
100
AcDbLine
 10
1.025
 20
-0.187863
 30
0.0
 11
1.025
 21
1.266064
 31
0.0
1001
ACAD
1000
RTLwPs
1070
   158
  0
LINE
  5
4F5EF
100
AcDbEntity
  8
AREA1
 62
     0
100
AcDbLine
 10
0.03
 20
1.086064
 30
0.0
 11
0.845
 21
1.086064
 31
0.0
1001
ACAD
1000
RTLwPs
1070
   158
  0
MTEXT
  5
4F5F0
100
AcDbEntity
  8
AREA1
 62
     0
100
AcDbMText
 10
0.418705
 20
1.463998
 30
0.0
 40
0.125
 41
0.0
 71
     5
 72
     1
  1
\A1;1 11/64 [29.85]
1001
ACAD
1000
MTEXTBEGIN
1070
    73
1070
     1
1070
    44
1040
1.0
1070
    74
1070
     0
1000
MTEXTEND
1000
MTEXTBEGIN
1070
    73
1070
     1
1070
    44
1040
1.0
1070
    74
1070
     0
1000
MTEXTEND
1000
MTEXTBEGIN
1070
    73
1070
     1
1070
    44
1040
1.0
1070
    74
1070
     0
1000
MTEXTEND
  0
SOLID
  5
4F5F1
100
AcDbEntity
  8
AREA1
 62
     0
100
AcDbTrace
 10
0.03
 20
1.116064
 30
0.0
 11
0.03
 21
1.056064
 31
0.0
 12
-0.15
 22
1.086064
 32
0.0
 13
-0.15
 23
1.086064
 33
0.0
  0
SOLID
  5
4F5F2
100
AcDbEntity
  8
AREA1
 62
     0
100
AcDbTrace
 10
0.845
 20
1.116064
 30
0.0
 11
0.845
 21
1.056064
 31
0.0
 12
1.025
 22
1.086064
 32
0.0
 13
1.025
 23
1.086064
 33
0.0
  0
POINT
  5
4F5F3
100
AcDbEntity
  8
DEFPOINTS
 62
     0
100
AcDbPoint
 10
-0.15
 20
-0.250363
 30
0.187
  0
POINT
  5
4F5F4
100
AcDbEntity
  8
DEFPOINTS
 62
     0
100
AcDbPoint
 10
1.025
 20
-0.250363
 30
0.187
  0
POINT
  5
4F5F5
100
AcDbEntity
  8
DEFPOINTS
 62
     0
100
AcDbPoint
 10
1.025
 20
1.086064
 30
0.0
  0
ENDBLK
  5
4F5EC
100
AcDbEntity
  8
0
100
AcDbBlockEnd
  0
ENDSEC
  0
SECTION
  2
ENTITIES
  0
LINE
  5
4F4FD
100
AcDbEntity
  8
0
100
AcDbLine
 10
0.766805
 20
-1.64
 30
0.675
 11
0.454305
 21
-1.64
 31
0.675
  0
LINE
  5
4F4FE
100
AcDbEntity
  8
0
100
AcDbLine
 10
0.454305
 20
-1.9525
 30
0.675
 11
0.766805
 21
-1.9525
 31
0.675
  0
LINE
  5
4F4FF
100
AcDbEntity
  8
0
100
AcDbLine
 10
0.766805
 20
-1.3275
 30
1.0
 11
0.454305
 21
-1.3275
 31
1.0
  0
LINE
  5
4F500
100
AcDbEntity
  8
0
100
AcDbLine
 10
0.766805
 20
-0.0525
 30
1.0
 11
0.454305
 21
-0.0525
 31
1.0
  0
LINE
  5
4F501
100
AcDbEntity
  8
0
100
AcDbLine
 10
0.454305
 20
0.5725
 30
0.675
 11
0.766805
 21
0.5725
 31
0.675
  0
ARC
  5
4F502
100
AcDbEntity
  8
0
100
AcDbCircle
 10
-0.15
 20
-0.69
 30
0.187
 40
0.085938
100
AcDbArc
 50
270.0
 51
90.0
  0
LINE
  5
4F503
100
AcDbEntity
  8
0
100
AcDbLine
 10
0.420695
 20
-1.3275
 30
1.0
 11
0.420695
 21
-1.64
 31
1.0
  0
LINE
  5
4F504
100
AcDbEntity
  8
0
100
AcDbLine
 10
0.108195
 20
-1.3275
 30
1.0
 11
0.108195
 21
-1.64
 31
1.0
  0
LINE
  5
4F505
100
AcDbEntity
  8
0
100
AcDbLine
 10
0.454305
 20
-1.3275
 30
1.0
 11
0.454305
 21
-1.64
 31
1.0
  0
CIRCLE
  5
4F506
100
AcDbEntity
  8
0
100
AcDbCircle
 10
0.264445
 20
-1.482326
 30
1.0
 40
0.125
  0
CIRCLE
  5
4F507
100
AcDbEntity
  8
0
100
AcDbCircle
 10
0.264445
 20
-1.794826
 30
0.675
 40
0.125
  0
LINE
  5
4F508
100
AcDbEntity
  8
0
100
AcDbLine
 10
0.108195
 20
-1.9525
 30
0.675
 11
0.420695
 21
-1.9525
 31
0.675
  0
LINE
  5
4F509
100
AcDbEntity
  8
0
100
AcDbLine
 10
0.108195
 20
-1.64
 30
0.675
 11
0.108195
 21
-1.9525
 31
0.675
  0
LINE
  5
4F50A
100
AcDbEntity
  8
0
100
AcDbLine
 10
0.420695
 20
-1.9525
 30
0.675
 11
0.420695
 21
-1.634303
 31
0.675
  0
LINE
  5
4F50B
100
AcDbEntity
  8
0
100
AcDbLine
 10
0.454305
 20
-1.64
 30
0.675
 11
0.454305
 21
-1.9525
 31
0.675
  0
LINE
  5
4F50C
100
AcDbEntity
  8
0
100
AcDbLine
 10
0.389445
 20
-0.919508
 30
1.0
 11
0.139445
 21
-0.919508
 31
1.0
  0
LINE
  5
4F50D
100
AcDbEntity
  8
0
100
AcDbLine
 10
0.389445
 20
-1.213849
 30
1.0
 11
0.139445
 21
-1.213849
 31
1.0
  0
LINE
  5
4F50E
100
AcDbEntity
  8
0
100
AcDbLine
 10
0.420695
 20
-1.3275
 30
1.0
 11
0.108195
 21
-1.3275
 31
1.0
  0
LINE
  5
4F50F
100
AcDbEntity
  8
0
100
AcDbLine
 10
0.108195
 20
-0.0525
 30
1.0
 11
0.108195
 21
0.26
 31
1.0
  0
LINE
  5
4F510
100
AcDbEntity
  8
0
100
AcDbLine
 10
0.454305
 20
-0.0525
 30
1.0
 11
0.454305
 21
0.26
 31
1.0
  0
LINE
  5
4F511
100
AcDbEntity
  8
0
100
AcDbLine
 10
0.420695
 20
-0.0525
 30
1.0
 11
0.420695
 21
0.26
 31
1.0
  0
CIRCLE
  5
4F512
100
AcDbEntity
  8
0
100
AcDbCircle
 10
0.264445
 20
0.102326
 30
1.0
 40
0.125
  0
LINE
  5
4F513
100
AcDbEntity
  8
0
100
AcDbLine
 10
0.389445
 20
-0.601314
 30
1.0
 11
0.139445
 21
-0.601314
 31
1.0
  0
LINE
  5
4F514
100
AcDbEntity
  8
0
100
AcDbLine
 10
0.420695
 20
-0.0525
 30
1.0
 11
0.108195
 21
-0.0525
 31
1.0
  0
LINE
  5
4F515
100
AcDbEntity
  8
0
100
AcDbLine
 10
0.171762
 20
-0.159402
 30
1.0
 11
0.171762
 21
-0.409402
 31
1.0
  0
LINE
  5
4F516
100
AcDbEntity
  8
0
100
AcDbLine
 10
0.108195
 20
0.5725
 30
0.675
 11
0.420695
 21
0.5725
 31
0.675
  0
CIRCLE
  5
4F517
100
AcDbEntity
  8
0
100
AcDbCircle
 10
0.264445
 20
0.414826
 30
0.675
 40
0.125
  0
LINE
  5
4F518
100
AcDbEntity
  8
0
100
AcDbLine
 10
0.108195
 20
0.26
 30
0.675
 11
0.108195
 21
0.5725
 31
0.675
  0
LINE
  5
4F519
100
AcDbEntity
  8
0
100
AcDbLine
 10
0.454305
 20
0.26
 30
0.675
 11
0.454305
 21
0.5725
 31
0.675
  0
LINE
  5
4F51A
100
AcDbEntity
  8
0
100
AcDbLine
 10
0.420695
 20
0.5725
 30
0.675
 11
0.420695
 21
0.254303
 31
0.675
  0
LINE
  5
4F51B
100
AcDbEntity
  8
0
100
AcDbLine
 10
0.766805
 20
-1.64
 30
1.0
 11
0.766805
 21
-1.3275
 31
1.0
  0
CIRCLE
  5
4F51C
100
AcDbEntity
  8
0
100
AcDbCircle
 10
0.610555
 20
-1.48375
 30
1.0
 40
0.125
  0
CIRCLE
  5
4F51D
100
AcDbEntity
  8
0
100
AcDbCircle
 10
0.610555
 20
-1.79625
 30
0.675
 40
0.125
  0
LINE
  5
4F51E
100
AcDbEntity
  8
0
100
AcDbLine
 10
0.766805
 20
-1.9525
 30
0.675
 11
0.766805
 21
-1.64
 31
0.675
  0
LINE
  5
4F51F
100
AcDbEntity
  8
0
100
AcDbLine
 10
0.766805
 20
0.26
 30
1.0
 11
0.766805
 21
-0.0525
 31
1.0
  0
CIRCLE
  5
4F520
100
AcDbEntity
  8
0
100
AcDbCircle
 10
0.610555
 20
0.10375
 30
1.0
 40
0.125
  0
LINE
  5
4F521
100
AcDbEntity
  8
0
100
AcDbLine
 10
0.703238
 20
-0.409402
 30
1.0
 11
0.703238
 21
-0.159402
 31
1.0
  0
CIRCLE
  5
4F522
100
AcDbEntity
  8
0
100
AcDbCircle
 10
0.610555
 20
0.41625
 30
0.675
 40
0.125
  0
LINE
  5
4F523
100
AcDbEntity
  8
0
100
AcDbLine
 10
0.766805
 20
0.5725
 30
0.675
 11
0.766805
 21
0.26
 31
0.675
  0
LINE
  5
4F524
100
AcDbEntity
  8
0
100
AcDbLine
 10
0.485555
 20
-0.601314
 30
1.0
 11
0.735555
 21
-0.601314
 31
1.0
  0
LINE
  5
4F525
100
AcDbEntity
  8
0
100
AcDbLine
 10
0.485555
 20
-0.919508
 30
1.0
 11
0.735555
 21
-0.919508
 31
1.0
  0
LINE
  5
4F526
100
AcDbEntity
  8
0
100
AcDbLine
 10
0.485555
 20
-1.213849
 30
1.0
 11
0.735555
 21
-1.213849
 31
1.0
  0
TEXT
  5
4F527
100
AcDbEntity
  8
0
100
AcDbText
 10
0.044053
 20
-1.519199
 30
1.0
 40
0.073528
  1
1
100
AcDbText
  0
TEXT
  5
4F528
100
AcDbEntity
  8
0
100
AcDbText
 10
0.79984
 20
-1.523656
 30
1.0
 40
0.073528
  1
2
100
AcDbText
  0
TEXT
  5
4F529
100
AcDbEntity
  8
0
100
AcDbText
 10
0.028937
 20
-1.831037
 30
0.675
 40
0.073528
  1
3
100
AcDbText
  0
TEXT
  5
4F52A
100
AcDbEntity
  8
0
100
AcDbText
 10
0.794801
 20
-1.817608
 30
0.675
 40
0.073528
  1
4
100
AcDbText
  0
TEXT
  5
4F52B
100
AcDbEntity
  8
0
100
AcDbText
 10
0.023898
 20
0.384542
 30
0.675
 40
0.073528
  1
5
100
AcDbText
  0
TEXT
  5
4F52C
100
AcDbEntity
  8
0
100
AcDbText
 10
0.79984
 20
0.384369
 30
0.675
 40
0.073528
  1
6
100
AcDbText
  0
TEXT
  5
4F52D
100
AcDbEntity
  8
0
100
AcDbText
 10
0.033975
 20
0.074497
 30
1.0
 40
0.073528
  1
7
100
AcDbText
  0
TEXT
  5
4F52E
100
AcDbEntity
  8
0
100
AcDbText
 10
0.798333
 20
0.065004
 30
1.0
 40
0.073528
  1
8
100
AcDbText
  0
TEXT
  5
4F52F
100
AcDbEntity
  8
0
100
AcDbText
 10
0.207322
 20
-0.191496
 30
1.0
 40
0.073528
  1
A
100
AcDbText
  0
TEXT
  5
4F530
100
AcDbEntity
  8
0
100
AcDbText
 10
0.618971
 20
-0.1952
 30
1.0
 40
0.073528
  1
B
100
AcDbText
  0
POLYLINE
  5
4F531
100
AcDbEntity
  8
0
100
AcDbPolygonMesh
 66
     1
 10
0.0
 20
0.0
 30
0.0
 70
    16
 71
     6
 72
     3
  0
VERTEX
  5
4F532
100
AcDbEntity
  8
0
100
AcDbVertex
100
AcDbPolygonMeshVertex
 10
0.875
 20
-1.64
 30
1.0
 70
    64
  0
VERTEX
  5
4F533
100
AcDbEntity
  8
0
100
AcDbVertex
100
AcDbPolygonMeshVertex
 10
0.875
 20
-1.64
 30
0.675
 70
    64
  0
VERTEX
  5
4F534
100
AcDbEntity
  8
0
100
AcDbVertex
100
AcDbPolygonMeshVertex
 10
0.875
 20
-1.64
 30
0.675
 70
    64
  0
VERTEX
  5
4F535
100
AcDbEntity
  8
0
100
AcDbVertex
100
AcDbPolygonMeshVertex
 10
0.0
 20
-1.64
 30
1.0
 70
    64
  0
VERTEX
  5
4F536
100
AcDbEntity
  8
0
100
AcDbVertex
100
AcDbPolygonMeshVertex
 10
0.0
 20
-1.64
 30
0.675
 70
    64
  0
VERTEX
  5
4F537
100
AcDbEntity
  8
0
100
AcDbVertex
100
AcDbPolygonMeshVertex
 10
0.0
 20
-1.64
 30
0.675
 70
    64
  0
VERTEX
  5
4F538
100
AcDbEntity
  8
0
100
AcDbVertex
100
AcDbPolygonMeshVertex
 10
0.0
 20
0.26
 30
1.0
 70
    64
  0
VERTEX
  5
4F539
100
AcDbEntity
  8
0
100
AcDbVertex
100
AcDbPolygonMeshVertex
 10
0.0
 20
0.26
 30
0.675
 70
    64
  0
VERTEX
  5
4F53A
100
AcDbEntity
  8
0
100
AcDbVertex
100
AcDbPolygonMeshVertex
 10
0.0
 20
-1.64
 30
0.675
 70
    64
  0
VERTEX
  5
4F53B
100
AcDbEntity
  8
0
100
AcDbVertex
100
AcDbPolygonMeshVertex
 10
0.875
 20
0.26
 30
1.0
 70
    64
  0
VERTEX
  5
4F53C
100
AcDbEntity
  8
0
100
AcDbVertex
100
AcDbPolygonMeshVertex
 10
0.875
 20
0.26
 30
0.675
 70
    64
  0
VERTEX
  5
4F53D
100
AcDbEntity
  8
0
100
AcDbVertex
100
AcDbPolygonMeshVertex
 10
0.875
 20
-1.64
 30
0.675
 70
    64
  0
VERTEX
  5
4F53E
100
AcDbEntity
  8
0
100
AcDbVertex
100
AcDbPolygonMeshVertex
 10
0.875
 20
0.26
 30
1.0
 70
    64
  0
VERTEX
  5
4F53F
100
AcDbEntity
  8
0
100
AcDbVertex
100
AcDbPolygonMeshVertex
 10
0.875
 20
0.26
 30
1.0
 70
    64
  0
VERTEX
  5
4F540
100
AcDbEntity
  8
0
100
AcDbVertex
100
AcDbPolygonMeshVertex
 10
0.875
 20
-1.64
 30
1.0
 70
    64
  0
VERTEX
  5
4F541
100
AcDbEntity
  8
0
100
AcDbVertex
100
AcDbPolygonMeshVertex
 10
0.0
 20
0.26
 30
1.0
 70
    64
  0
VERTEX
  5
4F542
100
AcDbEntity
  8
0
100
AcDbVertex
100
AcDbPolygonMeshVertex
 10
0.0
 20
0.26
 30
1.0
 70
    64
  0
VERTEX
  5
4F543
100
AcDbEntity
  8
0
100
AcDbVertex
100
AcDbPolygonMeshVertex
 10
0.0
 20
-1.64
 30
1.0
 70
    64
  0
SEQEND
  5
4F544
100
AcDbEntity
  8
0
  0
ARC
  5
4F545
100
AcDbEntity
  8
0
100
AcDbCircle
 10
-0.15
 20
-0.69
 30
0.665
 40
0.085938
100
AcDbArc
 50
270.0
 51
90.0
  0
ARC
  5
4F546
100
AcDbEntity
  8
0
100
AcDbCircle
 10
1.025
 20
-0.69
 30
0.665
 40
0.085938
100
AcDbArc
 50
90.0
 51
270.0
  0
ARC
  5
4F547
100
AcDbEntity
  8
0
100
AcDbCircle
 10
1.025
 20
-0.69
 30
0.187
 40
0.085938
100
AcDbArc
 50
90.0
 51
270.0
  0
POLYLINE
  5
4F548
100
AcDbEntity
  8
0
100
AcDbPolygonMesh
 66
     1
 10
0.0
 20
0.0
 30
0.0
 70
    16
 71
     6
 72
     3
  0
VERTEX
  5
4F549
100
AcDbEntity
  8
0
100
AcDbVertex
100
AcDbPolygonMeshVertex
 10
0.7775
 20
0.61
 30
0.125
 70
    64
  0
VERTEX
  5
4F54A
100
AcDbEntity
  8
0
100
AcDbVertex
100
AcDbPolygonMeshVertex
 10
0.7775
 20
0.61
 30
0.0
 70
    64
  0
VERTEX
  5
4F54B
100
AcDbEntity
  8
0
100
AcDbVertex
100
AcDbPolygonMeshVertex
 10
0.7775
 20
0.61
 30
0.0
 70
    64
  0
VERTEX
  5
4F54C
100
AcDbEntity
  8
0
100
AcDbVertex
100
AcDbPolygonMeshVertex
 10
0.0975
 20
0.61
 30
0.125
 70
    64
  0
VERTEX
  5
4F54D
100
AcDbEntity
  8
0
100
AcDbVertex
100
AcDbPolygonMeshVertex
 10
0.0975
 20
0.61
 30
0.0
 70
    64
  0
VERTEX
  5
4F54E
100
AcDbEntity
  8
0
100
AcDbVertex
100
AcDbPolygonMeshVertex
 10
0.0975
 20
0.61
 30
0.0
 70
    64
  0
VERTEX
  5
4F54F
100
AcDbEntity
  8
0
100
AcDbVertex
100
AcDbPolygonMeshVertex
 10
0.0975
 20
0.76
 30
0.125
 70
    64
  0
VERTEX
  5
4F550
100
AcDbEntity
  8
0
100
AcDbVertex
100
AcDbPolygonMeshVertex
 10
0.0975
 20
0.76
 30
0.0
 70
    64
  0
VERTEX
  5
4F551
100
AcDbEntity
  8
0
100
AcDbVertex
100
AcDbPolygonMeshVertex
 10
0.0975
 20
0.61
 30
0.0
 70
    64
  0
VERTEX
  5
4F552
100
AcDbEntity
  8
0
100
AcDbVertex
100
AcDbPolygonMeshVertex
 10
0.7775
 20
0.76
 30
0.125
 70
    64
  0
VERTEX
  5
4F553
100
AcDbEntity
  8
0
100
AcDbVertex
100
AcDbPolygonMeshVertex
 10
0.7775
 20
0.76
 30
0.0
 70
    64
  0
VERTEX
  5
4F554
100
AcDbEntity
  8
0
100
AcDbVertex
100
AcDbPolygonMeshVertex
 10
0.7775
 20
0.61
 30
0.0
 70
    64
  0
VERTEX
  5
4F555
100
AcDbEntity
  8
0
100
AcDbVertex
100
AcDbPolygonMeshVertex
 10
0.7775
 20
0.76
 30
0.125
 70
    64
  0
VERTEX
  5
4F556
100
AcDbEntity
  8
0
100
AcDbVertex
100
AcDbPolygonMeshVertex
 10
0.7775
 20
0.76
 30
0.125
 70
    64
  0
VERTEX
  5
4F557
100
AcDbEntity
  8
0
100
AcDbVertex
100
AcDbPolygonMeshVertex
 10
0.7775
 20
0.61
 30
0.125
 70
    64
  0
VERTEX
  5
4F558
100
AcDbEntity
  8
0
100
AcDbVertex
100
AcDbPolygonMeshVertex
 10
0.0975
 20
0.76
 30
0.125
 70
    64
  0
VERTEX
  5
4F559
100
AcDbEntity
  8
0
100
AcDbVertex
100
AcDbPolygonMeshVertex
 10
0.0975
 20
0.76
 30
0.125
 70
    64
  0
VERTEX
  5
4F55A
100
AcDbEntity
  8
0
100
AcDbVertex
100
AcDbPolygonMeshVertex
 10
0.0975
 20
0.61
 30
0.125
 70
    64
  0
SEQEND
  5
4F55B
100
AcDbEntity
  8
0
  0
ATTDEF
  5
4F55C
100
AcDbEntity
  8
ATTRIBUTES
100
AcDbText
 10
0.023065
 20
-0.425406
 30
0.0
 40
0.051716
  1
ALLEN-BRADLEY
100
AcDbAttributeDefinition
  3
MANUFACTURER NAME?
  2
AC_VND_LABEL
 70
     1
  0
ATTDEF
  5
4F55D
100
AcDbEntity
  8
ATTRIBUTES
100
AcDbText
 10
0.023065
 20
-0.533148
 30
0.0
 40
0.051716
  1
700-HN116
100
AcDbAttributeDefinition
  3
CATALOG NUMBER?
  2
AC_PART_NO
 70
     1
  0
ATTDEF
  5
4F55E
100
AcDbEntity
  8
ATTRIBUTES
100
AcDbText
 10
0.023065
 20
-0.64089
 30
0.0
 40
0.051716
  1
CONTROL RELAY; GENERAL PURPOSE SOCKET; 8 BLADE
100
AcDbAttributeDefinition
  3
PART DESCRIPTION?
  2
AC_DESCRIPTION
 70
     1
  0
ATTDEF
  5
4F55F
100
AcDbEntity
  8
ATTRIBUTES
100
AcDbText
 10
0.023065
 20
-0.748632
 30
0.0
 40
0.051716
  1

100
AcDbAttributeDefinition
  3
DEVICE ID?
  2
DEVICE_ID
 70
     1
  0
ATTDEF
  5
4F560
100
AcDbEntity
  8
ATTRIBUTES
100
AcDbText
 10
0.023065
 20
-0.856374
 30
0.0
 40
0.051716
  1

100
AcDbAttributeDefinition
  3
CUSTOMER PART NUMBER?
  2
AC_CPART_NO
 70
     1
  0
ATTDEF
  5
4F561
100
AcDbEntity
  8
ATTRIBUTES
100
AcDbText
 10
0.023065
 20
-0.964117
 30
0.0
 40
0.051716
  1

100
AcDbAttributeDefinition
  3
CUSTOMER NOTE?
  2
AC_NOTE
 70
     1
  0
ATTDEF
  5
4F562
100
AcDbEntity
  8
ATTRIBUTES
100
AcDbText
 10
0.023065
 20
-1.071859
 30
0.0
 40
0.051716
  1

100
AcDbAttributeDefinition
  3
FASTENER DATA?
  2
FASTENER
 70
     1
  0
ATTDEF
  5
4F563
100
AcDbEntity
  8
ATTRIBUTES
100
AcDbText
 10
0.023065
 20
-1.179601
 30
0.0
 40
0.051716
  1
INCH
100
AcDbAttributeDefinition
  3
UNIT OF SCALE?
  2
AC_SCALE_UNIT
 70
     1
  0
ATTDEF
  5
4F564
100
AcDbEntity
  8
ATTRIBUTES
100
AcDbText
 10
0.023065
 20
-1.287343
 30
0.0
 40
0.051716
  1
0
100
AcDbAttributeDefinition
  3
VIEW CODE?
  2
AC_VIEW_CODE
 70
     1
  0
POLYLINE
  5
4F567
100
AcDbEntity
  8
0
100
AcDbPolygonMesh
 66
     1
 10
0.0
 20
0.0
 30
0.0
 70
    16
 71
     6
 72
     3
  0
VERTEX
  5
4F568
100
AcDbEntity
  8
0
100
AcDbVertex
100
AcDbPolygonMeshVertex
 10
0.0
 20
-1.129638
 30
0.665
 70
    64
  0
VERTEX
  5
4F569
100
AcDbEntity
  8
0
100
AcDbVertex
100
AcDbPolygonMeshVertex
 10
0.0
 20
-1.129638
 30
0.187
 70
    64
  0
VERTEX
  5
4F56A
100
AcDbEntity
  8
0
100
AcDbVertex
100
AcDbPolygonMeshVertex
 10
0.0
 20
-1.129638
 30
0.187
 70
    64
  0
VERTEX
  5
4F56B
100
AcDbEntity
  8
0
100
AcDbVertex
100
AcDbPolygonMeshVertex
 10
-0.15
 20
-1.129638
 30
0.665
 70
    64
  0
VERTEX
  5
4F56C
100
AcDbEntity
  8
0
100
AcDbVertex
100
AcDbPolygonMeshVertex
 10
-0.15
 20
-1.129638
 30
0.187
 70
    64
  0
VERTEX
  5
4F56D
100
AcDbEntity
  8
0
100
AcDbVertex
100
AcDbPolygonMeshVertex
 10
-0.15
 20
-1.129638
 30
0.187
 70
    64
  0
VERTEX
  5
4F56E
100
AcDbEntity
  8
0
100
AcDbVertex
100
AcDbPolygonMeshVertex
 10
-0.15
 20
-0.250363
 30
0.665
 70
    64
  0
VERTEX
  5
4F56F
100
AcDbEntity
  8
0
100
AcDbVertex
100
AcDbPolygonMeshVertex
 10
-0.15
 20
-0.250363
 30
0.187
 70
    64
  0
VERTEX
  5
4F570
100
AcDbEntity
  8
0
100
AcDbVertex
100
AcDbPolygonMeshVertex
 10
-0.15
 20
-1.129638
 30
0.187
 70
    64
  0
VERTEX
  5
4F571
100
AcDbEntity
  8
0
100
AcDbVertex
100
AcDbPolygonMeshVertex
 10
0.0
 20
-0.250363
 30
0.665
 70
    64
  0
VERTEX
  5
4F572
100
AcDbEntity
  8
0
100
AcDbVertex
100
AcDbPolygonMeshVertex
 10
0.0
 20
-0.250363
 30
0.187
 70
    64
  0
VERTEX
  5
4F573
100
AcDbEntity
  8
0
100
AcDbVertex
100
AcDbPolygonMeshVertex
 10
0.0
 20
-1.129638
 30
0.187
 70
    64
  0
VERTEX
  5
4F574
100
AcDbEntity
  8
0
100
AcDbVertex
100
AcDbPolygonMeshVertex
 10
0.0
 20
-0.250363
 30
0.665
 70
    64
  0
VERTEX
  5
4F575
100
AcDbEntity
  8
0
100
AcDbVertex
100
AcDbPolygonMeshVertex
 10
0.0
 20
-0.250363
 30
0.665
 70
    64
  0
VERTEX
  5
4F576
100
AcDbEntity
  8
0
100
AcDbVertex
100
AcDbPolygonMeshVertex
 10
0.0
 20
-1.129638
 30
0.665
 70
    64
  0
VERTEX
  5
4F577
100
AcDbEntity
  8
0
100
AcDbVertex
100
AcDbPolygonMeshVertex
 10
-0.15
 20
-0.250363
 30
0.665
 70
    64
  0
VERTEX
  5
4F578
100
AcDbEntity
  8
0
100
AcDbVertex
100
AcDbPolygonMeshVertex
 10
-0.15
 20
-0.250363
 30
0.665
 70
    64
  0
VERTEX
  5
4F579
100
AcDbEntity
  8
0
100
AcDbVertex
100
AcDbPolygonMeshVertex
 10
-0.15
 20
-1.129638
 30
0.665
 70
    64
  0
SEQEND
  5
4F57A
100
AcDbEntity
  8
0
  0
LINE
  5
4F57B
100
AcDbEntity
  8
0
100
AcDbLine
 10
-0.15
 20
-0.604063
 30
0.187
 11
-0.15
 21
-0.604063
 31
0.665
  0
LINE
  5
4F57C
100
AcDbEntity
  8
0
100
AcDbLine
 10
-0.15
 20
-0.775938
 30
0.187
 11
-0.15
 21
-0.775938
 31
0.665
  0
POLYLINE
  5
4F57D
100
AcDbEntity
  8
0
100
AcDbPolygonMesh
 66
     1
 10
0.0
 20
0.0
 30
0.0
 70
    16
 71
     6
 72
     3
  0
VERTEX
  5
4F57E
100
AcDbEntity
  8
0
100
AcDbVertex
100
AcDbPolygonMeshVertex
 10
1.025
 20
-1.129638
 30
0.665
 70
    64
  0
VERTEX
  5
4F57F
100
AcDbEntity
  8
0
100
AcDbVertex
100
AcDbPolygonMeshVertex
 10
1.025
 20
-1.129638
 30
0.187
 70
    64
  0
VERTEX
  5
4F580
100
AcDbEntity
  8
0
100
AcDbVertex
100
AcDbPolygonMeshVertex
 10
1.025
 20
-1.129638
 30
0.187
 70
    64
  0
VERTEX
  5
4F581
100
AcDbEntity
  8
0
100
AcDbVertex
100
AcDbPolygonMeshVertex
 10
0.875
 20
-1.129638
 30
0.665
 70
    64
  0
VERTEX
  5
4F582
100
AcDbEntity
  8
0
100
AcDbVertex
100
AcDbPolygonMeshVertex
 10
0.875
 20
-1.129638
 30
0.187
 70
    64
  0
VERTEX
  5
4F583
100
AcDbEntity
  8
0
100
AcDbVertex
100
AcDbPolygonMeshVertex
 10
0.875
 20
-1.129638
 30
0.187
 70
    64
  0
VERTEX
  5
4F584
100
AcDbEntity
  8
0
100
AcDbVertex
100
AcDbPolygonMeshVertex
 10
0.875
 20
-0.250363
 30
0.665
 70
    64
  0
VERTEX
  5
4F585
100
AcDbEntity
  8
0
100
AcDbVertex
100
AcDbPolygonMeshVertex
 10
0.875
 20
-0.250363
 30
0.187
 70
    64
  0
VERTEX
  5
4F586
100
AcDbEntity
  8
0
100
AcDbVertex
100
AcDbPolygonMeshVertex
 10
0.875
 20
-1.129638
 30
0.187
 70
    64
  0
VERTEX
  5
4F587
100
AcDbEntity
  8
0
100
AcDbVertex
100
AcDbPolygonMeshVertex
 10
1.025
 20
-0.250363
 30
0.665
 70
    64
  0
VERTEX
  5
4F588
100
AcDbEntity
  8
0
100
AcDbVertex
100
AcDbPolygonMeshVertex
 10
1.025
 20
-0.250363
 30
0.187
 70
    64
  0
VERTEX
  5
4F589
100
AcDbEntity
  8
0
100
AcDbVertex
100
AcDbPolygonMeshVertex
 10
1.025
 20
-1.129638
 30
0.187
 70
    64
  0
VERTEX
  5
4F58A
100
AcDbEntity
  8
0
100
AcDbVertex
100
AcDbPolygonMeshVertex
 10
1.025
 20
-0.250363
 30
0.665
 70
    64
  0
VERTEX
  5
4F58B
100
AcDbEntity
  8
0
100
AcDbVertex
100
AcDbPolygonMeshVertex
 10
1.025
 20
-0.250363
 30
0.665
 70
    64
  0
VERTEX
  5
4F58C
100
AcDbEntity
  8
0
100
AcDbVertex
100
AcDbPolygonMeshVertex
 10
1.025
 20
-1.129638
 30
0.665
 70
    64
  0
VERTEX
  5
4F58D
100
AcDbEntity
  8
0
100
AcDbVertex
100
AcDbPolygonMeshVertex
 10
0.875
 20
-0.250363
 30
0.665
 70
    64
  0
VERTEX
  5
4F58E
100
AcDbEntity
  8
0
100
AcDbVertex
100
AcDbPolygonMeshVertex
 10
0.875
 20
-0.250363
 30
0.665
 70
    64
  0
VERTEX
  5
4F58F
100
AcDbEntity
  8
0
100
AcDbVertex
100
AcDbPolygonMeshVertex
 10
0.875
 20
-1.129638
 30
0.665
 70
    64
  0
SEQEND
  5
4F590
100
AcDbEntity
  8
0
  0
LINE
  5
4F591
100
AcDbEntity
  8
0
100
AcDbLine
 10
1.025
 20
-0.604063
 30
0.665
 11
1.025
 21
-0.604063
 31
0.187
  0
LINE
  5
4F592
100
AcDbEntity
  8
0
100
AcDbLine
 10
1.025
 20
-0.775938
 30
0.187
 11
1.025
 21
-0.775938
 31
0.665
  0
POLYLINE
  5
4F593
100
AcDbEntity
  8
0
100
AcDbPolygonMesh
 66
     1
 10
0.0
 20
0.0
 30
0.0
 70
    16
 71
     6
 72
     3
  0
VERTEX
  5
4F594
100
AcDbEntity
  8
0
100
AcDbVertex
100
AcDbPolygonMeshVertex
 10
0.875
 20
-1.99
 30
0.675
 70
    64
  0
VERTEX
  5
4F595
100
AcDbEntity
  8
0
100
AcDbVertex
100
AcDbPolygonMeshVertex
 10
0.875
 20
-1.99
 30
0.0
 70
    64
  0
VERTEX
  5
4F596
100
AcDbEntity
  8
0
100
AcDbVertex
100
AcDbPolygonMeshVertex
 10
0.875
 20
-1.99
 30
0.0
 70
    64
  0
VERTEX
  5
4F597
100
AcDbEntity
  8
0
100
AcDbVertex
100
AcDbPolygonMeshVertex
 10
0.0
 20
-1.99
 30
0.675
 70
    64
  0
VERTEX
  5
4F598
100
AcDbEntity
  8
0
100
AcDbVertex
100
AcDbPolygonMeshVertex
 10
0.0
 20
-1.99
 30
0.0
 70
    64
  0
VERTEX
  5
4F599
100
AcDbEntity
  8
0
100
AcDbVertex
100
AcDbPolygonMeshVertex
 10
0.0
 20
-1.99
 30
0.0
 70
    64
  0
VERTEX
  5
4F59A
100
AcDbEntity
  8
0
100
AcDbVertex
100
AcDbPolygonMeshVertex
 10
0.0
 20
-1.38
 30
0.675
 70
    64
  0
VERTEX
  5
4F59B
100
AcDbEntity
  8
0
100
AcDbVertex
100
AcDbPolygonMeshVertex
 10
0.0
 20
-1.38
 30
0.0
 70
    64
  0
VERTEX
  5
4F59C
100
AcDbEntity
  8
0
100
AcDbVertex
100
AcDbPolygonMeshVertex
 10
0.0
 20
-1.99
 30
0.0
 70
    64
  0
VERTEX
  5
4F59D
100
AcDbEntity
  8
0
100
AcDbVertex
100
AcDbPolygonMeshVertex
 10
0.875
 20
-1.38
 30
0.675
 70
    64
  0
VERTEX
  5
4F59E
100
AcDbEntity
  8
0
100
AcDbVertex
100
AcDbPolygonMeshVertex
 10
0.875
 20
-1.38
 30
0.0
 70
    64
  0
VERTEX
  5
4F59F
100
AcDbEntity
  8
0
100
AcDbVertex
100
AcDbPolygonMeshVertex
 10
0.875
 20
-1.99
 30
0.0
 70
    64
  0
VERTEX
  5
4F5A0
100
AcDbEntity
  8
0
100
AcDbVertex
100
AcDbPolygonMeshVertex
 10
0.875
 20
-1.38
 30
0.675
 70
    64
  0
VERTEX
  5
4F5A1
100
AcDbEntity
  8
0
100
AcDbVertex
100
AcDbPolygonMeshVertex
 10
0.875
 20
-1.38
 30
0.675
 70
    64
  0
VERTEX
  5
4F5A2
100
AcDbEntity
  8
0
100
AcDbVertex
100
AcDbPolygonMeshVertex
 10
0.875
 20
-1.99
 30
0.675
 70
    64
  0
VERTEX
  5
4F5A3
100
AcDbEntity
  8
0
100
AcDbVertex
100
AcDbPolygonMeshVertex
 10
0.0
 20
-1.38
 30
0.675
 70
    64
  0
VERTEX
  5
4F5A4
100
AcDbEntity
  8
0
100
AcDbVertex
100
AcDbPolygonMeshVertex
 10
0.0
 20
-1.38
 30
0.675
 70
    64
  0
VERTEX
  5
4F5A5
100
AcDbEntity
  8
0
100
AcDbVertex
100
AcDbPolygonMeshVertex
 10
0.0
 20
-1.99
 30
0.675
 70
    64
  0
SEQEND
  5
4F5A6
100
AcDbEntity
  8
0
  0
POLYLINE
  5
4F5A7
100
AcDbEntity
  8
0
100
AcDbPolygonMesh
 66
     1
 10
0.0
 20
0.0
 30
0.0
 70
    16
 71
     6
 72
     3
  0
VERTEX
  5
4F5A8
100
AcDbEntity
  8
0
100
AcDbVertex
100
AcDbPolygonMeshVertex
 10
0.875
 20
0.0
 30
0.675
 70
    64
  0
VERTEX
  5
4F5A9
100
AcDbEntity
  8
0
100
AcDbVertex
100
AcDbPolygonMeshVertex
 10
0.875
 20
0.0
 30
0.0
 70
    64
  0
VERTEX
  5
4F5AA
100
AcDbEntity
  8
0
100
AcDbVertex
100
AcDbPolygonMeshVertex
 10
0.875
 20
0.0
 30
0.0
 70
    64
  0
VERTEX
  5
4F5AB
100
AcDbEntity
  8
0
100
AcDbVertex
100
AcDbPolygonMeshVertex
 10
0.0
 20
0.0
 30
0.675
 70
    64
  0
VERTEX
  5
4F5AC
100
AcDbEntity
  8
0
100
AcDbVertex
100
AcDbPolygonMeshVertex
 10
0.0
 20
0.0
 30
0.0
 70
    64
  0
VERTEX
  5
4F5AD
100
AcDbEntity
  8
0
100
AcDbVertex
100
AcDbPolygonMeshVertex
 10
0.0
 20
0.0
 30
0.0
 70
    64
  0
VERTEX
  5
4F5AE
100
AcDbEntity
  8
0
100
AcDbVertex
100
AcDbPolygonMeshVertex
 10
0.0
 20
0.61
 30
0.675
 70
    64
  0
VERTEX
  5
4F5AF
100
AcDbEntity
  8
0
100
AcDbVertex
100
AcDbPolygonMeshVertex
 10
0.0
 20
0.61
 30
0.0
 70
    64
  0
VERTEX
  5
4F5B0
100
AcDbEntity
  8
0
100
AcDbVertex
100
AcDbPolygonMeshVertex
 10
0.0
 20
0.0
 30
0.0
 70
    64
  0
VERTEX
  5
4F5B1
100
AcDbEntity
  8
0
100
AcDbVertex
100
AcDbPolygonMeshVertex
 10
0.875
 20
0.61
 30
0.675
 70
    64
  0
VERTEX
  5
4F5B2
100
AcDbEntity
  8
0
100
AcDbVertex
100
AcDbPolygonMeshVertex
 10
0.875
 20
0.61
 30
0.0
 70
    64
  0
VERTEX
  5
4F5B3
100
AcDbEntity
  8
0
100
AcDbVertex
100
AcDbPolygonMeshVertex
 10
0.875
 20
0.0
 30
0.0
 70
    64
  0
VERTEX
  5
4F5B4
100
AcDbEntity
  8
0
100
AcDbVertex
100
AcDbPolygonMeshVertex
 10
0.875
 20
0.61
 30
0.675
 70
    64
  0
VERTEX
  5
4F5B5
100
AcDbEntity
  8
0
100
AcDbVertex
100
AcDbPolygonMeshVertex
 10
0.875
 20
0.61
 30
0.675
 70
    64
  0
VERTEX
  5
4F5B6
100
AcDbEntity
  8
0
100
AcDbVertex
100
AcDbPolygonMeshVertex
 10
0.875
 20
0.0
 30
0.675
 70
    64
  0
VERTEX
  5
4F5B7
100
AcDbEntity
  8
0
100
AcDbVertex
100
AcDbPolygonMeshVertex
 10
0.0
 20
0.61
 30
0.675
 70
    64
  0
VERTEX
  5
4F5B8
100
AcDbEntity
  8
0
100
AcDbVertex
100
AcDbPolygonMeshVertex
 10
0.0
 20
0.61
 30
0.675
 70
    64
  0
VERTEX
  5
4F5B9
100
AcDbEntity
  8
0
100
AcDbVertex
100
AcDbPolygonMeshVertex
 10
0.0
 20
0.0
 30
0.675
 70
    64
  0
SEQEND
  5
4F5BA
100
AcDbEntity
  8
0
  0
POLYLINE
  5
4F5BB
100
AcDbEntity
  8
0
100
AcDbPolygonMesh
 66
     1
 10
0.0
 20
0.0
 30
0.0
 70
    16
 71
     6
 72
     3
  0
VERTEX
  5
4F5BC
100
AcDbEntity
  8
0
100
AcDbVertex
100
AcDbPolygonMeshVertex
 10
0.875
 20
-1.38
 30
0.675
 70
    64
  0
VERTEX
  5
4F5BD
100
AcDbEntity
  8
0
100
AcDbVertex
100
AcDbPolygonMeshVertex
 10
0.875
 20
-1.38
 30
0.187
 70
    64
  0
VERTEX
  5
4F5BE
100
AcDbEntity
  8
0
100
AcDbVertex
100
AcDbPolygonMeshVertex
 10
0.875
 20
-1.38
 30
0.187
 70
    64
  0
VERTEX
  5
4F5BF
100
AcDbEntity
  8
0
100
AcDbVertex
100
AcDbPolygonMeshVertex
 10
0.0
 20
-1.38
 30
0.675
 70
    64
  0
VERTEX
  5
4F5C0
100
AcDbEntity
  8
0
100
AcDbVertex
100
AcDbPolygonMeshVertex
 10
0.0
 20
-1.38
 30
0.187
 70
    64
  0
VERTEX
  5
4F5C1
100
AcDbEntity
  8
0
100
AcDbVertex
100
AcDbPolygonMeshVertex
 10
0.0
 20
-1.38
 30
0.187
 70
    64
  0
VERTEX
  5
4F5C2
100
AcDbEntity
  8
0
100
AcDbVertex
100
AcDbPolygonMeshVertex
 10
0.0
 20
0.0
 30
0.675
 70
    64
  0
VERTEX
  5
4F5C3
100
AcDbEntity
  8
0
100
AcDbVertex
100
AcDbPolygonMeshVertex
 10
0.0
 20
0.0
 30
0.187
 70
    64
  0
VERTEX
  5
4F5C4
100
AcDbEntity
  8
0
100
AcDbVertex
100
AcDbPolygonMeshVertex
 10
0.0
 20
-1.38
 30
0.187
 70
    64
  0
VERTEX
  5
4F5C5
100
AcDbEntity
  8
0
100
AcDbVertex
100
AcDbPolygonMeshVertex
 10
0.875
 20
0.0
 30
0.675
 70
    64
  0
VERTEX
  5
4F5C6
100
AcDbEntity
  8
0
100
AcDbVertex
100
AcDbPolygonMeshVertex
 10
0.875
 20
0.0
 30
0.187
 70
    64
  0
VERTEX
  5
4F5C7
100
AcDbEntity
  8
0
100
AcDbVertex
100
AcDbPolygonMeshVertex
 10
0.875
 20
-1.38
 30
0.187
 70
    64
  0
VERTEX
  5
4F5C8
100
AcDbEntity
  8
0
100
AcDbVertex
100
AcDbPolygonMeshVertex
 10
0.875
 20
0.0
 30
0.675
 70
    64
  0
VERTEX
  5
4F5C9
100
AcDbEntity
  8
0
100
AcDbVertex
100
AcDbPolygonMeshVertex
 10
0.875
 20
0.0
 30
0.675
 70
    64
  0
VERTEX
  5
4F5CA
100
AcDbEntity
  8
0
100
AcDbVertex
100
AcDbPolygonMeshVertex
 10
0.875
 20
-1.38
 30
0.675
 70
    64
  0
VERTEX
  5
4F5CB
100
AcDbEntity
  8
0
100
AcDbVertex
100
AcDbPolygonMeshVertex
 10
0.0
 20
0.0
 30
0.675
 70
    64
  0
VERTEX
  5
4F5CC
100
AcDbEntity
  8
0
100
AcDbVertex
100
AcDbPolygonMeshVertex
 10
0.0
 20
0.0
 30
0.675
 70
    64
  0
VERTEX
  5
4F5CD
100
AcDbEntity
  8
0
100
AcDbVertex
100
AcDbPolygonMeshVertex
 10
0.0
 20
-1.38
 30
0.675
 70
    64
  0
SEQEND
  5
4F5CE
100
AcDbEntity
  8
0
  0
POINT
  5
4F5CF
100
AcDbEntity
  8
SNAP_POINTS
100
AcDbPoint
 10
0.0
 20
0.0
 30
0.0
  0
POINT
  5
4F5D0
100
AcDbEntity
  8
DIMS-MTG-HOLES
100
AcDbPoint
 10
-0.15
 20
-0.69
 30
0.187
  0
POINT
  5
4F5D1
100
AcDbEntity
  8
DIMS-MTG-HOLES
100
AcDbPoint
 10
1.025
 20
-0.69
 30
0.187
  0
DIMENSION
  5
4F5D2
100
AcDbEntity
  8
AREA1
100
AcDbDimension
  2
*D0
 10
-0.66472
 20
-1.99
 30
0.0
 11
-0.66472
 21
-0.617604
 31
0.0
 70
   160
  3
ABECAD_3D
100
AcDbAlignedDimension
 13
0.0975
 23
0.76
 33
0.0
 14
0.0
 24
-1.99
 34
0.0
 50
90.0
100
AcDbRotatedDimension
  0
DIMENSION
  5
4F5E0
100
AcDbEntity
  8
AREA1
100
AcDbDimension
  2
*D1
 10
1.025
 20
1.086064
 30
0.0
 11
0.418705
 21
1.463998
 31
0.0
 70
   160
  3
ABECAD_3D
100
AcDbAlignedDimension
 13
-0.15
 23
-0.250363
 33
0.187
 14
1.025
 24
-0.250363
 34
0.187
100
AcDbRotatedDimension
  0
LWPOLYLINE
  5
4F605
100
AcDbEntity
  8
SCALE
100
AcDbPolyline
 90
        4
 70
     1
 43
0.0
 10
-0.105596
 20
-2.243824
 10
1.030033
 20
-2.243824
 10
1.030033
 20
-3.085433
 10
-0.105596
 20
-3.085433
  0
LINE
  5
4F606
100
AcDbEntity
  8
SCALE
100
AcDbLine
 10
-0.047597
 20
-2.623902
 30
0.0
 11
0.952403
 21
-2.623902
 31
0.0
  0
LINE
  5
4F607
100
AcDbEntity
  8
SCALE
100
AcDbLine
 10
-0.047597
 20
-2.923902
 30
0.0
 11
0.346103
 21
-2.923902
 31
0.0
  0
LINE
  5
4F608
100
AcDbEntity
  8
SCALE
100
AcDbLine
 10
-0.047597
 20
-2.723902
 30
0.0
 11
-0.047597
 21
-2.523902
 31
0.0
  0
TEXT
  5
4F609
100
AcDbEntity
  8
SCALE
100
AcDbText
 10
0.008379
 20
-2.876217
 30
0.0
 40
0.0625
  1
[10mm]
100
AcDbText
  0
LINE
  5
4F60A
100
AcDbEntity
  8
SCALE
100
AcDbLine
 10
-0.047597
 20
-3.023902
 30
0.0
 11
-0.047597
 21
-2.823902
 31
0.0
  0
TEXT
  5
4F60B
100
AcDbEntity
  8
SCALE
100
AcDbText
 10
-0.046067
 20
-2.349025
 30
0.0
 40
0.0625
  1
SCALE:
100
AcDbText
  0
LINE
  5
4F60C
100
AcDbEntity
  8
SCALE
100
AcDbLine
 10
0.346103
 20
-3.023902
 30
0.0
 11
0.346103
 21
-2.823902
 31
0.0
  0
TEXT
  5
4F60D
100
AcDbEntity
  8
SCALE
100
AcDbText
 10
0.315686
 20
-2.554853
 30
0.0
 40
0.0625
  1
1 Inch
100
AcDbText
  0
LINE
  5
4F60E
100
AcDbEntity
  8
SCALE
100
AcDbLine
 10
0.952403
 20
-2.623902
 30
0.0
 11
0.952403
 21
-2.723902
 31
0.0
  0
LINE
  5
4F60F
100
AcDbEntity
  8
SCALE
100
AcDbLine
 10
0.952403
 20
-2.723902
 30
0.0
 11
0.952403
 21
-2.523902
 31
0.0
  0
ENDSEC
  0
SECTION
  2
OBJECTS
  0
DICTIONARY
  5
458CB
100
AcDbDictionary
  3
ACAD_GROUP
350
458CC
  3
ACAD_LAYOUT
350
458FB
  3
ACAD_MLINESTYLE
350
458D9
  3
ACAD_PLOTSETTINGS
350
458FC
  3
ACAD_PLOTSTYLENAME
350
458F9
  3
ACDBHEADERROUNDTRIPXREC
350
4F677
  3
ACDBVARIABLEDICTIONARY
350
458E1
  3
DWGPROPS
350
45901
  0
DICTIONARY
  5
4F675
100
AcDbDictionary
280
     1
  3
ACAD_XREC_ROUNDTRIP
360
4F676
  0
DICTIONARY
  5
4F69E
100
AcDbDictionary
280
     1
  3
ACAD_XREC_ROUNDTRIP
360
4F69F
  0
DICTIONARY
  5
4F673
100
AcDbDictionary
280
     1
  3
ACAD_XREC_ROUNDTRIP
360
4F674
  0
DICTIONARY
  5
4F69A
100
AcDbDictionary
280
     1
  3
ACAD_XREC_ROUNDTRIP
360
4F69B
  0
DICTIONARY
  5
4592C
100
AcDbDictionary
280
     1
  3
ACAD_LAYOUTSELFREF
360
4F699
  0
DICTIONARY
  5
4592A
100
AcDbDictionary
280
     1
  3
ACAD_LAYOUTSELFREF
360
4F698
  0
DICTIONARY
  5
458CC
102
{ACAD_REACTORS
330
458CB
102
}
100
AcDbDictionary
  0
DICTIONARY
  5
458FB
102
{ACAD_XDICTIONARY
360
4F69C
102
}
102
{ACAD_REACTORS
330
458CB
102
}
100
AcDbDictionary
  3
LAYOUT1
350
458FE
  3
MODEL
350
458FD
  0
DICTIONARY
  5
458D9
102
{ACAD_REACTORS
330
458CB
102
}
100
AcDbDictionary
  3
STANDARD
350
458DA
  0
DICTIONARY
  5
458FC
102
{ACAD_REACTORS
330
458CB
102
}
100
AcDbDictionary
  0
ACAD_PROXY_OBJECT
  5
458F9
102
{ACAD_REACTORS
330
458CB
102
}
100
AcDbProxyObject
 90
      499
 91
      501
 93
       86
310
405010041939BDC9B585B0
350
458FA
340
458FA
 94
        0
  0
DICTIONARY
  5
4F677
102
{ACAD_REACTORS
330
458CB
102
}
100
AcDbDictionary
  3
CEPSNTYPE
350
4F681
  3
DIMSTYLEDATA
350
4F685
  3
FINGERPRINTGUID
350
4F682
  3
HYPERLINKBASE
350
4F67A
  3
INSUNITS
350
4F680
  3
LAYOUTDICT
350
4F67C
  3
LWETCUNION
350
4F67F
  3
PLOTSETDICT
350
4F67D
  3
PLOTSTYLNAMDICT
350
4F67E
  3
PSVPSCALE
350
4F684
  3
PUCSBASE
350
4F688
  3
PUCSORGBACK
350
4F68E
  3
PUCSORGBOTTOM
350
4F68A
  3
PUCSORGFRONT
350
4F68D
  3
PUCSORGLEFT
350
4F68B
  3
PUCSORGRIGHT
350
4F68C
  3
PUCSORGTOP
350
4F689
  3
PUCSORTHOREF
350
4F686
  3
PUCSORTHOVIEW
350
4F687
  3
STYLESHEET
350
4F67B
  3
TSTACKALIGN
350
4F678
  3
TSTACKSIZE
350
4F679
  3
UCSBASE
350
4F691
  3
UCSORGBACK
350
4F697
  3
UCSORGBOTTOM
350
4F693
  3
UCSORGFRONT
350
4F696
  3
UCSORGLEFT
350
4F694
  3
UCSORGRIGHT
350
4F695
  3
UCSORGTOP
350
4F692
  3
UCSORTHOREF
350
4F68F
  3
UCSORTHOVIEW
350
4F690
  3
VERSIONGUID
350
4F683
  0
DICTIONARY
  5
458E1
102
{ACAD_REACTORS
330
458CB
102
}
100
AcDbDictionary
  3
DIMADEC
350
458E2
  0
XRECORD
  5
45901
102
{ACAD_REACTORS
330
458CB
102
}
100
AcDbXrecord
  1
DWGPROPS COOKIE
  2

  3

  4

  6

  7

  8
colin
  9

300
=
301
=
302
=
303
=
304
=
305
=
306
=
307
=
308
=
309
=
 40
0.000599
 41
2451670.444777
 42
2451670.445376
  1

 90
        0
  0
XRECORD
  5
4F676
102
{ACAD_REACTORS
330
4F675
102
}
100
AcDbXrecord
102
EXTNAMES
  1
*ACTIVE
  2
*Active
102
UCS
 74
     0
 71
     1
 10
0.0
 20
0.0
 30
0.0
 10
1.0
 20
0.0
 30
0.0
 10
0.0
 20
1.0
 30
0.0
146
0.0
 79
     1
102
VIEW
281
     1
  0
XRECORD
  5
4F69F
102
{ACAD_REACTORS
330
4F69E
102
}
100
AcDbXrecord
102
PLOTBIT
280
     0
  0
XRECORD
  5
4F674
102
{ACAD_REACTORS
330
4F673
102
}
100
AcDbXrecord
102
EXTNAMES
  1
DEFPOINTS
  2
Defpoints
102
PLOTBIT
280
     0
  0
XRECORD
  5
4F69B
102
{ACAD_REACTORS
330
4F69A
102
}
100
AcDbXrecord
102
ACADR14ROUNDTRIP
1000
DSTYLE
1002
{
1070
   276
 70
     2
1070
   277
 70
     5
1070
   279
 70
     2
1002
}
  0
XRECORD
  5
4F699
102
{ACAD_REACTORS
330
4592C
102
}
100
AcDbXrecord
340
458D6
  0
XRECORD
  5
4F698
102
{ACAD_REACTORS
330
4592A
102
}
100
AcDbXrecord
340
458D3
  0
DICTIONARY
  5
4F69C
100
AcDbDictionary
280
     1
  3
ACAD_XREC_ROUNDTRIP
360
4F69D
  0
ACAD_PROXY_OBJECT
  5
458FE
102
{ACAD_REACTORS
330
458FB
102
}
100
AcDbProxyObject
 90
      499
 91
      503
 93
     1348
310
91D4850204C617365724A65742035303030205365726965732050434C20362C00AAAAAA416AA547D11959985D5B1D08148C4D081C195B88185CDCDA59DB9B595B9D1CCB98DD1891069074C61796F75743140501A800000000000000000000000000000000000000000000A1000000000000008902A6A6A10232D5E076BC551
310
0408CB5781DAF154410232D5E076BC5510408CB5781DAF15C410232D5E076BC5710408CB5781DAF15C40
330
458D3
330
0
340
0
340
0
 94
        0
  0
ACAD_PROXY_OBJECT
  5
458FD
102
{ACAD_REACTORS
330
458FB
102
}
100
AcDbProxyObject
 90
      499
 91
      503
 93
      924
310
91D4850204C617365724A65742035303030205365726965732050434C20362C01AAAAAAAAA547D11959985D5B1D08148C4D081C195B88185CDCDA59DB9B595B9D1CCB98DD18A69054D6F64656C901A800000000000000000000000000000000000000000000A1000000000000008902A6A6AAAA0
330
458D6
330
0
340
0
340
0
 94
        0
  0
MLINESTYLE
  5
458DA
102
{ACAD_REACTORS
330
458D9
102
}
100
AcDbMlineStyle
  2
STANDARD
 70
     0
  3

 62
   256
 51
90.0
 52
90.0
 71
     2
 49
0.5
 62
   256
  6
BYLAYER
 49
-0.5
 62
   256
  6
BYLAYER
  0
ACAD_PROXY_OBJECT
  5
458FA
102
{ACAD_REACTORS
330
458F9
102
}
100
AcDbProxyObject
 90
      499
 91
      502
 93
        0
 94
        0
  0
XRECORD
  5
4F681
102
{ACAD_REACTORS
330
4F677
102
}
100
AcDbXrecord
 90
        0
  0
XRECORD
  5
4F685
102
{ACAD_REACTORS
330
4F677
102
}
100
AcDbXrecord
1000
DSTYLE
1002
{
1070
   276
 70
     2
1070
   277
 70
     5
1070
   279
 70
     2
1002
}
  0
XRECORD
  5
4F682
102
{ACAD_REACTORS
330
4F677
102
}
100
AcDbXrecord
  1
{6E0CF4B8-225E-11D4-A150-00A0CC3303EC}
  0
XRECORD
  5
4F67A
102
{ACAD_REACTORS
330
4F677
102
}
100
AcDbXrecord
  1

  0
XRECORD
  5
4F680
102
{ACAD_REACTORS
330
4F677
102
}
100
AcDbXrecord
 90
        0
  0
XRECORD
  5
4F67C
102
{ACAD_REACTORS
330
4F677
102
}
100
AcDbXrecord
340
458FB
  0
XRECORD
  5
4F67F
102
{ACAD_REACTORS
330
4F677
102
}
100
AcDbXrecord
 90
    14877
  0
XRECORD
  5
4F67D
102
{ACAD_REACTORS
330
4F677
102
}
100
AcDbXrecord
340
458FC
  0
XRECORD
  5
4F67E
102
{ACAD_REACTORS
330
4F677
102
}
100
AcDbXrecord
340
458F9
  0
XRECORD
  5
4F684
102
{ACAD_REACTORS
330
4F677
102
}
100
AcDbXrecord
 40
0.0
  0
XRECORD
  5
4F688
102
{ACAD_REACTORS
330
4F677
102
}
100
AcDbXrecord
340
0
  0
XRECORD
  5
4F68E
102
{ACAD_REACTORS
330
4F677
102
}
100
AcDbXrecord
 10
0.0
 20
0.0
 30
0.0
  0
XRECORD
  5
4F68A
102
{ACAD_REACTORS
330
4F677
102
}
100
AcDbXrecord
 10
0.0
 20
0.0
 30
0.0
  0
XRECORD
  5
4F68D
102
{ACAD_REACTORS
330
4F677
102
}
100
AcDbXrecord
 10
0.0
 20
0.0
 30
0.0
  0
XRECORD
  5
4F68B
102
{ACAD_REACTORS
330
4F677
102
}
100
AcDbXrecord
 10
0.0
 20
0.0
 30
0.0
  0
XRECORD
  5
4F68C
102
{ACAD_REACTORS
330
4F677
102
}
100
AcDbXrecord
 10
0.0
 20
0.0
 30
0.0
  0
XRECORD
  5
4F689
102
{ACAD_REACTORS
330
4F677
102
}
100
AcDbXrecord
 10
0.0
 20
0.0
 30
0.0
  0
XRECORD
  5
4F686
102
{ACAD_REACTORS
330
4F677
102
}
100
AcDbXrecord
340
0
  0
XRECORD
  5
4F687
102
{ACAD_REACTORS
330
4F677
102
}
100
AcDbXrecord
 70
     0
  0
XRECORD
  5
4F67B
102
{ACAD_REACTORS
330
4F677
102
}
100
AcDbXrecord
  1

  0
XRECORD
  5
4F678
102
{ACAD_REACTORS
330
4F677
102
}
100
AcDbXrecord
 90
        1
  0
XRECORD
  5
4F679
102
{ACAD_REACTORS
330
4F677
102
}
100
AcDbXrecord
 90
       70
  0
XRECORD
  5
4F691
102
{ACAD_REACTORS
330
4F677
102
}
100
AcDbXrecord
340
0
  0
XRECORD
  5
4F697
102
{ACAD_REACTORS
330
4F677
102
}
100
AcDbXrecord
 10
0.0
 20
0.0
 30
0.0
  0
XRECORD
  5
4F693
102
{ACAD_REACTORS
330
4F677
102
}
100
AcDbXrecord
 10
0.0
 20
0.0
 30
0.0
  0
XRECORD
  5
4F696
102
{ACAD_REACTORS
330
4F677
102
}
100
AcDbXrecord
 10
0.0
 20
0.0
 30
0.0
  0
XRECORD
  5
4F694
102
{ACAD_REACTORS
330
4F677
102
}
100
AcDbXrecord
 10
0.0
 20
0.0
 30
0.0
  0
XRECORD
  5
4F695
102
{ACAD_REACTORS
330
4F677
102
}
100
AcDbXrecord
 10
0.0
 20
0.0
 30
0.0
  0
XRECORD
  5
4F692
102
{ACAD_REACTORS
330
4F677
102
}
100
AcDbXrecord
 10
0.0
 20
0.0
 30
0.0
  0
XRECORD
  5
4F68F
102
{ACAD_REACTORS
330
4F677
102
}
100
AcDbXrecord
340
0
  0
XRECORD
  5
4F690
102
{ACAD_REACTORS
330
4F677
102
}
100
AcDbXrecord
 70
     1
  0
XRECORD
  5
4F683
102
{ACAD_REACTORS
330
4F677
102
}
100
AcDbXrecord
  1
{F8B03A91-227A-4997-A4B5-F097E33B45AE}
  0
DICTIONARYVAR
  5
458E2
102
{ACAD_REACTORS
330
458E1
102
}
100
DictionaryVariables
280
     0
  1
0
  0
XRECORD
  5
4F69D
102
{ACAD_REACTORS
330
4F69C
102
}
100
AcDbXrecord
102
EXTNAMES
  1
LAYOUT1
  2
Layout1
  1
MODEL
  2
Model
  0
ENDSEC
  0
EOF
