  0
SECTION
  2
HEADER
  9
$ACADVER
  1
AC1014
  9
$ACADMAINTVER
 70
     8
  9
$DWGCODEPAGE
  3
ANSI_1252
  9
$INSBASE
 10
0.0
 20
0.0
 30
0.0
  9
$EXTMIN
 10
-5.420405
 20
-13.367533
 30
0.0
  9
$EXTMAX
 10
3.5
 20
1.733102
 30
8.125
  9
$LIMMIN
 10
0.0
 20
0.0
  9
$LIMMAX
 10
12.0
 20
9.0
  9
$ORTHOMODE
 70
     0
  9
$REGENMODE
 70
     1
  9
$FILLMODE
 70
     1
  9
$QTEXTMODE
 70
     0
  9
$MIRRTEXT
 70
     1
  9
$DRAGMODE
 70
     2
  9
$LTSCALE
 40
1.0
  9
$OSMODE
 70
    37
  9
$ATTMODE
 70
     1
  9
$TEXTSIZE
 40
0.12
  9
$TRACEWID
 40
0.05
  9
$TEXTSTYLE
  7
STANDARD
  9
$CLAYER
  8
0
  9
$CELTYPE
  6
BYLAYER
  9
$CECOLOR
 62
   256
  9
$CELTSCALE
 40
1.0
  9
$DELOBJ
 70
     1
  9
$DISPSILH
 70
     0
  9
$DIMSCALE
 40
1.0
  9
$DIMASZ
 40
0.18
  9
$DIMEXO
 40
0.0625
  9
$DIMDLI
 40
0.375
  9
$DIMRND
 40
0.0
  9
$DIMDLE
 40
0.0
  9
$DIMEXE
 40
0.18
  9
$DIMTP
 40
0.0
  9
$DIMTM
 40
0.0
  9
$DIMTXT
 40
0.4
  9
$DIMCEN
 40
0.09
  9
$DIMTSZ
 40
0.0
  9
$DIMTOL
 70
     0
  9
$DIMLIM
 70
     0
  9
$DIMTIH
 70
     0
  9
$DIMTOH
 70
     1
  9
$DIMSE1
 70
     0
  9
$DIMSE2
 70
     0
  9
$DIMTAD
 70
     0
  9
$DIMZIN
 70
     4
  9
$DIMBLK
  1

  9
$DIMASO
 70
     1
  9
$DIMSHO
 70
     1
  9
$DIMPOST
  1

  9
$DIMAPOST
  1

  9
$DIMALT
 70
     1
  9
$DIMALTD
 70
     2
  9
$DIMALTF
 40
25.4
  9
$DIMLFAC
 40
1.0
  9
$DIMTOFL
 70
     0
  9
$DIMTVP
 40
0.0
  9
$DIMTIX
 70
     0
  9
$DIMSOXD
 70
     0
  9
$DIMSAH
 70
     0
  9
$DIMBLK1
  1

  9
$DIMBLK2
  1

  9
$DIMSTYLE
  2
ABECAD_3D
  9
$DIMCLRD
 70
     0
  9
$DIMCLRE
 70
     0
  9
$DIMCLRT
 70
     0
  9
$DIMTFAC
 40
1.5
  9
$DIMGAP
 40
0.09
  9
$DIMJUST
 70
     0
  9
$DIMSD1
 70
     0
  9
$DIMSD2
 70
     0
  9
$DIMTOLJ
 70
     1
  9
$DIMTZIN
 70
     4
  9
$DIMALTZ
 70
     4
  9
$DIMALTTZ
 70
     4
  9
$DIMFIT
 70
     5
  9
$DIMUPT
 70
     1
  9
$DIMUNIT
 70
     7
  9
$DIMDEC
 70
     6
  9
$DIMTDEC
 70
     6
  9
$DIMALTU
 70
     2
  9
$DIMALTTD
 70
     2
  9
$DIMTXSTY
  7
STANDARD
  9
$DIMAUNIT
 70
     0
  9
$LUNITS
 70
     2
  9
$LUPREC
 70
     4
  9
$SKETCHINC
 40
0.1
  9
$FILLETRAD
 40
0.0
  9
$AUNITS
 70
     0
  9
$AUPREC
 70
     0
  9
$MENU
  1
ACAD
  9
$ELEVATION
 40
0.0
  9
$PELEVATION
 40
0.0
  9
$THICKNESS
 40
0.0
  9
$LIMCHECK
 70
     0
  9
$BLIPMODE
 70
     0
  9
$CHAMFERA
 40
0.0
  9
$CHAMFERB
 40
0.0
  9
$CHAMFERC
 40
0.0
  9
$CHAMFERD
 40
0.0
  9
$SKPOLY
 70
     0
  9
$TDCREATE
 40
2451726.438389120
  9
$TDUPDATE
 40
2452010.484394444
  9
$TDINDWG
 40
0.0939743056
  9
$TDUSRTIMER
 40
0.0939743056
  9
$USRTIMER
 70
     1
  9
$ANGBASE
 50
0.0
  9
$ANGDIR
 70
     0
  9
$PDMODE
 70
     3
  9
$PDSIZE
 40
0.09
  9
$PLINEWID
 40
0.0
  9
$COORDS
 70
     1
  9
$SPLFRAME
 70
     1
  9
$SPLINETYPE
 70
     6
  9
$SPLINESEGS
 70
     8
  9
$ATTDIA
 70
     0
  9
$ATTREQ
 70
     1
  9
$HANDLING
 70
     1
  9
$HANDSEED
  5
4BEB0
  9
$SURFTAB1
 70
     6
  9
$SURFTAB2
 70
     6
  9
$SURFTYPE
 70
     6
  9
$SURFU
 70
     6
  9
$SURFV
 70
     6
  9
$UCSNAME
  2

  9
$UCSORG
 10
0.0
 20
0.0
 30
0.0
  9
$UCSXDIR
 10
1.0
 20
0.0
 30
0.0
  9
$UCSYDIR
 10
0.0
 20
1.0
 30
0.0
  9
$PUCSNAME
  2

  9
$PUCSORG
 10
0.0
 20
0.0
 30
0.0
  9
$PUCSXDIR
 10
1.0
 20
0.0
 30
0.0
  9
$PUCSYDIR
 10
0.0
 20
1.0
 30
0.0
  9
$USERI1
 70
     0
  9
$USERI2
 70
     0
  9
$USERI3
 70
     0
  9
$USERI4
 70
     0
  9
$USERI5
 70
     0
  9
$USERR1
 40
0.0
  9
$USERR2
 40
0.0
  9
$USERR3
 40
0.0
  9
$USERR4
 40
0.0
  9
$USERR5
 40
0.0
  9
$WORLDVIEW
 70
     1
  9
$SHADEDGE
 70
     3
  9
$SHADEDIF
 70
    70
  9
$TILEMODE
 70
     1
  9
$MAXACTVP
 70
    16
  9
$PINSBASE
 10
0.0
 20
0.0
 30
0.0
  9
$PLIMCHECK
 70
     0
  9
$PEXTMIN
 10
1.000000E+20
 20
1.000000E+20
 30
1.000000E+20
  9
$PEXTMAX
 10
-1.000000E+20
 20
-1.000000E+20
 30
-1.000000E+20
  9
$PLIMMIN
 10
0.0
 20
0.0
  9
$PLIMMAX
 10
12.0
 20
9.0
  9
$UNITMODE
 70
     0
  9
$VISRETAIN
 70
     0
  9
$PLINEGEN
 70
     0
  9
$PSLTSCALE
 70
     1
  9
$TREEDEPTH
 70
  3020
  9
$PICKSTYLE
 70
     1
  9
$CMLSTYLE
  2
STANDARD
  9
$CMLJUST
 70
     0
  9
$CMLSCALE
 40
1.0
  9
$PROXYGRAPHICS
 70
     1
  9
$MEASUREMENT
 70
     0
  0
ENDSEC
  0
SECTION
  2
CLASSES
  0
CLASS
  1
DICTIONARYVAR
  2
AcDbDictionaryVar
  3
"AutoCAD"
 90
        0
280
     0
281
     0
  0
CLASS
  1
ACDBDICTIONARYWDFLT
  2
AcDbDictionaryWithDefault
  3
AutoCAD 2000
 90
        0
280
     0
281
     0
  0
CLASS
  1
ACDBPLACEHOLDER
  2
AcDbPlaceHolder
  3
AutoCAD 2000
 90
        0
280
     0
281
     0
  0
CLASS
  1
LAYOUT
  2
AcDbLayout
  3
AutoCAD 2000
 90
        0
280
     0
281
     0
  0
CLASS
  1
LONG_TRANSACTION
  2
AcDbLongTransaction
  3
AutoCAD 2000
 90
        0
280
     0
281
     0
  0
CLASS
  1
LWPOLYLINE
  2
AcDbPolyline
  3
"AutoCAD"
 90
        0
280
     0
281
     1
  0
CLASS
  1
HATCH
  2
AcDbHatch
  3
"ACAD_SEDONA"
 90
        0
280
     0
281
     1
  0
CLASS
  1
XRECORD
  2
AcDbXrecord
  3
"<Built In>"
 90
        0
280
     0
281
     0
  0
CLASS
  1
LONG_TRANSACTION
  2
AcDbLongTransaction
  3
AutoCAD 2000
 90
        0
280
     0
281
     0
  0
CLASS
  1
LWPOLYLINE
  2
AcDbPolyline
  3
"AutoCAD"
 90
        0
280
     0
281
     1
  0
CLASS
  1
HATCH
  2
AcDbHatch
  3
"ACAD_SEDONA"
 90
        0
280
     0
281
     1
  0
CLASS
  1
XRECORD
  2
AcDbXrecord
  3
"<Built In>"
 90
        0
280
     0
281
     0
  0
CLASS
  1
LONG_TRANSACTION
  2
AcDbLongTransaction
  3
AutoCAD 2000
 90
        0
280
     0
281
     0
  0
CLASS
  1
LWPOLYLINE
  2
AcDbPolyline
  3
"AutoCAD"
 90
        0
280
     0
281
     1
  0
CLASS
  1
HATCH
  2
AcDbHatch
  3
"ACAD_SEDONA"
 90
        0
280
     0
281
     1
  0
CLASS
  1
XRECORD
  2
AcDbXrecord
  3
"<Built In>"
 90
        0
280
     0
281
     0
  0
CLASS
  1
LONG_TRANSACTION
  2
AcDbLongTransaction
  3
AutoCAD 2000
 90
        0
280
     0
281
     0
  0
CLASS
  1
LWPOLYLINE
  2
AcDbPolyline
  3
"AutoCAD"
 90
        0
280
     0
281
     1
  0
CLASS
  1
HATCH
  2
AcDbHatch
  3
"ACAD_SEDONA"
 90
        0
280
     0
281
     1
  0
CLASS
  1
XRECORD
  2
AcDbXrecord
  3
"<Built In>"
 90
        0
280
     0
281
     0
  0
CLASS
  1
LONG_TRANSACTION
  2
AcDbLongTransaction
  3
AutoCAD 2000
 90
        0
280
     0
281
     0
  0
CLASS
  1
LWPOLYLINE
  2
AcDbPolyline
  3
"AutoCAD"
 90
        0
280
     0
281
     1
  0
CLASS
  1
HATCH
  2
AcDbHatch
  3
"ACAD_SEDONA"
 90
        0
280
     0
281
     1
  0
CLASS
  1
XRECORD
  2
AcDbXrecord
  3
"<Built In>"
 90
        0
280
     0
281
     0
  0
CLASS
  1
LONG_TRANSACTION
  2
AcDbLongTransaction
  3
AutoCAD 2000
 90
        0
280
     0
281
     0
  0
CLASS
  1
LWPOLYLINE
  2
AcDbPolyline
  3
"AutoCAD"
 90
        0
280
     0
281
     1
  0
CLASS
  1
HATCH
  2
AcDbHatch
  3
"ACAD_SEDONA"
 90
        0
280
     0
281
     1
  0
CLASS
  1
XRECORD
  2
AcDbXrecord
  3
"<Built In>"
 90
        0
280
     0
281
     0
  0
CLASS
  1
LONG_TRANSACTION
  2
AcDbLongTransaction
  3
AutoCAD 2000
 90
        0
280
     0
281
     0
  0
CLASS
  1
LWPOLYLINE
  2
AcDbPolyline
  3
"AutoCAD"
 90
        0
280
     0
281
     1
  0
CLASS
  1
HATCH
  2
AcDbHatch
  3
"ACAD_SEDONA"
 90
        0
280
     0
281
     1
  0
CLASS
  1
XRECORD
  2
AcDbXrecord
  3
"<Built In>"
 90
        0
280
     0
281
     0
  0
CLASS
  1
LONG_TRANSACTION
  2
AcDbLongTransaction
  3
AutoCAD 2000
 90
        0
280
     0
281
     0
  0
CLASS
  1
LWPOLYLINE
  2
AcDbPolyline
  3
"AutoCAD"
 90
        0
280
     0
281
     1
  0
CLASS
  1
HATCH
  2
AcDbHatch
  3
"ACAD_SEDONA"
 90
        0
280
     0
281
     1
  0
CLASS
  1
XRECORD
  2
AcDbXrecord
  3
"<Built In>"
 90
        0
280
     0
281
     0
  0
ENDSEC
  0
SECTION
  2
TABLES
  0
TABLE
  2
VPORT
  5
458C7
100
AcDbSymbolTable
 70
     1
  0
VPORT
  5
4BE7F
102
{ACAD_XDICTIONARY
360
4BE82
102
}
100
AcDbSymbolTableRecord
100
AcDbViewportTableRecord
  2
*ACTIVE
 70
     0
 10
0.0
 20
0.0
 11
1.0
 21
1.0
 12
-3.384212
 22
1.552479
 13
0.0
 23
0.0
 14
0.25
 24
0.25
 15
0.25
 25
0.25
 16
0.0
 26
0.0
 36
1.0
 17
2.424304
 27
-7.3694
 37
0.845844
 40
15.356415
 41
1.960674
 42
50.0
 43
0.0
 44
0.0
 50
0.0
 51
0.0
 71
     0
 72
 20000
 73
     1
 74
     1
 75
     0
 76
     0
 77
     0
 78
     0
  0
ENDTAB
  0
TABLE
  2
LTYPE
  5
458C4
100
AcDbSymbolTable
 70
     1
  0
LTYPE
  5
458D0
100
AcDbSymbolTableRecord
100
AcDbLinetypeTableRecord
  2
BYBLOCK
 70
     0
  3

 72
    65
 73
     0
 40
0.0
  0
LTYPE
  5
458D1
100
AcDbSymbolTableRecord
100
AcDbLinetypeTableRecord
  2
BYLAYER
 70
     0
  3

 72
    65
 73
     0
 40
0.0
  0
LTYPE
  5
458D2
100
AcDbSymbolTableRecord
100
AcDbLinetypeTableRecord
  2
CONTINUOUS
 70
     0
  3
Solid line
 72
    65
 73
     0
 40
0.0
  0
ENDTAB
  0
TABLE
  2
LAYER
  5
458C1
100
AcDbSymbolTable
 70
     7
  0
LAYER
  5
458CD
100
AcDbSymbolTableRecord
100
AcDbLayerTableRecord
  2
0
 70
     0
 62
     7
  6
CONTINUOUS
  0
LAYER
  5
458EA
100
AcDbSymbolTableRecord
100
AcDbLayerTableRecord
  2
DIMS-MTG-HOLES
 70
     0
 62
     1
  6
CONTINUOUS
  0
LAYER
  5
458EB
100
AcDbSymbolTableRecord
100
AcDbLayerTableRecord
  2
ATTRIBUTES
 70
     0
 62
     7
  6
CONTINUOUS
  0
LAYER
  5
4593B
102
{ACAD_XDICTIONARY
360
4BEAB
102
}
100
AcDbSymbolTableRecord
100
AcDbLayerTableRecord
  2
AREA1
 70
     0
 62
    -7
  6
CONTINUOUS
  0
LAYER
  5
45940
102
{ACAD_XDICTIONARY
360
4BE80
102
}
100
AcDbSymbolTableRecord
100
AcDbLayerTableRecord
  2
DEFPOINTS
 70
     0
 62
    -7
  6
CONTINUOUS
  0
LAYER
  5
45954
100
AcDbSymbolTableRecord
100
AcDbLayerTableRecord
  2
SCALE
 70
     0
 62
    -7
  6
CONTINUOUS
  0
LAYER
  5
459D2
100
AcDbSymbolTableRecord
100
AcDbLayerTableRecord
  2
SNAP_POINTS
 70
     0
 62
    -1
  6
CONTINUOUS
  0
ENDTAB
  0
TABLE
  2
STYLE
  5
458C2
100
AcDbSymbolTable
 70
     1
  0
STYLE
  5
458CE
100
AcDbSymbolTableRecord
100
AcDbTextStyleTableRecord
  2
STANDARD
 70
     0
 40
0.0
 41
1.0
 50
0.0
 71
     0
 42
0.12
  3
txt
  4

  0
ENDTAB
  0
TABLE
  2
VIEW
  5
458C5
100
AcDbSymbolTable
 70
     0
  0
ENDTAB
  0
TABLE
  2
UCS
  5
458C6
100
AcDbSymbolTable
 70
     0
  0
ENDTAB
  0
TABLE
  2
APPID
  5
458C8
100
AcDbSymbolTable
 70
     1
  0
APPID
  5
458CF
100
AcDbSymbolTableRecord
100
AcDbRegAppTableRecord
  2
ACAD
 70
     0
  0
ENDTAB
  0
TABLE
  2
DIMSTYLE
  5
458C9
100
AcDbSymbolTable
 70
     1
  0
DIMSTYLE
105
458F6
102
{ACAD_XDICTIONARY
360
4BEA7
102
}
102
{ACAD_REACTORS
330
4BDD3
330
4BDE1
102
}
100
AcDbSymbolTableRecord
100
AcDbDimStyleTableRecord
  2
ABECAD_3D
 70
     0
  3

  4

  5

  6

  7

 40
1.0
 41
0.18
 42
0.0625
 43
0.375
 44
0.18
 45
0.0
 46
0.0
 47
0.0
 48
0.0
140
0.4
141
0.09
142
0.0
143
25.4
144
1.0
145
0.0
146
1.5
147
0.09
 71
     0
 72
     0
 73
     0
 74
     1
 75
     0
 76
     0
 77
     0
 78
     4
170
     1
171
     2
172
     0
173
     0
174
     0
175
     0
176
     0
177
     0
178
     0
270
     7
271
     6
272
     6
273
     2
274
     2
340
458CE
275
     0
280
     0
281
     0
282
     0
283
     1
284
     4
285
     4
286
     4
287
     5
288
     1
  0
ENDTAB
  0
TABLE
  2
BLOCK_RECORD
  5
458C0
100
AcDbSymbolTable
 70
     2
  0
BLOCK_RECORD
  5
458D6
102
{ACAD_XDICTIONARY
360
4592C
102
}
100
AcDbSymbolTableRecord
100
AcDbBlockTableRecord
  2
*MODEL_SPACE
  0
BLOCK_RECORD
  5
458D3
102
{ACAD_XDICTIONARY
360
4592A
102
}
100
AcDbSymbolTableRecord
100
AcDbBlockTableRecord
  2
*PAPER_SPACE
  0
BLOCK_RECORD
  5
4BDD4
100
AcDbSymbolTableRecord
100
AcDbBlockTableRecord
  2
*D0
  0
BLOCK_RECORD
  5
4BDE2
100
AcDbSymbolTableRecord
100
AcDbBlockTableRecord
  2
*D1
  0
ENDTAB
  0
ENDSEC
  0
SECTION
  2
BLOCKS
  0
BLOCK
  5
458DF
100
AcDbEntity
  8
0
100
AcDbBlockBegin
  2
*MODEL_SPACE
 70
     0
 10
0.0
 20
0.0
 30
0.0
  3
*MODEL_SPACE
  1

  0
ENDBLK
  5
458E0
100
AcDbEntity
  8
0
100
AcDbBlockEnd
  0
BLOCK
  5
458DD
100
AcDbEntity
 67
     1
  8
0
100
AcDbBlockBegin
  2
*PAPER_SPACE
 70
     0
 10
0.0
 20
0.0
 30
0.0
  3
*PAPER_SPACE
  1

  0
ENDBLK
  5
458DE
100
AcDbEntity
 67
     1
  8
0
100
AcDbBlockEnd
  0
BLOCK
  5
4BDDF
100
AcDbEntity
  8
0
100
AcDbBlockBegin
  2
*D0
 70
     1
 10
0.0
 20
0.0
 30
0.0
  3
*D0
  1

  0
LINE
  5
4BE3A
100
AcDbEntity
  8
AREA1
 62
     0
100
AcDbLine
 10
-2.1875
 20
0.375
 30
0.0
 11
-5.400405
 21
0.375
 31
0.0
1001
ACAD
1000
RTLwPs
1070
   158
  0
LINE
  5
4BE3B
100
AcDbEntity
  8
AREA1
 62
     0
100
AcDbLine
 10
-2.62826
 20
-12.203125
 30
0.0
 11
-5.400405
 21
-12.203125
 31
0.0
1001
ACAD
1000
RTLwPs
1070
   158
  0
LINE
  5
4BE3C
100
AcDbEntity
  8
AREA1
 62
     0
100
AcDbLine
 10
-5.220405
 20
0.195
 30
0.0
 11
-5.220405
 21
-2.663116
 31
0.0
1001
ACAD
1000
RTLwPs
1070
   158
  0
LINE
  5
4BE3D
100
AcDbEntity
  8
AREA1
 62
     0
100
AcDbLine
 10
-5.220405
 20
-12.023125
 30
0.0
 11
-5.220405
 21
-8.709783
 31
0.0
1001
ACAD
1000
RTLwPs
1070
   158
  0
MTEXT
  5
4BE3E
100
AcDbEntity
  8
AREA1
 62
     0
100
AcDbMText
 10
-5.220405
 20
-5.686449
 30
0.0
 40
0.4
 41
0.0
 71
     5
 72
     1
  1
\A1;12 37/64 [319.48]
 11
0.0
 21
1.0
 31
0.0
1001
ACAD
1000
MTEXTBEGIN
1070
    73
1070
     1
1070
    44
1040
1.0
1070
    74
1070
     0
1000
MTEXTEND
1000
MTEXTBEGIN
1070
    73
1070
     1
1070
    44
1040
1.0
1070
    74
1070
     0
1000
MTEXTEND
  0
SOLID
  5
4BE3F
100
AcDbEntity
  8
AREA1
 62
     0
100
AcDbTrace
 10
-5.250405
 20
0.195
 30
0.0
 11
-5.190405
 21
0.195
 31
0.0
 12
-5.220405
 22
0.375
 32
0.0
 13
-5.220405
 23
0.375
 33
0.0
  0
SOLID
  5
4BE40
100
AcDbEntity
  8
AREA1
 62
     0
100
AcDbTrace
 10
-5.250405
 20
-12.023125
 30
0.0
 11
-5.190405
 21
-12.023125
 31
0.0
 12
-5.220405
 22
-12.203125
 32
0.0
 13
-5.220405
 23
-12.203125
 33
0.0
  0
POINT
  5
4BE41
100
AcDbEntity
  8
DEFPOINTS
 62
     0
100
AcDbPoint
 10
-2.125
 20
0.375
 30
0.0
  0
POINT
  5
4BE42
100
AcDbEntity
  8
DEFPOINTS
 62
     0
100
AcDbPoint
 10
-2.56576
 20
-12.203125
 30
2.125
  0
POINT
  5
4BE43
100
AcDbEntity
  8
DEFPOINTS
 62
     0
100
AcDbPoint
 10
-5.220405
 20
-12.203125
 30
0.0
  0
ENDBLK
  5
4BDE0
100
AcDbEntity
  8
0
100
AcDbBlockEnd
  0
BLOCK
  5
4BDED
100
AcDbEntity
  8
0
100
AcDbBlockBegin
  2
*D1
 70
     1
 10
0.0
 20
0.0
 30
0.0
  3
*D1
  1

  0
LINE
  5
4BE44
100
AcDbEntity
  8
AREA1
 62
     0
100
AcDbLine
 10
-3.5
 20
-8.5325
 30
0.0
 11
-3.5
 21
1.713102
 31
0.0
1001
ACAD
1000
RTLwPs
1070
   158
  0
LINE
  5
4BE45
100
AcDbEntity
  8
AREA1
 62
     0
100
AcDbLine
 10
3.5
 20
-8.5325
 30
0.0
 11
3.5
 21
1.713102
 31
0.0
1001
ACAD
1000
RTLwPs
1070
   158
  0
LINE
  5
4BE46
100
AcDbEntity
  8
AREA1
 62
     0
100
AcDbLine
 10
-3.32
 20
1.533102
 30
0.0
 11
-1.683787
 21
1.533102
 31
0.0
1001
ACAD
1000
RTLwPs
1070
   158
  0
LINE
  5
4BE47
100
AcDbEntity
  8
AREA1
 62
     0
100
AcDbLine
 10
3.32
 20
1.533102
 30
0.0
 11
1.629546
 21
1.533102
 31
0.0
1001
ACAD
1000
RTLwPs
1070
   158
  0
MTEXT
  5
4BE48
100
AcDbEntity
  8
AREA1
 62
     0
100
AcDbMText
 10
-0.02712
 20
1.533102
 30
0.0
 40
0.4
 41
0.0
 71
     5
 72
     1
  1
\A1;7 [177.80]
1001
ACAD
1000
MTEXTBEGIN
1070
    73
1070
     1
1070
    44
1040
1.0
1070
    74
1070
     0
1000
MTEXTEND
1000
MTEXTBEGIN
1070
    73
1070
     1
1070
    44
1040
1.0
1070
    74
1070
     0
1000
MTEXTEND
  0
SOLID
  5
4BE49
100
AcDbEntity
  8
AREA1
 62
     0
100
AcDbTrace
 10
-3.32
 20
1.563102
 30
0.0
 11
-3.32
 21
1.503102
 31
0.0
 12
-3.5
 22
1.533102
 32
0.0
 13
-3.5
 23
1.533102
 33
0.0
  0
SOLID
  5
4BE4A
100
AcDbEntity
  8
AREA1
 62
     0
100
AcDbTrace
 10
3.32
 20
1.563102
 30
0.0
 11
3.32
 21
1.503102
 31
0.0
 12
3.5
 22
1.533102
 32
0.0
 13
3.5
 23
1.533102
 33
0.0
  0
POINT
  5
4BE4B
100
AcDbEntity
  8
DEFPOINTS
 62
     0
100
AcDbPoint
 10
-3.5
 20
-8.595
 30
0.0
  0
POINT
  5
4BE4C
100
AcDbEntity
  8
DEFPOINTS
 62
     0
100
AcDbPoint
 10
3.5
 20
-8.595
 30
0.0
  0
POINT
  5
4BE4D
100
AcDbEntity
  8
DEFPOINTS
 62
     0
100
AcDbPoint
 10
3.5
 20
1.533102
 30
0.0
  0
ENDBLK
  5
4BDEE
100
AcDbEntity
  8
0
100
AcDbBlockEnd
  0
ENDSEC
  0
SECTION
  2
ENTITIES
  0
CIRCLE
  5
4BB89
100
AcDbEntity
  8
0
100
AcDbCircle
 10
-2.00326
 20
-10.515625
 30
2.375
 40
0.1875
  0
CIRCLE
  5
4BB8A
100
AcDbEntity
  8
0
100
AcDbCircle
 10
-2.00326
 20
-11.640625
 30
3.5
 40
0.4375
  0
LINE
  5
4BB8B
100
AcDbEntity
  8
0
100
AcDbLine
 10
-3.25
 20
-1.231667
 30
0.0
 11
-3.25
 21
-1.231667
 31
0.278
  0
CIRCLE
  5
4BB8C
100
AcDbEntity
  8
0
100
AcDbCircle
 10
-2.0
 20
-1.63
 30
7.0
 40
0.1875
  0
CIRCLE
  5
4BB8D
100
AcDbEntity
  8
0
100
AcDbCircle
 10
-2.0
 20
-0.505
 30
8.125
 40
0.4375
  0
CIRCLE
  5
4BB8E
100
AcDbEntity
  8
0
100
AcDbCircle
 10
3.14974
 20
-9.84375
 30
0.0
 40
0.15625
  0
CIRCLE
  5
4BB8F
100
AcDbEntity
  8
0
100
AcDbCircle
 10
0.992
 20
0.0
 30
0.0
 40
0.15625
  0
LINE
  5
4BB90
100
AcDbEntity
  8
0
100
AcDbLine
 10
3.25
 20
-1.231667
 30
0.0
 11
3.25
 21
-1.231667
 31
0.278
  0
POLYLINE
  5
4BB91
100
AcDbEntity
  8
0
100
AcDbPolygonMesh
 66
     1
 10
0.0
 20
0.0
 30
0.0
 70
    16
 71
     6
 72
     3
  0
VERTEX
  5
4BB92
100
AcDbEntity
  8
0
100
AcDbVertex
100
AcDbPolygonMeshVertex
 10
1.0
 20
-6.815
 30
6.0625
 70
    64
  0
VERTEX
  5
4BB93
100
AcDbEntity
  8
0
100
AcDbVertex
100
AcDbPolygonMeshVertex
 10
1.0
 20
-6.815
 30
5.6875
 70
    64
  0
VERTEX
  5
4BB94
100
AcDbEntity
  8
0
100
AcDbVertex
100
AcDbPolygonMeshVertex
 10
1.0
 20
-6.815
 30
5.6875
 70
    64
  0
VERTEX
  5
4BB95
100
AcDbEntity
  8
0
100
AcDbVertex
100
AcDbPolygonMeshVertex
 10
-1.0
 20
-6.815
 30
6.0625
 70
    64
  0
VERTEX
  5
4BB96
100
AcDbEntity
  8
0
100
AcDbVertex
100
AcDbPolygonMeshVertex
 10
-1.0
 20
-6.815
 30
5.6875
 70
    64
  0
VERTEX
  5
4BB97
100
AcDbEntity
  8
0
100
AcDbVertex
100
AcDbPolygonMeshVertex
 10
-1.0
 20
-6.815
 30
5.6875
 70
    64
  0
VERTEX
  5
4BB98
100
AcDbEntity
  8
0
100
AcDbVertex
100
AcDbPolygonMeshVertex
 10
-1.0
 20
-5.815
 30
6.0625
 70
    64
  0
VERTEX
  5
4BB99
100
AcDbEntity
  8
0
100
AcDbVertex
100
AcDbPolygonMeshVertex
 10
-1.0
 20
-5.815
 30
5.6875
 70
    64
  0
VERTEX
  5
4BB9A
100
AcDbEntity
  8
0
100
AcDbVertex
100
AcDbPolygonMeshVertex
 10
-1.0
 20
-6.815
 30
5.6875
 70
    64
  0
VERTEX
  5
4BB9B
100
AcDbEntity
  8
0
100
AcDbVertex
100
AcDbPolygonMeshVertex
 10
1.0
 20
-5.815
 30
6.0625
 70
    64
  0
VERTEX
  5
4BB9C
100
AcDbEntity
  8
0
100
AcDbVertex
100
AcDbPolygonMeshVertex
 10
1.0
 20
-5.815
 30
5.6875
 70
    64
  0
VERTEX
  5
4BB9D
100
AcDbEntity
  8
0
100
AcDbVertex
100
AcDbPolygonMeshVertex
 10
1.0
 20
-6.815
 30
5.6875
 70
    64
  0
VERTEX
  5
4BB9E
100
AcDbEntity
  8
0
100
AcDbVertex
100
AcDbPolygonMeshVertex
 10
1.0
 20
-5.815
 30
6.0625
 70
    64
  0
VERTEX
  5
4BB9F
100
AcDbEntity
  8
0
100
AcDbVertex
100
AcDbPolygonMeshVertex
 10
1.0
 20
-5.815
 30
6.0625
 70
    64
  0
VERTEX
  5
4BBA0
100
AcDbEntity
  8
0
100
AcDbVertex
100
AcDbPolygonMeshVertex
 10
1.0
 20
-6.815
 30
6.0625
 70
    64
  0
VERTEX
  5
4BBA1
100
AcDbEntity
  8
0
100
AcDbVertex
100
AcDbPolygonMeshVertex
 10
-1.0
 20
-5.815
 30
6.0625
 70
    64
  0
VERTEX
  5
4BBA2
100
AcDbEntity
  8
0
100
AcDbVertex
100
AcDbPolygonMeshVertex
 10
-1.0
 20
-5.815
 30
6.0625
 70
    64
  0
VERTEX
  5
4BBA3
100
AcDbEntity
  8
0
100
AcDbVertex
100
AcDbPolygonMeshVertex
 10
-1.0
 20
-6.815
 30
6.0625
 70
    64
  0
SEQEND
  5
4BBA4
100
AcDbEntity
  8
0
  0
POLYLINE
  5
4BBA5
100
AcDbEntity
  8
0
100
AcDbPolygonMesh
 66
     1
 10
0.0
 20
0.0
 30
0.0
 70
    16
 71
     6
 72
     3
  0
VERTEX
  5
4BBA6
100
AcDbEntity
  8
0
100
AcDbVertex
100
AcDbPolygonMeshVertex
 10
-1.44076
 20
-12.203125
 30
3.5
 70
    64
  0
VERTEX
  5
4BBA7
100
AcDbEntity
  8
0
100
AcDbVertex
100
AcDbPolygonMeshVertex
 10
-1.44076
 20
-12.203125
 30
2.125
 70
    64
  0
VERTEX
  5
4BBA8
100
AcDbEntity
  8
0
100
AcDbVertex
100
AcDbPolygonMeshVertex
 10
-1.44076
 20
-12.203125
 30
2.125
 70
    64
  0
VERTEX
  5
4BBA9
100
AcDbEntity
  8
0
100
AcDbVertex
100
AcDbPolygonMeshVertex
 10
-2.56576
 20
-12.203125
 30
3.5
 70
    64
  0
VERTEX
  5
4BBAA
100
AcDbEntity
  8
0
100
AcDbVertex
100
AcDbPolygonMeshVertex
 10
-2.56576
 20
-12.203125
 30
2.125
 70
    64
  0
VERTEX
  5
4BBAB
100
AcDbEntity
  8
0
100
AcDbVertex
100
AcDbPolygonMeshVertex
 10
-2.56576
 20
-12.203125
 30
2.125
 70
    64
  0
VERTEX
  5
4BBAC
100
AcDbEntity
  8
0
100
AcDbVertex
100
AcDbPolygonMeshVertex
 10
-2.56576
 20
-11.078125
 30
3.5
 70
    64
  0
VERTEX
  5
4BBAD
100
AcDbEntity
  8
0
100
AcDbVertex
100
AcDbPolygonMeshVertex
 10
-2.56576
 20
-11.078125
 30
2.125
 70
    64
  0
VERTEX
  5
4BBAE
100
AcDbEntity
  8
0
100
AcDbVertex
100
AcDbPolygonMeshVertex
 10
-2.56576
 20
-12.203125
 30
2.125
 70
    64
  0
VERTEX
  5
4BBAF
100
AcDbEntity
  8
0
100
AcDbVertex
100
AcDbPolygonMeshVertex
 10
-1.44076
 20
-11.078125
 30
3.5
 70
    64
  0
VERTEX
  5
4BBB0
100
AcDbEntity
  8
0
100
AcDbVertex
100
AcDbPolygonMeshVertex
 10
-1.44076
 20
-11.078125
 30
2.125
 70
    64
  0
VERTEX
  5
4BBB1
100
AcDbEntity
  8
0
100
AcDbVertex
100
AcDbPolygonMeshVertex
 10
-1.44076
 20
-12.203125
 30
2.125
 70
    64
  0
VERTEX
  5
4BBB2
100
AcDbEntity
  8
0
100
AcDbVertex
100
AcDbPolygonMeshVertex
 10
-1.44076
 20
-11.078125
 30
3.5
 70
    64
  0
VERTEX
  5
4BBB3
100
AcDbEntity
  8
0
100
AcDbVertex
100
AcDbPolygonMeshVertex
 10
-1.44076
 20
-11.078125
 30
3.5
 70
    64
  0
VERTEX
  5
4BBB4
100
AcDbEntity
  8
0
100
AcDbVertex
100
AcDbPolygonMeshVertex
 10
-1.44076
 20
-12.203125
 30
3.5
 70
    64
  0
VERTEX
  5
4BBB5
100
AcDbEntity
  8
0
100
AcDbVertex
100
AcDbPolygonMeshVertex
 10
-2.56576
 20
-11.078125
 30
3.5
 70
    64
  0
VERTEX
  5
4BBB6
100
AcDbEntity
  8
0
100
AcDbVertex
100
AcDbPolygonMeshVertex
 10
-2.56576
 20
-11.078125
 30
3.5
 70
    64
  0
VERTEX
  5
4BBB7
100
AcDbEntity
  8
0
100
AcDbVertex
100
AcDbPolygonMeshVertex
 10
-2.56576
 20
-12.203125
 30
3.5
 70
    64
  0
SEQEND
  5
4BBB8
100
AcDbEntity
  8
0
  0
POLYLINE
  5
4BBB9
100
AcDbEntity
  8
0
100
AcDbPolygonMesh
 66
     1
 10
0.0
 20
0.0
 30
0.0
 70
    16
 71
     6
 72
     3
  0
VERTEX
  5
4BBBA
100
AcDbEntity
  8
0
100
AcDbVertex
100
AcDbPolygonMeshVertex
 10
-1.44076
 20
-11.328125
 30
2.125
 70
    64
  0
VERTEX
  5
4BBBB
100
AcDbEntity
  8
0
100
AcDbVertex
100
AcDbPolygonMeshVertex
 10
-1.44076
 20
-11.328125
 30
1.875
 70
    64
  0
VERTEX
  5
4BBBC
100
AcDbEntity
  8
0
100
AcDbVertex
100
AcDbPolygonMeshVertex
 10
-1.44076
 20
-11.328125
 30
1.875
 70
    64
  0
VERTEX
  5
4BBBD
100
AcDbEntity
  8
0
100
AcDbVertex
100
AcDbPolygonMeshVertex
 10
-2.56576
 20
-11.328125
 30
2.125
 70
    64
  0
VERTEX
  5
4BBBE
100
AcDbEntity
  8
0
100
AcDbVertex
100
AcDbPolygonMeshVertex
 10
-2.56576
 20
-11.328125
 30
1.875
 70
    64
  0
VERTEX
  5
4BBBF
100
AcDbEntity
  8
0
100
AcDbVertex
100
AcDbPolygonMeshVertex
 10
-2.56576
 20
-11.328125
 30
1.875
 70
    64
  0
VERTEX
  5
4BBC0
100
AcDbEntity
  8
0
100
AcDbVertex
100
AcDbPolygonMeshVertex
 10
-2.56576
 20
-11.078125
 30
2.125
 70
    64
  0
VERTEX
  5
4BBC1
100
AcDbEntity
  8
0
100
AcDbVertex
100
AcDbPolygonMeshVertex
 10
-2.56576
 20
-11.078125
 30
1.875
 70
    64
  0
VERTEX
  5
4BBC2
100
AcDbEntity
  8
0
100
AcDbVertex
100
AcDbPolygonMeshVertex
 10
-2.56576
 20
-11.328125
 30
1.875
 70
    64
  0
VERTEX
  5
4BBC3
100
AcDbEntity
  8
0
100
AcDbVertex
100
AcDbPolygonMeshVertex
 10
-1.44076
 20
-11.078125
 30
2.125
 70
    64
  0
VERTEX
  5
4BBC4
100
AcDbEntity
  8
0
100
AcDbVertex
100
AcDbPolygonMeshVertex
 10
-1.44076
 20
-11.078125
 30
1.875
 70
    64
  0
VERTEX
  5
4BBC5
100
AcDbEntity
  8
0
100
AcDbVertex
100
AcDbPolygonMeshVertex
 10
-1.44076
 20
-11.328125
 30
1.875
 70
    64
  0
VERTEX
  5
4BBC6
100
AcDbEntity
  8
0
100
AcDbVertex
100
AcDbPolygonMeshVertex
 10
-1.44076
 20
-11.078125
 30
2.125
 70
    64
  0
VERTEX
  5
4BBC7
100
AcDbEntity
  8
0
100
AcDbVertex
100
AcDbPolygonMeshVertex
 10
-1.44076
 20
-11.078125
 30
2.125
 70
    64
  0
VERTEX
  5
4BBC8
100
AcDbEntity
  8
0
100
AcDbVertex
100
AcDbPolygonMeshVertex
 10
-1.44076
 20
-11.328125
 30
2.125
 70
    64
  0
VERTEX
  5
4BBC9
100
AcDbEntity
  8
0
100
AcDbVertex
100
AcDbPolygonMeshVertex
 10
-2.56576
 20
-11.078125
 30
2.125
 70
    64
  0
VERTEX
  5
4BBCA
100
AcDbEntity
  8
0
100
AcDbVertex
100
AcDbPolygonMeshVertex
 10
-2.56576
 20
-11.078125
 30
2.125
 70
    64
  0
VERTEX
  5
4BBCB
100
AcDbEntity
  8
0
100
AcDbVertex
100
AcDbPolygonMeshVertex
 10
-2.56576
 20
-11.328125
 30
2.125
 70
    64
  0
SEQEND
  5
4BBCC
100
AcDbEntity
  8
0
  0
LWPOLYLINE
  5
4BBCD
100
AcDbEntity
  8
0
100
AcDbPolyline
 90
        6
 70
     1
 43
0.0
 38
2.375
 10
-2.25326
 20
-10.082613
 10
-1.75326
 20
-10.082612
 10
-1.50326
 20
-10.515625
 10
-1.75326
 20
-10.948638
 10
-2.25326
 20
-10.948638
 10
-2.50326
 20
-10.515625
  0
POLYLINE
  5
4BBCE
100
AcDbEntity
  8
0
100
AcDbPolygonMesh
 66
     1
 10
0.0
 20
0.0
 30
0.0
 70
    16
 71
     6
 72
     3
  0
VERTEX
  5
4BBCF
100
AcDbEntity
  8
0
100
AcDbVertex
100
AcDbPolygonMeshVertex
 10
0.55924
 20
-12.203125
 30
3.5
 70
    64
  0
VERTEX
  5
4BBD0
100
AcDbEntity
  8
0
100
AcDbVertex
100
AcDbPolygonMeshVertex
 10
0.55924
 20
-12.203125
 30
2.125
 70
    64
  0
VERTEX
  5
4BBD1
100
AcDbEntity
  8
0
100
AcDbVertex
100
AcDbPolygonMeshVertex
 10
0.55924
 20
-12.203125
 30
2.125
 70
    64
  0
VERTEX
  5
4BBD2
100
AcDbEntity
  8
0
100
AcDbVertex
100
AcDbPolygonMeshVertex
 10
-0.56576
 20
-12.203125
 30
3.5
 70
    64
  0
VERTEX
  5
4BBD3
100
AcDbEntity
  8
0
100
AcDbVertex
100
AcDbPolygonMeshVertex
 10
-0.56576
 20
-12.203125
 30
2.125
 70
    64
  0
VERTEX
  5
4BBD4
100
AcDbEntity
  8
0
100
AcDbVertex
100
AcDbPolygonMeshVertex
 10
-0.56576
 20
-12.203125
 30
2.125
 70
    64
  0
VERTEX
  5
4BBD5
100
AcDbEntity
  8
0
100
AcDbVertex
100
AcDbPolygonMeshVertex
 10
-0.56576
 20
-11.078125
 30
3.5
 70
    64
  0
VERTEX
  5
4BBD6
100
AcDbEntity
  8
0
100
AcDbVertex
100
AcDbPolygonMeshVertex
 10
-0.56576
 20
-11.078125
 30
2.125
 70
    64
  0
VERTEX
  5
4BBD7
100
AcDbEntity
  8
0
100
AcDbVertex
100
AcDbPolygonMeshVertex
 10
-0.56576
 20
-12.203125
 30
2.125
 70
    64
  0
VERTEX
  5
4BBD8
100
AcDbEntity
  8
0
100
AcDbVertex
100
AcDbPolygonMeshVertex
 10
0.55924
 20
-11.078125
 30
3.5
 70
    64
  0
VERTEX
  5
4BBD9
100
AcDbEntity
  8
0
100
AcDbVertex
100
AcDbPolygonMeshVertex
 10
0.55924
 20
-11.078125
 30
2.125
 70
    64
  0
VERTEX
  5
4BBDA
100
AcDbEntity
  8
0
100
AcDbVertex
100
AcDbPolygonMeshVertex
 10
0.55924
 20
-12.203125
 30
2.125
 70
    64
  0
VERTEX
  5
4BBDB
100
AcDbEntity
  8
0
100
AcDbVertex
100
AcDbPolygonMeshVertex
 10
0.55924
 20
-11.078125
 30
3.5
 70
    64
  0
VERTEX
  5
4BBDC
100
AcDbEntity
  8
0
100
AcDbVertex
100
AcDbPolygonMeshVertex
 10
0.55924
 20
-11.078125
 30
3.5
 70
    64
  0
VERTEX
  5
4BBDD
100
AcDbEntity
  8
0
100
AcDbVertex
100
AcDbPolygonMeshVertex
 10
0.55924
 20
-12.203125
 30
3.5
 70
    64
  0
VERTEX
  5
4BBDE
100
AcDbEntity
  8
0
100
AcDbVertex
100
AcDbPolygonMeshVertex
 10
-0.56576
 20
-11.078125
 30
3.5
 70
    64
  0
VERTEX
  5
4BBDF
100
AcDbEntity
  8
0
100
AcDbVertex
100
AcDbPolygonMeshVertex
 10
-0.56576
 20
-11.078125
 30
3.5
 70
    64
  0
VERTEX
  5
4BBE0
100
AcDbEntity
  8
0
100
AcDbVertex
100
AcDbPolygonMeshVertex
 10
-0.56576
 20
-12.203125
 30
3.5
 70
    64
  0
SEQEND
  5
4BBE1
100
AcDbEntity
  8
0
  0
POLYLINE
  5
4BBE2
100
AcDbEntity
  8
0
100
AcDbPolygonMesh
 66
     1
 10
0.0
 20
0.0
 30
0.0
 70
    16
 71
     6
 72
     3
  0
VERTEX
  5
4BBE3
100
AcDbEntity
  8
0
100
AcDbVertex
100
AcDbPolygonMeshVertex
 10
0.55924
 20
-11.328125
 30
2.125
 70
    64
  0
VERTEX
  5
4BBE4
100
AcDbEntity
  8
0
100
AcDbVertex
100
AcDbPolygonMeshVertex
 10
0.55924
 20
-11.328125
 30
1.875
 70
    64
  0
VERTEX
  5
4BBE5
100
AcDbEntity
  8
0
100
AcDbVertex
100
AcDbPolygonMeshVertex
 10
0.55924
 20
-11.328125
 30
1.875
 70
    64
  0
VERTEX
  5
4BBE6
100
AcDbEntity
  8
0
100
AcDbVertex
100
AcDbPolygonMeshVertex
 10
-0.56576
 20
-11.328125
 30
2.125
 70
    64
  0
VERTEX
  5
4BBE7
100
AcDbEntity
  8
0
100
AcDbVertex
100
AcDbPolygonMeshVertex
 10
-0.56576
 20
-11.328125
 30
1.875
 70
    64
  0
VERTEX
  5
4BBE8
100
AcDbEntity
  8
0
100
AcDbVertex
100
AcDbPolygonMeshVertex
 10
-0.56576
 20
-11.328125
 30
1.875
 70
    64
  0
VERTEX
  5
4BBE9
100
AcDbEntity
  8
0
100
AcDbVertex
100
AcDbPolygonMeshVertex
 10
-0.56576
 20
-11.078125
 30
2.125
 70
    64
  0
VERTEX
  5
4BBEA
100
AcDbEntity
  8
0
100
AcDbVertex
100
AcDbPolygonMeshVertex
 10
-0.56576
 20
-11.078125
 30
1.875
 70
    64
  0
VERTEX
  5
4BBEB
100
AcDbEntity
  8
0
100
AcDbVertex
100
AcDbPolygonMeshVertex
 10
-0.56576
 20
-11.328125
 30
1.875
 70
    64
  0
VERTEX
  5
4BBEC
100
AcDbEntity
  8
0
100
AcDbVertex
100
AcDbPolygonMeshVertex
 10
0.55924
 20
-11.078125
 30
2.125
 70
    64
  0
VERTEX
  5
4BBED
100
AcDbEntity
  8
0
100
AcDbVertex
100
AcDbPolygonMeshVertex
 10
0.55924
 20
-11.078125
 30
1.875
 70
    64
  0
VERTEX
  5
4BBEE
100
AcDbEntity
  8
0
100
AcDbVertex
100
AcDbPolygonMeshVertex
 10
0.55924
 20
-11.328125
 30
1.875
 70
    64
  0
VERTEX
  5
4BBEF
100
AcDbEntity
  8
0
100
AcDbVertex
100
AcDbPolygonMeshVertex
 10
0.55924
 20
-11.078125
 30
2.125
 70
    64
  0
VERTEX
  5
4BBF0
100
AcDbEntity
  8
0
100
AcDbVertex
100
AcDbPolygonMeshVertex
 10
0.55924
 20
-11.078125
 30
2.125
 70
    64
  0
VERTEX
  5
4BBF1
100
AcDbEntity
  8
0
100
AcDbVertex
100
AcDbPolygonMeshVertex
 10
0.55924
 20
-11.328125
 30
2.125
 70
    64
  0
VERTEX
  5
4BBF2
100
AcDbEntity
  8
0
100
AcDbVertex
100
AcDbPolygonMeshVertex
 10
-0.56576
 20
-11.078125
 30
2.125
 70
    64
  0
VERTEX
  5
4BBF3
100
AcDbEntity
  8
0
100
AcDbVertex
100
AcDbPolygonMeshVertex
 10
-0.56576
 20
-11.078125
 30
2.125
 70
    64
  0
VERTEX
  5
4BBF4
100
AcDbEntity
  8
0
100
AcDbVertex
100
AcDbPolygonMeshVertex
 10
-0.56576
 20
-11.328125
 30
2.125
 70
    64
  0
SEQEND
  5
4BBF5
100
AcDbEntity
  8
0
  0
LWPOLYLINE
  5
4BBF6
100
AcDbEntity
  8
0
100
AcDbPolyline
 90
        6
 70
     1
 43
0.0
 38
2.375
 10
-0.25326
 20
-10.082613
 10
0.24674
 20
-10.082612
 10
0.49674
 20
-10.515625
 10
0.24674
 20
-10.948638
 10
-0.25326
 20
-10.948638
 10
-0.50326
 20
-10.515625
  0
CIRCLE
  5
4BBF7
100
AcDbEntity
  8
0
100
AcDbCircle
 10
-0.00326
 20
-10.515625
 30
2.375
 40
0.1875
  0
CIRCLE
  5
4BBF8
100
AcDbEntity
  8
0
100
AcDbCircle
 10
-0.00326
 20
-11.640625
 30
3.5
 40
0.4375
  0
POLYLINE
  5
4BBF9
100
AcDbEntity
  8
0
100
AcDbPolygonMesh
 66
     1
 10
0.0
 20
0.0
 30
0.0
 70
    16
 71
     6
 72
     3
  0
VERTEX
  5
4BBFA
100
AcDbEntity
  8
0
100
AcDbVertex
100
AcDbPolygonMeshVertex
 10
2.55924
 20
-12.203125
 30
3.5
 70
    64
  0
VERTEX
  5
4BBFB
100
AcDbEntity
  8
0
100
AcDbVertex
100
AcDbPolygonMeshVertex
 10
2.55924
 20
-12.203125
 30
2.125
 70
    64
  0
VERTEX
  5
4BBFC
100
AcDbEntity
  8
0
100
AcDbVertex
100
AcDbPolygonMeshVertex
 10
2.55924
 20
-12.203125
 30
2.125
 70
    64
  0
VERTEX
  5
4BBFD
100
AcDbEntity
  8
0
100
AcDbVertex
100
AcDbPolygonMeshVertex
 10
1.43424
 20
-12.203125
 30
3.5
 70
    64
  0
VERTEX
  5
4BBFE
100
AcDbEntity
  8
0
100
AcDbVertex
100
AcDbPolygonMeshVertex
 10
1.43424
 20
-12.203125
 30
2.125
 70
    64
  0
VERTEX
  5
4BBFF
100
AcDbEntity
  8
0
100
AcDbVertex
100
AcDbPolygonMeshVertex
 10
1.43424
 20
-12.203125
 30
2.125
 70
    64
  0
VERTEX
  5
4BC00
100
AcDbEntity
  8
0
100
AcDbVertex
100
AcDbPolygonMeshVertex
 10
1.43424
 20
-11.078125
 30
3.5
 70
    64
  0
VERTEX
  5
4BC01
100
AcDbEntity
  8
0
100
AcDbVertex
100
AcDbPolygonMeshVertex
 10
1.43424
 20
-11.078125
 30
2.125
 70
    64
  0
VERTEX
  5
4BC02
100
AcDbEntity
  8
0
100
AcDbVertex
100
AcDbPolygonMeshVertex
 10
1.43424
 20
-12.203125
 30
2.125
 70
    64
  0
VERTEX
  5
4BC03
100
AcDbEntity
  8
0
100
AcDbVertex
100
AcDbPolygonMeshVertex
 10
2.55924
 20
-11.078125
 30
3.5
 70
    64
  0
VERTEX
  5
4BC04
100
AcDbEntity
  8
0
100
AcDbVertex
100
AcDbPolygonMeshVertex
 10
2.55924
 20
-11.078125
 30
2.125
 70
    64
  0
VERTEX
  5
4BC05
100
AcDbEntity
  8
0
100
AcDbVertex
100
AcDbPolygonMeshVertex
 10
2.55924
 20
-12.203125
 30
2.125
 70
    64
  0
VERTEX
  5
4BC06
100
AcDbEntity
  8
0
100
AcDbVertex
100
AcDbPolygonMeshVertex
 10
2.55924
 20
-11.078125
 30
3.5
 70
    64
  0
VERTEX
  5
4BC07
100
AcDbEntity
  8
0
100
AcDbVertex
100
AcDbPolygonMeshVertex
 10
2.55924
 20
-11.078125
 30
3.5
 70
    64
  0
VERTEX
  5
4BC08
100
AcDbEntity
  8
0
100
AcDbVertex
100
AcDbPolygonMeshVertex
 10
2.55924
 20
-12.203125
 30
3.5
 70
    64
  0
VERTEX
  5
4BC09
100
AcDbEntity
  8
0
100
AcDbVertex
100
AcDbPolygonMeshVertex
 10
1.43424
 20
-11.078125
 30
3.5
 70
    64
  0
VERTEX
  5
4BC0A
100
AcDbEntity
  8
0
100
AcDbVertex
100
AcDbPolygonMeshVertex
 10
1.43424
 20
-11.078125
 30
3.5
 70
    64
  0
VERTEX
  5
4BC0B
100
AcDbEntity
  8
0
100
AcDbVertex
100
AcDbPolygonMeshVertex
 10
1.43424
 20
-12.203125
 30
3.5
 70
    64
  0
SEQEND
  5
4BC0C
100
AcDbEntity
  8
0
  0
POLYLINE
  5
4BC0D
100
AcDbEntity
  8
0
100
AcDbPolygonMesh
 66
     1
 10
0.0
 20
0.0
 30
0.0
 70
    16
 71
     6
 72
     3
  0
VERTEX
  5
4BC0E
100
AcDbEntity
  8
0
100
AcDbVertex
100
AcDbPolygonMeshVertex
 10
2.55924
 20
-11.328125
 30
2.125
 70
    64
  0
VERTEX
  5
4BC0F
100
AcDbEntity
  8
0
100
AcDbVertex
100
AcDbPolygonMeshVertex
 10
2.55924
 20
-11.328125
 30
1.875
 70
    64
  0
VERTEX
  5
4BC10
100
AcDbEntity
  8
0
100
AcDbVertex
100
AcDbPolygonMeshVertex
 10
2.55924
 20
-11.328125
 30
1.875
 70
    64
  0
VERTEX
  5
4BC11
100
AcDbEntity
  8
0
100
AcDbVertex
100
AcDbPolygonMeshVertex
 10
1.43424
 20
-11.328125
 30
2.125
 70
    64
  0
VERTEX
  5
4BC12
100
AcDbEntity
  8
0
100
AcDbVertex
100
AcDbPolygonMeshVertex
 10
1.43424
 20
-11.328125
 30
1.875
 70
    64
  0
VERTEX
  5
4BC13
100
AcDbEntity
  8
0
100
AcDbVertex
100
AcDbPolygonMeshVertex
 10
1.43424
 20
-11.328125
 30
1.875
 70
    64
  0
VERTEX
  5
4BC14
100
AcDbEntity
  8
0
100
AcDbVertex
100
AcDbPolygonMeshVertex
 10
1.43424
 20
-11.078125
 30
2.125
 70
    64
  0
VERTEX
  5
4BC15
100
AcDbEntity
  8
0
100
AcDbVertex
100
AcDbPolygonMeshVertex
 10
1.43424
 20
-11.078125
 30
1.875
 70
    64
  0
VERTEX
  5
4BC16
100
AcDbEntity
  8
0
100
AcDbVertex
100
AcDbPolygonMeshVertex
 10
1.43424
 20
-11.328125
 30
1.875
 70
    64
  0
VERTEX
  5
4BC17
100
AcDbEntity
  8
0
100
AcDbVertex
100
AcDbPolygonMeshVertex
 10
2.55924
 20
-11.078125
 30
2.125
 70
    64
  0
VERTEX
  5
4BC18
100
AcDbEntity
  8
0
100
AcDbVertex
100
AcDbPolygonMeshVertex
 10
2.55924
 20
-11.078125
 30
1.875
 70
    64
  0
VERTEX
  5
4BC19
100
AcDbEntity
  8
0
100
AcDbVertex
100
AcDbPolygonMeshVertex
 10
2.55924
 20
-11.328125
 30
1.875
 70
    64
  0
VERTEX
  5
4BC1A
100
AcDbEntity
  8
0
100
AcDbVertex
100
AcDbPolygonMeshVertex
 10
2.55924
 20
-11.078125
 30
2.125
 70
    64
  0
VERTEX
  5
4BC1B
100
AcDbEntity
  8
0
100
AcDbVertex
100
AcDbPolygonMeshVertex
 10
2.55924
 20
-11.078125
 30
2.125
 70
    64
  0
VERTEX
  5
4BC1C
100
AcDbEntity
  8
0
100
AcDbVertex
100
AcDbPolygonMeshVertex
 10
2.55924
 20
-11.328125
 30
2.125
 70
    64
  0
VERTEX
  5
4BC1D
100
AcDbEntity
  8
0
100
AcDbVertex
100
AcDbPolygonMeshVertex
 10
1.43424
 20
-11.078125
 30
2.125
 70
    64
  0
VERTEX
  5
4BC1E
100
AcDbEntity
  8
0
100
AcDbVertex
100
AcDbPolygonMeshVertex
 10
1.43424
 20
-11.078125
 30
2.125
 70
    64
  0
VERTEX
  5
4BC1F
100
AcDbEntity
  8
0
100
AcDbVertex
100
AcDbPolygonMeshVertex
 10
1.43424
 20
-11.328125
 30
2.125
 70
    64
  0
SEQEND
  5
4BC20
100
AcDbEntity
  8
0
  0
LWPOLYLINE
  5
4BC21
100
AcDbEntity
  8
0
100
AcDbPolyline
 90
        6
 70
     1
 43
0.0
 38
2.375
 10
1.74674
 20
-10.082613
 10
2.24674
 20
-10.082612
 10
2.49674
 20
-10.515625
 10
2.24674
 20
-10.948638
 10
1.74674
 20
-10.948638
 10
1.49674
 20
-10.515625
  0
CIRCLE
  5
4BC22
100
AcDbEntity
  8
0
100
AcDbCircle
 10
1.99674
 20
-10.515625
 30
2.375
 40
0.1875
  0
CIRCLE
  5
4BC23
100
AcDbEntity
  8
0
100
AcDbCircle
 10
1.99674
 20
-11.640625
 30
3.5
 40
0.4375
  0
LINE
  5
4BC24
100
AcDbEntity
  8
0
100
AcDbLine
 10
-3.0
 20
-0.765
 30
0.278
 11
-3.0
 21
-4.815
 31
0.278
  0
LINE
  5
4BC25
100
AcDbEntity
  8
0
100
AcDbLine
 10
-3.0
 20
-1.065
 30
0.878
 11
-3.0
 21
-1.065
 31
0.278
  0
LINE
  5
4BC26
100
AcDbEntity
  8
0
100
AcDbLine
 10
-3.0
 20
-0.665
 30
0.578
 11
-3.0
 21
-0.665
 31
0.278
  0
LINE
  5
4BC27
100
AcDbEntity
  8
0
100
AcDbLine
 10
3.0
 20
-1.065
 30
0.878
 11
3.0
 21
-1.065
 31
0.278
  0
POLYLINE
  5
4BC28
100
AcDbEntity
  8
0
100
AcDbPolygonMesh
 66
     1
 10
0.0
 20
0.0
 30
0.0
 70
    16
 71
     6
 72
     3
  0
VERTEX
  5
4BC29
100
AcDbEntity
  8
0
100
AcDbVertex
100
AcDbPolygonMeshVertex
 10
3.0
 20
-1.065
 30
0.878
 70
    64
  0
VERTEX
  5
4BC2A
100
AcDbEntity
  8
0
100
AcDbVertex
100
AcDbPolygonMeshVertex
 10
3.0
 20
-1.065
 30
0.278
 70
    64
  0
VERTEX
  5
4BC2B
100
AcDbEntity
  8
0
100
AcDbVertex
100
AcDbPolygonMeshVertex
 10
3.0
 20
-1.065
 30
0.278
 70
    64
  0
VERTEX
  5
4BC2C
100
AcDbEntity
  8
0
100
AcDbVertex
100
AcDbPolygonMeshVertex
 10
-3.0
 20
-1.065
 30
0.878
 70
    64
  0
VERTEX
  5
4BC2D
100
AcDbEntity
  8
0
100
AcDbVertex
100
AcDbPolygonMeshVertex
 10
-3.0
 20
-1.065
 30
0.278
 70
    64
  0
VERTEX
  5
4BC2E
100
AcDbEntity
  8
0
100
AcDbVertex
100
AcDbPolygonMeshVertex
 10
-3.0
 20
-1.065
 30
0.278
 70
    64
  0
VERTEX
  5
4BC2F
100
AcDbEntity
  8
0
100
AcDbVertex
100
AcDbPolygonMeshVertex
 10
-3.0
 20
-0.665
 30
0.878
 70
    64
  0
VERTEX
  5
4BC30
100
AcDbEntity
  8
0
100
AcDbVertex
100
AcDbPolygonMeshVertex
 10
-3.0
 20
-0.665
 30
0.278
 70
    64
  0
VERTEX
  5
4BC31
100
AcDbEntity
  8
0
100
AcDbVertex
100
AcDbPolygonMeshVertex
 10
-3.0
 20
-1.065
 30
0.278
 70
    64
  0
VERTEX
  5
4BC32
100
AcDbEntity
  8
0
100
AcDbVertex
100
AcDbPolygonMeshVertex
 10
3.0
 20
-0.665
 30
0.878
 70
    64
  0
VERTEX
  5
4BC33
100
AcDbEntity
  8
0
100
AcDbVertex
100
AcDbPolygonMeshVertex
 10
3.0
 20
-0.665
 30
0.278
 70
    64
  0
VERTEX
  5
4BC34
100
AcDbEntity
  8
0
100
AcDbVertex
100
AcDbPolygonMeshVertex
 10
3.0
 20
-1.065
 30
0.278
 70
    64
  0
VERTEX
  5
4BC35
100
AcDbEntity
  8
0
100
AcDbVertex
100
AcDbPolygonMeshVertex
 10
3.0
 20
-0.665
 30
0.878
 70
    64
  0
VERTEX
  5
4BC36
100
AcDbEntity
  8
0
100
AcDbVertex
100
AcDbPolygonMeshVertex
 10
3.0
 20
-0.665
 30
0.878
 70
    64
  0
VERTEX
  5
4BC37
100
AcDbEntity
  8
0
100
AcDbVertex
100
AcDbPolygonMeshVertex
 10
3.0
 20
-1.065
 30
0.878
 70
    64
  0
VERTEX
  5
4BC38
100
AcDbEntity
  8
0
100
AcDbVertex
100
AcDbPolygonMeshVertex
 10
-3.0
 20
-0.665
 30
0.878
 70
    64
  0
VERTEX
  5
4BC39
100
AcDbEntity
  8
0
100
AcDbVertex
100
AcDbPolygonMeshVertex
 10
-3.0
 20
-0.665
 30
0.878
 70
    64
  0
VERTEX
  5
4BC3A
100
AcDbEntity
  8
0
100
AcDbVertex
100
AcDbPolygonMeshVertex
 10
-3.0
 20
-1.065
 30
0.878
 70
    64
  0
SEQEND
  5
4BC3B
100
AcDbEntity
  8
0
  0
POLYLINE
  5
4BC3C
100
AcDbEntity
  8
0
100
AcDbPolygonMesh
 66
     1
 10
0.0
 20
0.0
 30
0.0
 70
    16
 71
     6
 72
     3
  0
VERTEX
  5
4BC3D
100
AcDbEntity
  8
0
100
AcDbVertex
100
AcDbPolygonMeshVertex
 10
3.0
 20
-4.815
 30
5.5
 70
    64
  0
VERTEX
  5
4BC3E
100
AcDbEntity
  8
0
100
AcDbVertex
100
AcDbPolygonMeshVertex
 10
3.0
 20
-4.815
 30
0.278
 70
    64
  0
VERTEX
  5
4BC3F
100
AcDbEntity
  8
0
100
AcDbVertex
100
AcDbPolygonMeshVertex
 10
3.0
 20
-4.815
 30
0.278
 70
    64
  0
VERTEX
  5
4BC40
100
AcDbEntity
  8
0
100
AcDbVertex
100
AcDbPolygonMeshVertex
 10
-3.0
 20
-4.815
 30
5.5
 70
    64
  0
VERTEX
  5
4BC41
100
AcDbEntity
  8
0
100
AcDbVertex
100
AcDbPolygonMeshVertex
 10
-3.0
 20
-4.815
 30
0.278
 70
    64
  0
VERTEX
  5
4BC42
100
AcDbEntity
  8
0
100
AcDbVertex
100
AcDbPolygonMeshVertex
 10
-3.0
 20
-4.815
 30
0.278
 70
    64
  0
VERTEX
  5
4BC43
100
AcDbEntity
  8
0
100
AcDbVertex
100
AcDbPolygonMeshVertex
 10
-3.0
 20
-1.065
 30
5.5
 70
    64
  0
VERTEX
  5
4BC44
100
AcDbEntity
  8
0
100
AcDbVertex
100
AcDbPolygonMeshVertex
 10
-3.0
 20
-1.065
 30
0.278
 70
    64
  0
VERTEX
  5
4BC45
100
AcDbEntity
  8
0
100
AcDbVertex
100
AcDbPolygonMeshVertex
 10
-3.0
 20
-4.815
 30
0.278
 70
    64
  0
VERTEX
  5
4BC46
100
AcDbEntity
  8
0
100
AcDbVertex
100
AcDbPolygonMeshVertex
 10
3.0
 20
-1.065
 30
5.5
 70
    64
  0
VERTEX
  5
4BC47
100
AcDbEntity
  8
0
100
AcDbVertex
100
AcDbPolygonMeshVertex
 10
3.0
 20
-1.065
 30
0.278
 70
    64
  0
VERTEX
  5
4BC48
100
AcDbEntity
  8
0
100
AcDbVertex
100
AcDbPolygonMeshVertex
 10
3.0
 20
-4.815
 30
0.278
 70
    64
  0
VERTEX
  5
4BC49
100
AcDbEntity
  8
0
100
AcDbVertex
100
AcDbPolygonMeshVertex
 10
3.0
 20
-1.065
 30
5.5
 70
    64
  0
VERTEX
  5
4BC4A
100
AcDbEntity
  8
0
100
AcDbVertex
100
AcDbPolygonMeshVertex
 10
3.0
 20
-1.065
 30
5.5
 70
    64
  0
VERTEX
  5
4BC4B
100
AcDbEntity
  8
0
100
AcDbVertex
100
AcDbPolygonMeshVertex
 10
3.0
 20
-4.815
 30
5.5
 70
    64
  0
VERTEX
  5
4BC4C
100
AcDbEntity
  8
0
100
AcDbVertex
100
AcDbPolygonMeshVertex
 10
-3.0
 20
-1.065
 30
5.5
 70
    64
  0
VERTEX
  5
4BC4D
100
AcDbEntity
  8
0
100
AcDbVertex
100
AcDbPolygonMeshVertex
 10
-3.0
 20
-1.065
 30
5.5
 70
    64
  0
VERTEX
  5
4BC4E
100
AcDbEntity
  8
0
100
AcDbVertex
100
AcDbPolygonMeshVertex
 10
-3.0
 20
-4.815
 30
5.5
 70
    64
  0
SEQEND
  5
4BC4F
100
AcDbEntity
  8
0
  0
POLYLINE
  5
4BC50
100
AcDbEntity
  8
0
100
AcDbPolygonMesh
 66
     1
 10
0.0
 20
0.0
 30
0.0
 70
    16
 71
     6
 72
     3
  0
VERTEX
  5
4BC51
100
AcDbEntity
  8
0
100
AcDbVertex
100
AcDbPolygonMeshVertex
 10
3.0
 20
-2.315
 30
6.0
 70
    64
  0
VERTEX
  5
4BC52
100
AcDbEntity
  8
0
100
AcDbVertex
100
AcDbPolygonMeshVertex
 10
3.0
 20
-2.315
 30
5.5
 70
    64
  0
VERTEX
  5
4BC53
100
AcDbEntity
  8
0
100
AcDbVertex
100
AcDbPolygonMeshVertex
 10
3.0
 20
-2.315
 30
5.5
 70
    64
  0
VERTEX
  5
4BC54
100
AcDbEntity
  8
0
100
AcDbVertex
100
AcDbPolygonMeshVertex
 10
-3.0
 20
-2.315
 30
6.0
 70
    64
  0
VERTEX
  5
4BC55
100
AcDbEntity
  8
0
100
AcDbVertex
100
AcDbPolygonMeshVertex
 10
-3.0
 20
-2.315
 30
5.5
 70
    64
  0
VERTEX
  5
4BC56
100
AcDbEntity
  8
0
100
AcDbVertex
100
AcDbPolygonMeshVertex
 10
-3.0
 20
-2.315
 30
5.5
 70
    64
  0
VERTEX
  5
4BC57
100
AcDbEntity
  8
0
100
AcDbVertex
100
AcDbPolygonMeshVertex
 10
-3.0
 20
-2.065
 30
6.0
 70
    64
  0
VERTEX
  5
4BC58
100
AcDbEntity
  8
0
100
AcDbVertex
100
AcDbPolygonMeshVertex
 10
-3.0
 20
-2.065
 30
5.5
 70
    64
  0
VERTEX
  5
4BC59
100
AcDbEntity
  8
0
100
AcDbVertex
100
AcDbPolygonMeshVertex
 10
-3.0
 20
-2.315
 30
5.5
 70
    64
  0
VERTEX
  5
4BC5A
100
AcDbEntity
  8
0
100
AcDbVertex
100
AcDbPolygonMeshVertex
 10
3.0
 20
-2.065
 30
6.0
 70
    64
  0
VERTEX
  5
4BC5B
100
AcDbEntity
  8
0
100
AcDbVertex
100
AcDbPolygonMeshVertex
 10
3.0
 20
-2.065
 30
5.5
 70
    64
  0
VERTEX
  5
4BC5C
100
AcDbEntity
  8
0
100
AcDbVertex
100
AcDbPolygonMeshVertex
 10
3.0
 20
-2.315
 30
5.5
 70
    64
  0
VERTEX
  5
4BC5D
100
AcDbEntity
  8
0
100
AcDbVertex
100
AcDbPolygonMeshVertex
 10
3.0
 20
-2.065
 30
6.0
 70
    64
  0
VERTEX
  5
4BC5E
100
AcDbEntity
  8
0
100
AcDbVertex
100
AcDbPolygonMeshVertex
 10
3.0
 20
-2.065
 30
6.0
 70
    64
  0
VERTEX
  5
4BC5F
100
AcDbEntity
  8
0
100
AcDbVertex
100
AcDbPolygonMeshVertex
 10
3.0
 20
-2.315
 30
6.0
 70
    64
  0
VERTEX
  5
4BC60
100
AcDbEntity
  8
0
100
AcDbVertex
100
AcDbPolygonMeshVertex
 10
-3.0
 20
-2.065
 30
6.0
 70
    64
  0
VERTEX
  5
4BC61
100
AcDbEntity
  8
0
100
AcDbVertex
100
AcDbPolygonMeshVertex
 10
-3.0
 20
-2.065
 30
6.0
 70
    64
  0
VERTEX
  5
4BC62
100
AcDbEntity
  8
0
100
AcDbVertex
100
AcDbPolygonMeshVertex
 10
-3.0
 20
-2.315
 30
6.0
 70
    64
  0
SEQEND
  5
4BC63
100
AcDbEntity
  8
0
  0
POLYLINE
  5
4BC64
100
AcDbEntity
  8
0
100
AcDbPolygonMesh
 66
     1
 10
0.0
 20
0.0
 30
0.0
 70
    16
 71
     6
 72
     3
  0
VERTEX
  5
4BC65
100
AcDbEntity
  8
0
100
AcDbVertex
100
AcDbPolygonMeshVertex
 10
3.0
 20
-2.065
 30
6.5
 70
    64
  0
VERTEX
  5
4BC66
100
AcDbEntity
  8
0
100
AcDbVertex
100
AcDbPolygonMeshVertex
 10
3.0
 20
-2.065
 30
5.5
 70
    64
  0
VERTEX
  5
4BC67
100
AcDbEntity
  8
0
100
AcDbVertex
100
AcDbPolygonMeshVertex
 10
3.0
 20
-2.065
 30
5.5
 70
    64
  0
VERTEX
  5
4BC68
100
AcDbEntity
  8
0
100
AcDbVertex
100
AcDbPolygonMeshVertex
 10
-3.0
 20
-2.065
 30
6.5
 70
    64
  0
VERTEX
  5
4BC69
100
AcDbEntity
  8
0
100
AcDbVertex
100
AcDbPolygonMeshVertex
 10
-3.0
 20
-2.065
 30
5.5
 70
    64
  0
VERTEX
  5
4BC6A
100
AcDbEntity
  8
0
100
AcDbVertex
100
AcDbPolygonMeshVertex
 10
-3.0
 20
-2.065
 30
5.5
 70
    64
  0
VERTEX
  5
4BC6B
100
AcDbEntity
  8
0
100
AcDbVertex
100
AcDbPolygonMeshVertex
 10
-3.0
 20
-1.065
 30
6.5
 70
    64
  0
VERTEX
  5
4BC6C
100
AcDbEntity
  8
0
100
AcDbVertex
100
AcDbPolygonMeshVertex
 10
-3.0
 20
-1.065
 30
5.5
 70
    64
  0
VERTEX
  5
4BC6D
100
AcDbEntity
  8
0
100
AcDbVertex
100
AcDbPolygonMeshVertex
 10
-3.0
 20
-2.065
 30
5.5
 70
    64
  0
VERTEX
  5
4BC6E
100
AcDbEntity
  8
0
100
AcDbVertex
100
AcDbPolygonMeshVertex
 10
3.0
 20
-1.065
 30
6.5
 70
    64
  0
VERTEX
  5
4BC6F
100
AcDbEntity
  8
0
100
AcDbVertex
100
AcDbPolygonMeshVertex
 10
3.0
 20
-1.065
 30
5.5
 70
    64
  0
VERTEX
  5
4BC70
100
AcDbEntity
  8
0
100
AcDbVertex
100
AcDbPolygonMeshVertex
 10
3.0
 20
-2.065
 30
5.5
 70
    64
  0
VERTEX
  5
4BC71
100
AcDbEntity
  8
0
100
AcDbVertex
100
AcDbPolygonMeshVertex
 10
3.0
 20
-1.065
 30
6.5
 70
    64
  0
VERTEX
  5
4BC72
100
AcDbEntity
  8
0
100
AcDbVertex
100
AcDbPolygonMeshVertex
 10
3.0
 20
-1.065
 30
6.5
 70
    64
  0
VERTEX
  5
4BC73
100
AcDbEntity
  8
0
100
AcDbVertex
100
AcDbPolygonMeshVertex
 10
3.0
 20
-2.065
 30
6.5
 70
    64
  0
VERTEX
  5
4BC74
100
AcDbEntity
  8
0
100
AcDbVertex
100
AcDbPolygonMeshVertex
 10
-3.0
 20
-1.065
 30
6.5
 70
    64
  0
VERTEX
  5
4BC75
100
AcDbEntity
  8
0
100
AcDbVertex
100
AcDbPolygonMeshVertex
 10
-3.0
 20
-1.065
 30
6.5
 70
    64
  0
VERTEX
  5
4BC76
100
AcDbEntity
  8
0
100
AcDbVertex
100
AcDbPolygonMeshVertex
 10
-3.0
 20
-2.065
 30
6.5
 70
    64
  0
SEQEND
  5
4BC77
100
AcDbEntity
  8
0
  0
LWPOLYLINE
  5
4BC78
100
AcDbEntity
  8
0
100
AcDbPolyline
 90
        6
 70
     1
 43
0.0
 38
7.0
 10
-2.5
 20
-1.63
 10
-2.25
 20
-2.063012
 10
-1.75
 20
-2.063013
 10
-1.5
 20
-1.63
 10
-1.75
 20
-1.196988
 10
-2.25
 20
-1.196987
  0
POLYLINE
  5
4BC79
100
AcDbEntity
  8
0
100
AcDbPolygonMesh
 66
     1
 10
0.0
 20
0.0
 30
0.0
 70
    16
 71
     6
 72
     3
  0
VERTEX
  5
4BC7A
100
AcDbEntity
  8
0
100
AcDbVertex
100
AcDbPolygonMeshVertex
 10
-1.4375
 20
-1.0675
 30
8.125
 70
    64
  0
VERTEX
  5
4BC7B
100
AcDbEntity
  8
0
100
AcDbVertex
100
AcDbPolygonMeshVertex
 10
-1.4375
 20
-1.0675
 30
6.75
 70
    64
  0
VERTEX
  5
4BC7C
100
AcDbEntity
  8
0
100
AcDbVertex
100
AcDbPolygonMeshVertex
 10
-1.4375
 20
-1.0675
 30
6.75
 70
    64
  0
VERTEX
  5
4BC7D
100
AcDbEntity
  8
0
100
AcDbVertex
100
AcDbPolygonMeshVertex
 10
-2.5625
 20
-1.0675
 30
8.125
 70
    64
  0
VERTEX
  5
4BC7E
100
AcDbEntity
  8
0
100
AcDbVertex
100
AcDbPolygonMeshVertex
 10
-2.5625
 20
-1.0675
 30
6.75
 70
    64
  0
VERTEX
  5
4BC7F
100
AcDbEntity
  8
0
100
AcDbVertex
100
AcDbPolygonMeshVertex
 10
-2.5625
 20
-1.0675
 30
6.75
 70
    64
  0
VERTEX
  5
4BC80
100
AcDbEntity
  8
0
100
AcDbVertex
100
AcDbPolygonMeshVertex
 10
-2.5625
 20
0.0575
 30
8.125
 70
    64
  0
VERTEX
  5
4BC81
100
AcDbEntity
  8
0
100
AcDbVertex
100
AcDbPolygonMeshVertex
 10
-2.5625
 20
0.0575
 30
6.75
 70
    64
  0
VERTEX
  5
4BC82
100
AcDbEntity
  8
0
100
AcDbVertex
100
AcDbPolygonMeshVertex
 10
-2.5625
 20
-1.0675
 30
6.75
 70
    64
  0
VERTEX
  5
4BC83
100
AcDbEntity
  8
0
100
AcDbVertex
100
AcDbPolygonMeshVertex
 10
-1.4375
 20
0.0575
 30
8.125
 70
    64
  0
VERTEX
  5
4BC84
100
AcDbEntity
  8
0
100
AcDbVertex
100
AcDbPolygonMeshVertex
 10
-1.4375
 20
0.0575
 30
6.75
 70
    64
  0
VERTEX
  5
4BC85
100
AcDbEntity
  8
0
100
AcDbVertex
100
AcDbPolygonMeshVertex
 10
-1.4375
 20
-1.0675
 30
6.75
 70
    64
  0
VERTEX
  5
4BC86
100
AcDbEntity
  8
0
100
AcDbVertex
100
AcDbPolygonMeshVertex
 10
-1.4375
 20
0.0575
 30
8.125
 70
    64
  0
VERTEX
  5
4BC87
100
AcDbEntity
  8
0
100
AcDbVertex
100
AcDbPolygonMeshVertex
 10
-1.4375
 20
0.0575
 30
8.125
 70
    64
  0
VERTEX
  5
4BC88
100
AcDbEntity
  8
0
100
AcDbVertex
100
AcDbPolygonMeshVertex
 10
-1.4375
 20
-1.0675
 30
8.125
 70
    64
  0
VERTEX
  5
4BC89
100
AcDbEntity
  8
0
100
AcDbVertex
100
AcDbPolygonMeshVertex
 10
-2.5625
 20
0.0575
 30
8.125
 70
    64
  0
VERTEX
  5
4BC8A
100
AcDbEntity
  8
0
100
AcDbVertex
100
AcDbPolygonMeshVertex
 10
-2.5625
 20
0.0575
 30
8.125
 70
    64
  0
VERTEX
  5
4BC8B
100
AcDbEntity
  8
0
100
AcDbVertex
100
AcDbPolygonMeshVertex
 10
-2.5625
 20
-1.0675
 30
8.125
 70
    64
  0
SEQEND
  5
4BC8C
100
AcDbEntity
  8
0
  0
POLYLINE
  5
4BC8D
100
AcDbEntity
  8
0
100
AcDbPolygonMesh
 66
     1
 10
0.0
 20
0.0
 30
0.0
 70
    16
 71
     6
 72
     3
  0
VERTEX
  5
4BC8E
100
AcDbEntity
  8
0
100
AcDbVertex
100
AcDbPolygonMeshVertex
 10
-1.4375
 20
-2.1925
 30
7.0
 70
    64
  0
VERTEX
  5
4BC8F
100
AcDbEntity
  8
0
100
AcDbVertex
100
AcDbPolygonMeshVertex
 10
-1.4375
 20
-2.1925
 30
6.75
 70
    64
  0
VERTEX
  5
4BC90
100
AcDbEntity
  8
0
100
AcDbVertex
100
AcDbPolygonMeshVertex
 10
-1.4375
 20
-2.1925
 30
6.75
 70
    64
  0
VERTEX
  5
4BC91
100
AcDbEntity
  8
0
100
AcDbVertex
100
AcDbPolygonMeshVertex
 10
-2.5625
 20
-2.1925
 30
7.0
 70
    64
  0
VERTEX
  5
4BC92
100
AcDbEntity
  8
0
100
AcDbVertex
100
AcDbPolygonMeshVertex
 10
-2.5625
 20
-2.1925
 30
6.75
 70
    64
  0
VERTEX
  5
4BC93
100
AcDbEntity
  8
0
100
AcDbVertex
100
AcDbPolygonMeshVertex
 10
-2.5625
 20
-2.1925
 30
6.75
 70
    64
  0
VERTEX
  5
4BC94
100
AcDbEntity
  8
0
100
AcDbVertex
100
AcDbPolygonMeshVertex
 10
-2.5625
 20
-1.0675
 30
7.0
 70
    64
  0
VERTEX
  5
4BC95
100
AcDbEntity
  8
0
100
AcDbVertex
100
AcDbPolygonMeshVertex
 10
-2.5625
 20
-1.0675
 30
6.75
 70
    64
  0
VERTEX
  5
4BC96
100
AcDbEntity
  8
0
100
AcDbVertex
100
AcDbPolygonMeshVertex
 10
-2.5625
 20
-2.1925
 30
6.75
 70
    64
  0
VERTEX
  5
4BC97
100
AcDbEntity
  8
0
100
AcDbVertex
100
AcDbPolygonMeshVertex
 10
-1.4375
 20
-1.0675
 30
7.0
 70
    64
  0
VERTEX
  5
4BC98
100
AcDbEntity
  8
0
100
AcDbVertex
100
AcDbPolygonMeshVertex
 10
-1.4375
 20
-1.0675
 30
6.75
 70
    64
  0
VERTEX
  5
4BC99
100
AcDbEntity
  8
0
100
AcDbVertex
100
AcDbPolygonMeshVertex
 10
-1.4375
 20
-2.1925
 30
6.75
 70
    64
  0
VERTEX
  5
4BC9A
100
AcDbEntity
  8
0
100
AcDbVertex
100
AcDbPolygonMeshVertex
 10
-1.4375
 20
-1.0675
 30
7.0
 70
    64
  0
VERTEX
  5
4BC9B
100
AcDbEntity
  8
0
100
AcDbVertex
100
AcDbPolygonMeshVertex
 10
-1.4375
 20
-1.0675
 30
7.0
 70
    64
  0
VERTEX
  5
4BC9C
100
AcDbEntity
  8
0
100
AcDbVertex
100
AcDbPolygonMeshVertex
 10
-1.4375
 20
-2.1925
 30
7.0
 70
    64
  0
VERTEX
  5
4BC9D
100
AcDbEntity
  8
0
100
AcDbVertex
100
AcDbPolygonMeshVertex
 10
-2.5625
 20
-1.0675
 30
7.0
 70
    64
  0
VERTEX
  5
4BC9E
100
AcDbEntity
  8
0
100
AcDbVertex
100
AcDbPolygonMeshVertex
 10
-2.5625
 20
-1.0675
 30
7.0
 70
    64
  0
VERTEX
  5
4BC9F
100
AcDbEntity
  8
0
100
AcDbVertex
100
AcDbPolygonMeshVertex
 10
-2.5625
 20
-2.1925
 30
7.0
 70
    64
  0
SEQEND
  5
4BCA0
100
AcDbEntity
  8
0
  0
POLYLINE
  5
4BCA1
100
AcDbEntity
  8
0
100
AcDbPolygonMesh
 66
     1
 10
0.0
 20
0.0
 30
0.0
 70
    16
 71
     6
 72
     3
  0
VERTEX
  5
4BCA2
100
AcDbEntity
  8
0
100
AcDbVertex
100
AcDbPolygonMeshVertex
 10
-1.4375
 20
-1.065
 30
6.750012
 70
    64
  0
VERTEX
  5
4BCA3
100
AcDbEntity
  8
0
100
AcDbVertex
100
AcDbPolygonMeshVertex
 10
-1.4375
 20
-1.065
 30
6.5
 70
    64
  0
VERTEX
  5
4BCA4
100
AcDbEntity
  8
0
100
AcDbVertex
100
AcDbPolygonMeshVertex
 10
-1.4375
 20
-1.065
 30
6.5
 70
    64
  0
VERTEX
  5
4BCA5
100
AcDbEntity
  8
0
100
AcDbVertex
100
AcDbPolygonMeshVertex
 10
-2.5625
 20
-1.065
 30
6.750012
 70
    64
  0
VERTEX
  5
4BCA6
100
AcDbEntity
  8
0
100
AcDbVertex
100
AcDbPolygonMeshVertex
 10
-2.5625
 20
-1.065
 30
6.5
 70
    64
  0
VERTEX
  5
4BCA7
100
AcDbEntity
  8
0
100
AcDbVertex
100
AcDbPolygonMeshVertex
 10
-2.5625
 20
-1.065
 30
6.5
 70
    64
  0
VERTEX
  5
4BCA8
100
AcDbEntity
  8
0
100
AcDbVertex
100
AcDbPolygonMeshVertex
 10
-2.5625
 20
-0.8175
 30
6.750012
 70
    64
  0
VERTEX
  5
4BCA9
100
AcDbEntity
  8
0
100
AcDbVertex
100
AcDbPolygonMeshVertex
 10
-2.5625
 20
-0.8175
 30
6.5
 70
    64
  0
VERTEX
  5
4BCAA
100
AcDbEntity
  8
0
100
AcDbVertex
100
AcDbPolygonMeshVertex
 10
-2.5625
 20
-1.065
 30
6.5
 70
    64
  0
VERTEX
  5
4BCAB
100
AcDbEntity
  8
0
100
AcDbVertex
100
AcDbPolygonMeshVertex
 10
-1.4375
 20
-0.8175
 30
6.750012
 70
    64
  0
VERTEX
  5
4BCAC
100
AcDbEntity
  8
0
100
AcDbVertex
100
AcDbPolygonMeshVertex
 10
-1.4375
 20
-0.8175
 30
6.5
 70
    64
  0
VERTEX
  5
4BCAD
100
AcDbEntity
  8
0
100
AcDbVertex
100
AcDbPolygonMeshVertex
 10
-1.4375
 20
-1.065
 30
6.5
 70
    64
  0
VERTEX
  5
4BCAE
100
AcDbEntity
  8
0
100
AcDbVertex
100
AcDbPolygonMeshVertex
 10
-1.4375
 20
-0.8175
 30
6.750012
 70
    64
  0
VERTEX
  5
4BCAF
100
AcDbEntity
  8
0
100
AcDbVertex
100
AcDbPolygonMeshVertex
 10
-1.4375
 20
-0.8175
 30
6.750012
 70
    64
  0
VERTEX
  5
4BCB0
100
AcDbEntity
  8
0
100
AcDbVertex
100
AcDbPolygonMeshVertex
 10
-1.4375
 20
-1.065
 30
6.750012
 70
    64
  0
VERTEX
  5
4BCB1
100
AcDbEntity
  8
0
100
AcDbVertex
100
AcDbPolygonMeshVertex
 10
-2.5625
 20
-0.8175
 30
6.750012
 70
    64
  0
VERTEX
  5
4BCB2
100
AcDbEntity
  8
0
100
AcDbVertex
100
AcDbPolygonMeshVertex
 10
-2.5625
 20
-0.8175
 30
6.750012
 70
    64
  0
VERTEX
  5
4BCB3
100
AcDbEntity
  8
0
100
AcDbVertex
100
AcDbPolygonMeshVertex
 10
-2.5625
 20
-1.065
 30
6.750012
 70
    64
  0
SEQEND
  5
4BCB4
100
AcDbEntity
  8
0
  0
CIRCLE
  5
4BCB5
100
AcDbEntity
  8
0
100
AcDbCircle
 10
0.0
 20
-1.63
 30
7.0
 40
0.1875
  0
LWPOLYLINE
  5
4BCB6
100
AcDbEntity
  8
0
100
AcDbPolyline
 90
        6
 70
     1
 43
0.0
 38
7.0
 10
-0.5
 20
-1.63
 10
-0.25
 20
-2.063012
 10
0.25
 20
-2.063013
 10
0.5
 20
-1.63
 10
0.25
 20
-1.196988
 10
-0.25
 20
-1.196987
  0
POLYLINE
  5
4BCB7
100
AcDbEntity
  8
0
100
AcDbPolygonMesh
 66
     1
 10
0.0
 20
0.0
 30
0.0
 70
    16
 71
     6
 72
     3
  0
VERTEX
  5
4BCB8
100
AcDbEntity
  8
0
100
AcDbVertex
100
AcDbPolygonMeshVertex
 10
0.5625
 20
-1.0675
 30
8.125
 70
    64
  0
VERTEX
  5
4BCB9
100
AcDbEntity
  8
0
100
AcDbVertex
100
AcDbPolygonMeshVertex
 10
0.5625
 20
-1.0675
 30
6.75
 70
    64
  0
VERTEX
  5
4BCBA
100
AcDbEntity
  8
0
100
AcDbVertex
100
AcDbPolygonMeshVertex
 10
0.5625
 20
-1.0675
 30
6.75
 70
    64
  0
VERTEX
  5
4BCBB
100
AcDbEntity
  8
0
100
AcDbVertex
100
AcDbPolygonMeshVertex
 10
-0.5625
 20
-1.0675
 30
8.125
 70
    64
  0
VERTEX
  5
4BCBC
100
AcDbEntity
  8
0
100
AcDbVertex
100
AcDbPolygonMeshVertex
 10
-0.5625
 20
-1.0675
 30
6.75
 70
    64
  0
VERTEX
  5
4BCBD
100
AcDbEntity
  8
0
100
AcDbVertex
100
AcDbPolygonMeshVertex
 10
-0.5625
 20
-1.0675
 30
6.75
 70
    64
  0
VERTEX
  5
4BCBE
100
AcDbEntity
  8
0
100
AcDbVertex
100
AcDbPolygonMeshVertex
 10
-0.5625
 20
0.0575
 30
8.125
 70
    64
  0
VERTEX
  5
4BCBF
100
AcDbEntity
  8
0
100
AcDbVertex
100
AcDbPolygonMeshVertex
 10
-0.5625
 20
0.0575
 30
6.75
 70
    64
  0
VERTEX
  5
4BCC0
100
AcDbEntity
  8
0
100
AcDbVertex
100
AcDbPolygonMeshVertex
 10
-0.5625
 20
-1.0675
 30
6.75
 70
    64
  0
VERTEX
  5
4BCC1
100
AcDbEntity
  8
0
100
AcDbVertex
100
AcDbPolygonMeshVertex
 10
0.5625
 20
0.0575
 30
8.125
 70
    64
  0
VERTEX
  5
4BCC2
100
AcDbEntity
  8
0
100
AcDbVertex
100
AcDbPolygonMeshVertex
 10
0.5625
 20
0.0575
 30
6.75
 70
    64
  0
VERTEX
  5
4BCC3
100
AcDbEntity
  8
0
100
AcDbVertex
100
AcDbPolygonMeshVertex
 10
0.5625
 20
-1.0675
 30
6.75
 70
    64
  0
VERTEX
  5
4BCC4
100
AcDbEntity
  8
0
100
AcDbVertex
100
AcDbPolygonMeshVertex
 10
0.5625
 20
0.0575
 30
8.125
 70
    64
  0
VERTEX
  5
4BCC5
100
AcDbEntity
  8
0
100
AcDbVertex
100
AcDbPolygonMeshVertex
 10
0.5625
 20
0.0575
 30
8.125
 70
    64
  0
VERTEX
  5
4BCC6
100
AcDbEntity
  8
0
100
AcDbVertex
100
AcDbPolygonMeshVertex
 10
0.5625
 20
-1.0675
 30
8.125
 70
    64
  0
VERTEX
  5
4BCC7
100
AcDbEntity
  8
0
100
AcDbVertex
100
AcDbPolygonMeshVertex
 10
-0.5625
 20
0.0575
 30
8.125
 70
    64
  0
VERTEX
  5
4BCC8
100
AcDbEntity
  8
0
100
AcDbVertex
100
AcDbPolygonMeshVertex
 10
-0.5625
 20
0.0575
 30
8.125
 70
    64
  0
VERTEX
  5
4BCC9
100
AcDbEntity
  8
0
100
AcDbVertex
100
AcDbPolygonMeshVertex
 10
-0.5625
 20
-1.0675
 30
8.125
 70
    64
  0
SEQEND
  5
4BCCA
100
AcDbEntity
  8
0
  0
CIRCLE
  5
4BCCB
100
AcDbEntity
  8
0
100
AcDbCircle
 10
0.0
 20
-0.505
 30
8.125
 40
0.4375
  0
POLYLINE
  5
4BCCC
100
AcDbEntity
  8
0
100
AcDbPolygonMesh
 66
     1
 10
0.0
 20
0.0
 30
0.0
 70
    16
 71
     6
 72
     3
  0
VERTEX
  5
4BCCD
100
AcDbEntity
  8
0
100
AcDbVertex
100
AcDbPolygonMeshVertex
 10
0.5625
 20
-1.065
 30
6.750012
 70
    64
  0
VERTEX
  5
4BCCE
100
AcDbEntity
  8
0
100
AcDbVertex
100
AcDbPolygonMeshVertex
 10
0.5625
 20
-1.065
 30
6.5
 70
    64
  0
VERTEX
  5
4BCCF
100
AcDbEntity
  8
0
100
AcDbVertex
100
AcDbPolygonMeshVertex
 10
0.5625
 20
-1.065
 30
6.5
 70
    64
  0
VERTEX
  5
4BCD0
100
AcDbEntity
  8
0
100
AcDbVertex
100
AcDbPolygonMeshVertex
 10
-0.5625
 20
-1.065
 30
6.750012
 70
    64
  0
VERTEX
  5
4BCD1
100
AcDbEntity
  8
0
100
AcDbVertex
100
AcDbPolygonMeshVertex
 10
-0.5625
 20
-1.065
 30
6.5
 70
    64
  0
VERTEX
  5
4BCD2
100
AcDbEntity
  8
0
100
AcDbVertex
100
AcDbPolygonMeshVertex
 10
-0.5625
 20
-1.065
 30
6.5
 70
    64
  0
VERTEX
  5
4BCD3
100
AcDbEntity
  8
0
100
AcDbVertex
100
AcDbPolygonMeshVertex
 10
-0.5625
 20
-0.8175
 30
6.750012
 70
    64
  0
VERTEX
  5
4BCD4
100
AcDbEntity
  8
0
100
AcDbVertex
100
AcDbPolygonMeshVertex
 10
-0.5625
 20
-0.8175
 30
6.5
 70
    64
  0
VERTEX
  5
4BCD5
100
AcDbEntity
  8
0
100
AcDbVertex
100
AcDbPolygonMeshVertex
 10
-0.5625
 20
-1.065
 30
6.5
 70
    64
  0
VERTEX
  5
4BCD6
100
AcDbEntity
  8
0
100
AcDbVertex
100
AcDbPolygonMeshVertex
 10
0.5625
 20
-0.8175
 30
6.750012
 70
    64
  0
VERTEX
  5
4BCD7
100
AcDbEntity
  8
0
100
AcDbVertex
100
AcDbPolygonMeshVertex
 10
0.5625
 20
-0.8175
 30
6.5
 70
    64
  0
VERTEX
  5
4BCD8
100
AcDbEntity
  8
0
100
AcDbVertex
100
AcDbPolygonMeshVertex
 10
0.5625
 20
-1.065
 30
6.5
 70
    64
  0
VERTEX
  5
4BCD9
100
AcDbEntity
  8
0
100
AcDbVertex
100
AcDbPolygonMeshVertex
 10
0.5625
 20
-0.8175
 30
6.750012
 70
    64
  0
VERTEX
  5
4BCDA
100
AcDbEntity
  8
0
100
AcDbVertex
100
AcDbPolygonMeshVertex
 10
0.5625
 20
-0.8175
 30
6.750012
 70
    64
  0
VERTEX
  5
4BCDB
100
AcDbEntity
  8
0
100
AcDbVertex
100
AcDbPolygonMeshVertex
 10
0.5625
 20
-1.065
 30
6.750012
 70
    64
  0
VERTEX
  5
4BCDC
100
AcDbEntity
  8
0
100
AcDbVertex
100
AcDbPolygonMeshVertex
 10
-0.5625
 20
-0.8175
 30
6.750012
 70
    64
  0
VERTEX
  5
4BCDD
100
AcDbEntity
  8
0
100
AcDbVertex
100
AcDbPolygonMeshVertex
 10
-0.5625
 20
-0.8175
 30
6.750012
 70
    64
  0
VERTEX
  5
4BCDE
100
AcDbEntity
  8
0
100
AcDbVertex
100
AcDbPolygonMeshVertex
 10
-0.5625
 20
-1.065
 30
6.750012
 70
    64
  0
SEQEND
  5
4BCDF
100
AcDbEntity
  8
0
  0
POLYLINE
  5
4BCE0
100
AcDbEntity
  8
0
100
AcDbPolygonMesh
 66
     1
 10
0.0
 20
0.0
 30
0.0
 70
    16
 71
     6
 72
     3
  0
VERTEX
  5
4BCE1
100
AcDbEntity
  8
0
100
AcDbVertex
100
AcDbPolygonMeshVertex
 10
0.5625
 20
-2.1925
 30
7.0
 70
    64
  0
VERTEX
  5
4BCE2
100
AcDbEntity
  8
0
100
AcDbVertex
100
AcDbPolygonMeshVertex
 10
0.5625
 20
-2.1925
 30
6.75
 70
    64
  0
VERTEX
  5
4BCE3
100
AcDbEntity
  8
0
100
AcDbVertex
100
AcDbPolygonMeshVertex
 10
0.5625
 20
-2.1925
 30
6.75
 70
    64
  0
VERTEX
  5
4BCE4
100
AcDbEntity
  8
0
100
AcDbVertex
100
AcDbPolygonMeshVertex
 10
-0.5625
 20
-2.1925
 30
7.0
 70
    64
  0
VERTEX
  5
4BCE5
100
AcDbEntity
  8
0
100
AcDbVertex
100
AcDbPolygonMeshVertex
 10
-0.5625
 20
-2.1925
 30
6.75
 70
    64
  0
VERTEX
  5
4BCE6
100
AcDbEntity
  8
0
100
AcDbVertex
100
AcDbPolygonMeshVertex
 10
-0.5625
 20
-2.1925
 30
6.75
 70
    64
  0
VERTEX
  5
4BCE7
100
AcDbEntity
  8
0
100
AcDbVertex
100
AcDbPolygonMeshVertex
 10
-0.5625
 20
-1.0675
 30
7.0
 70
    64
  0
VERTEX
  5
4BCE8
100
AcDbEntity
  8
0
100
AcDbVertex
100
AcDbPolygonMeshVertex
 10
-0.5625
 20
-1.0675
 30
6.75
 70
    64
  0
VERTEX
  5
4BCE9
100
AcDbEntity
  8
0
100
AcDbVertex
100
AcDbPolygonMeshVertex
 10
-0.5625
 20
-2.1925
 30
6.75
 70
    64
  0
VERTEX
  5
4BCEA
100
AcDbEntity
  8
0
100
AcDbVertex
100
AcDbPolygonMeshVertex
 10
0.5625
 20
-1.0675
 30
7.0
 70
    64
  0
VERTEX
  5
4BCEB
100
AcDbEntity
  8
0
100
AcDbVertex
100
AcDbPolygonMeshVertex
 10
0.5625
 20
-1.0675
 30
6.75
 70
    64
  0
VERTEX
  5
4BCEC
100
AcDbEntity
  8
0
100
AcDbVertex
100
AcDbPolygonMeshVertex
 10
0.5625
 20
-2.1925
 30
6.75
 70
    64
  0
VERTEX
  5
4BCED
100
AcDbEntity
  8
0
100
AcDbVertex
100
AcDbPolygonMeshVertex
 10
0.5625
 20
-1.0675
 30
7.0
 70
    64
  0
VERTEX
  5
4BCEE
100
AcDbEntity
  8
0
100
AcDbVertex
100
AcDbPolygonMeshVertex
 10
0.5625
 20
-1.0675
 30
7.0
 70
    64
  0
VERTEX
  5
4BCEF
100
AcDbEntity
  8
0
100
AcDbVertex
100
AcDbPolygonMeshVertex
 10
0.5625
 20
-2.1925
 30
7.0
 70
    64
  0
VERTEX
  5
4BCF0
100
AcDbEntity
  8
0
100
AcDbVertex
100
AcDbPolygonMeshVertex
 10
-0.5625
 20
-1.0675
 30
7.0
 70
    64
  0
VERTEX
  5
4BCF1
100
AcDbEntity
  8
0
100
AcDbVertex
100
AcDbPolygonMeshVertex
 10
-0.5625
 20
-1.0675
 30
7.0
 70
    64
  0
VERTEX
  5
4BCF2
100
AcDbEntity
  8
0
100
AcDbVertex
100
AcDbPolygonMeshVertex
 10
-0.5625
 20
-2.1925
 30
7.0
 70
    64
  0
SEQEND
  5
4BCF3
100
AcDbEntity
  8
0
  0
CIRCLE
  5
4BCF4
100
AcDbEntity
  8
0
100
AcDbCircle
 10
2.0
 20
-1.63
 30
7.0
 40
0.1875
  0
LWPOLYLINE
  5
4BCF5
100
AcDbEntity
  8
0
100
AcDbPolyline
 90
        6
 70
     1
 43
0.0
 38
7.0
 10
1.5
 20
-1.63
 10
1.75
 20
-2.063012
 10
2.25
 20
-2.063013
 10
2.5
 20
-1.63
 10
2.25
 20
-1.196988
 10
1.75
 20
-1.196987
  0
POLYLINE
  5
4BCF6
100
AcDbEntity
  8
0
100
AcDbPolygonMesh
 66
     1
 10
0.0
 20
0.0
 30
0.0
 70
    16
 71
     6
 72
     3
  0
VERTEX
  5
4BCF7
100
AcDbEntity
  8
0
100
AcDbVertex
100
AcDbPolygonMeshVertex
 10
2.5625
 20
-1.0675
 30
8.125
 70
    64
  0
VERTEX
  5
4BCF8
100
AcDbEntity
  8
0
100
AcDbVertex
100
AcDbPolygonMeshVertex
 10
2.5625
 20
-1.0675
 30
6.75
 70
    64
  0
VERTEX
  5
4BCF9
100
AcDbEntity
  8
0
100
AcDbVertex
100
AcDbPolygonMeshVertex
 10
2.5625
 20
-1.0675
 30
6.75
 70
    64
  0
VERTEX
  5
4BCFA
100
AcDbEntity
  8
0
100
AcDbVertex
100
AcDbPolygonMeshVertex
 10
1.4375
 20
-1.0675
 30
8.125
 70
    64
  0
VERTEX
  5
4BCFB
100
AcDbEntity
  8
0
100
AcDbVertex
100
AcDbPolygonMeshVertex
 10
1.4375
 20
-1.0675
 30
6.75
 70
    64
  0
VERTEX
  5
4BCFC
100
AcDbEntity
  8
0
100
AcDbVertex
100
AcDbPolygonMeshVertex
 10
1.4375
 20
-1.0675
 30
6.75
 70
    64
  0
VERTEX
  5
4BCFD
100
AcDbEntity
  8
0
100
AcDbVertex
100
AcDbPolygonMeshVertex
 10
1.4375
 20
0.0575
 30
8.125
 70
    64
  0
VERTEX
  5
4BCFE
100
AcDbEntity
  8
0
100
AcDbVertex
100
AcDbPolygonMeshVertex
 10
1.4375
 20
0.0575
 30
6.75
 70
    64
  0
VERTEX
  5
4BCFF
100
AcDbEntity
  8
0
100
AcDbVertex
100
AcDbPolygonMeshVertex
 10
1.4375
 20
-1.0675
 30
6.75
 70
    64
  0
VERTEX
  5
4BD00
100
AcDbEntity
  8
0
100
AcDbVertex
100
AcDbPolygonMeshVertex
 10
2.5625
 20
0.0575
 30
8.125
 70
    64
  0
VERTEX
  5
4BD01
100
AcDbEntity
  8
0
100
AcDbVertex
100
AcDbPolygonMeshVertex
 10
2.5625
 20
0.0575
 30
6.75
 70
    64
  0
VERTEX
  5
4BD02
100
AcDbEntity
  8
0
100
AcDbVertex
100
AcDbPolygonMeshVertex
 10
2.5625
 20
-1.0675
 30
6.75
 70
    64
  0
VERTEX
  5
4BD03
100
AcDbEntity
  8
0
100
AcDbVertex
100
AcDbPolygonMeshVertex
 10
2.5625
 20
0.0575
 30
8.125
 70
    64
  0
VERTEX
  5
4BD04
100
AcDbEntity
  8
0
100
AcDbVertex
100
AcDbPolygonMeshVertex
 10
2.5625
 20
0.0575
 30
8.125
 70
    64
  0
VERTEX
  5
4BD05
100
AcDbEntity
  8
0
100
AcDbVertex
100
AcDbPolygonMeshVertex
 10
2.5625
 20
-1.0675
 30
8.125
 70
    64
  0
VERTEX
  5
4BD06
100
AcDbEntity
  8
0
100
AcDbVertex
100
AcDbPolygonMeshVertex
 10
1.4375
 20
0.0575
 30
8.125
 70
    64
  0
VERTEX
  5
4BD07
100
AcDbEntity
  8
0
100
AcDbVertex
100
AcDbPolygonMeshVertex
 10
1.4375
 20
0.0575
 30
8.125
 70
    64
  0
VERTEX
  5
4BD08
100
AcDbEntity
  8
0
100
AcDbVertex
100
AcDbPolygonMeshVertex
 10
1.4375
 20
-1.0675
 30
8.125
 70
    64
  0
SEQEND
  5
4BD09
100
AcDbEntity
  8
0
  0
CIRCLE
  5
4BD0A
100
AcDbEntity
  8
0
100
AcDbCircle
 10
2.0
 20
-0.505
 30
8.125
 40
0.4375
  0
POLYLINE
  5
4BD0B
100
AcDbEntity
  8
0
100
AcDbPolygonMesh
 66
     1
 10
0.0
 20
0.0
 30
0.0
 70
    16
 71
     6
 72
     3
  0
VERTEX
  5
4BD0C
100
AcDbEntity
  8
0
100
AcDbVertex
100
AcDbPolygonMeshVertex
 10
2.5625
 20
-1.065
 30
6.750012
 70
    64
  0
VERTEX
  5
4BD0D
100
AcDbEntity
  8
0
100
AcDbVertex
100
AcDbPolygonMeshVertex
 10
2.5625
 20
-1.065
 30
6.5
 70
    64
  0
VERTEX
  5
4BD0E
100
AcDbEntity
  8
0
100
AcDbVertex
100
AcDbPolygonMeshVertex
 10
2.5625
 20
-1.065
 30
6.5
 70
    64
  0
VERTEX
  5
4BD0F
100
AcDbEntity
  8
0
100
AcDbVertex
100
AcDbPolygonMeshVertex
 10
1.4375
 20
-1.065
 30
6.750012
 70
    64
  0
VERTEX
  5
4BD10
100
AcDbEntity
  8
0
100
AcDbVertex
100
AcDbPolygonMeshVertex
 10
1.4375
 20
-1.065
 30
6.5
 70
    64
  0
VERTEX
  5
4BD11
100
AcDbEntity
  8
0
100
AcDbVertex
100
AcDbPolygonMeshVertex
 10
1.4375
 20
-1.065
 30
6.5
 70
    64
  0
VERTEX
  5
4BD12
100
AcDbEntity
  8
0
100
AcDbVertex
100
AcDbPolygonMeshVertex
 10
1.4375
 20
-0.8175
 30
6.750012
 70
    64
  0
VERTEX
  5
4BD13
100
AcDbEntity
  8
0
100
AcDbVertex
100
AcDbPolygonMeshVertex
 10
1.4375
 20
-0.8175
 30
6.5
 70
    64
  0
VERTEX
  5
4BD14
100
AcDbEntity
  8
0
100
AcDbVertex
100
AcDbPolygonMeshVertex
 10
1.4375
 20
-1.065
 30
6.5
 70
    64
  0
VERTEX
  5
4BD15
100
AcDbEntity
  8
0
100
AcDbVertex
100
AcDbPolygonMeshVertex
 10
2.5625
 20
-0.8175
 30
6.750012
 70
    64
  0
VERTEX
  5
4BD16
100
AcDbEntity
  8
0
100
AcDbVertex
100
AcDbPolygonMeshVertex
 10
2.5625
 20
-0.8175
 30
6.5
 70
    64
  0
VERTEX
  5
4BD17
100
AcDbEntity
  8
0
100
AcDbVertex
100
AcDbPolygonMeshVertex
 10
2.5625
 20
-1.065
 30
6.5
 70
    64
  0
VERTEX
  5
4BD18
100
AcDbEntity
  8
0
100
AcDbVertex
100
AcDbPolygonMeshVertex
 10
2.5625
 20
-0.8175
 30
6.750012
 70
    64
  0
VERTEX
  5
4BD19
100
AcDbEntity
  8
0
100
AcDbVertex
100
AcDbPolygonMeshVertex
 10
2.5625
 20
-0.8175
 30
6.750012
 70
    64
  0
VERTEX
  5
4BD1A
100
AcDbEntity
  8
0
100
AcDbVertex
100
AcDbPolygonMeshVertex
 10
2.5625
 20
-1.065
 30
6.750012
 70
    64
  0
VERTEX
  5
4BD1B
100
AcDbEntity
  8
0
100
AcDbVertex
100
AcDbPolygonMeshVertex
 10
1.4375
 20
-0.8175
 30
6.750012
 70
    64
  0
VERTEX
  5
4BD1C
100
AcDbEntity
  8
0
100
AcDbVertex
100
AcDbPolygonMeshVertex
 10
1.4375
 20
-0.8175
 30
6.750012
 70
    64
  0
VERTEX
  5
4BD1D
100
AcDbEntity
  8
0
100
AcDbVertex
100
AcDbPolygonMeshVertex
 10
1.4375
 20
-1.065
 30
6.750012
 70
    64
  0
SEQEND
  5
4BD1E
100
AcDbEntity
  8
0
  0
POLYLINE
  5
4BD1F
100
AcDbEntity
  8
0
100
AcDbPolygonMesh
 66
     1
 10
0.0
 20
0.0
 30
0.0
 70
    16
 71
     6
 72
     3
  0
VERTEX
  5
4BD20
100
AcDbEntity
  8
0
100
AcDbVertex
100
AcDbPolygonMeshVertex
 10
2.5625
 20
-2.1925
 30
7.0
 70
    64
  0
VERTEX
  5
4BD21
100
AcDbEntity
  8
0
100
AcDbVertex
100
AcDbPolygonMeshVertex
 10
2.5625
 20
-2.1925
 30
6.75
 70
    64
  0
VERTEX
  5
4BD22
100
AcDbEntity
  8
0
100
AcDbVertex
100
AcDbPolygonMeshVertex
 10
2.5625
 20
-2.1925
 30
6.75
 70
    64
  0
VERTEX
  5
4BD23
100
AcDbEntity
  8
0
100
AcDbVertex
100
AcDbPolygonMeshVertex
 10
1.4375
 20
-2.1925
 30
7.0
 70
    64
  0
VERTEX
  5
4BD24
100
AcDbEntity
  8
0
100
AcDbVertex
100
AcDbPolygonMeshVertex
 10
1.4375
 20
-2.1925
 30
6.75
 70
    64
  0
VERTEX
  5
4BD25
100
AcDbEntity
  8
0
100
AcDbVertex
100
AcDbPolygonMeshVertex
 10
1.4375
 20
-2.1925
 30
6.75
 70
    64
  0
VERTEX
  5
4BD26
100
AcDbEntity
  8
0
100
AcDbVertex
100
AcDbPolygonMeshVertex
 10
1.4375
 20
-1.0675
 30
7.0
 70
    64
  0
VERTEX
  5
4BD27
100
AcDbEntity
  8
0
100
AcDbVertex
100
AcDbPolygonMeshVertex
 10
1.4375
 20
-1.0675
 30
6.75
 70
    64
  0
VERTEX
  5
4BD28
100
AcDbEntity
  8
0
100
AcDbVertex
100
AcDbPolygonMeshVertex
 10
1.4375
 20
-2.1925
 30
6.75
 70
    64
  0
VERTEX
  5
4BD29
100
AcDbEntity
  8
0
100
AcDbVertex
100
AcDbPolygonMeshVertex
 10
2.5625
 20
-1.0675
 30
7.0
 70
    64
  0
VERTEX
  5
4BD2A
100
AcDbEntity
  8
0
100
AcDbVertex
100
AcDbPolygonMeshVertex
 10
2.5625
 20
-1.0675
 30
6.75
 70
    64
  0
VERTEX
  5
4BD2B
100
AcDbEntity
  8
0
100
AcDbVertex
100
AcDbPolygonMeshVertex
 10
2.5625
 20
-2.1925
 30
6.75
 70
    64
  0
VERTEX
  5
4BD2C
100
AcDbEntity
  8
0
100
AcDbVertex
100
AcDbPolygonMeshVertex
 10
2.5625
 20
-1.0675
 30
7.0
 70
    64
  0
VERTEX
  5
4BD2D
100
AcDbEntity
  8
0
100
AcDbVertex
100
AcDbPolygonMeshVertex
 10
2.5625
 20
-1.0675
 30
7.0
 70
    64
  0
VERTEX
  5
4BD2E
100
AcDbEntity
  8
0
100
AcDbVertex
100
AcDbPolygonMeshVertex
 10
2.5625
 20
-2.1925
 30
7.0
 70
    64
  0
VERTEX
  5
4BD2F
100
AcDbEntity
  8
0
100
AcDbVertex
100
AcDbPolygonMeshVertex
 10
1.4375
 20
-1.0675
 30
7.0
 70
    64
  0
VERTEX
  5
4BD30
100
AcDbEntity
  8
0
100
AcDbVertex
100
AcDbPolygonMeshVertex
 10
1.4375
 20
-1.0675
 30
7.0
 70
    64
  0
VERTEX
  5
4BD31
100
AcDbEntity
  8
0
100
AcDbVertex
100
AcDbPolygonMeshVertex
 10
1.4375
 20
-2.1925
 30
7.0
 70
    64
  0
SEQEND
  5
4BD32
100
AcDbEntity
  8
0
  0
POLYLINE
  5
4BD33
100
AcDbEntity
  8
0
100
AcDbPolygonMesh
 66
     1
 10
0.0
 20
0.0
 30
0.0
 70
    16
 71
     6
 72
     3
  0
VERTEX
  5
4BD34
100
AcDbEntity
  8
0
100
AcDbVertex
100
AcDbPolygonMeshVertex
 10
3.25
 20
-11.035001
 30
0.278
 70
    64
  0
VERTEX
  5
4BD35
100
AcDbEntity
  8
0
100
AcDbVertex
100
AcDbPolygonMeshVertex
 10
3.25
 20
-11.035001
 30
0.0
 70
    64
  0
VERTEX
  5
4BD36
100
AcDbEntity
  8
0
100
AcDbVertex
100
AcDbPolygonMeshVertex
 10
3.25
 20
-11.035001
 30
0.0
 70
    64
  0
VERTEX
  5
4BD37
100
AcDbEntity
  8
0
100
AcDbVertex
100
AcDbPolygonMeshVertex
 10
-3.25
 20
-11.035001
 30
0.278
 70
    64
  0
VERTEX
  5
4BD38
100
AcDbEntity
  8
0
100
AcDbVertex
100
AcDbPolygonMeshVertex
 10
-3.25
 20
-11.035001
 30
0.0
 70
    64
  0
VERTEX
  5
4BD39
100
AcDbEntity
  8
0
100
AcDbVertex
100
AcDbPolygonMeshVertex
 10
-3.25
 20
-11.035001
 30
0.0
 70
    64
  0
VERTEX
  5
4BD3A
100
AcDbEntity
  8
0
100
AcDbVertex
100
AcDbPolygonMeshVertex
 10
-3.25
 20
-1.231667
 30
0.278
 70
    64
  0
VERTEX
  5
4BD3B
100
AcDbEntity
  8
0
100
AcDbVertex
100
AcDbPolygonMeshVertex
 10
-3.25
 20
-1.231667
 30
0.0
 70
    64
  0
VERTEX
  5
4BD3C
100
AcDbEntity
  8
0
100
AcDbVertex
100
AcDbPolygonMeshVertex
 10
-3.25
 20
-11.035001
 30
0.0
 70
    64
  0
VERTEX
  5
4BD3D
100
AcDbEntity
  8
0
100
AcDbVertex
100
AcDbPolygonMeshVertex
 10
3.25
 20
-1.231667
 30
0.278
 70
    64
  0
VERTEX
  5
4BD3E
100
AcDbEntity
  8
0
100
AcDbVertex
100
AcDbPolygonMeshVertex
 10
3.25
 20
-1.231667
 30
0.0
 70
    64
  0
VERTEX
  5
4BD3F
100
AcDbEntity
  8
0
100
AcDbVertex
100
AcDbPolygonMeshVertex
 10
3.25
 20
-11.035001
 30
0.0
 70
    64
  0
VERTEX
  5
4BD40
100
AcDbEntity
  8
0
100
AcDbVertex
100
AcDbPolygonMeshVertex
 10
3.25
 20
-1.231667
 30
0.278
 70
    64
  0
VERTEX
  5
4BD41
100
AcDbEntity
  8
0
100
AcDbVertex
100
AcDbPolygonMeshVertex
 10
3.25
 20
-1.231667
 30
0.278
 70
    64
  0
VERTEX
  5
4BD42
100
AcDbEntity
  8
0
100
AcDbVertex
100
AcDbPolygonMeshVertex
 10
3.25
 20
-11.035001
 30
0.278
 70
    64
  0
VERTEX
  5
4BD43
100
AcDbEntity
  8
0
100
AcDbVertex
100
AcDbPolygonMeshVertex
 10
-3.25
 20
-1.231667
 30
0.278
 70
    64
  0
VERTEX
  5
4BD44
100
AcDbEntity
  8
0
100
AcDbVertex
100
AcDbPolygonMeshVertex
 10
-3.25
 20
-1.231667
 30
0.278
 70
    64
  0
VERTEX
  5
4BD45
100
AcDbEntity
  8
0
100
AcDbVertex
100
AcDbPolygonMeshVertex
 10
-3.25
 20
-11.035001
 30
0.278
 70
    64
  0
SEQEND
  5
4BD46
100
AcDbEntity
  8
0
  0
3DFACE
  5
4BD47
100
AcDbEntity
  8
0
100
AcDbFace
 10
3.5
 20
-10.168975
 30
0.278
 11
3.25
 21
-10.601988
 31
0.278
 12
3.25
 22
-10.601988
 32
0.0
 13
3.5
 23
-10.168975
 33
0.0
  0
3DFACE
  5
4BD48
100
AcDbEntity
  8
0
100
AcDbFace
 10
3.5
 20
-8.595
 30
0.278
 11
3.5
 21
-8.595
 31
0.0
 12
3.5
 22
-10.168975
 32
0.0
 13
3.5
 23
-10.168975
 33
0.278
  0
3DFACE
  5
4BD49
100
AcDbEntity
  8
0
100
AcDbFace
 10
3.5
 20
-8.595
 30
0.278
 11
3.25
 21
-8.595
 31
0.278
 12
3.25
 22
-8.595
 32
0.0
 13
3.5
 23
-8.595
 33
0.0
  0
3DFACE
  5
4BD4A
100
AcDbEntity
  8
0
100
AcDbFace
 10
-3.5
 20
-8.595
 30
0.278
 11
-3.25
 21
-8.595
 31
0.278
 12
-3.25
 22
-8.595
 32
0.0
 13
-3.5
 23
-8.595
 33
0.0
  0
3DFACE
  5
4BD4B
100
AcDbEntity
  8
0
100
AcDbFace
 10
-3.5
 20
-10.168975
 30
0.278
 11
-3.25
 21
-10.601988
 31
0.278
 12
-3.25
 22
-10.601988
 32
0.0
 13
-3.5
 23
-10.168975
 33
0.0
  0
CIRCLE
  5
4BD4C
100
AcDbEntity
  8
0
100
AcDbCircle
 10
-3.14974
 20
-9.84375
 30
0.0
 40
0.15625
  0
3DFACE
  5
4BD4D
100
AcDbEntity
  8
0
100
AcDbFace
 10
-3.5
 20
-8.595
 30
0.278
 11
-3.5
 21
-8.595
 31
0.0
 12
-3.5
 22
-10.168975
 32
0.0
 13
-3.5
 23
-10.168975
 33
0.278
  0
3DFACE
  5
4BD4E
100
AcDbEntity
  8
0
100
AcDbFace
 10
-3.25
 20
-1.231667
 30
0.278
 11
-2.125
 21
0.375
 31
0.278
 12
2.125
 22
0.375
 32
0.278
 13
3.25
 23
-1.231667
 33
0.278
  0
3DFACE
  5
4BD4F
100
AcDbEntity
  8
0
100
AcDbFace
 10
-3.25
 20
-1.231667
 30
0.0
 11
-2.125
 21
0.375
 31
0.0
 12
2.125
 22
0.375
 32
0.0
 13
3.25
 23
-1.231667
 33
0.0
  0
3DFACE
  5
4BD50
100
AcDbEntity
  8
0
100
AcDbFace
 10
2.125
 20
0.375
 30
0.278
 11
2.125
 21
0.375
 31
0.0
 12
3.25
 22
-1.231667
 32
0.0
 13
3.25
 23
-1.231667
 33
0.278
  0
3DFACE
  5
4BD51
100
AcDbEntity
  8
0
100
AcDbFace
 10
-2.125
 20
0.375
 30
0.0
 11
-2.125
 21
0.375
 31
0.278
 12
2.125
 22
0.375
 32
0.278
 13
2.125
 23
0.375
 33
0.0
  0
3DFACE
  5
4BD52
100
AcDbEntity
  8
0
100
AcDbFace
 10
-2.125
 20
0.375
 30
0.0
 11
-2.125
 21
0.375
 31
0.278
 12
-3.25
 22
-1.231667
 32
0.278
 13
-3.25
 23
-1.231667
 33
0.0
  0
3DFACE
  5
4BD53
100
AcDbEntity
  8
0
100
AcDbFace
 10
3.25
 20
-8.595
 30
0.278
 11
3.5
 21
-8.595
 31
0.278
 12
3.5
 22
-10.168975
 32
0.278
 13
3.25
 23
-10.601988
 33
0.278
  0
3DFACE
  5
4BD54
100
AcDbEntity
  8
0
100
AcDbFace
 10
3.25
 20
-8.595
 30
0.0
 11
3.5
 21
-8.595
 31
0.0
 12
3.5
 22
-10.168975
 32
0.0
 13
3.25
 23
-10.601988
 33
0.0
  0
3DFACE
  5
4BD55
100
AcDbEntity
  8
0
100
AcDbFace
 10
-3.25
 20
-8.595
 30
0.0
 11
-3.5
 21
-8.595
 31
0.0
 12
-3.5
 22
-10.168975
 32
0.0
 13
-3.25
 23
-10.601988
 33
0.0
  0
3DFACE
  5
4BD56
100
AcDbEntity
  8
0
100
AcDbFace
 10
-3.25
 20
-8.595
 30
0.278
 11
-3.5
 21
-8.595
 31
0.278
 12
-3.5
 22
-10.168975
 32
0.278
 13
-3.25
 23
-10.601988
 33
0.278
  0
TEXT
  5
4BD57
100
AcDbEntity
  8
0
100
AcDbText
 10
-2.170461
 20
-0.619321
 30
8.125
 40
0.291587
  1
L1
100
AcDbText
  0
TEXT
  5
4BD58
100
AcDbEntity
  8
0
100
AcDbText
 10
-0.184905
 20
-0.626045
 30
8.125
 40
0.291587
  1
L2
100
AcDbText
  0
TEXT
  5
4BD59
100
AcDbEntity
  8
0
100
AcDbText
 10
1.788356
 20
-0.602047
 30
8.125
 40
0.291587
  1
L3
100
AcDbText
  0
TEXT
  5
4BD5A
100
AcDbEntity
  8
0
100
AcDbText
 10
-2.174897
 20
-11.791715
 30
3.5
 40
0.291587
  1
T1
100
AcDbText
  0
TEXT
  5
4BD5B
100
AcDbEntity
  8
0
100
AcDbText
 10
-0.231686
 20
-11.801425
 30
3.5
 40
0.291587
  1
T2
100
AcDbText
  0
TEXT
  5
4BD5C
100
AcDbEntity
  8
0
100
AcDbText
 10
1.771087
 20
-11.773927
 30
3.5
 40
0.291587
  1
T3
100
AcDbText
  0
POLYLINE
  5
4BD5D
100
AcDbEntity
  8
0
100
AcDbPolygonMesh
 66
     1
 10
0.0
 20
0.0
 30
0.0
 70
    16
 71
     6
 72
     3
  0
VERTEX
  5
4BD5E
100
AcDbEntity
  8
0
100
AcDbVertex
100
AcDbPolygonMeshVertex
 10
-1.44076
 20
-11.078125
 30
2.375
 70
    64
  0
VERTEX
  5
4BD5F
100
AcDbEntity
  8
0
100
AcDbVertex
100
AcDbPolygonMeshVertex
 10
-1.44076
 20
-11.078125
 30
2.125
 70
    64
  0
VERTEX
  5
4BD60
100
AcDbEntity
  8
0
100
AcDbVertex
100
AcDbPolygonMeshVertex
 10
-1.44076
 20
-11.078125
 30
2.125
 70
    64
  0
VERTEX
  5
4BD61
100
AcDbEntity
  8
0
100
AcDbVertex
100
AcDbPolygonMeshVertex
 10
-2.56576
 20
-11.078125
 30
2.375
 70
    64
  0
VERTEX
  5
4BD62
100
AcDbEntity
  8
0
100
AcDbVertex
100
AcDbPolygonMeshVertex
 10
-2.56576
 20
-11.078125
 30
2.125
 70
    64
  0
VERTEX
  5
4BD63
100
AcDbEntity
  8
0
100
AcDbVertex
100
AcDbPolygonMeshVertex
 10
-2.56576
 20
-11.078125
 30
2.125
 70
    64
  0
VERTEX
  5
4BD64
100
AcDbEntity
  8
0
100
AcDbVertex
100
AcDbPolygonMeshVertex
 10
-2.56576
 20
-10.068679
 30
2.375
 70
    64
  0
VERTEX
  5
4BD65
100
AcDbEntity
  8
0
100
AcDbVertex
100
AcDbPolygonMeshVertex
 10
-2.56576
 20
-10.068679
 30
2.125
 70
    64
  0
VERTEX
  5
4BD66
100
AcDbEntity
  8
0
100
AcDbVertex
100
AcDbPolygonMeshVertex
 10
-2.56576
 20
-11.078125
 30
2.125
 70
    64
  0
VERTEX
  5
4BD67
100
AcDbEntity
  8
0
100
AcDbVertex
100
AcDbPolygonMeshVertex
 10
-1.44076
 20
-10.068679
 30
2.375
 70
    64
  0
VERTEX
  5
4BD68
100
AcDbEntity
  8
0
100
AcDbVertex
100
AcDbPolygonMeshVertex
 10
-1.44076
 20
-10.068679
 30
2.125
 70
    64
  0
VERTEX
  5
4BD69
100
AcDbEntity
  8
0
100
AcDbVertex
100
AcDbPolygonMeshVertex
 10
-1.44076
 20
-11.078125
 30
2.125
 70
    64
  0
VERTEX
  5
4BD6A
100
AcDbEntity
  8
0
100
AcDbVertex
100
AcDbPolygonMeshVertex
 10
-1.44076
 20
-10.068679
 30
2.375
 70
    64
  0
VERTEX
  5
4BD6B
100
AcDbEntity
  8
0
100
AcDbVertex
100
AcDbPolygonMeshVertex
 10
-1.44076
 20
-10.068679
 30
2.375
 70
    64
  0
VERTEX
  5
4BD6C
100
AcDbEntity
  8
0
100
AcDbVertex
100
AcDbPolygonMeshVertex
 10
-1.44076
 20
-11.078125
 30
2.375
 70
    64
  0
VERTEX
  5
4BD6D
100
AcDbEntity
  8
0
100
AcDbVertex
100
AcDbPolygonMeshVertex
 10
-2.56576
 20
-10.068679
 30
2.375
 70
    64
  0
VERTEX
  5
4BD6E
100
AcDbEntity
  8
0
100
AcDbVertex
100
AcDbPolygonMeshVertex
 10
-2.56576
 20
-10.068679
 30
2.375
 70
    64
  0
VERTEX
  5
4BD6F
100
AcDbEntity
  8
0
100
AcDbVertex
100
AcDbPolygonMeshVertex
 10
-2.56576
 20
-11.078125
 30
2.375
 70
    64
  0
SEQEND
  5
4BD70
100
AcDbEntity
  8
0
  0
POLYLINE
  5
4BD71
100
AcDbEntity
  8
0
100
AcDbPolygonMesh
 66
     1
 10
0.0
 20
0.0
 30
0.0
 70
    16
 71
     6
 72
     3
  0
VERTEX
  5
4BD72
100
AcDbEntity
  8
0
100
AcDbVertex
100
AcDbPolygonMeshVertex
 10
0.55924
 20
-11.078125
 30
2.375
 70
    64
  0
VERTEX
  5
4BD73
100
AcDbEntity
  8
0
100
AcDbVertex
100
AcDbPolygonMeshVertex
 10
0.55924
 20
-11.078125
 30
2.125
 70
    64
  0
VERTEX
  5
4BD74
100
AcDbEntity
  8
0
100
AcDbVertex
100
AcDbPolygonMeshVertex
 10
0.55924
 20
-11.078125
 30
2.125
 70
    64
  0
VERTEX
  5
4BD75
100
AcDbEntity
  8
0
100
AcDbVertex
100
AcDbPolygonMeshVertex
 10
-0.56576
 20
-11.078125
 30
2.375
 70
    64
  0
VERTEX
  5
4BD76
100
AcDbEntity
  8
0
100
AcDbVertex
100
AcDbPolygonMeshVertex
 10
-0.56576
 20
-11.078125
 30
2.125
 70
    64
  0
VERTEX
  5
4BD77
100
AcDbEntity
  8
0
100
AcDbVertex
100
AcDbPolygonMeshVertex
 10
-0.56576
 20
-11.078125
 30
2.125
 70
    64
  0
VERTEX
  5
4BD78
100
AcDbEntity
  8
0
100
AcDbVertex
100
AcDbPolygonMeshVertex
 10
-0.56576
 20
-10.068679
 30
2.375
 70
    64
  0
VERTEX
  5
4BD79
100
AcDbEntity
  8
0
100
AcDbVertex
100
AcDbPolygonMeshVertex
 10
-0.56576
 20
-10.068679
 30
2.125
 70
    64
  0
VERTEX
  5
4BD7A
100
AcDbEntity
  8
0
100
AcDbVertex
100
AcDbPolygonMeshVertex
 10
-0.56576
 20
-11.078125
 30
2.125
 70
    64
  0
VERTEX
  5
4BD7B
100
AcDbEntity
  8
0
100
AcDbVertex
100
AcDbPolygonMeshVertex
 10
0.55924
 20
-10.068679
 30
2.375
 70
    64
  0
VERTEX
  5
4BD7C
100
AcDbEntity
  8
0
100
AcDbVertex
100
AcDbPolygonMeshVertex
 10
0.55924
 20
-10.068679
 30
2.125
 70
    64
  0
VERTEX
  5
4BD7D
100
AcDbEntity
  8
0
100
AcDbVertex
100
AcDbPolygonMeshVertex
 10
0.55924
 20
-11.078125
 30
2.125
 70
    64
  0
VERTEX
  5
4BD7E
100
AcDbEntity
  8
0
100
AcDbVertex
100
AcDbPolygonMeshVertex
 10
0.55924
 20
-10.068679
 30
2.375
 70
    64
  0
VERTEX
  5
4BD7F
100
AcDbEntity
  8
0
100
AcDbVertex
100
AcDbPolygonMeshVertex
 10
0.55924
 20
-10.068679
 30
2.375
 70
    64
  0
VERTEX
  5
4BD80
100
AcDbEntity
  8
0
100
AcDbVertex
100
AcDbPolygonMeshVertex
 10
0.55924
 20
-11.078125
 30
2.375
 70
    64
  0
VERTEX
  5
4BD81
100
AcDbEntity
  8
0
100
AcDbVertex
100
AcDbPolygonMeshVertex
 10
-0.56576
 20
-10.068679
 30
2.375
 70
    64
  0
VERTEX
  5
4BD82
100
AcDbEntity
  8
0
100
AcDbVertex
100
AcDbPolygonMeshVertex
 10
-0.56576
 20
-10.068679
 30
2.375
 70
    64
  0
VERTEX
  5
4BD83
100
AcDbEntity
  8
0
100
AcDbVertex
100
AcDbPolygonMeshVertex
 10
-0.56576
 20
-11.078125
 30
2.375
 70
    64
  0
SEQEND
  5
4BD84
100
AcDbEntity
  8
0
  0
POLYLINE
  5
4BD85
100
AcDbEntity
  8
0
100
AcDbPolygonMesh
 66
     1
 10
0.0
 20
0.0
 30
0.0
 70
    16
 71
     6
 72
     3
  0
VERTEX
  5
4BD86
100
AcDbEntity
  8
0
100
AcDbVertex
100
AcDbPolygonMeshVertex
 10
2.55924
 20
-11.078125
 30
2.375
 70
    64
  0
VERTEX
  5
4BD87
100
AcDbEntity
  8
0
100
AcDbVertex
100
AcDbPolygonMeshVertex
 10
2.55924
 20
-11.078125
 30
2.125
 70
    64
  0
VERTEX
  5
4BD88
100
AcDbEntity
  8
0
100
AcDbVertex
100
AcDbPolygonMeshVertex
 10
2.55924
 20
-11.078125
 30
2.125
 70
    64
  0
VERTEX
  5
4BD89
100
AcDbEntity
  8
0
100
AcDbVertex
100
AcDbPolygonMeshVertex
 10
1.43424
 20
-11.078125
 30
2.375
 70
    64
  0
VERTEX
  5
4BD8A
100
AcDbEntity
  8
0
100
AcDbVertex
100
AcDbPolygonMeshVertex
 10
1.43424
 20
-11.078125
 30
2.125
 70
    64
  0
VERTEX
  5
4BD8B
100
AcDbEntity
  8
0
100
AcDbVertex
100
AcDbPolygonMeshVertex
 10
1.43424
 20
-11.078125
 30
2.125
 70
    64
  0
VERTEX
  5
4BD8C
100
AcDbEntity
  8
0
100
AcDbVertex
100
AcDbPolygonMeshVertex
 10
1.43424
 20
-10.068679
 30
2.375
 70
    64
  0
VERTEX
  5
4BD8D
100
AcDbEntity
  8
0
100
AcDbVertex
100
AcDbPolygonMeshVertex
 10
1.43424
 20
-10.068679
 30
2.125
 70
    64
  0
VERTEX
  5
4BD8E
100
AcDbEntity
  8
0
100
AcDbVertex
100
AcDbPolygonMeshVertex
 10
1.43424
 20
-11.078125
 30
2.125
 70
    64
  0
VERTEX
  5
4BD8F
100
AcDbEntity
  8
0
100
AcDbVertex
100
AcDbPolygonMeshVertex
 10
2.55924
 20
-10.068679
 30
2.375
 70
    64
  0
VERTEX
  5
4BD90
100
AcDbEntity
  8
0
100
AcDbVertex
100
AcDbPolygonMeshVertex
 10
2.55924
 20
-10.068679
 30
2.125
 70
    64
  0
VERTEX
  5
4BD91
100
AcDbEntity
  8
0
100
AcDbVertex
100
AcDbPolygonMeshVertex
 10
2.55924
 20
-11.078125
 30
2.125
 70
    64
  0
VERTEX
  5
4BD92
100
AcDbEntity
  8
0
100
AcDbVertex
100
AcDbPolygonMeshVertex
 10
2.55924
 20
-10.068679
 30
2.375
 70
    64
  0
VERTEX
  5
4BD93
100
AcDbEntity
  8
0
100
AcDbVertex
100
AcDbPolygonMeshVertex
 10
2.55924
 20
-10.068679
 30
2.375
 70
    64
  0
VERTEX
  5
4BD94
100
AcDbEntity
  8
0
100
AcDbVertex
100
AcDbPolygonMeshVertex
 10
2.55924
 20
-11.078125
 30
2.375
 70
    64
  0
VERTEX
  5
4BD95
100
AcDbEntity
  8
0
100
AcDbVertex
100
AcDbPolygonMeshVertex
 10
1.43424
 20
-10.068679
 30
2.375
 70
    64
  0
VERTEX
  5
4BD96
100
AcDbEntity
  8
0
100
AcDbVertex
100
AcDbPolygonMeshVertex
 10
1.43424
 20
-10.068679
 30
2.375
 70
    64
  0
VERTEX
  5
4BD97
100
AcDbEntity
  8
0
100
AcDbVertex
100
AcDbPolygonMeshVertex
 10
1.43424
 20
-11.078125
 30
2.375
 70
    64
  0
SEQEND
  5
4BD98
100
AcDbEntity
  8
0
  0
LWPOLYLINE
  5
4BD99
100
AcDbEntity
  8
0
100
AcDbPolyline
 90
        9
 70
     0
 43
0.0
 10
-0.171
 20
-0.217761
 10
-0.171
 20
0.0
 42
-1.0
 10
0.171
 20
0.0
 10
0.171
 20
-0.217761
 42
-0.262297
 10
0.33
 20
-0.5
 10
0.33
 20
-0.83
 10
-0.33
 20
-0.83
 10
-0.33
 20
-0.5
 42
-0.262299
 10
-0.170998
 20
-0.21776
  0
CIRCLE
  5
4BD9A
100
AcDbEntity
  8
0
100
AcDbCircle
 10
3.14974
 20
-9.84375
 30
0.278
 40
0.15625
  0
CIRCLE
  5
4BD9B
100
AcDbEntity
  8
0
100
AcDbCircle
 10
-3.14974
 20
-9.84375
 30
0.278
 40
0.15625
  0
CIRCLE
  5
4BD9C
100
AcDbEntity
  8
0
100
AcDbCircle
 10
0.992
 20
0.0
 30
0.278
 40
0.15625
  0
LWPOLYLINE
  5
4BD9D
100
AcDbEntity
  8
0
100
AcDbPolyline
 90
        9
 70
     0
 43
0.0
 38
0.278
 10
-0.171
 20
-0.217761
 10
-0.171
 20
0.0
 42
-1.0
 10
0.171
 20
0.0
 10
0.171
 20
-0.217761
 42
-0.262297
 10
0.33
 20
-0.5
 10
0.33
 20
-0.83
 10
-0.33
 20
-0.83
 10
-0.33
 20
-0.5
 42
-0.262299
 10
-0.170998
 20
-0.21776
  0
POLYLINE
  5
4BD9E
100
AcDbEntity
  8
0
100
AcDbPolygonMesh
 66
     1
 10
0.0
 20
0.0
 30
0.0
 70
    16
 71
     6
 72
     3
  0
VERTEX
  5
4BD9F
100
AcDbEntity
  8
0
100
AcDbVertex
100
AcDbPolygonMeshVertex
 10
3.0
 20
-8.95378
 30
5.6875
 70
    64
  0
VERTEX
  5
4BDA0
100
AcDbEntity
  8
0
100
AcDbVertex
100
AcDbPolygonMeshVertex
 10
3.0
 20
-8.95378
 30
0.278
 70
    64
  0
VERTEX
  5
4BDA1
100
AcDbEntity
  8
0
100
AcDbVertex
100
AcDbPolygonMeshVertex
 10
3.0
 20
-8.95378
 30
0.278
 70
    64
  0
VERTEX
  5
4BDA2
100
AcDbEntity
  8
0
100
AcDbVertex
100
AcDbPolygonMeshVertex
 10
-3.0
 20
-8.95378
 30
5.6875
 70
    64
  0
VERTEX
  5
4BDA3
100
AcDbEntity
  8
0
100
AcDbVertex
100
AcDbPolygonMeshVertex
 10
-3.0
 20
-8.95378
 30
0.278
 70
    64
  0
VERTEX
  5
4BDA4
100
AcDbEntity
  8
0
100
AcDbVertex
100
AcDbPolygonMeshVertex
 10
-3.0
 20
-8.95378
 30
0.278
 70
    64
  0
VERTEX
  5
4BDA5
100
AcDbEntity
  8
0
100
AcDbVertex
100
AcDbPolygonMeshVertex
 10
-3.0
 20
-4.815
 30
5.6875
 70
    64
  0
VERTEX
  5
4BDA6
100
AcDbEntity
  8
0
100
AcDbVertex
100
AcDbPolygonMeshVertex
 10
-3.0
 20
-4.815
 30
0.278
 70
    64
  0
VERTEX
  5
4BDA7
100
AcDbEntity
  8
0
100
AcDbVertex
100
AcDbPolygonMeshVertex
 10
-3.0
 20
-8.95378
 30
0.278
 70
    64
  0
VERTEX
  5
4BDA8
100
AcDbEntity
  8
0
100
AcDbVertex
100
AcDbPolygonMeshVertex
 10
3.0
 20
-4.815
 30
5.6875
 70
    64
  0
VERTEX
  5
4BDA9
100
AcDbEntity
  8
0
100
AcDbVertex
100
AcDbPolygonMeshVertex
 10
3.0
 20
-4.815
 30
0.278
 70
    64
  0
VERTEX
  5
4BDAA
100
AcDbEntity
  8
0
100
AcDbVertex
100
AcDbPolygonMeshVertex
 10
3.0
 20
-8.95378
 30
0.278
 70
    64
  0
VERTEX
  5
4BDAB
100
AcDbEntity
  8
0
100
AcDbVertex
100
AcDbPolygonMeshVertex
 10
3.0
 20
-4.815
 30
5.6875
 70
    64
  0
VERTEX
  5
4BDAC
100
AcDbEntity
  8
0
100
AcDbVertex
100
AcDbPolygonMeshVertex
 10
3.0
 20
-4.815
 30
5.6875
 70
    64
  0
VERTEX
  5
4BDAD
100
AcDbEntity
  8
0
100
AcDbVertex
100
AcDbPolygonMeshVertex
 10
3.0
 20
-8.95378
 30
5.6875
 70
    64
  0
VERTEX
  5
4BDAE
100
AcDbEntity
  8
0
100
AcDbVertex
100
AcDbPolygonMeshVertex
 10
-3.0
 20
-4.815
 30
5.6875
 70
    64
  0
VERTEX
  5
4BDAF
100
AcDbEntity
  8
0
100
AcDbVertex
100
AcDbPolygonMeshVertex
 10
-3.0
 20
-4.815
 30
5.6875
 70
    64
  0
VERTEX
  5
4BDB0
100
AcDbEntity
  8
0
100
AcDbVertex
100
AcDbPolygonMeshVertex
 10
-3.0
 20
-8.95378
 30
5.6875
 70
    64
  0
SEQEND
  5
4BDB1
100
AcDbEntity
  8
0
  0
POLYLINE
  5
4BDB2
100
AcDbEntity
  8
0
100
AcDbPolygonMesh
 66
     1
 10
0.0
 20
0.0
 30
0.0
 70
    16
 71
     6
 72
     3
  0
VERTEX
  5
4BDB3
100
AcDbEntity
  8
0
100
AcDbVertex
100
AcDbPolygonMeshVertex
 10
3.0
 20
-10.068679
 30
3.75
 70
    64
  0
VERTEX
  5
4BDB4
100
AcDbEntity
  8
0
100
AcDbVertex
100
AcDbPolygonMeshVertex
 10
3.0
 20
-10.068679
 30
0.278
 70
    64
  0
VERTEX
  5
4BDB5
100
AcDbEntity
  8
0
100
AcDbVertex
100
AcDbPolygonMeshVertex
 10
3.0
 20
-10.068679
 30
0.278
 70
    64
  0
VERTEX
  5
4BDB6
100
AcDbEntity
  8
0
100
AcDbVertex
100
AcDbPolygonMeshVertex
 10
-3.0
 20
-10.068679
 30
3.75
 70
    64
  0
VERTEX
  5
4BDB7
100
AcDbEntity
  8
0
100
AcDbVertex
100
AcDbPolygonMeshVertex
 10
-3.0
 20
-10.068679
 30
0.278
 70
    64
  0
VERTEX
  5
4BDB8
100
AcDbEntity
  8
0
100
AcDbVertex
100
AcDbPolygonMeshVertex
 10
-3.0
 20
-10.068679
 30
0.278
 70
    64
  0
VERTEX
  5
4BDB9
100
AcDbEntity
  8
0
100
AcDbVertex
100
AcDbPolygonMeshVertex
 10
-3.0
 20
-8.95378
 30
3.75
 70
    64
  0
VERTEX
  5
4BDBA
100
AcDbEntity
  8
0
100
AcDbVertex
100
AcDbPolygonMeshVertex
 10
-3.0
 20
-8.95378
 30
0.278
 70
    64
  0
VERTEX
  5
4BDBB
100
AcDbEntity
  8
0
100
AcDbVertex
100
AcDbPolygonMeshVertex
 10
-3.0
 20
-10.068679
 30
0.278
 70
    64
  0
VERTEX
  5
4BDBC
100
AcDbEntity
  8
0
100
AcDbVertex
100
AcDbPolygonMeshVertex
 10
3.0
 20
-8.95378
 30
3.75
 70
    64
  0
VERTEX
  5
4BDBD
100
AcDbEntity
  8
0
100
AcDbVertex
100
AcDbPolygonMeshVertex
 10
3.0
 20
-8.95378
 30
0.278
 70
    64
  0
VERTEX
  5
4BDBE
100
AcDbEntity
  8
0
100
AcDbVertex
100
AcDbPolygonMeshVertex
 10
3.0
 20
-10.068679
 30
0.278
 70
    64
  0
VERTEX
  5
4BDBF
100
AcDbEntity
  8
0
100
AcDbVertex
100
AcDbPolygonMeshVertex
 10
3.0
 20
-8.95378
 30
3.75
 70
    64
  0
VERTEX
  5
4BDC0
100
AcDbEntity
  8
0
100
AcDbVertex
100
AcDbPolygonMeshVertex
 10
3.0
 20
-8.95378
 30
3.75
 70
    64
  0
VERTEX
  5
4BDC1
100
AcDbEntity
  8
0
100
AcDbVertex
100
AcDbPolygonMeshVertex
 10
3.0
 20
-10.068679
 30
3.75
 70
    64
  0
VERTEX
  5
4BDC2
100
AcDbEntity
  8
0
100
AcDbVertex
100
AcDbPolygonMeshVertex
 10
-3.0
 20
-8.95378
 30
3.75
 70
    64
  0
VERTEX
  5
4BDC3
100
AcDbEntity
  8
0
100
AcDbVertex
100
AcDbPolygonMeshVertex
 10
-3.0
 20
-8.95378
 30
3.75
 70
    64
  0
VERTEX
  5
4BDC4
100
AcDbEntity
  8
0
100
AcDbVertex
100
AcDbPolygonMeshVertex
 10
-3.0
 20
-10.068679
 30
3.75
 70
    64
  0
SEQEND
  5
4BDC5
100
AcDbEntity
  8
0
  0
ATTDEF
  5
4BDC6
100
AcDbEntity
  8
ATTRIBUTES
100
AcDbText
 10
-2.761155
 20
-7.022846
 30
0.0
 40
0.149787
  1
ALLEN-BRADLEY
100
AcDbAttributeDefinition
  3
MANUFACTURER NAME?
  2
AC_VND_LABEL
 70
     1
  0
ATTDEF
  5
4BDC7
100
AcDbEntity
  8
ATTRIBUTES
100
AcDbText
 10
-2.761155
 20
-7.334901
 30
0.0
 40
0.149787
  1
500F-F
100
AcDbAttributeDefinition
  3
CATALOG NUMBER?
  2
AC_PART_NO
 70
     1
  0
ATTDEF
  5
4BDC8
100
AcDbEntity
  8
ATTRIBUTES
100
AcDbText
 10
-2.761155
 20
-7.646957
 30
0.0
 40
0.149787
  1
NEMA AC FEED-THROUGH WIRING CONTACTOR; SIZE 5; 3P
100
AcDbAttributeDefinition
  3
PART DESCRIPTION?
  2
AC_DESCRIPTION
 70
     1
  0
ATTDEF
  5
4BDC9
100
AcDbEntity
  8
ATTRIBUTES
100
AcDbText
 10
-2.761155
 20
-7.959012
 30
0.0
 40
0.149787
  1

100
AcDbAttributeDefinition
  3
DEVICE ID?
  2
DEVICE_ID
 70
     1
  0
ATTDEF
  5
4BDCA
100
AcDbEntity
  8
ATTRIBUTES
100
AcDbText
 10
-2.761155
 20
-8.271067
 30
0.0
 40
0.149787
  1

100
AcDbAttributeDefinition
  3
CUSTOMER PART NUMBER?
  2
AC_CPART_NO
 70
     1
  0
ATTDEF
  5
4BDCB
100
AcDbEntity
  8
ATTRIBUTES
100
AcDbText
 10
-2.761155
 20
-8.583123
 30
0.0
 40
0.149787
  1

100
AcDbAttributeDefinition
  3
CUSTOMER NOTE?
  2
AC_NOTE
 70
     1
  0
ATTDEF
  5
4BDCC
100
AcDbEntity
  8
ATTRIBUTES
100
AcDbText
 10
-2.761155
 20
-8.895178
 30
0.0
 40
0.149787
  1

100
AcDbAttributeDefinition
  3
FASTENER DATA?
  2
FASTENER
 70
     1
  0
ATTDEF
  5
4BDCD
100
AcDbEntity
  8
ATTRIBUTES
100
AcDbText
 10
-2.761155
 20
-9.207234
 30
0.0
 40
0.149787
  1
INCH
100
AcDbAttributeDefinition
  3
UNIT OF SCALE?
  2
AC_SCALE_UNIT
 70
     1
  0
ATTDEF
  5
4BDCE
100
AcDbEntity
  8
ATTRIBUTES
100
AcDbText
 10
-2.761155
 20
-9.519289
 30
0.0
 40
0.149787
  1
0
100
AcDbAttributeDefinition
  3
VIEW CODE?
  2
AC_VIEW_CODE
 70
     1
  0
POINT
  5
4BDCF
100
AcDbEntity
  8
DIMS-MTG-HOLES
100
AcDbPoint
 10
0.0
 20
0.0
 30
0.0
  0
POINT
  5
4BDD0
100
AcDbEntity
  8
DIMS-MTG-HOLES
100
AcDbPoint
 10
0.992
 20
0.0
 30
0.0
  0
POINT
  5
4BDD1
100
AcDbEntity
  8
DIMS-MTG-HOLES
100
AcDbPoint
 10
-3.14974
 20
-9.84375
 30
0.0
  0
POINT
  5
4BDD2
100
AcDbEntity
  8
DIMS-MTG-HOLES
100
AcDbPoint
 10
3.14974
 20
-9.84375
 30
0.0
  0
DIMENSION
  5
4BDD3
100
AcDbEntity
  8
AREA1
100
AcDbDimension
  2
*D0
 10
-5.220405
 20
-12.203125
 30
0.0
 11
-5.220405
 21
-5.686449
 31
0.0
 70
   160
  3
ABECAD_3D
100
AcDbAlignedDimension
 13
-2.125
 23
0.375
 33
0.0
 14
-2.56576
 24
-12.203125
 34
2.125
 50
90.0
100
AcDbRotatedDimension
  0
DIMENSION
  5
4BDE1
100
AcDbEntity
  8
AREA1
100
AcDbDimension
  2
*D1
 10
3.5
 20
1.533102
 30
0.0
 11
-0.02712
 21
1.533102
 31
0.0
 70
   160
  3
ABECAD_3D
100
AcDbAlignedDimension
 13
-3.5
 23
-8.595
 33
0.0
 14
3.5
 24
-8.595
 34
0.0
100
AcDbRotatedDimension
  0
LWPOLYLINE
  5
4BDFE
100
AcDbEntity
  8
SCALE
100
AcDbPolyline
 90
        4
 70
     1
 43
0.0
 10
-0.568965
 20
-12.525923
 10
0.566664
 20
-12.525923
 10
0.566664
 20
-13.367533
 10
-0.568965
 20
-13.367533
  0
LINE
  5
4BDFF
100
AcDbEntity
  8
SCALE
100
AcDbLine
 10
-0.510967
 20
-12.906001
 30
0.0
 11
0.489033
 21
-12.906001
 31
0.0
  0
LINE
  5
4BE00
100
AcDbEntity
  8
SCALE
100
AcDbLine
 10
-0.510967
 20
-13.206001
 30
0.0
 11
-0.117267
 21
-13.206001
 31
0.0
  0
LINE
  5
4BE01
100
AcDbEntity
  8
SCALE
100
AcDbLine
 10
-0.510967
 20
-13.006001
 30
0.0
 11
-0.510967
 21
-12.806001
 31
0.0
  0
TEXT
  5
4BE02
100
AcDbEntity
  8
SCALE
100
AcDbText
 10
-0.454991
 20
-13.158316
 30
0.0
 40
0.0625
  1
[10mm]
100
AcDbText
  0
LINE
  5
4BE03
100
AcDbEntity
  8
SCALE
100
AcDbLine
 10
-0.510967
 20
-13.306001
 30
0.0
 11
-0.510967
 21
-13.106001
 31
0.0
  0
TEXT
  5
4BE04
100
AcDbEntity
  8
SCALE
100
AcDbText
 10
-0.509436
 20
-12.631124
 30
0.0
 40
0.0625
  1
SCALE:
100
AcDbText
  0
LINE
  5
4BE05
100
AcDbEntity
  8
SCALE
100
AcDbLine
 10
-0.117267
 20
-13.306001
 30
0.0
 11
-0.117267
 21
-13.106001
 31
0.0
  0
TEXT
  5
4BE06
100
AcDbEntity
  8
SCALE
100
AcDbText
 10
-0.147684
 20
-12.836953
 30
0.0
 40
0.0625
  1
1 Inch
100
AcDbText
  0
LINE
  5
4BE07
100
AcDbEntity
  8
SCALE
100
AcDbLine
 10
0.489033
 20
-12.906001
 30
0.0
 11
0.489033
 21
-13.006001
 31
0.0
  0
LINE
  5
4BE08
100
AcDbEntity
  8
SCALE
100
AcDbLine
 10
0.489033
 20
-13.006001
 30
0.0
 11
0.489033
 21
-12.806001
 31
0.0
  0
ENDSEC
  0
SECTION
  2
OBJECTS
  0
DICTIONARY
  5
458CB
100
AcDbDictionary
  3
ACAD_GROUP
350
458CC
  3
ACAD_LAYOUT
350
458FB
  3
ACAD_MLINESTYLE
350
458D9
  3
ACAD_PLOTSETTINGS
350
458FC
  3
ACAD_PLOTSTYLENAME
350
458F9
  3
ACDBHEADERROUNDTRIPXREC
350
4BE84
  3
ACDBVARIABLEDICTIONARY
350
458E1
  3
DWGPROPS
350
45901
  0
DICTIONARY
  5
4BE82
100
AcDbDictionary
280
     1
  3
ACAD_XREC_ROUNDTRIP
360
4BE83
  0
DICTIONARY
  5
4BEAB
100
AcDbDictionary
280
     1
  3
ACAD_XREC_ROUNDTRIP
360
4BEAC
  0
DICTIONARY
  5
4BE80
100
AcDbDictionary
280
     1
  3
ACAD_XREC_ROUNDTRIP
360
4BE81
  0
DICTIONARY
  5
4BEA7
100
AcDbDictionary
280
     1
  3
ACAD_XREC_ROUNDTRIP
360
4BEA8
  0
DICTIONARY
  5
4592C
100
AcDbDictionary
280
     1
  3
ACAD_LAYOUTSELFREF
360
4BEA6
  0
DICTIONARY
  5
4592A
100
AcDbDictionary
280
     1
  3
ACAD_LAYOUTSELFREF
360
4BEA5
  0
DICTIONARY
  5
458CC
102
{ACAD_REACTORS
330
458CB
102
}
100
AcDbDictionary
  0
DICTIONARY
  5
458FB
102
{ACAD_XDICTIONARY
360
4BEA9
102
}
102
{ACAD_REACTORS
330
458CB
102
}
100
AcDbDictionary
  3
LAYOUT1
350
458FE
  3
MODEL
350
458FD
  0
DICTIONARY
  5
458D9
102
{ACAD_REACTORS
330
458CB
102
}
100
AcDbDictionary
  3
STANDARD
350
458DA
  0
DICTIONARY
  5
458FC
102
{ACAD_REACTORS
330
458CB
102
}
100
AcDbDictionary
  0
ACAD_PROXY_OBJECT
  5
458F9
102
{ACAD_REACTORS
330
458CB
102
}
100
AcDbProxyObject
 90
      499
 91
      501
 93
       86
310
405010041939BDC9B585B1
350
458FA
340
458FA
 94
        0
  0
DICTIONARY
  5
4BE84
102
{ACAD_REACTORS
330
458CB
102
}
100
AcDbDictionary
  3
CEPSNTYPE
350
4BE8E
  3
DIMSTYLEDATA
350
4BE92
  3
FINGERPRINTGUID
350
4BE8F
  3
HYPERLINKBASE
350
4BE87
  3
INSUNITS
350
4BE8D
  3
LAYOUTDICT
350
4BE89
  3
LWETCUNION
350
4BE8C
  3
PLOTSETDICT
350
4BE8A
  3
PLOTSTYLNAMDICT
350
4BE8B
  3
PSVPSCALE
350
4BE91
  3
PUCSBASE
350
4BE95
  3
PUCSORGBACK
350
4BE9B
  3
PUCSORGBOTTOM
350
4BE97
  3
PUCSORGFRONT
350
4BE9A
  3
PUCSORGLEFT
350
4BE98
  3
PUCSORGRIGHT
350
4BE99
  3
PUCSORGTOP
350
4BE96
  3
PUCSORTHOREF
350
4BE93
  3
PUCSORTHOVIEW
350
4BE94
  3
STYLESHEET
350
4BE88
  3
TSTACKALIGN
350
4BE85
  3
TSTACKSIZE
350
4BE86
  3
UCSBASE
350
4BE9E
  3
UCSORGBACK
350
4BEA4
  3
UCSORGBOTTOM
350
4BEA0
  3
UCSORGFRONT
350
4BEA3
  3
UCSORGLEFT
350
4BEA1
  3
UCSORGRIGHT
350
4BEA2
  3
UCSORGTOP
350
4BE9F
  3
UCSORTHOREF
350
4BE9C
  3
UCSORTHOVIEW
350
4BE9D
  3
VERSIONGUID
350
4BE90
  0
DICTIONARY
  5
458E1
102
{ACAD_REACTORS
330
458CB
102
}
100
AcDbDictionary
  3
DIMADEC
350
458E2
  0
XRECORD
  5
45901
102
{ACAD_REACTORS
330
458CB
102
}
100
AcDbXrecord
  1
DWGPROPS COOKIE
  2

  3

  4

  6

  7

  8
colin
  9

300
=
301
=
302
=
303
=
304
=
305
=
306
=
307
=
308
=
309
=
 40
0.000599
 41
2451670.444777
 42
2451670.445376
  1

 90
        0
  0
XRECORD
  5
4BE83
102
{ACAD_REACTORS
330
4BE82
102
}
100
AcDbXrecord
102
EXTNAMES
  1
*ACTIVE
  2
*Active
102
UCS
 74
     0
 71
     1
 10
0.0
 20
0.0
 30
0.0
 10
1.0
 20
0.0
 30
0.0
 10
0.0
 20
1.0
 30
0.0
146
0.0
 79
     1
102
VIEW
281
     1
  0
XRECORD
  5
4BEAC
102
{ACAD_REACTORS
330
4BEAB
102
}
100
AcDbXrecord
102
PLOTBIT
280
     0
  0
XRECORD
  5
4BE81
102
{ACAD_REACTORS
330
4BE80
102
}
100
AcDbXrecord
102
EXTNAMES
  1
DEFPOINTS
  2
Defpoints
102
PLOTBIT
280
     0
  0
XRECORD
  5
4BEA8
102
{ACAD_REACTORS
330
4BEA7
102
}
100
AcDbXrecord
102
ACADR14ROUNDTRIP
1000
DSTYLE
1002
{
1070
   276
 70
     2
1070
   277
 70
     5
1070
   279
 70
     2
1002
}
  0
XRECORD
  5
4BEA6
102
{ACAD_REACTORS
330
4592C
102
}
100
AcDbXrecord
340
458D6
  0
XRECORD
  5
4BEA5
102
{ACAD_REACTORS
330
4592A
102
}
100
AcDbXrecord
340
458D3
  0
DICTIONARY
  5
4BEA9
100
AcDbDictionary
280
     1
  3
ACAD_XREC_ROUNDTRIP
360
4BEAA
  0
ACAD_PROXY_OBJECT
  5
458FE
102
{ACAD_REACTORS
330
458FB
102
}
100
AcDbProxyObject
 90
      499
 91
      503
 93
     1348
310
91D4850204C617365724A65742035303030205365726965732050434C20362C00AAAAAA416AA547D11959985D5B1D08148C4D081C195B88185CDCDA59DB9B595B9D1CCB98DD1891069074C61796F75743140501A800000000000000000000000000000000000000000000A1000000000000008902A6A6A10232D5E076BC551
310
0408CB5781DAF154410232D5E076BC5510408CB5781DAF15C410232D5E076BC5710408CB5781DAF15C40
330
458D3
330
0
340
0
340
0
 94
        0
  0
ACAD_PROXY_OBJECT
  5
458FD
102
{ACAD_REACTORS
330
458FB
102
}
100
AcDbProxyObject
 90
      499
 91
      503
 93
      924
310
91D4850204C617365724A65742035303030205365726965732050434C20362C01AAAAAAAAA547D11959985D5B1D08148C4D081C195B88185CDCDA59DB9B595B9D1CCB98DD18A69054D6F64656C901A800000000000000000000000000000000000000000000A1000000000000008902A6A6AAAAF
330
458D6
330
0
340
0
340
0
 94
        0
  0
MLINESTYLE
  5
458DA
102
{ACAD_REACTORS
330
458D9
102
}
100
AcDbMlineStyle
  2
STANDARD
 70
     0
  3

 62
   256
 51
90.0
 52
90.0
 71
     2
 49
0.5
 62
   256
  6
BYLAYER
 49
-0.5
 62
   256
  6
BYLAYER
  0
ACAD_PROXY_OBJECT
  5
458FA
102
{ACAD_REACTORS
330
458F9
102
}
100
AcDbProxyObject
 90
      499
 91
      502
 93
        0
 94
        0
  0
XRECORD
  5
4BE8E
102
{ACAD_REACTORS
330
4BE84
102
}
100
AcDbXrecord
 90
        0
  0
XRECORD
  5
4BE92
102
{ACAD_REACTORS
330
4BE84
102
}
100
AcDbXrecord
1000
DSTYLE
1002
{
1070
   276
 70
     2
1070
   277
 70
     5
1070
   279
 70
     2
1002
}
  0
XRECORD
  5
4BE8F
102
{ACAD_REACTORS
330
4BE84
102
}
100
AcDbXrecord
  1
{6E0CF4B8-225E-11D4-A150-00A0CC3303EC}
  0
XRECORD
  5
4BE87
102
{ACAD_REACTORS
330
4BE84
102
}
100
AcDbXrecord
  1

  0
XRECORD
  5
4BE8D
102
{ACAD_REACTORS
330
4BE84
102
}
100
AcDbXrecord
 90
        0
  0
XRECORD
  5
4BE89
102
{ACAD_REACTORS
330
4BE84
102
}
100
AcDbXrecord
340
458FB
  0
XRECORD
  5
4BE8C
102
{ACAD_REACTORS
330
4BE84
102
}
100
AcDbXrecord
 90
    14877
  0
XRECORD
  5
4BE8A
102
{ACAD_REACTORS
330
4BE84
102
}
100
AcDbXrecord
340
458FC
  0
XRECORD
  5
4BE8B
102
{ACAD_REACTORS
330
4BE84
102
}
100
AcDbXrecord
340
458F9
  0
XRECORD
  5
4BE91
102
{ACAD_REACTORS
330
4BE84
102
}
100
AcDbXrecord
 40
0.0
  0
XRECORD
  5
4BE95
102
{ACAD_REACTORS
330
4BE84
102
}
100
AcDbXrecord
340
0
  0
XRECORD
  5
4BE9B
102
{ACAD_REACTORS
330
4BE84
102
}
100
AcDbXrecord
 10
0.0
 20
0.0
 30
0.0
  0
XRECORD
  5
4BE97
102
{ACAD_REACTORS
330
4BE84
102
}
100
AcDbXrecord
 10
0.0
 20
0.0
 30
0.0
  0
XRECORD
  5
4BE9A
102
{ACAD_REACTORS
330
4BE84
102
}
100
AcDbXrecord
 10
0.0
 20
0.0
 30
0.0
  0
XRECORD
  5
4BE98
102
{ACAD_REACTORS
330
4BE84
102
}
100
AcDbXrecord
 10
0.0
 20
0.0
 30
0.0
  0
XRECORD
  5
4BE99
102
{ACAD_REACTORS
330
4BE84
102
}
100
AcDbXrecord
 10
0.0
 20
0.0
 30
0.0
  0
XRECORD
  5
4BE96
102
{ACAD_REACTORS
330
4BE84
102
}
100
AcDbXrecord
 10
0.0
 20
0.0
 30
0.0
  0
XRECORD
  5
4BE93
102
{ACAD_REACTORS
330
4BE84
102
}
100
AcDbXrecord
340
0
  0
XRECORD
  5
4BE94
102
{ACAD_REACTORS
330
4BE84
102
}
100
AcDbXrecord
 70
     0
  0
XRECORD
  5
4BE88
102
{ACAD_REACTORS
330
4BE84
102
}
100
AcDbXrecord
  1

  0
XRECORD
  5
4BE85
102
{ACAD_REACTORS
330
4BE84
102
}
100
AcDbXrecord
 90
        1
  0
XRECORD
  5
4BE86
102
{ACAD_REACTORS
330
4BE84
102
}
100
AcDbXrecord
 90
       70
  0
XRECORD
  5
4BE9E
102
{ACAD_REACTORS
330
4BE84
102
}
100
AcDbXrecord
340
0
  0
XRECORD
  5
4BEA4
102
{ACAD_REACTORS
330
4BE84
102
}
100
AcDbXrecord
 10
0.0
 20
0.0
 30
0.0
  0
XRECORD
  5
4BEA0
102
{ACAD_REACTORS
330
4BE84
102
}
100
AcDbXrecord
 10
0.0
 20
0.0
 30
0.0
  0
XRECORD
  5
4BEA3
102
{ACAD_REACTORS
330
4BE84
102
}
100
AcDbXrecord
 10
0.0
 20
0.0
 30
0.0
  0
XRECORD
  5
4BEA1
102
{ACAD_REACTORS
330
4BE84
102
}
100
AcDbXrecord
 10
0.0
 20
0.0
 30
0.0
  0
XRECORD
  5
4BEA2
102
{ACAD_REACTORS
330
4BE84
102
}
100
AcDbXrecord
 10
0.0
 20
0.0
 30
0.0
  0
XRECORD
  5
4BE9F
102
{ACAD_REACTORS
330
4BE84
102
}
100
AcDbXrecord
 10
0.0
 20
0.0
 30
0.0
  0
XRECORD
  5
4BE9C
102
{ACAD_REACTORS
330
4BE84
102
}
100
AcDbXrecord
340
0
  0
XRECORD
  5
4BE9D
102
{ACAD_REACTORS
330
4BE84
102
}
100
AcDbXrecord
 70
     1
  0
XRECORD
  5
4BE90
102
{ACAD_REACTORS
330
4BE84
102
}
100
AcDbXrecord
  1
{D6A633AA-D493-4B81-8648-AB29986B355D}
  0
DICTIONARYVAR
  5
458E2
102
{ACAD_REACTORS
330
458E1
102
}
100
DictionaryVariables
280
     0
  1
0
  0
XRECORD
  5
4BEAA
102
{ACAD_REACTORS
330
4BEA9
102
}
100
AcDbXrecord
102
EXTNAMES
  1
LAYOUT1
  2
Layout1
  1
MODEL
  2
Model
  0
ENDSEC
  0
EOF
