  0
SECTION
  2
HEADER
  9
$ACADVER
  1
AC1014
  9
$ACADMAINTVER
 70
     8
  9
$DWGCODEPAGE
  3
ANSI_1252
  9
$INSBASE
 10
0.0
 20
0.0
 30
0.0
  9
$EXTMIN
 10
-2.842176
 20
-6.728207
 30
0.0
  9
$EXTMAX
 10
1.78
 20
1.185637
 30
4.47
  9
$LIMMIN
 10
0.0
 20
0.0
  9
$LIMMAX
 10
12.0
 20
9.0
  9
$ORTHOMODE
 70
     0
  9
$REGENMODE
 70
     1
  9
$FILLMODE
 70
     1
  9
$QTEXTMODE
 70
     0
  9
$MIRRTEXT
 70
     1
  9
$DRAGMODE
 70
     2
  9
$LTSCALE
 40
1.0
  9
$OSMODE
 70
    37
  9
$ATTMODE
 70
     1
  9
$TEXTSIZE
 40
0.12
  9
$TRACEWID
 40
0.05
  9
$TEXTSTYLE
  7
STANDARD
  9
$CLAYER
  8
0
  9
$CELTYPE
  6
BYLAYER
  9
$CECOLOR
 62
   256
  9
$CELTSCALE
 40
1.0
  9
$DELOBJ
 70
     1
  9
$DISPSILH
 70
     0
  9
$DIMSCALE
 40
1.0
  9
$DIMASZ
 40
0.18
  9
$DIMEXO
 40
0.0625
  9
$DIMDLI
 40
0.375
  9
$DIMRND
 40
0.0
  9
$DIMDLE
 40
0.0
  9
$DIMEXE
 40
0.18
  9
$DIMTP
 40
0.0
  9
$DIMTM
 40
0.0
  9
$DIMTXT
 40
0.18
  9
$DIMCEN
 40
0.09
  9
$DIMTSZ
 40
0.0
  9
$DIMTOL
 70
     0
  9
$DIMLIM
 70
     0
  9
$DIMTIH
 70
     0
  9
$DIMTOH
 70
     1
  9
$DIMSE1
 70
     0
  9
$DIMSE2
 70
     0
  9
$DIMTAD
 70
     0
  9
$DIMZIN
 70
     4
  9
$DIMBLK
  1

  9
$DIMASO
 70
     1
  9
$DIMSHO
 70
     1
  9
$DIMPOST
  1

  9
$DIMAPOST
  1

  9
$DIMALT
 70
     1
  9
$DIMALTD
 70
     2
  9
$DIMALTF
 40
25.4
  9
$DIMLFAC
 40
1.0
  9
$DIMTOFL
 70
     0
  9
$DIMTVP
 40
0.0
  9
$DIMTIX
 70
     0
  9
$DIMSOXD
 70
     0
  9
$DIMSAH
 70
     0
  9
$DIMBLK1
  1

  9
$DIMBLK2
  1

  9
$DIMSTYLE
  2
ABECAD_3D
  9
$DIMCLRD
 70
     0
  9
$DIMCLRE
 70
     0
  9
$DIMCLRT
 70
     0
  9
$DIMTFAC
 40
1.5
  9
$DIMGAP
 40
0.09
  9
$DIMJUST
 70
     0
  9
$DIMSD1
 70
     0
  9
$DIMSD2
 70
     0
  9
$DIMTOLJ
 70
     1
  9
$DIMTZIN
 70
     4
  9
$DIMALTZ
 70
     4
  9
$DIMALTTZ
 70
     4
  9
$DIMFIT
 70
     5
  9
$DIMUPT
 70
     1
  9
$DIMUNIT
 70
     7
  9
$DIMDEC
 70
     6
  9
$DIMTDEC
 70
     6
  9
$DIMALTU
 70
     2
  9
$DIMALTTD
 70
     2
  9
$DIMTXSTY
  7
STANDARD
  9
$DIMAUNIT
 70
     0
  9
$LUNITS
 70
     2
  9
$LUPREC
 70
     4
  9
$SKETCHINC
 40
0.1
  9
$FILLETRAD
 40
0.0
  9
$AUNITS
 70
     0
  9
$AUPREC
 70
     0
  9
$MENU
  1
ACAD
  9
$ELEVATION
 40
0.0
  9
$PELEVATION
 40
0.0
  9
$THICKNESS
 40
0.0
  9
$LIMCHECK
 70
     0
  9
$BLIPMODE
 70
     0
  9
$CHAMFERA
 40
0.0
  9
$CHAMFERB
 40
0.0
  9
$CHAMFERC
 40
0.0
  9
$CHAMFERD
 40
0.0
  9
$SKPOLY
 70
     0
  9
$TDCREATE
 40
2451726.438389120
  9
$TDUPDATE
 40
2452010.484362731
  9
$TDINDWG
 40
0.0756596065
  9
$TDUSRTIMER
 40
0.0756596065
  9
$USRTIMER
 70
     1
  9
$ANGBASE
 50
0.0
  9
$ANGDIR
 70
     0
  9
$PDMODE
 70
     3
  9
$PDSIZE
 40
0.09
  9
$PLINEWID
 40
0.0
  9
$COORDS
 70
     1
  9
$SPLFRAME
 70
     1
  9
$SPLINETYPE
 70
     6
  9
$SPLINESEGS
 70
     8
  9
$ATTDIA
 70
     0
  9
$ATTREQ
 70
     1
  9
$HANDLING
 70
     1
  9
$HANDSEED
  5
4A81D
  9
$SURFTAB1
 70
     6
  9
$SURFTAB2
 70
     6
  9
$SURFTYPE
 70
     6
  9
$SURFU
 70
     6
  9
$SURFV
 70
     6
  9
$UCSNAME
  2

  9
$UCSORG
 10
0.0
 20
0.0
 30
0.0
  9
$UCSXDIR
 10
1.0
 20
0.0
 30
0.0
  9
$UCSYDIR
 10
0.0
 20
1.0
 30
0.0
  9
$PUCSNAME
  2

  9
$PUCSORG
 10
0.0
 20
0.0
 30
0.0
  9
$PUCSXDIR
 10
1.0
 20
0.0
 30
0.0
  9
$PUCSYDIR
 10
0.0
 20
1.0
 30
0.0
  9
$USERI1
 70
     0
  9
$USERI2
 70
     0
  9
$USERI3
 70
     0
  9
$USERI4
 70
     0
  9
$USERI5
 70
     0
  9
$USERR1
 40
0.0
  9
$USERR2
 40
0.0
  9
$USERR3
 40
0.0
  9
$USERR4
 40
0.0
  9
$USERR5
 40
0.0
  9
$WORLDVIEW
 70
     1
  9
$SHADEDGE
 70
     3
  9
$SHADEDIF
 70
    70
  9
$TILEMODE
 70
     1
  9
$MAXACTVP
 70
    16
  9
$PINSBASE
 10
0.0
 20
0.0
 30
0.0
  9
$PLIMCHECK
 70
     0
  9
$PEXTMIN
 10
1.000000E+20
 20
1.000000E+20
 30
1.000000E+20
  9
$PEXTMAX
 10
-1.000000E+20
 20
-1.000000E+20
 30
-1.000000E+20
  9
$PLIMMIN
 10
0.0
 20
0.0
  9
$PLIMMAX
 10
12.0
 20
9.0
  9
$UNITMODE
 70
     0
  9
$VISRETAIN
 70
     0
  9
$PLINEGEN
 70
     0
  9
$PSLTSCALE
 70
     1
  9
$TREEDEPTH
 70
  3020
  9
$PICKSTYLE
 70
     1
  9
$CMLSTYLE
  2
STANDARD
  9
$CMLJUST
 70
     0
  9
$CMLSCALE
 40
1.0
  9
$PROXYGRAPHICS
 70
     1
  9
$MEASUREMENT
 70
     0
  0
ENDSEC
  0
SECTION
  2
CLASSES
  0
CLASS
  1
DICTIONARYVAR
  2
AcDbDictionaryVar
  3
"AutoCAD"
 90
        0
280
     0
281
     0
  0
CLASS
  1
ACDBDICTIONARYWDFLT
  2
AcDbDictionaryWithDefault
  3
AutoCAD 2000
 90
        0
280
     0
281
     0
  0
CLASS
  1
ACDBPLACEHOLDER
  2
AcDbPlaceHolder
  3
AutoCAD 2000
 90
        0
280
     0
281
     0
  0
CLASS
  1
LAYOUT
  2
AcDbLayout
  3
AutoCAD 2000
 90
        0
280
     0
281
     0
  0
CLASS
  1
LONG_TRANSACTION
  2
AcDbLongTransaction
  3
AutoCAD 2000
 90
        0
280
     0
281
     0
  0
CLASS
  1
LWPOLYLINE
  2
AcDbPolyline
  3
"AutoCAD"
 90
        0
280
     0
281
     1
  0
CLASS
  1
HATCH
  2
AcDbHatch
  3
"ACAD_SEDONA"
 90
        0
280
     0
281
     1
  0
CLASS
  1
XRECORD
  2
AcDbXrecord
  3
"<Built In>"
 90
        0
280
     0
281
     0
  0
CLASS
  1
LONG_TRANSACTION
  2
AcDbLongTransaction
  3
AutoCAD 2000
 90
        0
280
     0
281
     0
  0
CLASS
  1
LWPOLYLINE
  2
AcDbPolyline
  3
"AutoCAD"
 90
        0
280
     0
281
     1
  0
CLASS
  1
HATCH
  2
AcDbHatch
  3
"ACAD_SEDONA"
 90
        0
280
     0
281
     1
  0
CLASS
  1
XRECORD
  2
AcDbXrecord
  3
"<Built In>"
 90
        0
280
     0
281
     0
  0
CLASS
  1
LONG_TRANSACTION
  2
AcDbLongTransaction
  3
AutoCAD 2000
 90
        0
280
     0
281
     0
  0
CLASS
  1
LWPOLYLINE
  2
AcDbPolyline
  3
"AutoCAD"
 90
        0
280
     0
281
     1
  0
CLASS
  1
HATCH
  2
AcDbHatch
  3
"ACAD_SEDONA"
 90
        0
280
     0
281
     1
  0
CLASS
  1
XRECORD
  2
AcDbXrecord
  3
"<Built In>"
 90
        0
280
     0
281
     0
  0
CLASS
  1
LONG_TRANSACTION
  2
AcDbLongTransaction
  3
AutoCAD 2000
 90
        0
280
     0
281
     0
  0
CLASS
  1
LWPOLYLINE
  2
AcDbPolyline
  3
"AutoCAD"
 90
        0
280
     0
281
     1
  0
CLASS
  1
HATCH
  2
AcDbHatch
  3
"ACAD_SEDONA"
 90
        0
280
     0
281
     1
  0
CLASS
  1
XRECORD
  2
AcDbXrecord
  3
"<Built In>"
 90
        0
280
     0
281
     0
  0
CLASS
  1
LONG_TRANSACTION
  2
AcDbLongTransaction
  3
AutoCAD 2000
 90
        0
280
     0
281
     0
  0
CLASS
  1
LWPOLYLINE
  2
AcDbPolyline
  3
"AutoCAD"
 90
        0
280
     0
281
     1
  0
CLASS
  1
HATCH
  2
AcDbHatch
  3
"ACAD_SEDONA"
 90
        0
280
     0
281
     1
  0
CLASS
  1
XRECORD
  2
AcDbXrecord
  3
"<Built In>"
 90
        0
280
     0
281
     0
  0
CLASS
  1
LONG_TRANSACTION
  2
AcDbLongTransaction
  3
AutoCAD 2000
 90
        0
280
     0
281
     0
  0
CLASS
  1
LWPOLYLINE
  2
AcDbPolyline
  3
"AutoCAD"
 90
        0
280
     0
281
     1
  0
CLASS
  1
HATCH
  2
AcDbHatch
  3
"ACAD_SEDONA"
 90
        0
280
     0
281
     1
  0
CLASS
  1
XRECORD
  2
AcDbXrecord
  3
"<Built In>"
 90
        0
280
     0
281
     0
  0
CLASS
  1
LONG_TRANSACTION
  2
AcDbLongTransaction
  3
AutoCAD 2000
 90
        0
280
     0
281
     0
  0
CLASS
  1
LWPOLYLINE
  2
AcDbPolyline
  3
"AutoCAD"
 90
        0
280
     0
281
     1
  0
CLASS
  1
HATCH
  2
AcDbHatch
  3
"ACAD_SEDONA"
 90
        0
280
     0
281
     1
  0
CLASS
  1
XRECORD
  2
AcDbXrecord
  3
"<Built In>"
 90
        0
280
     0
281
     0
  0
ENDSEC
  0
SECTION
  2
TABLES
  0
TABLE
  2
VPORT
  5
458C7
100
AcDbSymbolTable
 70
     1
  0
VPORT
  5
4A7EC
102
{ACAD_XDICTIONARY
360
4A7EF
102
}
100
AcDbSymbolTableRecord
100
AcDbViewportTableRecord
  2
*ACTIVE
 70
     0
 10
0.0
 20
0.0
 11
1.0
 21
1.0
 12
-0.530899
 22
-2.771196
 13
0.0
 23
0.0
 14
0.25
 24
0.25
 15
0.25
 25
0.25
 16
0.0
 26
0.0
 36
1.0
 17
0.0
 27
0.0
 37
0.0
 40
8.048007
 41
1.960674
 42
50.0
 43
0.0
 44
0.0
 50
0.0
 51
0.0
 71
     0
 72
 20000
 73
     1
 74
     1
 75
     0
 76
     0
 77
     0
 78
     0
  0
ENDTAB
  0
TABLE
  2
LTYPE
  5
458C4
100
AcDbSymbolTable
 70
     1
  0
LTYPE
  5
458D0
100
AcDbSymbolTableRecord
100
AcDbLinetypeTableRecord
  2
BYBLOCK
 70
     0
  3

 72
    65
 73
     0
 40
0.0
  0
LTYPE
  5
458D1
100
AcDbSymbolTableRecord
100
AcDbLinetypeTableRecord
  2
BYLAYER
 70
     0
  3

 72
    65
 73
     0
 40
0.0
  0
LTYPE
  5
458D2
100
AcDbSymbolTableRecord
100
AcDbLinetypeTableRecord
  2
CONTINUOUS
 70
     0
  3
Solid line
 72
    65
 73
     0
 40
0.0
  0
ENDTAB
  0
TABLE
  2
LAYER
  5
458C1
100
AcDbSymbolTable
 70
     7
  0
LAYER
  5
458CD
100
AcDbSymbolTableRecord
100
AcDbLayerTableRecord
  2
0
 70
     0
 62
     7
  6
CONTINUOUS
  0
LAYER
  5
458EA
100
AcDbSymbolTableRecord
100
AcDbLayerTableRecord
  2
DIMS-MTG-HOLES
 70
     0
 62
     1
  6
CONTINUOUS
  0
LAYER
  5
458EB
100
AcDbSymbolTableRecord
100
AcDbLayerTableRecord
  2
ATTRIBUTES
 70
     0
 62
     7
  6
CONTINUOUS
  0
LAYER
  5
4593B
102
{ACAD_XDICTIONARY
360
4A818
102
}
100
AcDbSymbolTableRecord
100
AcDbLayerTableRecord
  2
AREA1
 70
     0
 62
    -7
  6
CONTINUOUS
  0
LAYER
  5
45940
102
{ACAD_XDICTIONARY
360
4A7ED
102
}
100
AcDbSymbolTableRecord
100
AcDbLayerTableRecord
  2
DEFPOINTS
 70
     0
 62
    -7
  6
CONTINUOUS
  0
LAYER
  5
45954
100
AcDbSymbolTableRecord
100
AcDbLayerTableRecord
  2
SCALE
 70
     0
 62
    -7
  6
CONTINUOUS
  0
LAYER
  5
459D2
100
AcDbSymbolTableRecord
100
AcDbLayerTableRecord
  2
SNAP_POINTS
 70
     0
 62
    -1
  6
CONTINUOUS
  0
ENDTAB
  0
TABLE
  2
STYLE
  5
458C2
100
AcDbSymbolTable
 70
     1
  0
STYLE
  5
458CE
100
AcDbSymbolTableRecord
100
AcDbTextStyleTableRecord
  2
STANDARD
 70
     0
 40
0.0
 41
1.0
 50
0.0
 71
     0
 42
0.12
  3
txt
  4

  0
ENDTAB
  0
TABLE
  2
VIEW
  5
458C5
100
AcDbSymbolTable
 70
     0
  0
ENDTAB
  0
TABLE
  2
UCS
  5
458C6
100
AcDbSymbolTable
 70
     0
  0
ENDTAB
  0
TABLE
  2
APPID
  5
458C8
100
AcDbSymbolTable
 70
     1
  0
APPID
  5
458CF
100
AcDbSymbolTableRecord
100
AcDbRegAppTableRecord
  2
ACAD
 70
     0
  0
ENDTAB
  0
TABLE
  2
DIMSTYLE
  5
458C9
100
AcDbSymbolTable
 70
     1
  0
DIMSTYLE
105
458F6
102
{ACAD_XDICTIONARY
360
4A814
102
}
102
{ACAD_REACTORS
330
4A79F
330
4A7AD
102
}
100
AcDbSymbolTableRecord
100
AcDbDimStyleTableRecord
  2
ABECAD_3D
 70
     0
  3

  4

  5

  6

  7

 40
1.0
 41
0.18
 42
0.0625
 43
0.375
 44
0.18
 45
0.0
 46
0.0
 47
0.0
 48
0.0
140
0.18
141
0.09
142
0.0
143
25.4
144
1.0
145
0.0
146
1.5
147
0.09
 71
     0
 72
     0
 73
     0
 74
     1
 75
     0
 76
     0
 77
     0
 78
     4
170
     1
171
     2
172
     0
173
     0
174
     0
175
     0
176
     0
177
     0
178
     0
270
     7
271
     6
272
     6
273
     2
274
     2
340
458CE
275
     0
280
     0
281
     0
282
     0
283
     1
284
     4
285
     4
286
     4
287
     5
288
     1
  0
ENDTAB
  0
TABLE
  2
BLOCK_RECORD
  5
458C0
100
AcDbSymbolTable
 70
     2
  0
BLOCK_RECORD
  5
458D6
102
{ACAD_XDICTIONARY
360
4592C
102
}
100
AcDbSymbolTableRecord
100
AcDbBlockTableRecord
  2
*MODEL_SPACE
  0
BLOCK_RECORD
  5
458D3
102
{ACAD_XDICTIONARY
360
4592A
102
}
100
AcDbSymbolTableRecord
100
AcDbBlockTableRecord
  2
*PAPER_SPACE
  0
BLOCK_RECORD
  5
4A7A0
100
AcDbSymbolTableRecord
100
AcDbBlockTableRecord
  2
*D0
  0
BLOCK_RECORD
  5
4A7AE
100
AcDbSymbolTableRecord
100
AcDbBlockTableRecord
  2
*D1
  0
ENDTAB
  0
ENDSEC
  0
SECTION
  2
BLOCKS
  0
BLOCK
  5
458DF
100
AcDbEntity
  8
0
100
AcDbBlockBegin
  2
*MODEL_SPACE
 70
     0
 10
0.0
 20
0.0
 30
0.0
  3
*MODEL_SPACE
  1

  0
ENDBLK
  5
458E0
100
AcDbEntity
  8
0
100
AcDbBlockEnd
  0
BLOCK
  5
458DD
100
AcDbEntity
 67
     1
  8
0
100
AcDbBlockBegin
  2
*PAPER_SPACE
 70
     0
 10
0.0
 20
0.0
 30
0.0
  3
*PAPER_SPACE
  1

  0
ENDBLK
  5
458DE
100
AcDbEntity
 67
     1
  8
0
100
AcDbBlockEnd
  0
BLOCK
  5
4A7AB
100
AcDbEntity
  8
0
100
AcDbBlockBegin
  2
*D0
 70
     1
 10
0.0
 20
0.0
 30
0.0
  3
*D0
  1

  0
LINE
  5
4A7A1
100
AcDbEntity
  8
AREA1
 62
     0
100
AcDbLine
 10
-1.8425
 20
-5.72
 30
0.0
 11
-2.842176
 21
-5.72
 31
0.0
1001
ACAD
1000
RTLwPs
1070
   158
  0
LINE
  5
4A7A2
100
AcDbEntity
  8
AREA1
 62
     0
100
AcDbLine
 10
-1.2225
 20
0.28
 30
0.0
 11
-2.842176
 21
0.28
 31
0.0
1001
ACAD
1000
RTLwPs
1070
   158
  0
LINE
  5
4A7A3
100
AcDbEntity
  8
AREA1
 62
     0
100
AcDbLine
 10
-2.662176
 20
-5.54
 30
0.0
 11
-2.662176
 21
-3.515
 31
0.0
1001
ACAD
1000
RTLwPs
1070
   158
  0
LINE
  5
4A7A4
100
AcDbEntity
  8
AREA1
 62
     0
100
AcDbLine
 10
-2.662176
 20
0.1
 30
0.0
 11
-2.662176
 21
-1.925
 31
0.0
1001
ACAD
1000
RTLwPs
1070
   158
  0
MTEXT
  5
4A7A5
100
AcDbEntity
  8
AREA1
 62
     0
100
AcDbMText
 10
-2.662176
 20
-2.72
 30
0.0
 40
0.18
 41
0.0
 71
     5
 72
     1
  1
\A1;6 [152.40]
 11
0.0
 21
1.0
 31
0.0
1001
ACAD
1000
MTEXTBEGIN
1070
    73
1070
     1
1070
    44
1040
1.0
1070
    74
1070
     0
1000
MTEXTEND
1000
MTEXTBEGIN
1070
    73
1070
     1
1070
    44
1040
1.0
1070
    74
1070
     0
1000
MTEXTEND
  0
SOLID
  5
4A7A6
100
AcDbEntity
  8
AREA1
 62
     0
100
AcDbTrace
 10
-2.692176
 20
-5.54
 30
0.0
 11
-2.632176
 21
-5.54
 31
0.0
 12
-2.662176
 22
-5.72
 32
0.0
 13
-2.662176
 23
-5.72
 33
0.0
  0
SOLID
  5
4A7A7
100
AcDbEntity
  8
AREA1
 62
     0
100
AcDbTrace
 10
-2.692176
 20
0.1
 30
0.0
 11
-2.632176
 21
0.1
 31
0.0
 12
-2.662176
 22
0.28
 32
0.0
 13
-2.662176
 23
0.28
 33
0.0
  0
POINT
  5
4A7A8
100
AcDbEntity
  8
DEFPOINTS
 62
     0
100
AcDbPoint
 10
-1.78
 20
-5.72
 30
0.0
  0
POINT
  5
4A7A9
100
AcDbEntity
  8
DEFPOINTS
 62
     0
100
AcDbPoint
 10
-1.16
 20
0.28
 30
0.0
  0
POINT
  5
4A7AA
100
AcDbEntity
  8
DEFPOINTS
 62
     0
100
AcDbPoint
 10
-2.662176
 20
0.28
 30
0.0
  0
ENDBLK
  5
4A7AC
100
AcDbEntity
  8
0
100
AcDbBlockEnd
  0
BLOCK
  5
4A7B9
100
AcDbEntity
  8
0
100
AcDbBlockBegin
  2
*D1
 70
     1
 10
0.0
 20
0.0
 30
0.0
  3
*D1
  1

  0
LINE
  5
4A7AF
100
AcDbEntity
  8
AREA1
 62
     0
100
AcDbLine
 10
-1.78
 20
-0.2775
 30
0.0
 11
-1.78
 21
1.185637
 31
0.0
1001
ACAD
1000
RTLwPs
1070
   158
  0
LINE
  5
4A7B0
100
AcDbEntity
  8
AREA1
 62
     0
100
AcDbLine
 10
1.78
 20
-0.2775
 30
0.0
 11
1.78
 21
1.185637
 31
0.0
1001
ACAD
1000
RTLwPs
1070
   158
  0
LINE
  5
4A7B1
100
AcDbEntity
  8
AREA1
 62
     0
100
AcDbLine
 10
-1.6
 20
1.005637
 30
0.0
 11
-1.114294
 21
1.005637
 31
0.0
1001
ACAD
1000
RTLwPs
1070
   158
  0
LINE
  5
4A7B2
100
AcDbEntity
  8
AREA1
 62
     0
100
AcDbLine
 10
1.6
 20
1.005637
 30
0.0
 11
1.195706
 21
1.005637
 31
0.0
1001
ACAD
1000
RTLwPs
1070
   158
  0
MTEXT
  5
4A7B3
100
AcDbEntity
  8
AREA1
 62
     0
100
AcDbMText
 10
0.040706
 20
1.005637
 30
0.0
 40
0.18
 41
0.0
 71
     5
 72
     1
  1
\A1;3 9/16 [90.42]
1001
ACAD
1000
MTEXTBEGIN
1070
    73
1070
     1
1070
    44
1040
1.0
1070
    74
1070
     0
1000
MTEXTEND
1000
MTEXTBEGIN
1070
    73
1070
     1
1070
    44
1040
1.0
1070
    74
1070
     0
1000
MTEXTEND
  0
SOLID
  5
4A7B4
100
AcDbEntity
  8
AREA1
 62
     0
100
AcDbTrace
 10
-1.6
 20
1.035637
 30
0.0
 11
-1.6
 21
0.975637
 31
0.0
 12
-1.78
 22
1.005637
 32
0.0
 13
-1.78
 23
1.005637
 33
0.0
  0
SOLID
  5
4A7B5
100
AcDbEntity
  8
AREA1
 62
     0
100
AcDbTrace
 10
1.6
 20
1.035637
 30
0.0
 11
1.6
 21
0.975637
 31
0.0
 12
1.78
 22
1.005637
 32
0.0
 13
1.78
 23
1.005637
 33
0.0
  0
POINT
  5
4A7B6
100
AcDbEntity
  8
DEFPOINTS
 62
     0
100
AcDbPoint
 10
-1.78
 20
-0.34
 30
0.0
  0
POINT
  5
4A7B7
100
AcDbEntity
  8
DEFPOINTS
 62
     0
100
AcDbPoint
 10
1.78
 20
-0.34
 30
0.0
  0
POINT
  5
4A7B8
100
AcDbEntity
  8
DEFPOINTS
 62
     0
100
AcDbPoint
 10
1.78
 20
1.005637
 30
0.0
  0
ENDBLK
  5
4A7BA
100
AcDbEntity
  8
0
100
AcDbBlockEnd
  0
ENDSEC
  0
SECTION
  2
ENTITIES
  0
CIRCLE
  5
4A5CD
100
AcDbEntity
  8
0
100
AcDbCircle
 10
-1.06
 20
-5.025
 30
1.81
 40
0.19
  0
LINE
  5
4A5CE
100
AcDbEntity
  8
0
100
AcDbLine
 10
-1.31
 20
-4.82
 30
1.62
 11
-0.81
 21
-4.82
 31
1.62
  0
LINE
  5
4A5CF
100
AcDbEntity
  8
0
100
AcDbLine
 10
-0.81
 20
-5.23
 30
1.62
 11
-1.31
 21
-5.23
 31
1.62
  0
LINE
  5
4A5D0
100
AcDbEntity
  8
0
100
AcDbLine
 10
-0.81
 20
-5.23
 30
1.81
 11
-1.31
 21
-5.23
 31
1.81
  0
3DFACE
  5
4A5D1
100
AcDbEntity
  8
0
100
AcDbFace
 10
-0.81
 20
-5.23
 30
1.81
 11
-0.81
 21
-5.23
 31
1.62
 12
-1.31
 22
-5.23
 32
1.62
 13
-1.31
 23
-5.23
 33
1.81
  0
3DFACE
  5
4A5D2
100
AcDbEntity
  8
0
100
AcDbFace
 10
-0.81
 20
-4.82
 30
1.81
 11
-1.31
 21
-4.82
 31
1.81
 12
-1.31
 22
-5.23
 32
1.81
 13
-0.81
 23
-5.23
 33
1.81
  0
LINE
  5
4A5D3
100
AcDbEntity
  8
0
100
AcDbLine
 10
-1.31
 20
-5.23
 30
1.81
 11
-1.31
 21
-4.82
 31
1.81
  0
LINE
  5
4A5D4
100
AcDbEntity
  8
0
100
AcDbLine
 10
-1.31
 20
-5.23
 30
1.62
 11
-1.31
 21
-4.82
 31
1.62
  0
3DFACE
  5
4A5D5
100
AcDbEntity
  8
0
100
AcDbFace
 10
-1.31
 20
-4.82
 30
1.81
 11
-1.31
 21
-5.23
 31
1.81
 12
-1.31
 22
-5.23
 32
1.62
 13
-1.31
 23
-4.82
 33
1.62
  0
3DFACE
  5
4A5D6
100
AcDbEntity
  8
0
100
AcDbFace
 10
-1.31
 20
-5.23
 30
1.81
 11
-1.31
 21
-4.82
 31
1.81
 12
-1.31
 22
-4.82
 32
1.62
 13
-1.31
 23
-5.23
 33
1.62
 70
    14
  0
LINE
  5
4A5D7
100
AcDbEntity
  8
0
100
AcDbLine
 10
-1.31
 20
-5.23
 30
1.62
 11
-1.31
 21
-5.23
 31
1.81
  0
CIRCLE
  5
4A5D8
100
AcDbEntity
  8
0
100
AcDbCircle
 10
0.0
 20
-5.025
 30
1.81
 40
0.19
  0
LINE
  5
4A5D9
100
AcDbEntity
  8
0
100
AcDbLine
 10
-0.25
 20
-4.82
 30
1.81
 11
0.25
 21
-4.82
 31
1.81
  0
LINE
  5
4A5DA
100
AcDbEntity
  8
0
100
AcDbLine
 10
0.25
 20
-5.23
 30
1.81
 11
-0.25
 21
-5.23
 31
1.81
  0
3DFACE
  5
4A5DB
100
AcDbEntity
  8
0
100
AcDbFace
 10
-0.25
 20
-5.23
 30
1.81
 11
-0.25
 21
-4.82
 31
1.81
 12
0.25
 22
-4.82
 32
1.81
 13
0.25
 23
-5.23
 33
1.81
  0
LINE
  5
4A5DC
100
AcDbEntity
  8
0
100
AcDbLine
 10
0.25
 20
-5.23
 30
1.62
 11
-0.25
 21
-5.23
 31
1.62
  0
LINE
  5
4A5DD
100
AcDbEntity
  8
0
100
AcDbLine
 10
-0.25
 20
-4.82
 30
1.62
 11
0.25
 21
-4.82
 31
1.62
  0
3DFACE
  5
4A5DE
100
AcDbEntity
  8
0
100
AcDbFace
 10
-0.25
 20
-5.23
 30
1.81
 11
0.25
 21
-5.23
 31
1.81
 12
0.25
 22
-5.23
 32
1.62
 13
-0.25
 23
-5.23
 33
1.62
  0
3DFACE
  5
4A5DF
100
AcDbEntity
  8
0
100
AcDbFace
 10
-0.81
 20
-5.23
 30
1.81
 11
-0.81
 21
-4.82
 31
1.81
 12
-0.81
 22
-4.82
 32
1.62
 13
-0.81
 23
-5.23
 33
1.62
  0
LINE
  5
4A5E0
100
AcDbEntity
  8
0
100
AcDbLine
 10
-0.25
 20
-5.23
 30
1.81
 11
-0.25
 21
-4.82
 31
1.81
  0
LINE
  5
4A5E1
100
AcDbEntity
  8
0
100
AcDbLine
 10
-0.25
 20
-5.23
 30
1.62
 11
-0.25
 21
-4.82
 31
1.62
  0
3DFACE
  5
4A5E2
100
AcDbEntity
  8
0
100
AcDbFace
 10
-0.25
 20
-4.82
 30
1.81
 11
-0.25
 21
-5.23
 31
1.81
 12
-0.25
 22
-5.23
 32
1.62
 13
-0.25
 23
-4.82
 33
1.62
  0
LINE
  5
4A5E3
100
AcDbEntity
  8
0
100
AcDbLine
 10
-0.25
 20
-5.23
 30
1.62
 11
-0.25
 21
-5.23
 31
1.81
  0
LINE
  5
4A5E4
100
AcDbEntity
  8
0
100
AcDbLine
 10
-0.25
 20
-5.23
 30
1.62
 11
-0.25
 21
-5.23
 31
1.81
  0
LINE
  5
4A5E5
100
AcDbEntity
  8
0
100
AcDbLine
 10
-0.25
 20
-4.82
 30
1.62
 11
-0.25
 21
-4.82
 31
1.81
  0
LINE
  5
4A5E6
100
AcDbEntity
  8
0
100
AcDbLine
 10
-0.25
 20
-4.82
 30
1.62
 11
-0.25
 21
-4.82
 31
1.81
  0
LINE
  5
4A5E7
100
AcDbEntity
  8
0
100
AcDbLine
 10
0.25
 20
-4.82
 30
1.81
 11
0.25
 21
-5.23
 31
1.81
  0
LINE
  5
4A5E8
100
AcDbEntity
  8
0
100
AcDbLine
 10
0.25
 20
-4.82
 30
1.62
 11
0.25
 21
-5.23
 31
1.62
  0
LINE
  5
4A5E9
100
AcDbEntity
  8
0
100
AcDbLine
 10
0.25
 20
-5.23
 30
1.62
 11
0.25
 21
-5.23
 31
1.81
  0
LINE
  5
4A5EA
100
AcDbEntity
  8
0
100
AcDbLine
 10
0.25
 20
-4.82
 30
1.62
 11
0.25
 21
-4.82
 31
1.81
  0
CIRCLE
  5
4A5EB
100
AcDbEntity
  8
0
100
AcDbCircle
 10
1.06
 20
-5.025
 30
1.81
 40
0.19
  0
LINE
  5
4A5EC
100
AcDbEntity
  8
0
100
AcDbLine
 10
0.81
 20
-4.82
 30
1.81
 11
1.31
 21
-4.82
 31
1.81
  0
LINE
  5
4A5ED
100
AcDbEntity
  8
0
100
AcDbLine
 10
1.31
 20
-5.23
 30
1.81
 11
0.81
 21
-5.23
 31
1.81
  0
3DFACE
  5
4A5EE
100
AcDbEntity
  8
0
100
AcDbFace
 10
0.81
 20
-5.23
 30
1.81
 11
1.31
 21
-5.23
 31
1.81
 12
1.31
 22
-4.82
 32
1.81
 13
0.81
 23
-4.82
 33
1.81
  0
LINE
  5
4A5EF
100
AcDbEntity
  8
0
100
AcDbLine
 10
0.81
 20
-4.82
 30
1.62
 11
1.31
 21
-4.82
 31
1.62
  0
LINE
  5
4A5F0
100
AcDbEntity
  8
0
100
AcDbLine
 10
1.31
 20
-5.23
 30
1.62
 11
0.81
 21
-5.23
 31
1.62
  0
3DFACE
  5
4A5F1
100
AcDbEntity
  8
0
100
AcDbFace
 10
1.31
 20
-5.23
 30
1.81
 11
0.81
 21
-5.23
 31
1.81
 12
0.81
 22
-5.23
 32
1.62
 13
1.31
 23
-5.23
 33
1.62
  0
LINE
  5
4A5F2
100
AcDbEntity
  8
0
100
AcDbLine
 10
0.81
 20
-5.23
 30
1.81
 11
0.81
 21
-4.82
 31
1.81
  0
LINE
  5
4A5F3
100
AcDbEntity
  8
0
100
AcDbLine
 10
0.81
 20
-5.23
 30
1.62
 11
0.81
 21
-4.82
 31
1.62
  0
3DFACE
  5
4A5F4
100
AcDbEntity
  8
0
100
AcDbFace
 10
0.81
 20
-4.82
 30
1.81
 11
0.81
 21
-5.23
 31
1.81
 12
0.81
 22
-5.23
 32
1.62
 13
0.81
 23
-4.82
 33
1.62
  0
LINE
  5
4A5F5
100
AcDbEntity
  8
0
100
AcDbLine
 10
0.81
 20
-5.23
 30
1.62
 11
0.81
 21
-5.23
 31
1.81
  0
LINE
  5
4A5F6
100
AcDbEntity
  8
0
100
AcDbLine
 10
0.81
 20
-4.82
 30
1.62
 11
0.81
 21
-4.82
 31
1.81
  0
LINE
  5
4A5F7
100
AcDbEntity
  8
0
100
AcDbLine
 10
1.31
 20
-4.82
 30
1.81
 11
1.31
 21
-5.23
 31
1.81
  0
LINE
  5
4A5F8
100
AcDbEntity
  8
0
100
AcDbLine
 10
1.31
 20
-4.82
 30
1.62
 11
1.31
 21
-5.23
 31
1.62
  0
3DFACE
  5
4A5F9
100
AcDbEntity
  8
0
100
AcDbFace
 10
1.31
 20
-4.82
 30
1.81
 11
1.31
 21
-5.23
 31
1.81
 12
1.31
 22
-5.23
 32
1.62
 13
1.31
 23
-4.82
 33
1.62
  0
LINE
  5
4A5FA
100
AcDbEntity
  8
0
100
AcDbLine
 10
1.31
 20
-5.23
 30
1.62
 11
1.31
 21
-5.23
 31
1.81
  0
LINE
  5
4A5FB
100
AcDbEntity
  8
0
100
AcDbLine
 10
1.31
 20
-4.82
 30
1.62
 11
1.31
 21
-4.82
 31
1.81
  0
ARC
  5
4A5FC
100
AcDbEntity
  8
0
100
AcDbCircle
 10
0.0
 20
0.0
 30
0.19
 40
0.1015
100
AcDbArc
 50
0.0
 51
179.999985
  0
ARC
  5
4A5FD
100
AcDbEntity
  8
0
100
AcDbCircle
 10
0.0
 20
-0.343
 30
0.19
 40
0.234
100
AcDbArc
 50
115.70649
 51
64.293579
  0
ARC
  5
4A5FE
100
AcDbEntity
  8
0
100
AcDbCircle
 10
0.0
 20
-0.343
 30
0.0
 40
0.234
100
AcDbArc
 50
115.70649
 51
64.293579
  0
ARC
  5
4A5FF
100
AcDbEntity
  8
0
100
AcDbCircle
 10
0.0
 20
0.0
 30
0.0
 40
0.1015
100
AcDbArc
 50
0.0
 51
179.999985
  0
LINE
  5
4A600
100
AcDbEntity
  8
0
100
AcDbLine
 10
-1.475
 20
-5.5
 30
0.0
 11
-1.475
 21
-5.72
 31
0.0
  0
LINE
  5
4A601
100
AcDbEntity
  8
0
100
AcDbLine
 10
-1.475
 20
-5.5
 30
0.19
 11
-1.475
 21
-5.72
 31
0.19
  0
LINE
  5
4A602
100
AcDbEntity
  8
0
100
AcDbLine
 10
-1.275
 20
-5.72
 30
0.0
 11
-1.275
 21
-5.5
 31
0.0
  0
LINE
  5
4A603
100
AcDbEntity
  8
0
100
AcDbLine
 10
-1.275
 20
-5.72
 30
0.19
 11
-1.275
 21
-5.5
 31
0.19
  0
LINE
  5
4A604
100
AcDbEntity
  8
0
100
AcDbLine
 10
-1.275
 20
-5.72
 30
0.0
 11
-1.275
 21
-5.72
 31
0.19
  0
LINE
  5
4A605
100
AcDbEntity
  8
0
100
AcDbLine
 10
-1.475
 20
-5.72
 30
0.0
 11
-1.475
 21
-5.72
 31
0.19
  0
LINE
  5
4A606
100
AcDbEntity
  8
0
100
AcDbLine
 10
-1.475
 20
-5.5
 30
0.0
 11
-1.475
 21
-5.5
 31
0.19
  0
LINE
  5
4A607
100
AcDbEntity
  8
0
100
AcDbLine
 10
-1.275
 20
-5.5
 30
0.0
 11
-1.275
 21
-5.5
 31
0.19
  0
ARC
  5
4A608
100
AcDbEntity
  8
0
100
AcDbCircle
 10
-1.375
 20
-5.5
 30
0.0
 40
0.1
100
AcDbArc
 50
0.0
 51
179.999985
  0
ARC
  5
4A609
100
AcDbEntity
  8
0
100
AcDbCircle
 10
-1.375
 20
-5.5
 30
0.19
 40
0.1
100
AcDbArc
 50
0.0
 51
179.999985
  0
LINE
  5
4A60A
100
AcDbEntity
  8
0
100
AcDbLine
 10
-0.579326
 20
-2.855015
 30
4.47
 11
-0.46471
 21
-3.005138
 31
4.47
  0
LINE
  5
4A60B
100
AcDbEntity
  8
0
100
AcDbLine
 10
-0.595515
 20
-2.871205
 30
4.47
 11
-0.480899
 21
-3.021327
 31
4.47
  0
CIRCLE
  5
4A60C
100
AcDbEntity
  8
0
100
AcDbCircle
 10
-0.53
 20
-2.94
 30
4.47
 40
0.095
  0
LINE
  5
4A60D
100
AcDbEntity
  8
0
100
AcDbLine
 10
-1.16
 20
0.28
 30
0.19
 11
-0.97
 21
0.28
 31
0.19
  0
LINE
  5
4A60E
100
AcDbEntity
  8
0
100
AcDbLine
 10
-1.16
 20
0.28
 30
0.0
 11
-0.97
 21
0.28
 31
0.0
  0
3DFACE
  5
4A60F
100
AcDbEntity
  8
0
100
AcDbFace
 10
-0.97
 20
0.28
 30
0.19
 11
-1.16
 21
0.28
 31
0.19
 12
-1.16
 22
0.28
 32
0.0
 13
-0.97
 23
0.28
 33
0.0
 70
    14
  0
LINE
  5
4A610
100
AcDbEntity
  8
0
100
AcDbLine
 10
-1.78
 20
-0.34
 30
0.0
 11
-1.78
 21
-0.34
 31
0.19
  0
3DFACE
  5
4A611
100
AcDbEntity
  8
0
100
AcDbFace
 10
-0.38
 20
0.0
 30
0.19
 11
-0.87
 21
0.0
 31
0.19
 12
-0.87
 22
0.0
 32
0.0
 13
-0.38
 23
0.0
 33
0.0
 70
    14
  0
LINE
  5
4A612
100
AcDbEntity
  8
0
100
AcDbLine
 10
-0.87
 20
0.0
 30
0.19
 11
-0.38
 21
0.0
 31
0.19
  0
LINE
  5
4A613
100
AcDbEntity
  8
0
100
AcDbLine
 10
-0.87
 20
0.0
 30
0.0
 11
-0.38
 21
0.0
 31
0.0
  0
3DFACE
  5
4A614
100
AcDbEntity
  8
0
100
AcDbFace
 10
-0.87
 20
0.0
 30
0.19
 11
-0.97
 21
0.28
 31
0.19
 12
-0.97
 22
0.28
 32
0.0
 13
-0.87
 23
0.0
 33
0.0
 70
    14
  0
LINE
  5
4A615
100
AcDbEntity
  8
0
100
AcDbLine
 10
-0.97
 20
0.28
 30
0.19
 11
-0.87
 21
0.0
 31
0.19
  0
LINE
  5
4A616
100
AcDbEntity
  8
0
100
AcDbLine
 10
-0.97
 20
0.28
 30
0.0
 11
-0.87
 21
0.0
 31
0.0
  0
LINE
  5
4A617
100
AcDbEntity
  8
0
100
AcDbLine
 10
-0.87
 20
0.0
 30
0.0
 11
-0.87
 21
0.0
 31
0.19
  0
LINE
  5
4A618
100
AcDbEntity
  8
0
100
AcDbLine
 10
-0.97
 20
0.28
 30
0.0
 11
-0.97
 21
0.28
 31
0.19
  0
LINE
  5
4A619
100
AcDbEntity
  8
0
100
AcDbLine
 10
-0.38
 20
0.0
 30
0.19
 11
-0.28
 21
0.28
 31
0.19
  0
LINE
  5
4A61A
100
AcDbEntity
  8
0
100
AcDbLine
 10
-0.38
 20
0.0
 30
0.0
 11
-0.28
 21
0.28
 31
0.0
  0
LINE
  5
4A61B
100
AcDbEntity
  8
0
100
AcDbLine
 10
-0.38
 20
0.0
 30
0.0
 11
-0.38
 21
0.0
 31
0.19
  0
LINE
  5
4A61C
100
AcDbEntity
  8
0
100
AcDbLine
 10
-0.1015
 20
0.0
 30
0.0
 11
-0.1015
 21
0.0
 31
0.19
  0
LINE
  5
4A61D
100
AcDbEntity
  8
0
100
AcDbLine
 10
-0.1015
 20
-0.132159
 30
0.0
 11
-0.1015
 21
-0.132159
 31
0.19
  0
LINE
  5
4A61E
100
AcDbEntity
  8
0
100
AcDbLine
 10
-0.1015
 20
0.0
 30
0.0
 11
-0.1015
 21
-0.132159
 31
0.0
  0
LINE
  5
4A61F
100
AcDbEntity
  8
0
100
AcDbLine
 10
-0.1015
 20
0.0
 30
0.19
 11
-0.1015
 21
-0.132159
 31
0.19
  0
3DFACE
  5
4A620
100
AcDbEntity
  8
0
100
AcDbFace
 10
1.475
 20
-5.5
 30
0.19
 11
1.475
 21
-5.72
 31
0.19
 12
1.475
 22
-5.72
 32
0.0
 13
1.475
 23
-5.5
 33
0.0
 70
    14
  0
LINE
  5
4A621
100
AcDbEntity
  8
0
100
AcDbLine
 10
1.475
 20
-5.72
 30
0.0
 11
1.475
 21
-5.5
 31
0.0
  0
LINE
  5
4A622
100
AcDbEntity
  8
0
100
AcDbLine
 10
1.275
 20
-5.5
 30
0.0
 11
1.275
 21
-5.72
 31
0.0
  0
LINE
  5
4A623
100
AcDbEntity
  8
0
100
AcDbLine
 10
1.275
 20
-5.5
 30
0.19
 11
1.275
 21
-5.72
 31
0.19
  0
LINE
  5
4A624
100
AcDbEntity
  8
0
100
AcDbLine
 10
1.475
 20
-5.72
 30
0.19
 11
1.475
 21
-5.5
 31
0.19
  0
LINE
  5
4A625
100
AcDbEntity
  8
0
100
AcDbLine
 10
1.475
 20
-5.72
 30
0.0
 11
1.475
 21
-5.72
 31
0.19
  0
LINE
  5
4A626
100
AcDbEntity
  8
0
100
AcDbLine
 10
1.275
 20
-5.72
 30
0.0
 11
1.275
 21
-5.72
 31
0.19
  0
LINE
  5
4A627
100
AcDbEntity
  8
0
100
AcDbLine
 10
1.475
 20
-5.5
 30
0.0
 11
1.475
 21
-5.5
 31
0.19
  0
LINE
  5
4A628
100
AcDbEntity
  8
0
100
AcDbLine
 10
1.275
 20
-5.5
 30
0.0
 11
1.275
 21
-5.5
 31
0.19
  0
ARC
  5
4A629
100
AcDbEntity
  8
0
100
AcDbCircle
 10
1.375
 20
-5.5
 30
0.0
 40
0.1
100
AcDbArc
 50
0.0
 51
179.999985
  0
ARC
  5
4A62A
100
AcDbEntity
  8
0
100
AcDbCircle
 10
1.375
 20
-5.5
 30
0.0
 40
0.1
100
AcDbArc
 50
0.0
 51
179.999985
  0
ARC
  5
4A62B
100
AcDbEntity
  8
0
100
AcDbCircle
 10
1.375
 20
-5.5
 30
0.19
 40
0.1
100
AcDbArc
 50
0.0
 51
179.999985
  0
LINE
  5
4A62C
100
AcDbEntity
  8
0
100
AcDbLine
 10
0.480674
 20
-2.855015
 30
4.47
 11
0.59529
 21
-3.005138
 31
4.47
  0
LINE
  5
4A62D
100
AcDbEntity
  8
0
100
AcDbLine
 10
0.464485
 20
-2.871205
 30
4.47
 11
0.5791
 21
-3.021327
 31
4.47
  0
CIRCLE
  5
4A62E
100
AcDbEntity
  8
0
100
AcDbCircle
 10
0.53
 20
-2.94
 30
4.47
 40
0.095
  0
CIRCLE
  5
4A62F
100
AcDbEntity
  8
0
100
AcDbCircle
 10
0.38
 20
0.0
 30
0.19
 40
0.1
  0
CIRCLE
  5
4A630
100
AcDbEntity
  8
0
100
AcDbCircle
 10
0.38
 20
0.0
 30
0.0
 40
0.1
  0
LINE
  5
4A631
100
AcDbEntity
  8
0
100
AcDbLine
 10
0.48
 20
0.0
 30
0.0
 11
0.48
 21
0.0
 31
0.19
  0
LINE
  5
4A632
100
AcDbEntity
  8
0
100
AcDbLine
 10
0.1015
 20
0.0
 30
0.0
 11
0.1015
 21
0.0
 31
0.19
  0
LINE
  5
4A633
100
AcDbEntity
  8
0
100
AcDbLine
 10
0.1015
 20
-0.132159
 30
0.0
 11
0.1015
 21
-0.132159
 31
0.19
  0
LINE
  5
4A634
100
AcDbEntity
  8
0
100
AcDbLine
 10
0.1015
 20
0.0
 30
0.0
 11
0.1015
 21
-0.132159
 31
0.0
  0
LINE
  5
4A635
100
AcDbEntity
  8
0
100
AcDbLine
 10
0.1015
 20
0.0
 30
0.19
 11
0.1015
 21
-0.132159
 31
0.19
  0
CIRCLE
  5
4A636
100
AcDbEntity
  8
0
100
AcDbCircle
 10
1.06
 20
-0.795
 30
4.28
 40
0.19
  0
POLYLINE
  5
4A637
100
AcDbEntity
  8
0
100
AcDbPolygonMesh
 66
     1
 10
0.0
 20
0.0
 30
0.0
 70
    16
 71
     6
 72
     3
  0
VERTEX
  5
4A638
100
AcDbEntity
  8
0
100
AcDbVertex
100
AcDbPolygonMeshVertex
 10
0.94
 20
-3.47
 30
4.0
 70
    64
  0
VERTEX
  5
4A639
100
AcDbEntity
  8
0
100
AcDbVertex
100
AcDbPolygonMeshVertex
 10
0.94
 20
-3.47
 30
3.63
 70
    64
  0
VERTEX
  5
4A63A
100
AcDbEntity
  8
0
100
AcDbVertex
100
AcDbPolygonMeshVertex
 10
0.94
 20
-3.47
 30
3.63
 70
    64
  0
VERTEX
  5
4A63B
100
AcDbEntity
  8
0
100
AcDbVertex
100
AcDbPolygonMeshVertex
 10
-0.94
 20
-3.47
 30
4.0
 70
    64
  0
VERTEX
  5
4A63C
100
AcDbEntity
  8
0
100
AcDbVertex
100
AcDbPolygonMeshVertex
 10
-0.94
 20
-3.47
 30
3.63
 70
    64
  0
VERTEX
  5
4A63D
100
AcDbEntity
  8
0
100
AcDbVertex
100
AcDbPolygonMeshVertex
 10
-0.94
 20
-3.47
 30
3.63
 70
    64
  0
VERTEX
  5
4A63E
100
AcDbEntity
  8
0
100
AcDbVertex
100
AcDbPolygonMeshVertex
 10
-0.94
 20
-2.63
 30
4.0
 70
    64
  0
VERTEX
  5
4A63F
100
AcDbEntity
  8
0
100
AcDbVertex
100
AcDbPolygonMeshVertex
 10
-0.94
 20
-2.63
 30
3.63
 70
    64
  0
VERTEX
  5
4A640
100
AcDbEntity
  8
0
100
AcDbVertex
100
AcDbPolygonMeshVertex
 10
-0.94
 20
-3.47
 30
3.63
 70
    64
  0
VERTEX
  5
4A641
100
AcDbEntity
  8
0
100
AcDbVertex
100
AcDbPolygonMeshVertex
 10
0.94
 20
-2.63
 30
4.0
 70
    64
  0
VERTEX
  5
4A642
100
AcDbEntity
  8
0
100
AcDbVertex
100
AcDbPolygonMeshVertex
 10
0.94
 20
-2.63
 30
3.63
 70
    64
  0
VERTEX
  5
4A643
100
AcDbEntity
  8
0
100
AcDbVertex
100
AcDbPolygonMeshVertex
 10
0.94
 20
-3.47
 30
3.63
 70
    64
  0
VERTEX
  5
4A644
100
AcDbEntity
  8
0
100
AcDbVertex
100
AcDbPolygonMeshVertex
 10
0.94
 20
-2.63
 30
4.0
 70
    64
  0
VERTEX
  5
4A645
100
AcDbEntity
  8
0
100
AcDbVertex
100
AcDbPolygonMeshVertex
 10
0.94
 20
-2.63
 30
4.0
 70
    64
  0
VERTEX
  5
4A646
100
AcDbEntity
  8
0
100
AcDbVertex
100
AcDbPolygonMeshVertex
 10
0.94
 20
-3.47
 30
4.0
 70
    64
  0
VERTEX
  5
4A647
100
AcDbEntity
  8
0
100
AcDbVertex
100
AcDbPolygonMeshVertex
 10
-0.94
 20
-2.63
 30
4.0
 70
    64
  0
VERTEX
  5
4A648
100
AcDbEntity
  8
0
100
AcDbVertex
100
AcDbPolygonMeshVertex
 10
-0.94
 20
-2.63
 30
4.0
 70
    64
  0
VERTEX
  5
4A649
100
AcDbEntity
  8
0
100
AcDbVertex
100
AcDbPolygonMeshVertex
 10
-0.94
 20
-3.47
 30
4.0
 70
    64
  0
SEQEND
  5
4A64A
100
AcDbEntity
  8
0
  0
POLYLINE
  5
4A64B
100
AcDbEntity
  8
0
100
AcDbPolygonMesh
 66
     1
 10
0.0
 20
0.0
 30
0.0
 70
    16
 71
     6
 72
     3
  0
VERTEX
  5
4A64C
100
AcDbEntity
  8
0
100
AcDbVertex
100
AcDbPolygonMeshVertex
 10
0.75
 20
-3.07
 30
4.47
 70
    64
  0
VERTEX
  5
4A64D
100
AcDbEntity
  8
0
100
AcDbVertex
100
AcDbPolygonMeshVertex
 10
0.75
 20
-3.07
 30
4.0
 70
    64
  0
VERTEX
  5
4A64E
100
AcDbEntity
  8
0
100
AcDbVertex
100
AcDbPolygonMeshVertex
 10
0.75
 20
-3.07
 30
4.0
 70
    64
  0
VERTEX
  5
4A64F
100
AcDbEntity
  8
0
100
AcDbVertex
100
AcDbPolygonMeshVertex
 10
0.31
 20
-3.07
 30
4.47
 70
    64
  0
VERTEX
  5
4A650
100
AcDbEntity
  8
0
100
AcDbVertex
100
AcDbPolygonMeshVertex
 10
0.31
 20
-3.07
 30
4.0
 70
    64
  0
VERTEX
  5
4A651
100
AcDbEntity
  8
0
100
AcDbVertex
100
AcDbPolygonMeshVertex
 10
0.31
 20
-3.07
 30
4.0
 70
    64
  0
VERTEX
  5
4A652
100
AcDbEntity
  8
0
100
AcDbVertex
100
AcDbPolygonMeshVertex
 10
0.31
 20
-2.69
 30
4.47
 70
    64
  0
VERTEX
  5
4A653
100
AcDbEntity
  8
0
100
AcDbVertex
100
AcDbPolygonMeshVertex
 10
0.31
 20
-2.69
 30
4.0
 70
    64
  0
VERTEX
  5
4A654
100
AcDbEntity
  8
0
100
AcDbVertex
100
AcDbPolygonMeshVertex
 10
0.31
 20
-3.07
 30
4.0
 70
    64
  0
VERTEX
  5
4A655
100
AcDbEntity
  8
0
100
AcDbVertex
100
AcDbPolygonMeshVertex
 10
0.75
 20
-2.69
 30
4.47
 70
    64
  0
VERTEX
  5
4A656
100
AcDbEntity
  8
0
100
AcDbVertex
100
AcDbPolygonMeshVertex
 10
0.75
 20
-2.69
 30
4.0
 70
    64
  0
VERTEX
  5
4A657
100
AcDbEntity
  8
0
100
AcDbVertex
100
AcDbPolygonMeshVertex
 10
0.75
 20
-3.07
 30
4.0
 70
    64
  0
VERTEX
  5
4A658
100
AcDbEntity
  8
0
100
AcDbVertex
100
AcDbPolygonMeshVertex
 10
0.75
 20
-2.69
 30
4.47
 70
    64
  0
VERTEX
  5
4A659
100
AcDbEntity
  8
0
100
AcDbVertex
100
AcDbPolygonMeshVertex
 10
0.75
 20
-2.69
 30
4.47
 70
    64
  0
VERTEX
  5
4A65A
100
AcDbEntity
  8
0
100
AcDbVertex
100
AcDbPolygonMeshVertex
 10
0.75
 20
-3.07
 30
4.47
 70
    64
  0
VERTEX
  5
4A65B
100
AcDbEntity
  8
0
100
AcDbVertex
100
AcDbPolygonMeshVertex
 10
0.31
 20
-2.69
 30
4.47
 70
    64
  0
VERTEX
  5
4A65C
100
AcDbEntity
  8
0
100
AcDbVertex
100
AcDbPolygonMeshVertex
 10
0.31
 20
-2.69
 30
4.47
 70
    64
  0
VERTEX
  5
4A65D
100
AcDbEntity
  8
0
100
AcDbVertex
100
AcDbPolygonMeshVertex
 10
0.31
 20
-3.07
 30
4.47
 70
    64
  0
SEQEND
  5
4A65E
100
AcDbEntity
  8
0
  0
POLYLINE
  5
4A65F
100
AcDbEntity
  8
0
100
AcDbPolygonMesh
 66
     1
 10
0.0
 20
0.0
 30
0.0
 70
    16
 71
     6
 72
     3
  0
VERTEX
  5
4A660
100
AcDbEntity
  8
0
100
AcDbVertex
100
AcDbPolygonMeshVertex
 10
-0.31
 20
-3.07
 30
4.47
 70
    64
  0
VERTEX
  5
4A661
100
AcDbEntity
  8
0
100
AcDbVertex
100
AcDbPolygonMeshVertex
 10
-0.31
 20
-3.07
 30
4.0
 70
    64
  0
VERTEX
  5
4A662
100
AcDbEntity
  8
0
100
AcDbVertex
100
AcDbPolygonMeshVertex
 10
-0.31
 20
-3.07
 30
4.0
 70
    64
  0
VERTEX
  5
4A663
100
AcDbEntity
  8
0
100
AcDbVertex
100
AcDbPolygonMeshVertex
 10
-0.75
 20
-3.07
 30
4.47
 70
    64
  0
VERTEX
  5
4A664
100
AcDbEntity
  8
0
100
AcDbVertex
100
AcDbPolygonMeshVertex
 10
-0.75
 20
-3.07
 30
4.0
 70
    64
  0
VERTEX
  5
4A665
100
AcDbEntity
  8
0
100
AcDbVertex
100
AcDbPolygonMeshVertex
 10
-0.75
 20
-3.07
 30
4.0
 70
    64
  0
VERTEX
  5
4A666
100
AcDbEntity
  8
0
100
AcDbVertex
100
AcDbPolygonMeshVertex
 10
-0.75
 20
-2.69
 30
4.47
 70
    64
  0
VERTEX
  5
4A667
100
AcDbEntity
  8
0
100
AcDbVertex
100
AcDbPolygonMeshVertex
 10
-0.75
 20
-2.69
 30
4.0
 70
    64
  0
VERTEX
  5
4A668
100
AcDbEntity
  8
0
100
AcDbVertex
100
AcDbPolygonMeshVertex
 10
-0.75
 20
-3.07
 30
4.0
 70
    64
  0
VERTEX
  5
4A669
100
AcDbEntity
  8
0
100
AcDbVertex
100
AcDbPolygonMeshVertex
 10
-0.31
 20
-2.69
 30
4.47
 70
    64
  0
VERTEX
  5
4A66A
100
AcDbEntity
  8
0
100
AcDbVertex
100
AcDbPolygonMeshVertex
 10
-0.31
 20
-2.69
 30
4.0
 70
    64
  0
VERTEX
  5
4A66B
100
AcDbEntity
  8
0
100
AcDbVertex
100
AcDbPolygonMeshVertex
 10
-0.31
 20
-3.07
 30
4.0
 70
    64
  0
VERTEX
  5
4A66C
100
AcDbEntity
  8
0
100
AcDbVertex
100
AcDbPolygonMeshVertex
 10
-0.31
 20
-2.69
 30
4.47
 70
    64
  0
VERTEX
  5
4A66D
100
AcDbEntity
  8
0
100
AcDbVertex
100
AcDbPolygonMeshVertex
 10
-0.31
 20
-2.69
 30
4.47
 70
    64
  0
VERTEX
  5
4A66E
100
AcDbEntity
  8
0
100
AcDbVertex
100
AcDbPolygonMeshVertex
 10
-0.31
 20
-3.07
 30
4.47
 70
    64
  0
VERTEX
  5
4A66F
100
AcDbEntity
  8
0
100
AcDbVertex
100
AcDbPolygonMeshVertex
 10
-0.75
 20
-2.69
 30
4.47
 70
    64
  0
VERTEX
  5
4A670
100
AcDbEntity
  8
0
100
AcDbVertex
100
AcDbPolygonMeshVertex
 10
-0.75
 20
-2.69
 30
4.47
 70
    64
  0
VERTEX
  5
4A671
100
AcDbEntity
  8
0
100
AcDbVertex
100
AcDbPolygonMeshVertex
 10
-0.75
 20
-3.07
 30
4.47
 70
    64
  0
SEQEND
  5
4A672
100
AcDbEntity
  8
0
  0
LINE
  5
4A673
100
AcDbEntity
  8
0
100
AcDbLine
 10
-1.68
 20
-1.18
 30
3.63
 11
-1.68
 21
-1.18
 31
0.19
  0
POLYLINE
  5
4A674
100
AcDbEntity
  8
0
100
AcDbPolygonMesh
 66
     1
 10
0.0
 20
0.0
 30
0.0
 70
    16
 71
     6
 72
     3
  0
VERTEX
  5
4A675
100
AcDbEntity
  8
0
100
AcDbVertex
100
AcDbPolygonMeshVertex
 10
1.68
 20
-4.57
 30
3.63
 70
    64
  0
VERTEX
  5
4A676
100
AcDbEntity
  8
0
100
AcDbVertex
100
AcDbPolygonMeshVertex
 10
1.68
 20
-4.57
 30
0.19
 70
    64
  0
VERTEX
  5
4A677
100
AcDbEntity
  8
0
100
AcDbVertex
100
AcDbPolygonMeshVertex
 10
1.68
 20
-4.57
 30
0.19
 70
    64
  0
VERTEX
  5
4A678
100
AcDbEntity
  8
0
100
AcDbVertex
100
AcDbPolygonMeshVertex
 10
-1.68
 20
-4.57
 30
3.63
 70
    64
  0
VERTEX
  5
4A679
100
AcDbEntity
  8
0
100
AcDbVertex
100
AcDbPolygonMeshVertex
 10
-1.68
 20
-4.57
 30
0.19
 70
    64
  0
VERTEX
  5
4A67A
100
AcDbEntity
  8
0
100
AcDbVertex
100
AcDbPolygonMeshVertex
 10
-1.68
 20
-4.57
 30
0.19
 70
    64
  0
VERTEX
  5
4A67B
100
AcDbEntity
  8
0
100
AcDbVertex
100
AcDbPolygonMeshVertex
 10
-1.68
 20
-1.18
 30
3.63
 70
    64
  0
VERTEX
  5
4A67C
100
AcDbEntity
  8
0
100
AcDbVertex
100
AcDbPolygonMeshVertex
 10
-1.68
 20
-1.18
 30
0.19
 70
    64
  0
VERTEX
  5
4A67D
100
AcDbEntity
  8
0
100
AcDbVertex
100
AcDbPolygonMeshVertex
 10
-1.68
 20
-4.57
 30
0.19
 70
    64
  0
VERTEX
  5
4A67E
100
AcDbEntity
  8
0
100
AcDbVertex
100
AcDbPolygonMeshVertex
 10
1.68
 20
-1.18
 30
3.63
 70
    64
  0
VERTEX
  5
4A67F
100
AcDbEntity
  8
0
100
AcDbVertex
100
AcDbPolygonMeshVertex
 10
1.68
 20
-1.18
 30
0.19
 70
    64
  0
VERTEX
  5
4A680
100
AcDbEntity
  8
0
100
AcDbVertex
100
AcDbPolygonMeshVertex
 10
1.68
 20
-4.57
 30
0.19
 70
    64
  0
VERTEX
  5
4A681
100
AcDbEntity
  8
0
100
AcDbVertex
100
AcDbPolygonMeshVertex
 10
1.68
 20
-1.18
 30
3.63
 70
    64
  0
VERTEX
  5
4A682
100
AcDbEntity
  8
0
100
AcDbVertex
100
AcDbPolygonMeshVertex
 10
1.68
 20
-1.18
 30
3.63
 70
    64
  0
VERTEX
  5
4A683
100
AcDbEntity
  8
0
100
AcDbVertex
100
AcDbPolygonMeshVertex
 10
1.68
 20
-4.57
 30
3.63
 70
    64
  0
VERTEX
  5
4A684
100
AcDbEntity
  8
0
100
AcDbVertex
100
AcDbPolygonMeshVertex
 10
-1.68
 20
-1.18
 30
3.63
 70
    64
  0
VERTEX
  5
4A685
100
AcDbEntity
  8
0
100
AcDbVertex
100
AcDbPolygonMeshVertex
 10
-1.68
 20
-1.18
 30
3.63
 70
    64
  0
VERTEX
  5
4A686
100
AcDbEntity
  8
0
100
AcDbVertex
100
AcDbPolygonMeshVertex
 10
-1.68
 20
-4.57
 30
3.63
 70
    64
  0
SEQEND
  5
4A687
100
AcDbEntity
  8
0
  0
POLYLINE
  5
4A688
100
AcDbEntity
  8
0
100
AcDbPolygonMesh
 66
     1
 10
0.0
 20
0.0
 30
0.0
 70
    16
 71
     6
 72
     3
  0
VERTEX
  5
4A689
100
AcDbEntity
  8
0
100
AcDbVertex
100
AcDbPolygonMeshVertex
 10
1.68
 20
-4.82
 30
2.85
 70
    64
  0
VERTEX
  5
4A68A
100
AcDbEntity
  8
0
100
AcDbVertex
100
AcDbPolygonMeshVertex
 10
1.68
 20
-4.82
 30
1.62
 70
    64
  0
VERTEX
  5
4A68B
100
AcDbEntity
  8
0
100
AcDbVertex
100
AcDbPolygonMeshVertex
 10
1.68
 20
-4.82
 30
1.62
 70
    64
  0
VERTEX
  5
4A68C
100
AcDbEntity
  8
0
100
AcDbVertex
100
AcDbPolygonMeshVertex
 10
-1.68
 20
-4.82
 30
2.85
 70
    64
  0
VERTEX
  5
4A68D
100
AcDbEntity
  8
0
100
AcDbVertex
100
AcDbPolygonMeshVertex
 10
-1.68
 20
-4.82
 30
1.62
 70
    64
  0
VERTEX
  5
4A68E
100
AcDbEntity
  8
0
100
AcDbVertex
100
AcDbPolygonMeshVertex
 10
-1.68
 20
-4.82
 30
1.62
 70
    64
  0
VERTEX
  5
4A68F
100
AcDbEntity
  8
0
100
AcDbVertex
100
AcDbPolygonMeshVertex
 10
-1.68
 20
-4.57
 30
2.85
 70
    64
  0
VERTEX
  5
4A690
100
AcDbEntity
  8
0
100
AcDbVertex
100
AcDbPolygonMeshVertex
 10
-1.68
 20
-4.57
 30
1.62
 70
    64
  0
VERTEX
  5
4A691
100
AcDbEntity
  8
0
100
AcDbVertex
100
AcDbPolygonMeshVertex
 10
-1.68
 20
-4.82
 30
1.62
 70
    64
  0
VERTEX
  5
4A692
100
AcDbEntity
  8
0
100
AcDbVertex
100
AcDbPolygonMeshVertex
 10
1.68
 20
-4.57
 30
2.85
 70
    64
  0
VERTEX
  5
4A693
100
AcDbEntity
  8
0
100
AcDbVertex
100
AcDbPolygonMeshVertex
 10
1.68
 20
-4.57
 30
1.62
 70
    64
  0
VERTEX
  5
4A694
100
AcDbEntity
  8
0
100
AcDbVertex
100
AcDbPolygonMeshVertex
 10
1.68
 20
-4.82
 30
1.62
 70
    64
  0
VERTEX
  5
4A695
100
AcDbEntity
  8
0
100
AcDbVertex
100
AcDbPolygonMeshVertex
 10
1.68
 20
-4.57
 30
2.85
 70
    64
  0
VERTEX
  5
4A696
100
AcDbEntity
  8
0
100
AcDbVertex
100
AcDbPolygonMeshVertex
 10
1.68
 20
-4.57
 30
2.85
 70
    64
  0
VERTEX
  5
4A697
100
AcDbEntity
  8
0
100
AcDbVertex
100
AcDbPolygonMeshVertex
 10
1.68
 20
-4.82
 30
2.85
 70
    64
  0
VERTEX
  5
4A698
100
AcDbEntity
  8
0
100
AcDbVertex
100
AcDbPolygonMeshVertex
 10
-1.68
 20
-4.57
 30
2.85
 70
    64
  0
VERTEX
  5
4A699
100
AcDbEntity
  8
0
100
AcDbVertex
100
AcDbPolygonMeshVertex
 10
-1.68
 20
-4.57
 30
2.85
 70
    64
  0
VERTEX
  5
4A69A
100
AcDbEntity
  8
0
100
AcDbVertex
100
AcDbPolygonMeshVertex
 10
-1.68
 20
-4.82
 30
2.85
 70
    64
  0
SEQEND
  5
4A69B
100
AcDbEntity
  8
0
  0
POLYLINE
  5
4A69C
100
AcDbEntity
  8
0
100
AcDbPolygonMesh
 66
     1
 10
0.0
 20
0.0
 30
0.0
 70
    16
 71
     6
 72
     3
  0
VERTEX
  5
4A69D
100
AcDbEntity
  8
0
100
AcDbVertex
100
AcDbPolygonMeshVertex
 10
-1.68
 20
-4.57
 30
0.19
 70
    64
  0
VERTEX
  5
4A69E
100
AcDbEntity
  8
0
100
AcDbVertex
100
AcDbPolygonMeshVertex
 10
-1.68
 20
-4.57
 30
0.19
 70
    64
  0
VERTEX
  5
4A69F
100
AcDbEntity
  8
0
100
AcDbVertex
100
AcDbPolygonMeshVertex
 10
-1.68
 20
-4.57
 30
0.19
 70
    64
  0
VERTEX
  5
4A6A0
100
AcDbEntity
  8
0
100
AcDbVertex
100
AcDbPolygonMeshVertex
 10
-1.68
 20
-4.82
 30
1.62
 70
    64
  0
VERTEX
  5
4A6A1
100
AcDbEntity
  8
0
100
AcDbVertex
100
AcDbPolygonMeshVertex
 10
-1.68
 20
-4.57
 30
1.62
 70
    64
  0
VERTEX
  5
4A6A2
100
AcDbEntity
  8
0
100
AcDbVertex
100
AcDbPolygonMeshVertex
 10
-1.68
 20
-4.57
 30
1.62
 70
    64
  0
VERTEX
  5
4A6A3
100
AcDbEntity
  8
0
100
AcDbVertex
100
AcDbPolygonMeshVertex
 10
1.68
 20
-4.82
 30
1.62
 70
    64
  0
VERTEX
  5
4A6A4
100
AcDbEntity
  8
0
100
AcDbVertex
100
AcDbPolygonMeshVertex
 10
1.68
 20
-4.57
 30
1.62
 70
    64
  0
VERTEX
  5
4A6A5
100
AcDbEntity
  8
0
100
AcDbVertex
100
AcDbPolygonMeshVertex
 10
-1.68
 20
-4.57
 30
1.62
 70
    64
  0
VERTEX
  5
4A6A6
100
AcDbEntity
  8
0
100
AcDbVertex
100
AcDbPolygonMeshVertex
 10
1.68
 20
-4.57
 30
0.19
 70
    64
  0
VERTEX
  5
4A6A7
100
AcDbEntity
  8
0
100
AcDbVertex
100
AcDbPolygonMeshVertex
 10
1.68
 20
-4.57
 30
0.19
 70
    64
  0
VERTEX
  5
4A6A8
100
AcDbEntity
  8
0
100
AcDbVertex
100
AcDbPolygonMeshVertex
 10
-1.68
 20
-4.57
 30
0.19
 70
    64
  0
VERTEX
  5
4A6A9
100
AcDbEntity
  8
0
100
AcDbVertex
100
AcDbPolygonMeshVertex
 10
1.68
 20
-4.57
 30
0.19
 70
    64
  0
VERTEX
  5
4A6AA
100
AcDbEntity
  8
0
100
AcDbVertex
100
AcDbPolygonMeshVertex
 10
1.68
 20
-4.57
 30
0.19
 70
    64
  0
VERTEX
  5
4A6AB
100
AcDbEntity
  8
0
100
AcDbVertex
100
AcDbPolygonMeshVertex
 10
-1.68
 20
-4.57
 30
0.19
 70
    64
  0
VERTEX
  5
4A6AC
100
AcDbEntity
  8
0
100
AcDbVertex
100
AcDbPolygonMeshVertex
 10
1.68
 20
-4.82
 30
1.62
 70
    64
  0
VERTEX
  5
4A6AD
100
AcDbEntity
  8
0
100
AcDbVertex
100
AcDbPolygonMeshVertex
 10
1.68
 20
-4.82
 30
1.62
 70
    64
  0
VERTEX
  5
4A6AE
100
AcDbEntity
  8
0
100
AcDbVertex
100
AcDbPolygonMeshVertex
 10
-1.68
 20
-4.82
 30
1.62
 70
    64
  0
SEQEND
  5
4A6AF
100
AcDbEntity
  8
0
  0
POLYLINE
  5
4A6B0
100
AcDbEntity
  8
0
100
AcDbPolygonMesh
 66
     1
 10
0.0
 20
0.0
 30
0.0
 70
    16
 71
     6
 72
     3
  0
VERTEX
  5
4A6B1
100
AcDbEntity
  8
0
100
AcDbVertex
100
AcDbPolygonMeshVertex
 10
1.68
 20
-1.18
 30
4.09
 70
    64
  0
VERTEX
  5
4A6B2
100
AcDbEntity
  8
0
100
AcDbVertex
100
AcDbPolygonMeshVertex
 10
1.68
 20
-1.18
 30
0.19
 70
    64
  0
VERTEX
  5
4A6B3
100
AcDbEntity
  8
0
100
AcDbVertex
100
AcDbPolygonMeshVertex
 10
1.68
 20
-1.18
 30
0.19
 70
    64
  0
VERTEX
  5
4A6B4
100
AcDbEntity
  8
0
100
AcDbVertex
100
AcDbPolygonMeshVertex
 10
-1.68
 20
-1.18
 30
4.09
 70
    64
  0
VERTEX
  5
4A6B5
100
AcDbEntity
  8
0
100
AcDbVertex
100
AcDbPolygonMeshVertex
 10
-1.68
 20
-1.18
 30
0.19
 70
    64
  0
VERTEX
  5
4A6B6
100
AcDbEntity
  8
0
100
AcDbVertex
100
AcDbPolygonMeshVertex
 10
-1.68
 20
-1.18
 30
0.19
 70
    64
  0
VERTEX
  5
4A6B7
100
AcDbEntity
  8
0
100
AcDbVertex
100
AcDbPolygonMeshVertex
 10
-1.68
 20
-0.5
 30
4.09
 70
    64
  0
VERTEX
  5
4A6B8
100
AcDbEntity
  8
0
100
AcDbVertex
100
AcDbPolygonMeshVertex
 10
-1.68
 20
-0.5
 30
0.19
 70
    64
  0
VERTEX
  5
4A6B9
100
AcDbEntity
  8
0
100
AcDbVertex
100
AcDbPolygonMeshVertex
 10
-1.68
 20
-1.18
 30
0.19
 70
    64
  0
VERTEX
  5
4A6BA
100
AcDbEntity
  8
0
100
AcDbVertex
100
AcDbPolygonMeshVertex
 10
1.68
 20
-0.5
 30
4.09
 70
    64
  0
VERTEX
  5
4A6BB
100
AcDbEntity
  8
0
100
AcDbVertex
100
AcDbPolygonMeshVertex
 10
1.68
 20
-0.5
 30
0.19
 70
    64
  0
VERTEX
  5
4A6BC
100
AcDbEntity
  8
0
100
AcDbVertex
100
AcDbPolygonMeshVertex
 10
1.68
 20
-1.18
 30
0.19
 70
    64
  0
VERTEX
  5
4A6BD
100
AcDbEntity
  8
0
100
AcDbVertex
100
AcDbPolygonMeshVertex
 10
1.68
 20
-0.5
 30
4.09
 70
    64
  0
VERTEX
  5
4A6BE
100
AcDbEntity
  8
0
100
AcDbVertex
100
AcDbPolygonMeshVertex
 10
1.68
 20
-0.5
 30
4.09
 70
    64
  0
VERTEX
  5
4A6BF
100
AcDbEntity
  8
0
100
AcDbVertex
100
AcDbPolygonMeshVertex
 10
1.68
 20
-1.18
 30
4.09
 70
    64
  0
VERTEX
  5
4A6C0
100
AcDbEntity
  8
0
100
AcDbVertex
100
AcDbPolygonMeshVertex
 10
-1.68
 20
-0.5
 30
4.09
 70
    64
  0
VERTEX
  5
4A6C1
100
AcDbEntity
  8
0
100
AcDbVertex
100
AcDbPolygonMeshVertex
 10
-1.68
 20
-0.5
 30
4.09
 70
    64
  0
VERTEX
  5
4A6C2
100
AcDbEntity
  8
0
100
AcDbVertex
100
AcDbPolygonMeshVertex
 10
-1.68
 20
-1.18
 30
4.09
 70
    64
  0
SEQEND
  5
4A6C3
100
AcDbEntity
  8
0
  0
LINE
  5
4A6C4
100
AcDbEntity
  8
0
100
AcDbLine
 10
0.62
 20
-0.5
 30
4.09
 11
0.62
 21
-0.37
 31
4.09
  0
LINE
  5
4A6C5
100
AcDbEntity
  8
0
100
AcDbLine
 10
0.62
 20
-0.37
 30
4.09
 11
0.44
 21
-0.37
 31
4.09
  0
POLYLINE
  5
4A6C6
100
AcDbEntity
  8
0
100
AcDbPolygonMesh
 66
     1
 10
0.0
 20
0.0
 30
0.0
 70
    16
 71
     6
 72
     3
  0
VERTEX
  5
4A6C7
100
AcDbEntity
  8
0
100
AcDbVertex
100
AcDbPolygonMeshVertex
 10
0.44
 20
-0.37
 30
4.47
 70
    64
  0
VERTEX
  5
4A6C8
100
AcDbEntity
  8
0
100
AcDbVertex
100
AcDbPolygonMeshVertex
 10
0.44
 20
-0.37
 30
4.09
 70
    64
  0
VERTEX
  5
4A6C9
100
AcDbEntity
  8
0
100
AcDbVertex
100
AcDbPolygonMeshVertex
 10
0.44
 20
-0.37
 30
4.09
 70
    64
  0
VERTEX
  5
4A6CA
100
AcDbEntity
  8
0
100
AcDbVertex
100
AcDbPolygonMeshVertex
 10
0.62
 20
-0.37
 30
4.47
 70
    64
  0
VERTEX
  5
4A6CB
100
AcDbEntity
  8
0
100
AcDbVertex
100
AcDbPolygonMeshVertex
 10
0.62
 20
-0.37
 30
4.09
 70
    64
  0
VERTEX
  5
4A6CC
100
AcDbEntity
  8
0
100
AcDbVertex
100
AcDbPolygonMeshVertex
 10
0.62
 20
-0.37
 30
4.09
 70
    64
  0
VERTEX
  5
4A6CD
100
AcDbEntity
  8
0
100
AcDbVertex
100
AcDbPolygonMeshVertex
 10
0.62
 20
-1.18
 30
4.47
 70
    64
  0
VERTEX
  5
4A6CE
100
AcDbEntity
  8
0
100
AcDbVertex
100
AcDbPolygonMeshVertex
 10
0.62
 20
-1.18
 30
4.09
 70
    64
  0
VERTEX
  5
4A6CF
100
AcDbEntity
  8
0
100
AcDbVertex
100
AcDbPolygonMeshVertex
 10
0.62
 20
-0.37
 30
4.09
 70
    64
  0
VERTEX
  5
4A6D0
100
AcDbEntity
  8
0
100
AcDbVertex
100
AcDbPolygonMeshVertex
 10
0.44
 20
-1.18
 30
4.47
 70
    64
  0
VERTEX
  5
4A6D1
100
AcDbEntity
  8
0
100
AcDbVertex
100
AcDbPolygonMeshVertex
 10
0.44
 20
-1.18
 30
4.09
 70
    64
  0
VERTEX
  5
4A6D2
100
AcDbEntity
  8
0
100
AcDbVertex
100
AcDbPolygonMeshVertex
 10
0.44
 20
-0.37
 30
4.09
 70
    64
  0
VERTEX
  5
4A6D3
100
AcDbEntity
  8
0
100
AcDbVertex
100
AcDbPolygonMeshVertex
 10
0.44
 20
-1.18
 30
4.47
 70
    64
  0
VERTEX
  5
4A6D4
100
AcDbEntity
  8
0
100
AcDbVertex
100
AcDbPolygonMeshVertex
 10
0.44
 20
-1.18
 30
4.47
 70
    64
  0
VERTEX
  5
4A6D5
100
AcDbEntity
  8
0
100
AcDbVertex
100
AcDbPolygonMeshVertex
 10
0.44
 20
-0.37
 30
4.47
 70
    64
  0
VERTEX
  5
4A6D6
100
AcDbEntity
  8
0
100
AcDbVertex
100
AcDbPolygonMeshVertex
 10
0.62
 20
-1.18
 30
4.47
 70
    64
  0
VERTEX
  5
4A6D7
100
AcDbEntity
  8
0
100
AcDbVertex
100
AcDbPolygonMeshVertex
 10
0.62
 20
-1.18
 30
4.47
 70
    64
  0
VERTEX
  5
4A6D8
100
AcDbEntity
  8
0
100
AcDbVertex
100
AcDbPolygonMeshVertex
 10
0.62
 20
-0.37
 30
4.47
 70
    64
  0
SEQEND
  5
4A6D9
100
AcDbEntity
  8
0
  0
POLYLINE
  5
4A6DA
100
AcDbEntity
  8
0
100
AcDbPolygonMesh
 66
     1
 10
0.0
 20
0.0
 30
0.0
 70
    16
 71
     6
 72
     3
  0
VERTEX
  5
4A6DB
100
AcDbEntity
  8
0
100
AcDbVertex
100
AcDbPolygonMeshVertex
 10
0.44
 20
-0.37
 30
4.09
 70
    64
  0
VERTEX
  5
4A6DC
100
AcDbEntity
  8
0
100
AcDbVertex
100
AcDbPolygonMeshVertex
 10
0.44
 20
-0.37
 30
2.97
 70
    64
  0
VERTEX
  5
4A6DD
100
AcDbEntity
  8
0
100
AcDbVertex
100
AcDbPolygonMeshVertex
 10
0.44
 20
-0.37
 30
2.97
 70
    64
  0
VERTEX
  5
4A6DE
100
AcDbEntity
  8
0
100
AcDbVertex
100
AcDbPolygonMeshVertex
 10
0.62
 20
-0.37
 30
4.09
 70
    64
  0
VERTEX
  5
4A6DF
100
AcDbEntity
  8
0
100
AcDbVertex
100
AcDbPolygonMeshVertex
 10
0.62
 20
-0.37
 30
2.97
 70
    64
  0
VERTEX
  5
4A6E0
100
AcDbEntity
  8
0
100
AcDbVertex
100
AcDbPolygonMeshVertex
 10
0.62
 20
-0.37
 30
2.97
 70
    64
  0
VERTEX
  5
4A6E1
100
AcDbEntity
  8
0
100
AcDbVertex
100
AcDbPolygonMeshVertex
 10
0.62
 20
-0.5
 30
4.09
 70
    64
  0
VERTEX
  5
4A6E2
100
AcDbEntity
  8
0
100
AcDbVertex
100
AcDbPolygonMeshVertex
 10
0.62
 20
-0.5
 30
2.97
 70
    64
  0
VERTEX
  5
4A6E3
100
AcDbEntity
  8
0
100
AcDbVertex
100
AcDbPolygonMeshVertex
 10
0.62
 20
-0.37
 30
2.97
 70
    64
  0
VERTEX
  5
4A6E4
100
AcDbEntity
  8
0
100
AcDbVertex
100
AcDbPolygonMeshVertex
 10
0.44
 20
-0.5
 30
4.09
 70
    64
  0
VERTEX
  5
4A6E5
100
AcDbEntity
  8
0
100
AcDbVertex
100
AcDbPolygonMeshVertex
 10
0.44
 20
-0.5
 30
2.97
 70
    64
  0
VERTEX
  5
4A6E6
100
AcDbEntity
  8
0
100
AcDbVertex
100
AcDbPolygonMeshVertex
 10
0.44
 20
-0.37
 30
2.97
 70
    64
  0
VERTEX
  5
4A6E7
100
AcDbEntity
  8
0
100
AcDbVertex
100
AcDbPolygonMeshVertex
 10
0.44
 20
-0.5
 30
4.09
 70
    64
  0
VERTEX
  5
4A6E8
100
AcDbEntity
  8
0
100
AcDbVertex
100
AcDbPolygonMeshVertex
 10
0.44
 20
-0.5
 30
4.09
 70
    64
  0
VERTEX
  5
4A6E9
100
AcDbEntity
  8
0
100
AcDbVertex
100
AcDbPolygonMeshVertex
 10
0.44
 20
-0.37
 30
4.09
 70
    64
  0
VERTEX
  5
4A6EA
100
AcDbEntity
  8
0
100
AcDbVertex
100
AcDbPolygonMeshVertex
 10
0.62
 20
-0.5
 30
4.09
 70
    64
  0
VERTEX
  5
4A6EB
100
AcDbEntity
  8
0
100
AcDbVertex
100
AcDbPolygonMeshVertex
 10
0.62
 20
-0.5
 30
4.09
 70
    64
  0
VERTEX
  5
4A6EC
100
AcDbEntity
  8
0
100
AcDbVertex
100
AcDbPolygonMeshVertex
 10
0.62
 20
-0.37
 30
4.09
 70
    64
  0
SEQEND
  5
4A6ED
100
AcDbEntity
  8
0
  0
POLYLINE
  5
4A6EE
100
AcDbEntity
  8
0
100
AcDbPolygonMesh
 66
     1
 10
0.0
 20
0.0
 30
0.0
 70
    16
 71
     6
 72
     3
  0
VERTEX
  5
4A6EF
100
AcDbEntity
  8
0
100
AcDbVertex
100
AcDbPolygonMeshVertex
 10
-0.62
 20
-0.37
 30
4.47
 70
    64
  0
VERTEX
  5
4A6F0
100
AcDbEntity
  8
0
100
AcDbVertex
100
AcDbPolygonMeshVertex
 10
-0.62
 20
-0.37
 30
4.09
 70
    64
  0
VERTEX
  5
4A6F1
100
AcDbEntity
  8
0
100
AcDbVertex
100
AcDbPolygonMeshVertex
 10
-0.62
 20
-0.37
 30
4.09
 70
    64
  0
VERTEX
  5
4A6F2
100
AcDbEntity
  8
0
100
AcDbVertex
100
AcDbPolygonMeshVertex
 10
-0.44
 20
-0.37
 30
4.47
 70
    64
  0
VERTEX
  5
4A6F3
100
AcDbEntity
  8
0
100
AcDbVertex
100
AcDbPolygonMeshVertex
 10
-0.44
 20
-0.37
 30
4.09
 70
    64
  0
VERTEX
  5
4A6F4
100
AcDbEntity
  8
0
100
AcDbVertex
100
AcDbPolygonMeshVertex
 10
-0.44
 20
-0.37
 30
4.09
 70
    64
  0
VERTEX
  5
4A6F5
100
AcDbEntity
  8
0
100
AcDbVertex
100
AcDbPolygonMeshVertex
 10
-0.44
 20
-1.18
 30
4.47
 70
    64
  0
VERTEX
  5
4A6F6
100
AcDbEntity
  8
0
100
AcDbVertex
100
AcDbPolygonMeshVertex
 10
-0.44
 20
-1.18
 30
4.09
 70
    64
  0
VERTEX
  5
4A6F7
100
AcDbEntity
  8
0
100
AcDbVertex
100
AcDbPolygonMeshVertex
 10
-0.44
 20
-0.37
 30
4.09
 70
    64
  0
VERTEX
  5
4A6F8
100
AcDbEntity
  8
0
100
AcDbVertex
100
AcDbPolygonMeshVertex
 10
-0.62
 20
-1.18
 30
4.47
 70
    64
  0
VERTEX
  5
4A6F9
100
AcDbEntity
  8
0
100
AcDbVertex
100
AcDbPolygonMeshVertex
 10
-0.62
 20
-1.18
 30
4.09
 70
    64
  0
VERTEX
  5
4A6FA
100
AcDbEntity
  8
0
100
AcDbVertex
100
AcDbPolygonMeshVertex
 10
-0.62
 20
-0.37
 30
4.09
 70
    64
  0
VERTEX
  5
4A6FB
100
AcDbEntity
  8
0
100
AcDbVertex
100
AcDbPolygonMeshVertex
 10
-0.62
 20
-1.18
 30
4.47
 70
    64
  0
VERTEX
  5
4A6FC
100
AcDbEntity
  8
0
100
AcDbVertex
100
AcDbPolygonMeshVertex
 10
-0.62
 20
-1.18
 30
4.47
 70
    64
  0
VERTEX
  5
4A6FD
100
AcDbEntity
  8
0
100
AcDbVertex
100
AcDbPolygonMeshVertex
 10
-0.62
 20
-0.37
 30
4.47
 70
    64
  0
VERTEX
  5
4A6FE
100
AcDbEntity
  8
0
100
AcDbVertex
100
AcDbPolygonMeshVertex
 10
-0.44
 20
-1.18
 30
4.47
 70
    64
  0
VERTEX
  5
4A6FF
100
AcDbEntity
  8
0
100
AcDbVertex
100
AcDbPolygonMeshVertex
 10
-0.44
 20
-1.18
 30
4.47
 70
    64
  0
VERTEX
  5
4A700
100
AcDbEntity
  8
0
100
AcDbVertex
100
AcDbPolygonMeshVertex
 10
-0.44
 20
-0.37
 30
4.47
 70
    64
  0
SEQEND
  5
4A701
100
AcDbEntity
  8
0
  0
POLYLINE
  5
4A702
100
AcDbEntity
  8
0
100
AcDbPolygonMesh
 66
     1
 10
0.0
 20
0.0
 30
0.0
 70
    16
 71
     6
 72
     3
  0
VERTEX
  5
4A703
100
AcDbEntity
  8
0
100
AcDbVertex
100
AcDbPolygonMeshVertex
 10
-0.62
 20
-0.37
 30
4.09
 70
    64
  0
VERTEX
  5
4A704
100
AcDbEntity
  8
0
100
AcDbVertex
100
AcDbPolygonMeshVertex
 10
-0.62
 20
-0.37
 30
2.97
 70
    64
  0
VERTEX
  5
4A705
100
AcDbEntity
  8
0
100
AcDbVertex
100
AcDbPolygonMeshVertex
 10
-0.62
 20
-0.37
 30
2.97
 70
    64
  0
VERTEX
  5
4A706
100
AcDbEntity
  8
0
100
AcDbVertex
100
AcDbPolygonMeshVertex
 10
-0.44
 20
-0.37
 30
4.09
 70
    64
  0
VERTEX
  5
4A707
100
AcDbEntity
  8
0
100
AcDbVertex
100
AcDbPolygonMeshVertex
 10
-0.44
 20
-0.37
 30
2.97
 70
    64
  0
VERTEX
  5
4A708
100
AcDbEntity
  8
0
100
AcDbVertex
100
AcDbPolygonMeshVertex
 10
-0.44
 20
-0.37
 30
2.97
 70
    64
  0
VERTEX
  5
4A709
100
AcDbEntity
  8
0
100
AcDbVertex
100
AcDbPolygonMeshVertex
 10
-0.44
 20
-0.5
 30
4.09
 70
    64
  0
VERTEX
  5
4A70A
100
AcDbEntity
  8
0
100
AcDbVertex
100
AcDbPolygonMeshVertex
 10
-0.44
 20
-0.5
 30
2.97
 70
    64
  0
VERTEX
  5
4A70B
100
AcDbEntity
  8
0
100
AcDbVertex
100
AcDbPolygonMeshVertex
 10
-0.44
 20
-0.37
 30
2.97
 70
    64
  0
VERTEX
  5
4A70C
100
AcDbEntity
  8
0
100
AcDbVertex
100
AcDbPolygonMeshVertex
 10
-0.62
 20
-0.5
 30
4.09
 70
    64
  0
VERTEX
  5
4A70D
100
AcDbEntity
  8
0
100
AcDbVertex
100
AcDbPolygonMeshVertex
 10
-0.62
 20
-0.5
 30
2.97
 70
    64
  0
VERTEX
  5
4A70E
100
AcDbEntity
  8
0
100
AcDbVertex
100
AcDbPolygonMeshVertex
 10
-0.62
 20
-0.37
 30
2.97
 70
    64
  0
VERTEX
  5
4A70F
100
AcDbEntity
  8
0
100
AcDbVertex
100
AcDbPolygonMeshVertex
 10
-0.62
 20
-0.5
 30
4.09
 70
    64
  0
VERTEX
  5
4A710
100
AcDbEntity
  8
0
100
AcDbVertex
100
AcDbPolygonMeshVertex
 10
-0.62
 20
-0.5
 30
4.09
 70
    64
  0
VERTEX
  5
4A711
100
AcDbEntity
  8
0
100
AcDbVertex
100
AcDbPolygonMeshVertex
 10
-0.62
 20
-0.37
 30
4.09
 70
    64
  0
VERTEX
  5
4A712
100
AcDbEntity
  8
0
100
AcDbVertex
100
AcDbPolygonMeshVertex
 10
-0.44
 20
-0.5
 30
4.09
 70
    64
  0
VERTEX
  5
4A713
100
AcDbEntity
  8
0
100
AcDbVertex
100
AcDbPolygonMeshVertex
 10
-0.44
 20
-0.5
 30
4.09
 70
    64
  0
VERTEX
  5
4A714
100
AcDbEntity
  8
0
100
AcDbVertex
100
AcDbPolygonMeshVertex
 10
-0.44
 20
-0.37
 30
4.09
 70
    64
  0
SEQEND
  5
4A715
100
AcDbEntity
  8
0
  0
POLYLINE
  5
4A716
100
AcDbEntity
  8
0
100
AcDbPolygonMesh
 66
     1
 10
0.0
 20
0.0
 30
0.0
 70
    16
 71
     6
 72
     3
  0
VERTEX
  5
4A717
100
AcDbEntity
  8
0
100
AcDbVertex
100
AcDbPolygonMeshVertex
 10
0.81
 20
-0.59
 30
4.28
 70
    64
  0
VERTEX
  5
4A718
100
AcDbEntity
  8
0
100
AcDbVertex
100
AcDbPolygonMeshVertex
 10
0.81
 20
-0.59
 30
4.09
 70
    64
  0
VERTEX
  5
4A719
100
AcDbEntity
  8
0
100
AcDbVertex
100
AcDbPolygonMeshVertex
 10
0.81
 20
-0.59
 30
4.09
 70
    64
  0
VERTEX
  5
4A71A
100
AcDbEntity
  8
0
100
AcDbVertex
100
AcDbPolygonMeshVertex
 10
1.31
 20
-0.59
 30
4.28
 70
    64
  0
VERTEX
  5
4A71B
100
AcDbEntity
  8
0
100
AcDbVertex
100
AcDbPolygonMeshVertex
 10
1.31
 20
-0.59
 30
4.09
 70
    64
  0
VERTEX
  5
4A71C
100
AcDbEntity
  8
0
100
AcDbVertex
100
AcDbPolygonMeshVertex
 10
1.31
 20
-0.59
 30
4.09
 70
    64
  0
VERTEX
  5
4A71D
100
AcDbEntity
  8
0
100
AcDbVertex
100
AcDbPolygonMeshVertex
 10
1.31
 20
-1.0
 30
4.28
 70
    64
  0
VERTEX
  5
4A71E
100
AcDbEntity
  8
0
100
AcDbVertex
100
AcDbPolygonMeshVertex
 10
1.31
 20
-1.0
 30
4.09
 70
    64
  0
VERTEX
  5
4A71F
100
AcDbEntity
  8
0
100
AcDbVertex
100
AcDbPolygonMeshVertex
 10
1.31
 20
-0.59
 30
4.09
 70
    64
  0
VERTEX
  5
4A720
100
AcDbEntity
  8
0
100
AcDbVertex
100
AcDbPolygonMeshVertex
 10
0.81
 20
-1.0
 30
4.28
 70
    64
  0
VERTEX
  5
4A721
100
AcDbEntity
  8
0
100
AcDbVertex
100
AcDbPolygonMeshVertex
 10
0.81
 20
-1.0
 30
4.09
 70
    64
  0
VERTEX
  5
4A722
100
AcDbEntity
  8
0
100
AcDbVertex
100
AcDbPolygonMeshVertex
 10
0.81
 20
-0.59
 30
4.09
 70
    64
  0
VERTEX
  5
4A723
100
AcDbEntity
  8
0
100
AcDbVertex
100
AcDbPolygonMeshVertex
 10
0.81
 20
-1.0
 30
4.28
 70
    64
  0
VERTEX
  5
4A724
100
AcDbEntity
  8
0
100
AcDbVertex
100
AcDbPolygonMeshVertex
 10
0.81
 20
-1.0
 30
4.28
 70
    64
  0
VERTEX
  5
4A725
100
AcDbEntity
  8
0
100
AcDbVertex
100
AcDbPolygonMeshVertex
 10
0.81
 20
-0.59
 30
4.28
 70
    64
  0
VERTEX
  5
4A726
100
AcDbEntity
  8
0
100
AcDbVertex
100
AcDbPolygonMeshVertex
 10
1.31
 20
-1.0
 30
4.28
 70
    64
  0
VERTEX
  5
4A727
100
AcDbEntity
  8
0
100
AcDbVertex
100
AcDbPolygonMeshVertex
 10
1.31
 20
-1.0
 30
4.28
 70
    64
  0
VERTEX
  5
4A728
100
AcDbEntity
  8
0
100
AcDbVertex
100
AcDbPolygonMeshVertex
 10
1.31
 20
-0.59
 30
4.28
 70
    64
  0
SEQEND
  5
4A729
100
AcDbEntity
  8
0
  0
CIRCLE
  5
4A72A
100
AcDbEntity
  8
0
100
AcDbCircle
 10
0.0
 20
-0.795
 30
4.28
 40
0.19
  0
POLYLINE
  5
4A72B
100
AcDbEntity
  8
0
100
AcDbPolygonMesh
 66
     1
 10
0.0
 20
0.0
 30
0.0
 70
    16
 71
     6
 72
     3
  0
VERTEX
  5
4A72C
100
AcDbEntity
  8
0
100
AcDbVertex
100
AcDbPolygonMeshVertex
 10
-0.25
 20
-0.59
 30
4.28
 70
    64
  0
VERTEX
  5
4A72D
100
AcDbEntity
  8
0
100
AcDbVertex
100
AcDbPolygonMeshVertex
 10
-0.25
 20
-0.59
 30
4.09
 70
    64
  0
VERTEX
  5
4A72E
100
AcDbEntity
  8
0
100
AcDbVertex
100
AcDbPolygonMeshVertex
 10
-0.25
 20
-0.59
 30
4.09
 70
    64
  0
VERTEX
  5
4A72F
100
AcDbEntity
  8
0
100
AcDbVertex
100
AcDbPolygonMeshVertex
 10
0.25
 20
-0.59
 30
4.28
 70
    64
  0
VERTEX
  5
4A730
100
AcDbEntity
  8
0
100
AcDbVertex
100
AcDbPolygonMeshVertex
 10
0.25
 20
-0.59
 30
4.09
 70
    64
  0
VERTEX
  5
4A731
100
AcDbEntity
  8
0
100
AcDbVertex
100
AcDbPolygonMeshVertex
 10
0.25
 20
-0.59
 30
4.09
 70
    64
  0
VERTEX
  5
4A732
100
AcDbEntity
  8
0
100
AcDbVertex
100
AcDbPolygonMeshVertex
 10
0.25
 20
-1.0
 30
4.28
 70
    64
  0
VERTEX
  5
4A733
100
AcDbEntity
  8
0
100
AcDbVertex
100
AcDbPolygonMeshVertex
 10
0.25
 20
-1.0
 30
4.09
 70
    64
  0
VERTEX
  5
4A734
100
AcDbEntity
  8
0
100
AcDbVertex
100
AcDbPolygonMeshVertex
 10
0.25
 20
-0.59
 30
4.09
 70
    64
  0
VERTEX
  5
4A735
100
AcDbEntity
  8
0
100
AcDbVertex
100
AcDbPolygonMeshVertex
 10
-0.25
 20
-1.0
 30
4.28
 70
    64
  0
VERTEX
  5
4A736
100
AcDbEntity
  8
0
100
AcDbVertex
100
AcDbPolygonMeshVertex
 10
-0.25
 20
-1.0
 30
4.09
 70
    64
  0
VERTEX
  5
4A737
100
AcDbEntity
  8
0
100
AcDbVertex
100
AcDbPolygonMeshVertex
 10
-0.25
 20
-0.59
 30
4.09
 70
    64
  0
VERTEX
  5
4A738
100
AcDbEntity
  8
0
100
AcDbVertex
100
AcDbPolygonMeshVertex
 10
-0.25
 20
-1.0
 30
4.28
 70
    64
  0
VERTEX
  5
4A739
100
AcDbEntity
  8
0
100
AcDbVertex
100
AcDbPolygonMeshVertex
 10
-0.25
 20
-1.0
 30
4.28
 70
    64
  0
VERTEX
  5
4A73A
100
AcDbEntity
  8
0
100
AcDbVertex
100
AcDbPolygonMeshVertex
 10
-0.25
 20
-0.59
 30
4.28
 70
    64
  0
VERTEX
  5
4A73B
100
AcDbEntity
  8
0
100
AcDbVertex
100
AcDbPolygonMeshVertex
 10
0.25
 20
-1.0
 30
4.28
 70
    64
  0
VERTEX
  5
4A73C
100
AcDbEntity
  8
0
100
AcDbVertex
100
AcDbPolygonMeshVertex
 10
0.25
 20
-1.0
 30
4.28
 70
    64
  0
VERTEX
  5
4A73D
100
AcDbEntity
  8
0
100
AcDbVertex
100
AcDbPolygonMeshVertex
 10
0.25
 20
-0.59
 30
4.28
 70
    64
  0
SEQEND
  5
4A73E
100
AcDbEntity
  8
0
  0
CIRCLE
  5
4A73F
100
AcDbEntity
  8
0
100
AcDbCircle
 10
-1.06
 20
-0.795
 30
4.28
 40
0.19
  0
POLYLINE
  5
4A740
100
AcDbEntity
  8
0
100
AcDbPolygonMesh
 66
     1
 10
0.0
 20
0.0
 30
0.0
 70
    16
 71
     6
 72
     3
  0
VERTEX
  5
4A741
100
AcDbEntity
  8
0
100
AcDbVertex
100
AcDbPolygonMeshVertex
 10
-1.31
 20
-0.59
 30
4.28
 70
    64
  0
VERTEX
  5
4A742
100
AcDbEntity
  8
0
100
AcDbVertex
100
AcDbPolygonMeshVertex
 10
-1.31
 20
-0.59
 30
4.09
 70
    64
  0
VERTEX
  5
4A743
100
AcDbEntity
  8
0
100
AcDbVertex
100
AcDbPolygonMeshVertex
 10
-1.31
 20
-0.59
 30
4.09
 70
    64
  0
VERTEX
  5
4A744
100
AcDbEntity
  8
0
100
AcDbVertex
100
AcDbPolygonMeshVertex
 10
-0.81
 20
-0.59
 30
4.28
 70
    64
  0
VERTEX
  5
4A745
100
AcDbEntity
  8
0
100
AcDbVertex
100
AcDbPolygonMeshVertex
 10
-0.81
 20
-0.59
 30
4.09
 70
    64
  0
VERTEX
  5
4A746
100
AcDbEntity
  8
0
100
AcDbVertex
100
AcDbPolygonMeshVertex
 10
-0.81
 20
-0.59
 30
4.09
 70
    64
  0
VERTEX
  5
4A747
100
AcDbEntity
  8
0
100
AcDbVertex
100
AcDbPolygonMeshVertex
 10
-0.81
 20
-1.0
 30
4.28
 70
    64
  0
VERTEX
  5
4A748
100
AcDbEntity
  8
0
100
AcDbVertex
100
AcDbPolygonMeshVertex
 10
-0.81
 20
-1.0
 30
4.09
 70
    64
  0
VERTEX
  5
4A749
100
AcDbEntity
  8
0
100
AcDbVertex
100
AcDbPolygonMeshVertex
 10
-0.81
 20
-0.59
 30
4.09
 70
    64
  0
VERTEX
  5
4A74A
100
AcDbEntity
  8
0
100
AcDbVertex
100
AcDbPolygonMeshVertex
 10
-1.31
 20
-1.0
 30
4.28
 70
    64
  0
VERTEX
  5
4A74B
100
AcDbEntity
  8
0
100
AcDbVertex
100
AcDbPolygonMeshVertex
 10
-1.31
 20
-1.0
 30
4.09
 70
    64
  0
VERTEX
  5
4A74C
100
AcDbEntity
  8
0
100
AcDbVertex
100
AcDbPolygonMeshVertex
 10
-1.31
 20
-0.59
 30
4.09
 70
    64
  0
VERTEX
  5
4A74D
100
AcDbEntity
  8
0
100
AcDbVertex
100
AcDbPolygonMeshVertex
 10
-1.31
 20
-1.0
 30
4.28
 70
    64
  0
VERTEX
  5
4A74E
100
AcDbEntity
  8
0
100
AcDbVertex
100
AcDbPolygonMeshVertex
 10
-1.31
 20
-1.0
 30
4.28
 70
    64
  0
VERTEX
  5
4A74F
100
AcDbEntity
  8
0
100
AcDbVertex
100
AcDbPolygonMeshVertex
 10
-1.31
 20
-0.59
 30
4.28
 70
    64
  0
VERTEX
  5
4A750
100
AcDbEntity
  8
0
100
AcDbVertex
100
AcDbPolygonMeshVertex
 10
-0.81
 20
-1.0
 30
4.28
 70
    64
  0
VERTEX
  5
4A751
100
AcDbEntity
  8
0
100
AcDbVertex
100
AcDbPolygonMeshVertex
 10
-0.81
 20
-1.0
 30
4.28
 70
    64
  0
VERTEX
  5
4A752
100
AcDbEntity
  8
0
100
AcDbVertex
100
AcDbPolygonMeshVertex
 10
-0.81
 20
-0.59
 30
4.28
 70
    64
  0
SEQEND
  5
4A753
100
AcDbEntity
  8
0
  0
LINE
  5
4A754
100
AcDbEntity
  8
0
100
AcDbLine
 10
1.78
 20
-0.34
 30
0.19
 11
-1.78
 21
-0.34
 31
0.19
  0
POLYLINE
  5
4A755
100
AcDbEntity
  8
0
100
AcDbPolygonMesh
 66
     1
 10
0.0
 20
0.0
 30
0.0
 70
    16
 71
     6
 72
     3
  0
VERTEX
  5
4A756
100
AcDbEntity
  8
0
100
AcDbVertex
100
AcDbPolygonMeshVertex
 10
1.78
 20
-5.72
 30
0.19
 70
    64
  0
VERTEX
  5
4A757
100
AcDbEntity
  8
0
100
AcDbVertex
100
AcDbPolygonMeshVertex
 10
1.78
 20
-5.72
 30
0.0
 70
    64
  0
VERTEX
  5
4A758
100
AcDbEntity
  8
0
100
AcDbVertex
100
AcDbPolygonMeshVertex
 10
1.78
 20
-5.72
 30
0.0
 70
    64
  0
VERTEX
  5
4A759
100
AcDbEntity
  8
0
100
AcDbVertex
100
AcDbPolygonMeshVertex
 10
-1.78
 20
-5.72
 30
0.19
 70
    64
  0
VERTEX
  5
4A75A
100
AcDbEntity
  8
0
100
AcDbVertex
100
AcDbPolygonMeshVertex
 10
-1.78
 20
-5.72
 30
0.0
 70
    64
  0
VERTEX
  5
4A75B
100
AcDbEntity
  8
0
100
AcDbVertex
100
AcDbPolygonMeshVertex
 10
-1.78
 20
-5.72
 30
0.0
 70
    64
  0
VERTEX
  5
4A75C
100
AcDbEntity
  8
0
100
AcDbVertex
100
AcDbPolygonMeshVertex
 10
-1.78
 20
-0.34
 30
0.19
 70
    64
  0
VERTEX
  5
4A75D
100
AcDbEntity
  8
0
100
AcDbVertex
100
AcDbPolygonMeshVertex
 10
-1.78
 20
-0.34
 30
0.0
 70
    64
  0
VERTEX
  5
4A75E
100
AcDbEntity
  8
0
100
AcDbVertex
100
AcDbPolygonMeshVertex
 10
-1.78
 20
-5.72
 30
0.0
 70
    64
  0
VERTEX
  5
4A75F
100
AcDbEntity
  8
0
100
AcDbVertex
100
AcDbPolygonMeshVertex
 10
1.78
 20
-0.34
 30
0.19
 70
    64
  0
VERTEX
  5
4A760
100
AcDbEntity
  8
0
100
AcDbVertex
100
AcDbPolygonMeshVertex
 10
1.78
 20
-0.34
 30
0.0
 70
    64
  0
VERTEX
  5
4A761
100
AcDbEntity
  8
0
100
AcDbVertex
100
AcDbPolygonMeshVertex
 10
1.78
 20
-5.72
 30
0.0
 70
    64
  0
VERTEX
  5
4A762
100
AcDbEntity
  8
0
100
AcDbVertex
100
AcDbPolygonMeshVertex
 10
1.78
 20
-0.34
 30
0.19
 70
    64
  0
VERTEX
  5
4A763
100
AcDbEntity
  8
0
100
AcDbVertex
100
AcDbPolygonMeshVertex
 10
1.78
 20
-0.34
 30
0.19
 70
    64
  0
VERTEX
  5
4A764
100
AcDbEntity
  8
0
100
AcDbVertex
100
AcDbPolygonMeshVertex
 10
1.78
 20
-5.72
 30
0.19
 70
    64
  0
VERTEX
  5
4A765
100
AcDbEntity
  8
0
100
AcDbVertex
100
AcDbPolygonMeshVertex
 10
-1.78
 20
-0.34
 30
0.19
 70
    64
  0
VERTEX
  5
4A766
100
AcDbEntity
  8
0
100
AcDbVertex
100
AcDbPolygonMeshVertex
 10
-1.78
 20
-0.34
 30
0.19
 70
    64
  0
VERTEX
  5
4A767
100
AcDbEntity
  8
0
100
AcDbVertex
100
AcDbPolygonMeshVertex
 10
-1.78
 20
-5.72
 30
0.19
 70
    64
  0
SEQEND
  5
4A768
100
AcDbEntity
  8
0
  0
3DFACE
  5
4A769
100
AcDbEntity
  8
0
100
AcDbFace
 10
-1.78
 20
-0.34
 30
0.19
 11
-0.87
 21
0.0
 31
0.19
 12
-0.97
 22
0.28
 32
0.19
 13
-1.16
 23
0.28
 33
0.19
 70
    15
  0
3DFACE
  5
4A76A
100
AcDbEntity
  8
0
100
AcDbFace
 10
-1.78
 20
-0.34
 30
0.19
 11
1.78
 21
-0.34
 31
0.19
 12
-0.38
 22
0.0
 32
0.19
 13
-0.87
 23
0.0
 33
0.19
 70
    15
  0
3DFACE
  5
4A76B
100
AcDbEntity
  8
0
100
AcDbFace
 10
-0.38
 20
0.0
 30
0.19
 11
1.78
 21
-0.34
 31
0.19
 12
1.16
 22
0.28
 32
0.19
 13
-0.28
 23
0.28
 33
0.19
 70
    15
  0
3DFACE
  5
4A76C
100
AcDbEntity
  8
0
100
AcDbFace
 10
-0.38
 20
0.0
 30
0.0
 11
1.78
 21
-0.34
 31
0.0
 12
1.16
 22
0.28
 32
0.0
 13
-0.28
 23
0.28
 33
0.0
 70
    15
  0
3DFACE
  5
4A76D
100
AcDbEntity
  8
0
100
AcDbFace
 10
-1.78
 20
-0.34
 30
0.0
 11
1.78
 21
-0.34
 31
0.0
 12
-0.38
 22
0.0
 32
0.0
 13
-0.87
 23
0.0
 33
0.0
 70
    15
  0
3DFACE
  5
4A76E
100
AcDbEntity
  8
0
100
AcDbFace
 10
-1.78
 20
-0.34
 30
0.0
 11
-0.87
 21
0.0
 31
0.0
 12
-0.97
 22
0.28
 32
0.0
 13
-1.16
 23
0.28
 33
0.0
 70
    15
  0
3DFACE
  5
4A76F
100
AcDbEntity
  8
0
100
AcDbFace
 10
-1.16
 20
0.28
 30
0.0
 11
-1.16
 21
0.28
 31
0.19
 12
-1.78
 22
-0.34
 32
0.19
 13
-1.78
 23
-0.34
 33
0.0
  0
3DFACE
  5
4A770
100
AcDbEntity
  8
0
100
AcDbFace
 10
1.78
 20
-0.34
 30
0.0
 11
1.78
 21
-0.34
 31
0.19
 12
1.16
 22
0.28
 32
0.19
 13
1.16
 23
0.28
 33
0.0
  0
3DFACE
  5
4A771
100
AcDbEntity
  8
0
100
AcDbFace
 10
1.16
 20
0.28
 30
0.0
 11
1.16
 21
0.28
 31
0.19
 12
-0.28
 22
0.28
 32
0.19
 13
-0.28
 23
0.28
 33
0.0
  0
TEXT
  5
4A772
100
AcDbEntity
  8
0
100
AcDbText
 10
-1.125188
 20
-0.84181
 30
4.28
 40
0.12
  1
L1
100
AcDbText
  0
TEXT
  5
4A773
100
AcDbEntity
  8
0
100
AcDbText
 10
-0.076556
 20
-0.847024
 30
4.28
 40
0.12
  1
L2
100
AcDbText
  0
TEXT
  5
4A774
100
AcDbEntity
  8
0
100
AcDbText
 10
0.990636
 20
-0.861514
 30
4.28
 40
0.12
  1
L3
100
AcDbText
  0
TEXT
  5
4A775
100
AcDbEntity
  8
0
100
AcDbText
 10
-1.147233
 20
-5.087877
 30
1.81
 40
0.12
  1
T1
100
AcDbText
  0
TEXT
  5
4A776
100
AcDbEntity
  8
0
100
AcDbText
 10
-0.094362
 20
-5.093892
 30
1.81
 40
0.12
  1
T2
100
AcDbText
  0
TEXT
  5
4A777
100
AcDbEntity
  8
0
100
AcDbText
 10
0.968214
 20
-5.080509
 30
1.81
 40
0.12
  1
T3
100
AcDbText
  0
ATTDEF
  5
4A778
100
AcDbEntity
  8
ATTRIBUTES
100
AcDbText
 10
-1.595065
 20
-3.573135
 30
0.0
 40
0.12
  1
ALLEN-BRADLEY
100
AcDbAttributeDefinition
  3
MANUFACTURER NAME?
  2
AC_VND_LABEL
 70
     1
  0
ATTDEF
  5
4A779
100
AcDbEntity
  8
ATTRIBUTES
100
AcDbText
 10
-1.595065
 20
-3.823135
 30
0.0
 40
0.12
  1
500F-A
100
AcDbAttributeDefinition
  3
CATALOG NUMBER?
  2
AC_PART_NO
 70
     1
  0
ATTDEF
  5
4A77A
100
AcDbEntity
  8
ATTRIBUTES
100
AcDbText
 10
-1.595065
 20
-4.073135
 30
0.0
 40
0.12
  1
NEMA AC FEED- THROUGH WIRING CONTACTOR; SIZE 0 & 1; 2-3P
100
AcDbAttributeDefinition
  3
PART DESCRIPTION?
  2
AC_DESCRIPTION
 70
     1
  0
ATTDEF
  5
4A77B
100
AcDbEntity
  8
ATTRIBUTES
100
AcDbText
 10
-1.595065
 20
-4.323135
 30
0.0
 40
0.12
  1

100
AcDbAttributeDefinition
  3
DEVICE ID?
  2
DEVICE_ID
 70
     1
  0
ATTDEF
  5
4A77C
100
AcDbEntity
  8
ATTRIBUTES
100
AcDbText
 10
-1.595065
 20
-4.573135
 30
0.0
 40
0.12
  1

100
AcDbAttributeDefinition
  3
CUSTOMER PART NUMBER?
  2
AC_CPART_NO
 70
     1
  0
ATTDEF
  5
4A77D
100
AcDbEntity
  8
ATTRIBUTES
100
AcDbText
 10
-1.595065
 20
-4.823135
 30
0.0
 40
0.12
  1

100
AcDbAttributeDefinition
  3
CUSTOMER NOTE?
  2
AC_NOTE
 70
     1
  0
ATTDEF
  5
4A77E
100
AcDbEntity
  8
ATTRIBUTES
100
AcDbText
 10
-1.595065
 20
-5.073135
 30
0.0
 40
0.12
  1

100
AcDbAttributeDefinition
  3
FASTENER DATA?
  2
FASTENER
 70
     1
  0
ATTDEF
  5
4A77F
100
AcDbEntity
  8
ATTRIBUTES
100
AcDbText
 10
-1.595065
 20
-5.323135
 30
0.0
 40
0.12
  1
INCH
100
AcDbAttributeDefinition
  3
UNIT OF SCALE?
  2
AC_SCALE_UNIT
 70
     1
  0
ATTDEF
  5
4A780
100
AcDbEntity
  8
ATTRIBUTES
100
AcDbText
 10
-1.595065
 20
-5.573135
 30
0.0
 40
0.12
  1
0
100
AcDbAttributeDefinition
  3
VIEW CODE?
  2
AC_VIEW_CODE
 70
     1
  0
POINT
  5
4A781
100
AcDbEntity
  8
DIMS-MTG-HOLES
100
AcDbPoint
 10
0.0
 20
0.0
 30
0.0
  0
POINT
  5
4A782
100
AcDbEntity
  8
DIMS-MTG-HOLES
100
AcDbPoint
 10
0.38
 20
0.0
 30
0.0
  0
POINT
  5
4A783
100
AcDbEntity
  8
DIMS-MTG-HOLES
100
AcDbPoint
 10
-1.375
 20
-5.5
 30
0.0
  0
POINT
  5
4A784
100
AcDbEntity
  8
DIMS-MTG-HOLES
100
AcDbPoint
 10
1.375
 20
-5.5
 30
0.0
  0
LWPOLYLINE
  5
4A794
100
AcDbEntity
  8
SCALE
100
AcDbPolyline
 90
        4
 70
     1
 43
0.0
 10
-0.505765
 20
-5.886597
 10
0.629864
 20
-5.886597
 10
0.629864
 20
-6.728207
 10
-0.505765
 20
-6.728207
  0
LINE
  5
4A795
100
AcDbEntity
  8
SCALE
100
AcDbLine
 10
-0.447767
 20
-6.266676
 30
0.0
 11
0.552233
 21
-6.266676
 31
0.0
  0
LINE
  5
4A796
100
AcDbEntity
  8
SCALE
100
AcDbLine
 10
-0.447767
 20
-6.566676
 30
0.0
 11
-0.054067
 21
-6.566676
 31
0.0
  0
LINE
  5
4A797
100
AcDbEntity
  8
SCALE
100
AcDbLine
 10
-0.447767
 20
-6.366676
 30
0.0
 11
-0.447767
 21
-6.166676
 31
0.0
  0
TEXT
  5
4A798
100
AcDbEntity
  8
SCALE
100
AcDbText
 10
-0.391791
 20
-6.518991
 30
0.0
 40
0.0625
  1
[10mm]
100
AcDbText
  0
LINE
  5
4A799
100
AcDbEntity
  8
SCALE
100
AcDbLine
 10
-0.447767
 20
-6.666676
 30
0.0
 11
-0.447767
 21
-6.466676
 31
0.0
  0
TEXT
  5
4A79A
100
AcDbEntity
  8
SCALE
100
AcDbText
 10
-0.446236
 20
-5.991799
 30
0.0
 40
0.0625
  1
SCALE:
100
AcDbText
  0
LINE
  5
4A79B
100
AcDbEntity
  8
SCALE
100
AcDbLine
 10
-0.054067
 20
-6.666676
 30
0.0
 11
-0.054067
 21
-6.466676
 31
0.0
  0
TEXT
  5
4A79C
100
AcDbEntity
  8
SCALE
100
AcDbText
 10
-0.084484
 20
-6.197627
 30
0.0
 40
0.0625
  1
1 Inch
100
AcDbText
  0
LINE
  5
4A79D
100
AcDbEntity
  8
SCALE
100
AcDbLine
 10
0.552233
 20
-6.266676
 30
0.0
 11
0.552233
 21
-6.366676
 31
0.0
  0
LINE
  5
4A79E
100
AcDbEntity
  8
SCALE
100
AcDbLine
 10
0.552233
 20
-6.366676
 30
0.0
 11
0.552233
 21
-6.166676
 31
0.0
  0
DIMENSION
  5
4A79F
100
AcDbEntity
  8
AREA1
100
AcDbDimension
  2
*D0
 10
-2.662176
 20
0.28
 30
0.0
 11
-2.662176
 21
-2.72
 31
0.0
 70
   160
  3
ABECAD_3D
100
AcDbAlignedDimension
 13
-1.78
 23
-5.72
 33
0.0
 14
-1.16
 24
0.28
 34
0.0
 50
90.0
100
AcDbRotatedDimension
  0
DIMENSION
  5
4A7AD
100
AcDbEntity
  8
AREA1
100
AcDbDimension
  2
*D1
 10
1.78
 20
1.005637
 30
0.0
 11
0.040706
 21
1.005637
 31
0.0
 70
   160
  3
ABECAD_3D
100
AcDbAlignedDimension
 13
-1.78
 23
-0.34
 33
0.0
 14
1.78
 24
-0.34
 34
0.0
100
AcDbRotatedDimension
  0
ENDSEC
  0
SECTION
  2
OBJECTS
  0
DICTIONARY
  5
458CB
100
AcDbDictionary
  3
ACAD_GROUP
350
458CC
  3
ACAD_LAYOUT
350
458FB
  3
ACAD_MLINESTYLE
350
458D9
  3
ACAD_PLOTSETTINGS
350
458FC
  3
ACAD_PLOTSTYLENAME
350
458F9
  3
ACDBHEADERROUNDTRIPXREC
350
4A7F1
  3
ACDBVARIABLEDICTIONARY
350
458E1
  3
DWGPROPS
350
45901
  0
DICTIONARY
  5
4A7EF
100
AcDbDictionary
280
     1
  3
ACAD_XREC_ROUNDTRIP
360
4A7F0
  0
DICTIONARY
  5
4A818
100
AcDbDictionary
280
     1
  3
ACAD_XREC_ROUNDTRIP
360
4A819
  0
DICTIONARY
  5
4A7ED
100
AcDbDictionary
280
     1
  3
ACAD_XREC_ROUNDTRIP
360
4A7EE
  0
DICTIONARY
  5
4A814
100
AcDbDictionary
280
     1
  3
ACAD_XREC_ROUNDTRIP
360
4A815
  0
DICTIONARY
  5
4592C
100
AcDbDictionary
280
     1
  3
ACAD_LAYOUTSELFREF
360
4A813
  0
DICTIONARY
  5
4592A
100
AcDbDictionary
280
     1
  3
ACAD_LAYOUTSELFREF
360
4A812
  0
DICTIONARY
  5
458CC
102
{ACAD_REACTORS
330
458CB
102
}
100
AcDbDictionary
  0
DICTIONARY
  5
458FB
102
{ACAD_XDICTIONARY
360
4A816
102
}
102
{ACAD_REACTORS
330
458CB
102
}
100
AcDbDictionary
  3
LAYOUT1
350
458FE
  3
MODEL
350
458FD
  0
DICTIONARY
  5
458D9
102
{ACAD_REACTORS
330
458CB
102
}
100
AcDbDictionary
  3
STANDARD
350
458DA
  0
DICTIONARY
  5
458FC
102
{ACAD_REACTORS
330
458CB
102
}
100
AcDbDictionary
  0
ACAD_PROXY_OBJECT
  5
458F9
102
{ACAD_REACTORS
330
458CB
102
}
100
AcDbProxyObject
 90
      499
 91
      501
 93
       86
310
405010041939BDC9B585B1
350
458FA
340
458FA
 94
        0
  0
DICTIONARY
  5
4A7F1
102
{ACAD_REACTORS
330
458CB
102
}
100
AcDbDictionary
  3
CEPSNTYPE
350
4A7FB
  3
DIMSTYLEDATA
350
4A7FF
  3
FINGERPRINTGUID
350
4A7FC
  3
HYPERLINKBASE
350
4A7F4
  3
INSUNITS
350
4A7FA
  3
LAYOUTDICT
350
4A7F6
  3
LWETCUNION
350
4A7F9
  3
PLOTSETDICT
350
4A7F7
  3
PLOTSTYLNAMDICT
350
4A7F8
  3
PSVPSCALE
350
4A7FE
  3
PUCSBASE
350
4A802
  3
PUCSORGBACK
350
4A808
  3
PUCSORGBOTTOM
350
4A804
  3
PUCSORGFRONT
350
4A807
  3
PUCSORGLEFT
350
4A805
  3
PUCSORGRIGHT
350
4A806
  3
PUCSORGTOP
350
4A803
  3
PUCSORTHOREF
350
4A800
  3
PUCSORTHOVIEW
350
4A801
  3
STYLESHEET
350
4A7F5
  3
TSTACKALIGN
350
4A7F2
  3
TSTACKSIZE
350
4A7F3
  3
UCSBASE
350
4A80B
  3
UCSORGBACK
350
4A811
  3
UCSORGBOTTOM
350
4A80D
  3
UCSORGFRONT
350
4A810
  3
UCSORGLEFT
350
4A80E
  3
UCSORGRIGHT
350
4A80F
  3
UCSORGTOP
350
4A80C
  3
UCSORTHOREF
350
4A809
  3
UCSORTHOVIEW
350
4A80A
  3
VERSIONGUID
350
4A7FD
  0
DICTIONARY
  5
458E1
102
{ACAD_REACTORS
330
458CB
102
}
100
AcDbDictionary
  3
DIMADEC
350
458E2
  0
XRECORD
  5
45901
102
{ACAD_REACTORS
330
458CB
102
}
100
AcDbXrecord
  1
DWGPROPS COOKIE
  2

  3

  4

  6

  7

  8
colin
  9

300
=
301
=
302
=
303
=
304
=
305
=
306
=
307
=
308
=
309
=
 40
0.000599
 41
2451670.444777
 42
2451670.445376
  1

 90
        0
  0
XRECORD
  5
4A7F0
102
{ACAD_REACTORS
330
4A7EF
102
}
100
AcDbXrecord
102
EXTNAMES
  1
*ACTIVE
  2
*Active
102
UCS
 74
     0
 71
     1
 10
0.0
 20
0.0
 30
0.0
 10
1.0
 20
0.0
 30
0.0
 10
0.0
 20
1.0
 30
0.0
146
0.0
 79
     1
102
VIEW
281
     0
  0
XRECORD
  5
4A819
102
{ACAD_REACTORS
330
4A818
102
}
100
AcDbXrecord
102
PLOTBIT
280
     0
  0
XRECORD
  5
4A7EE
102
{ACAD_REACTORS
330
4A7ED
102
}
100
AcDbXrecord
102
EXTNAMES
  1
DEFPOINTS
  2
Defpoints
102
PLOTBIT
280
     0
  0
XRECORD
  5
4A815
102
{ACAD_REACTORS
330
4A814
102
}
100
AcDbXrecord
102
ACADR14ROUNDTRIP
1000
DSTYLE
1002
{
1070
   276
 70
     2
1070
   277
 70
     5
1070
   279
 70
     2
1002
}
  0
XRECORD
  5
4A813
102
{ACAD_REACTORS
330
4592C
102
}
100
AcDbXrecord
340
458D6
  0
XRECORD
  5
4A812
102
{ACAD_REACTORS
330
4592A
102
}
100
AcDbXrecord
340
458D3
  0
DICTIONARY
  5
4A816
100
AcDbDictionary
280
     1
  3
ACAD_XREC_ROUNDTRIP
360
4A817
  0
ACAD_PROXY_OBJECT
  5
458FE
102
{ACAD_REACTORS
330
458FB
102
}
100
AcDbProxyObject
 90
      499
 91
      503
 93
     1348
310
91D4850204C617365724A65742035303030205365726965732050434C20362C00AAAAAA416AA547D11959985D5B1D08148C4D081C195B88185CDCDA59DB9B595B9D1CCB98DD1891069074C61796F75743140501A800000000000000000000000000000000000000000000A1000000000000008902A6A6A10232D5E076BC551
310
0408CB5781DAF154410232D5E076BC5510408CB5781DAF15C410232D5E076BC5710408CB5781DAF15C40
330
458D3
330
0
340
0
340
0
 94
        0
  0
ACAD_PROXY_OBJECT
  5
458FD
102
{ACAD_REACTORS
330
458FB
102
}
100
AcDbProxyObject
 90
      499
 91
      503
 93
      924
310
91D4850204C617365724A65742035303030205365726965732050434C20362C01AAAAAAAAA547D11959985D5B1D08148C4D081C195B88185CDCDA59DB9B595B9D1CCB98DD18A69054D6F64656C901A800000000000000000000000000000000000000000000A1000000000000008902A6A6AAAAF
330
458D6
330
0
340
0
340
0
 94
        0
  0
MLINESTYLE
  5
458DA
102
{ACAD_REACTORS
330
458D9
102
}
100
AcDbMlineStyle
  2
STANDARD
 70
     0
  3

 62
   256
 51
90.0
 52
90.0
 71
     2
 49
0.5
 62
   256
  6
BYLAYER
 49
-0.5
 62
   256
  6
BYLAYER
  0
ACAD_PROXY_OBJECT
  5
458FA
102
{ACAD_REACTORS
330
458F9
102
}
100
AcDbProxyObject
 90
      499
 91
      502
 93
        0
 94
        0
  0
XRECORD
  5
4A7FB
102
{ACAD_REACTORS
330
4A7F1
102
}
100
AcDbXrecord
 90
        0
  0
XRECORD
  5
4A7FF
102
{ACAD_REACTORS
330
4A7F1
102
}
100
AcDbXrecord
1000
DSTYLE
1002
{
1070
   276
 70
     2
1070
   277
 70
     5
1070
   279
 70
     2
1002
}
  0
XRECORD
  5
4A7FC
102
{ACAD_REACTORS
330
4A7F1
102
}
100
AcDbXrecord
  1
{6E0CF4B8-225E-11D4-A150-00A0CC3303EC}
  0
XRECORD
  5
4A7F4
102
{ACAD_REACTORS
330
4A7F1
102
}
100
AcDbXrecord
  1

  0
XRECORD
  5
4A7FA
102
{ACAD_REACTORS
330
4A7F1
102
}
100
AcDbXrecord
 90
        0
  0
XRECORD
  5
4A7F6
102
{ACAD_REACTORS
330
4A7F1
102
}
100
AcDbXrecord
340
458FB
  0
XRECORD
  5
4A7F9
102
{ACAD_REACTORS
330
4A7F1
102
}
100
AcDbXrecord
 90
    14877
  0
XRECORD
  5
4A7F7
102
{ACAD_REACTORS
330
4A7F1
102
}
100
AcDbXrecord
340
458FC
  0
XRECORD
  5
4A7F8
102
{ACAD_REACTORS
330
4A7F1
102
}
100
AcDbXrecord
340
458F9
  0
XRECORD
  5
4A7FE
102
{ACAD_REACTORS
330
4A7F1
102
}
100
AcDbXrecord
 40
0.0
  0
XRECORD
  5
4A802
102
{ACAD_REACTORS
330
4A7F1
102
}
100
AcDbXrecord
340
0
  0
XRECORD
  5
4A808
102
{ACAD_REACTORS
330
4A7F1
102
}
100
AcDbXrecord
 10
0.0
 20
0.0
 30
0.0
  0
XRECORD
  5
4A804
102
{ACAD_REACTORS
330
4A7F1
102
}
100
AcDbXrecord
 10
0.0
 20
0.0
 30
0.0
  0
XRECORD
  5
4A807
102
{ACAD_REACTORS
330
4A7F1
102
}
100
AcDbXrecord
 10
0.0
 20
0.0
 30
0.0
  0
XRECORD
  5
4A805
102
{ACAD_REACTORS
330
4A7F1
102
}
100
AcDbXrecord
 10
0.0
 20
0.0
 30
0.0
  0
XRECORD
  5
4A806
102
{ACAD_REACTORS
330
4A7F1
102
}
100
AcDbXrecord
 10
0.0
 20
0.0
 30
0.0
  0
XRECORD
  5
4A803
102
{ACAD_REACTORS
330
4A7F1
102
}
100
AcDbXrecord
 10
0.0
 20
0.0
 30
0.0
  0
XRECORD
  5
4A800
102
{ACAD_REACTORS
330
4A7F1
102
}
100
AcDbXrecord
340
0
  0
XRECORD
  5
4A801
102
{ACAD_REACTORS
330
4A7F1
102
}
100
AcDbXrecord
 70
     0
  0
XRECORD
  5
4A7F5
102
{ACAD_REACTORS
330
4A7F1
102
}
100
AcDbXrecord
  1

  0
XRECORD
  5
4A7F2
102
{ACAD_REACTORS
330
4A7F1
102
}
100
AcDbXrecord
 90
        1
  0
XRECORD
  5
4A7F3
102
{ACAD_REACTORS
330
4A7F1
102
}
100
AcDbXrecord
 90
       70
  0
XRECORD
  5
4A80B
102
{ACAD_REACTORS
330
4A7F1
102
}
100
AcDbXrecord
340
0
  0
XRECORD
  5
4A811
102
{ACAD_REACTORS
330
4A7F1
102
}
100
AcDbXrecord
 10
0.0
 20
0.0
 30
0.0
  0
XRECORD
  5
4A80D
102
{ACAD_REACTORS
330
4A7F1
102
}
100
AcDbXrecord
 10
0.0
 20
0.0
 30
0.0
  0
XRECORD
  5
4A810
102
{ACAD_REACTORS
330
4A7F1
102
}
100
AcDbXrecord
 10
0.0
 20
0.0
 30
0.0
  0
XRECORD
  5
4A80E
102
{ACAD_REACTORS
330
4A7F1
102
}
100
AcDbXrecord
 10
0.0
 20
0.0
 30
0.0
  0
XRECORD
  5
4A80F
102
{ACAD_REACTORS
330
4A7F1
102
}
100
AcDbXrecord
 10
0.0
 20
0.0
 30
0.0
  0
XRECORD
  5
4A80C
102
{ACAD_REACTORS
330
4A7F1
102
}
100
AcDbXrecord
 10
0.0
 20
0.0
 30
0.0
  0
XRECORD
  5
4A809
102
{ACAD_REACTORS
330
4A7F1
102
}
100
AcDbXrecord
340
0
  0
XRECORD
  5
4A80A
102
{ACAD_REACTORS
330
4A7F1
102
}
100
AcDbXrecord
 70
     1
  0
XRECORD
  5
4A7FD
102
{ACAD_REACTORS
330
4A7F1
102
}
100
AcDbXrecord
  1
{449F66AC-C616-4A10-BA29-64A93F7C275E}
  0
DICTIONARYVAR
  5
458E2
102
{ACAD_REACTORS
330
458E1
102
}
100
DictionaryVariables
280
     0
  1
0
  0
XRECORD
  5
4A817
102
{ACAD_REACTORS
330
4A816
102
}
100
AcDbXrecord
102
EXTNAMES
  1
LAYOUT1
  2
Layout1
  1
MODEL
  2
Model
  0
ENDSEC
  0
EOF
