  0
SECTION
  2
HEADER
  9
$ACADVER
  1
AC1014
  9
$ACADMAINTVER
 70
     8
  9
$DWGCODEPAGE
  3
ANSI_1252
  9
$INSBASE
 10
0.0
 20
0.0
 30
0.0
  9
$EXTMIN
 10
-5.776192
 20
-13.493649
 30
-1.545309
  9
$EXTMAX
 10
3.5
 20
2.756967
 30
9.670309
  9
$LIMMIN
 10
0.0
 20
0.0
  9
$LIMMAX
 10
12.0
 20
9.0
  9
$ORTHOMODE
 70
     0
  9
$REGENMODE
 70
     1
  9
$FILLMODE
 70
     1
  9
$QTEXTMODE
 70
     0
  9
$MIRRTEXT
 70
     1
  9
$DRAGMODE
 70
     2
  9
$LTSCALE
 40
1.0
  9
$OSMODE
 70
     0
  9
$ATTMODE
 70
     0
  9
$TEXTSIZE
 40
0.2
  9
$TRACEWID
 40
0.05
  9
$TEXTSTYLE
  7
STANDARD
  9
$CLAYER
  8
0
  9
$CELTYPE
  6
BYLAYER
  9
$CECOLOR
 62
   256
  9
$CELTSCALE
 40
1.0
  9
$DELOBJ
 70
     1
  9
$DISPSILH
 70
     0
  9
$DIMSCALE
 40
0.0
  9
$DIMASZ
 40
0.18
  9
$DIMEXO
 40
0.0625
  9
$DIMDLI
 40
0.375
  9
$DIMRND
 40
0.0
  9
$DIMDLE
 40
0.0
  9
$DIMEXE
 40
0.18
  9
$DIMTP
 40
0.0
  9
$DIMTM
 40
0.0
  9
$DIMTXT
 40
0.13
  9
$DIMCEN
 40
0.09
  9
$DIMTSZ
 40
0.0
  9
$DIMTOL
 70
     0
  9
$DIMLIM
 70
     0
  9
$DIMTIH
 70
     0
  9
$DIMTOH
 70
     1
  9
$DIMSE1
 70
     0
  9
$DIMSE2
 70
     0
  9
$DIMTAD
 70
     0
  9
$DIMZIN
 70
     4
  9
$DIMBLK
  1

  9
$DIMASO
 70
     1
  9
$DIMSHO
 70
     1
  9
$DIMPOST
  1

  9
$DIMAPOST
  1

  9
$DIMALT
 70
     1
  9
$DIMALTD
 70
     2
  9
$DIMALTF
 40
25.4
  9
$DIMLFAC
 40
1.0
  9
$DIMTOFL
 70
     0
  9
$DIMTVP
 40
0.0
  9
$DIMTIX
 70
     0
  9
$DIMSOXD
 70
     0
  9
$DIMSAH
 70
     0
  9
$DIMBLK1
  1

  9
$DIMBLK2
  1

  9
$DIMSTYLE
  2
ABECAD_3V
  9
$DIMCLRD
 70
     0
  9
$DIMCLRE
 70
     0
  9
$DIMCLRT
 70
     0
  9
$DIMTFAC
 40
1.5
  9
$DIMGAP
 40
0.09
  9
$DIMJUST
 70
     0
  9
$DIMSD1
 70
     0
  9
$DIMSD2
 70
     0
  9
$DIMTOLJ
 70
     1
  9
$DIMTZIN
 70
     4
  9
$DIMALTZ
 70
     4
  9
$DIMALTTZ
 70
     4
  9
$DIMFIT
 70
     5
  9
$DIMUPT
 70
     1
  9
$DIMUNIT
 70
     7
  9
$DIMDEC
 70
     6
  9
$DIMTDEC
 70
     6
  9
$DIMALTU
 70
     2
  9
$DIMALTTD
 70
     2
  9
$DIMTXSTY
  7
STANDARD
  9
$DIMAUNIT
 70
     0
  9
$LUNITS
 70
     2
  9
$LUPREC
 70
     6
  9
$SKETCHINC
 40
0.1
  9
$FILLETRAD
 40
0.0
  9
$AUNITS
 70
     0
  9
$AUPREC
 70
     0
  9
$MENU
  1
acad
  9
$ELEVATION
 40
0.0
  9
$PELEVATION
 40
0.0
  9
$THICKNESS
 40
0.0
  9
$LIMCHECK
 70
     0
  9
$BLIPMODE
 70
     0
  9
$CHAMFERA
 40
0.0
  9
$CHAMFERB
 40
0.0
  9
$CHAMFERC
 40
0.0
  9
$CHAMFERD
 40
0.0
  9
$SKPOLY
 70
     0
  9
$TDCREATE
 40
2451726.438362384
  9
$TDUPDATE
 40
2452661.468672106
  9
$TDINDWG
 40
0.0782405093
  9
$TDUSRTIMER
 40
0.0782405093
  9
$USRTIMER
 70
     1
  9
$ANGBASE
 50
0.0
  9
$ANGDIR
 70
     0
  9
$PDMODE
 70
     3
  9
$PDSIZE
 40
0.18
  9
$PLINEWID
 40
0.0
  9
$COORDS
 70
     1
  9
$SPLFRAME
 70
     0
  9
$SPLINETYPE
 70
     6
  9
$SPLINESEGS
 70
     8
  9
$ATTDIA
 70
     0
  9
$ATTREQ
 70
     1
  9
$HANDLING
 70
     1
  9
$HANDSEED
  5
5DE1
  9
$SURFTAB1
 70
     6
  9
$SURFTAB2
 70
     6
  9
$SURFTYPE
 70
     6
  9
$SURFU
 70
     6
  9
$SURFV
 70
     6
  9
$UCSNAME
  2

  9
$UCSORG
 10
0.0
 20
0.0
 30
0.0
  9
$UCSXDIR
 10
1.0
 20
0.0
 30
0.0
  9
$UCSYDIR
 10
0.0
 20
1.0
 30
0.0
  9
$PUCSNAME
  2

  9
$PUCSORG
 10
0.0
 20
0.0
 30
0.0
  9
$PUCSXDIR
 10
1.0
 20
0.0
 30
0.0
  9
$PUCSYDIR
 10
0.0
 20
1.0
 30
0.0
  9
$USERI1
 70
     0
  9
$USERI2
 70
     0
  9
$USERI3
 70
     0
  9
$USERI4
 70
     0
  9
$USERI5
 70
     0
  9
$USERR1
 40
0.0
  9
$USERR2
 40
0.0
  9
$USERR3
 40
0.0
  9
$USERR4
 40
0.0
  9
$USERR5
 40
0.0
  9
$WORLDVIEW
 70
     1
  9
$SHADEDGE
 70
     3
  9
$SHADEDIF
 70
    70
  9
$TILEMODE
 70
     0
  9
$MAXACTVP
 70
    16
  9
$PINSBASE
 10
0.0
 20
0.0
 30
0.0
  9
$PLIMCHECK
 70
     0
  9
$PEXTMIN
 10
0.0
 20
0.0
 30
0.0
  9
$PEXTMAX
 10
10.0
 20
7.5
 30
0.0
  9
$PLIMMIN
 10
-0.187029
 20
-0.186938
  9
$PLIMMAX
 10
10.187518
 20
7.829757
  9
$UNITMODE
 70
     0
  9
$VISRETAIN
 70
     0
  9
$PLINEGEN
 70
     0
  9
$PSLTSCALE
 70
     1
  9
$TREEDEPTH
 70
  3020
  9
$PICKSTYLE
 70
     1
  9
$CMLSTYLE
  2
STANDARD
  9
$CMLJUST
 70
     0
  9
$CMLSCALE
 40
1.0
  9
$PROXYGRAPHICS
 70
     1
  9
$MEASUREMENT
 70
     0
  0
ENDSEC
  0
SECTION
  2
CLASSES
  0
CLASS
  1
DICTIONARYVAR
  2
AcDbDictionaryVar
  3
"AutoCAD"
 90
        0
280
     0
281
     0
  0
CLASS
  1
ACDBDICTIONARYWDFLT
  2
AcDbDictionaryWithDefault
  3
AutoCAD 2000
 90
        0
280
     0
281
     0
  0
CLASS
  1
ACDBPLACEHOLDER
  2
AcDbPlaceHolder
  3
AutoCAD 2000
 90
        0
280
     0
281
     0
  0
CLASS
  1
LAYOUT
  2
AcDbLayout
  3
AutoCAD 2000
 90
        0
280
     0
281
     0
  0
CLASS
  1
LONG_TRANSACTION
  2
AcDbLongTransaction
  3
AutoCAD 2000
 90
        0
280
     0
281
     0
  0
CLASS
  1
LWPOLYLINE
  2
AcDbPolyline
  3
"AutoCAD"
 90
        0
280
     0
281
     1
  0
CLASS
  1
HATCH
  2
AcDbHatch
  3
"ACAD_SEDONA"
 90
        0
280
     0
281
     1
  0
CLASS
  1
XRECORD
  2
AcDbXrecord
  3
"<Built In>"
 90
        0
280
     0
281
     0
  0
CLASS
  1
LONG_TRANSACTION
  2
AcDbLongTransaction
  3
AutoCAD 2000
 90
        0
280
     0
281
     0
  0
CLASS
  1
LWPOLYLINE
  2
AcDbPolyline
  3
"AutoCAD"
 90
        0
280
     0
281
     1
  0
CLASS
  1
HATCH
  2
AcDbHatch
  3
"ACAD_SEDONA"
 90
        0
280
     0
281
     1
  0
CLASS
  1
XRECORD
  2
AcDbXrecord
  3
"<Built In>"
 90
        0
280
     0
281
     0
  0
CLASS
  1
LONG_TRANSACTION
  2
AcDbLongTransaction
  3
AutoCAD 2000
 90
        0
280
     0
281
     0
  0
CLASS
  1
LWPOLYLINE
  2
AcDbPolyline
  3
"AutoCAD"
 90
        0
280
     0
281
     1
  0
CLASS
  1
HATCH
  2
AcDbHatch
  3
"ACAD_SEDONA"
 90
        0
280
     0
281
     1
  0
CLASS
  1
XRECORD
  2
AcDbXrecord
  3
"<Built In>"
 90
        0
280
     0
281
     0
  0
CLASS
  1
LONG_TRANSACTION
  2
AcDbLongTransaction
  3
AutoCAD 2000
 90
        0
280
     0
281
     0
  0
CLASS
  1
LWPOLYLINE
  2
AcDbPolyline
  3
"AutoCAD"
 90
        0
280
     0
281
     1
  0
CLASS
  1
HATCH
  2
AcDbHatch
  3
"ACAD_SEDONA"
 90
        0
280
     0
281
     1
  0
CLASS
  1
XRECORD
  2
AcDbXrecord
  3
"<Built In>"
 90
        0
280
     0
281
     0
  0
CLASS
  1
LONG_TRANSACTION
  2
AcDbLongTransaction
  3
AutoCAD 2000
 90
        0
280
     0
281
     0
  0
CLASS
  1
LWPOLYLINE
  2
AcDbPolyline
  3
"AutoCAD"
 90
        0
280
     0
281
     1
  0
CLASS
  1
HATCH
  2
AcDbHatch
  3
"ACAD_SEDONA"
 90
        0
280
     0
281
     1
  0
CLASS
  1
XRECORD
  2
AcDbXrecord
  3
"<Built In>"
 90
        0
280
     0
281
     0
  0
CLASS
  1
LONG_TRANSACTION
  2
AcDbLongTransaction
  3
AutoCAD 2000
 90
        0
280
     0
281
     0
  0
CLASS
  1
LWPOLYLINE
  2
AcDbPolyline
  3
"AutoCAD"
 90
        0
280
     0
281
     1
  0
CLASS
  1
HATCH
  2
AcDbHatch
  3
"ACAD_SEDONA"
 90
        0
280
     0
281
     1
  0
CLASS
  1
XRECORD
  2
AcDbXrecord
  3
"<Built In>"
 90
        0
280
     0
281
     0
  0
CLASS
  1
LONG_TRANSACTION
  2
AcDbLongTransaction
  3
AutoCAD 2000
 90
        0
280
     0
281
     0
  0
CLASS
  1
LWPOLYLINE
  2
AcDbPolyline
  3
"AutoCAD"
 90
        0
280
     0
281
     1
  0
CLASS
  1
HATCH
  2
AcDbHatch
  3
"ACAD_SEDONA"
 90
        0
280
     0
281
     1
  0
CLASS
  1
XRECORD
  2
AcDbXrecord
  3
"<Built In>"
 90
        0
280
     0
281
     0
  0
CLASS
  1
LONG_TRANSACTION
  2
AcDbLongTransaction
  3
AutoCAD 2000
 90
        0
280
     0
281
     0
  0
CLASS
  1
LWPOLYLINE
  2
AcDbPolyline
  3
"AutoCAD"
 90
        0
280
     0
281
     1
  0
CLASS
  1
HATCH
  2
AcDbHatch
  3
"ACAD_SEDONA"
 90
        0
280
     0
281
     1
  0
CLASS
  1
XRECORD
  2
AcDbXrecord
  3
"<Built In>"
 90
        0
280
     0
281
     0
  0
CLASS
  1
LONG_TRANSACTION
  2
AcDbLongTransaction
  3
AutoCAD 2000
 90
        0
280
     0
281
     0
  0
CLASS
  1
LWPOLYLINE
  2
AcDbPolyline
  3
"AutoCAD"
 90
        0
280
     0
281
     1
  0
CLASS
  1
HATCH
  2
AcDbHatch
  3
"ACAD_SEDONA"
 90
        0
280
     0
281
     1
  0
CLASS
  1
XRECORD
  2
AcDbXrecord
  3
"<Built In>"
 90
        0
280
     0
281
     0
  0
CLASS
  1
LONG_TRANSACTION
  2
AcDbLongTransaction
  3
AutoCAD 2000
 90
        0
280
     0
281
     0
  0
CLASS
  1
LWPOLYLINE
  2
AcDbPolyline
  3
"AutoCAD"
 90
        0
280
     0
281
     1
  0
CLASS
  1
HATCH
  2
AcDbHatch
  3
"ACAD_SEDONA"
 90
        0
280
     0
281
     1
  0
CLASS
  1
XRECORD
  2
AcDbXrecord
  3
"<Built In>"
 90
        0
280
     0
281
     0
  0
CLASS
  1
LONG_TRANSACTION
  2
AcDbLongTransaction
  3
AutoCAD 2000
 90
        0
280
     0
281
     0
  0
CLASS
  1
LWPOLYLINE
  2
AcDbPolyline
  3
"AutoCAD"
 90
        0
280
     0
281
     1
  0
CLASS
  1
HATCH
  2
AcDbHatch
  3
"ACAD_SEDONA"
 90
        0
280
     0
281
     1
  0
CLASS
  1
XRECORD
  2
AcDbXrecord
  3
"<Built In>"
 90
        0
280
     0
281
     0
  0
ENDSEC
  0
SECTION
  2
TABLES
  0
TABLE
  2
VPORT
  5
469
100
AcDbSymbolTable
 70
     1
  0
VPORT
  5
5D70
102
{ACAD_XDICTIONARY
360
5DA9
102
}
100
AcDbSymbolTableRecord
100
AcDbViewportTableRecord
  2
*ACTIVE
 70
     0
 10
0.0
 20
0.0
 11
1.0
 21
1.0
 12
-1.138096
 22
-5.368341
 13
0.0
 23
0.0
 14
1.0
 24
1.0
 15
0.0
 25
0.0
 16
0.0
 26
0.0
 36
1.0
 17
0.0
 27
0.0
 37
0.0
 40
16.418726
 41
1.766839
 42
50.0
 43
0.0
 44
0.0
 50
0.0
 51
0.0
 71
     0
 72
   100
 73
     1
 74
     1
 75
     0
 76
     0
 77
     0
 78
     0
  0
ENDTAB
  0
TABLE
  2
LTYPE
  5
466
100
AcDbSymbolTable
 70
     1
  0
LTYPE
  5
472
100
AcDbSymbolTableRecord
100
AcDbLinetypeTableRecord
  2
BYBLOCK
 70
     0
  3

 72
    65
 73
     0
 40
0.0
  0
LTYPE
  5
473
100
AcDbSymbolTableRecord
100
AcDbLinetypeTableRecord
  2
BYLAYER
 70
     0
  3

 72
    65
 73
     0
 40
0.0
  0
LTYPE
  5
474
100
AcDbSymbolTableRecord
100
AcDbLinetypeTableRecord
  2
CONTINUOUS
 70
     0
  3
Solid line
 72
    65
 73
     0
 40
0.0
  0
ENDTAB
  0
TABLE
  2
LAYER
  5
463
100
AcDbSymbolTable
 70
     8
  0
LAYER
  5
46F
100
AcDbSymbolTableRecord
100
AcDbLayerTableRecord
  2
0
 70
     0
 62
     7
  6
CONTINUOUS
  0
LAYER
  5
485
100
AcDbSymbolTableRecord
100
AcDbLayerTableRecord
  2
AREA1
 70
     0
 62
     7
  6
CONTINUOUS
  0
LAYER
  5
486
100
AcDbSymbolTableRecord
100
AcDbLayerTableRecord
  2
AREA2
 70
     0
 62
     7
  6
CONTINUOUS
  0
LAYER
  5
494
102
{ACAD_XDICTIONARY
360
5DD6
102
}
100
AcDbSymbolTableRecord
100
AcDbLayerTableRecord
  2
DEFPOINTS
 70
     0
 62
    -7
  6
CONTINUOUS
  0
LAYER
  5
495
100
AcDbSymbolTableRecord
100
AcDbLayerTableRecord
  2
DIMS-MTG-HOLES
 70
     0
 62
    -1
  6
CONTINUOUS
  0
LAYER
  5
4E6
100
AcDbSymbolTableRecord
100
AcDbLayerTableRecord
  2
SCALE
 70
     0
 62
    -7
  6
CONTINUOUS
  0
LAYER
  5
4ED
100
AcDbSymbolTableRecord
100
AcDbLayerTableRecord
  2
SNAP_POINTS
 70
     0
 62
    -1
  6
CONTINUOUS
  0
LAYER
  5
4F1
100
AcDbSymbolTableRecord
100
AcDbLayerTableRecord
  2
ATTRIBUTES
 70
     0
 62
    -7
  6
CONTINUOUS
  0
ENDTAB
  0
TABLE
  2
STYLE
  5
464
100
AcDbSymbolTable
 70
     1
  0
STYLE
  5
470
100
AcDbSymbolTableRecord
100
AcDbTextStyleTableRecord
  2
STANDARD
 70
     0
 40
0.0
 41
1.0
 50
0.0
 71
     0
 42
0.2
  3
txt
  4

  0
ENDTAB
  0
TABLE
  2
VIEW
  5
467
100
AcDbSymbolTable
 70
     0
  0
ENDTAB
  0
TABLE
  2
UCS
  5
468
100
AcDbSymbolTable
 70
     0
  0
ENDTAB
  0
TABLE
  2
APPID
  5
46A
100
AcDbSymbolTable
 70
     2
  0
APPID
  5
471
100
AcDbSymbolTableRecord
100
AcDbRegAppTableRecord
  2
ACAD
 70
     0
  0
APPID
  5
47E
100
AcDbSymbolTableRecord
100
AcDbRegAppTableRecord
  2
AVE_RENDER
 70
     0
  0
ENDTAB
  0
TABLE
  2
DIMSTYLE
  5
46B
100
AcDbSymbolTable
 70
     2
  0
DIMSTYLE
105
49A
102
{ACAD_XDICTIONARY
360
5DD8
102
}
102
{ACAD_REACTORS
330
5C91
330
5C57
330
5C56
102
}
100
AcDbSymbolTableRecord
100
AcDbDimStyleTableRecord
  2
ABECAD_3V
 70
     0
  3

  4

  5

  6

  7

 40
0.0
 41
0.18
 42
0.0625
 43
0.375
 44
0.18
 45
0.0
 46
0.0
 47
0.0
 48
0.0
140
0.13
141
0.09
142
0.0
143
25.4
144
1.0
145
0.0
146
1.5
147
0.09
 71
     0
 72
     0
 73
     0
 74
     1
 75
     0
 76
     0
 77
     0
 78
     4
170
     1
171
     2
172
     0
173
     0
174
     0
175
     0
176
     0
177
     0
178
     0
270
     7
271
     6
272
     6
273
     2
274
     2
340
470
275
     0
280
     0
281
     0
282
     0
283
     1
284
     4
285
     4
286
     4
287
     5
288
     1
  0
DIMSTYLE
105
512
102
{ACAD_XDICTIONARY
360
5DDC
102
}
100
AcDbSymbolTableRecord
100
AcDbDimStyleTableRecord
  2
ABECAD_3D
 70
     0
  3

  4

  5

  6

  7

 40
1.0
 41
0.18
 42
0.0625
 43
0.375
 44
0.18
 45
0.0
 46
0.0
 47
0.0
 48
0.0
140
0.18
141
0.09
142
0.0
143
25.4
144
1.0
145
0.0
146
1.5
147
0.09
 71
     0
 72
     0
 73
     0
 74
     1
 75
     0
 76
     0
 77
     0
 78
     4
170
     1
171
     2
172
     0
173
     0
174
     0
175
     0
176
     0
177
     0
178
     0
270
     7
271
     6
272
     6
273
     2
274
     2
340
470
275
     0
280
     0
281
     0
282
     0
283
     1
284
     4
285
     4
286
     4
287
     5
288
     1
  0
ENDTAB
  0
TABLE
  2
BLOCK_RECORD
  5
462
100
AcDbSymbolTable
 70
     3
  0
BLOCK_RECORD
  5
478
102
{ACAD_XDICTIONARY
360
4D2
102
}
100
AcDbSymbolTableRecord
100
AcDbBlockTableRecord
  2
*MODEL_SPACE
  0
BLOCK_RECORD
  5
475
102
{ACAD_XDICTIONARY
360
4D0
102
}
100
AcDbSymbolTableRecord
100
AcDbBlockTableRecord
  2
*PAPER_SPACE
  0
BLOCK_RECORD
  5
5C63
100
AcDbSymbolTableRecord
100
AcDbBlockTableRecord
  2
*D0
  0
BLOCK_RECORD
  5
5C70
100
AcDbSymbolTableRecord
100
AcDbBlockTableRecord
  2
*D1
  0
BLOCK_RECORD
  5
5C92
100
AcDbSymbolTableRecord
100
AcDbBlockTableRecord
  2
*D2
  0
ENDTAB
  0
ENDSEC
  0
SECTION
  2
BLOCKS
  0
BLOCK
  5
48B
100
AcDbEntity
  8
0
100
AcDbBlockBegin
  2
*MODEL_SPACE
 70
     0
 10
0.0
 20
0.0
 30
0.0
  3
*MODEL_SPACE
  1

  0
ENDBLK
  5
48C
100
AcDbEntity
  8
0
100
AcDbBlockEnd
  0
BLOCK
  5
489
100
AcDbEntity
 67
     1
  8
0
100
AcDbBlockBegin
  2
*PAPER_SPACE
 70
     0
 10
0.0
 20
0.0
 30
0.0
  3
*PAPER_SPACE
  1

  0
ENDBLK
  5
48A
100
AcDbEntity
 67
     1
  8
0
100
AcDbBlockEnd
  0
BLOCK
  5
5C6E
100
AcDbEntity
  8
0
100
AcDbBlockBegin
  2
*D0
 70
     1
 10
0.0
 20
0.0
 30
0.0
  3
*D0
  1

  0
LINE
  5
5CF6
100
AcDbEntity
  8
AREA1
 62
     0
100
AcDbLine
 10
-2.833283
 20
1.19
 30
0.0
 11
-5.776192
 21
1.19
 31
0.0
1001
ACAD
1000
RTLwPs
1070
   158
  0
LINE
  5
5CF7
100
AcDbEntity
  8
AREA1
 62
     0
100
AcDbLine
 10
-3.268283
 20
-12.31
 30
0.0
 11
-5.776192
 21
-12.31
 31
0.0
1001
ACAD
1000
RTLwPs
1070
   158
  0
LINE
  5
5CF8
100
AcDbEntity
  8
AREA1
 62
     0
100
AcDbLine
 10
-5.003538
 20
0.417345
 30
0.0
 11
-5.003538
 21
-1.866482
 31
0.0
1001
ACAD
1000
RTLwPs
1070
   158
  0
LINE
  5
5CF9
100
AcDbEntity
  8
AREA1
 62
     0
100
AcDbLine
 10
-5.003538
 20
-11.537345
 30
0.0
 11
-5.003538
 21
-9.61449
 31
0.0
1001
ACAD
1000
RTLwPs
1070
   158
  0
MTEXT
  5
5CFA
100
AcDbEntity
  8
AREA1
 62
     0
100
AcDbMText
 10
-5.003538
 20
-5.740486
 30
0.0
 40
0.558028
 41
0.0
 71
     5
 72
     1
  1
\A1;13 1/2 [342.90]
 11
0.0
 21
1.0
 31
0.0
1001
ACAD
1000
MTEXTBEGIN
1070
    73
1070
     1
1070
    44
1040
1.0
1070
    74
1070
     0
1000
MTEXTEND
1000
MTEXTBEGIN
1070
    73
1070
     1
1070
    44
1040
1.0
1070
    74
1070
     0
1000
MTEXTEND
1000
MTEXTBEGIN
1070
    73
1070
     1
1070
    44
1040
1.0
1070
    74
1070
     0
1000
MTEXTEND
1000
MTEXTBEGIN
1070
    73
1070
     1
1070
    44
1040
1.0
1070
    74
1070
     0
1000
MTEXTEND
  0
SOLID
  5
5CFB
100
AcDbEntity
  8
AREA1
 62
     0
100
AcDbTrace
 10
-5.132313
 20
0.417345
 30
0.0
 11
-4.874762
 21
0.417345
 31
0.0
 12
-5.003538
 22
1.19
 32
0.0
 13
-5.003538
 23
1.19
 33
0.0
  0
SOLID
  5
5CFC
100
AcDbEntity
  8
AREA1
 62
     0
100
AcDbTrace
 10
-5.132313
 20
-11.537345
 30
0.0
 11
-4.874762
 21
-11.537345
 31
0.0
 12
-5.003538
 22
-12.31
 32
0.0
 13
-5.003538
 23
-12.31
 33
0.0
  0
POINT
  5
5CFD
100
AcDbEntity
  8
DEFPOINTS
 62
     0
100
AcDbPoint
 10
-2.565
 20
1.19
 30
3.0
  0
POINT
  5
5CFE
100
AcDbEntity
  8
DEFPOINTS
 62
     0
100
AcDbPoint
 10
-3.0
 20
-12.31
 30
0.278
  0
POINT
  5
5CFF
100
AcDbEntity
  8
DEFPOINTS
 62
     0
100
AcDbPoint
 10
-5.003538
 20
-12.31
 30
0.0
  0
ENDBLK
  5
5C6F
100
AcDbEntity
  8
0
100
AcDbBlockEnd
  0
BLOCK
  5
5C7B
100
AcDbEntity
  8
0
100
AcDbBlockBegin
  2
*D1
 70
     1
 10
0.0
 20
0.0
 30
0.0
  3
*D1
  1

  0
LINE
  5
5CEC
100
AcDbEntity
  8
AREA1
 62
     0
100
AcDbLine
 10
-3.5
 20
-8.321717
 30
0.0
 11
-3.5
 21
2.756967
 31
0.0
1001
ACAD
1000
RTLwPs
1070
   158
  0
LINE
  5
5CED
100
AcDbEntity
  8
AREA1
 62
     0
100
AcDbLine
 10
3.5
 20
-8.321717
 30
0.0
 11
3.5
 21
2.756967
 31
0.0
1001
ACAD
1000
RTLwPs
1070
   158
  0
LINE
  5
5CEE
100
AcDbEntity
  8
AREA1
 62
     0
100
AcDbLine
 10
-2.727345
 20
1.984312
 30
0.0
 11
-2.517748
 21
1.984312
 31
0.0
1001
ACAD
1000
RTLwPs
1070
   158
  0
LINE
  5
5CEF
100
AcDbEntity
  8
AREA1
 62
     0
100
AcDbLine
 10
2.727345
 20
1.984312
 30
0.0
 11
2.626128
 21
1.984312
 31
0.0
1001
ACAD
1000
RTLwPs
1070
   158
  0
MTEXT
  5
5CF0
100
AcDbEntity
  8
AREA1
 62
     0
100
AcDbMText
 10
0.05419
 20
1.984312
 30
0.0
 40
0.558028
 41
0.0
 71
     5
 72
     1
  1
\A1;7 [177.80]
1001
ACAD
1000
MTEXTBEGIN
1070
    73
1070
     1
1070
    44
1040
1.0
1070
    74
1070
     0
1000
MTEXTEND
1000
MTEXTBEGIN
1070
    73
1070
     1
1070
    44
1040
1.0
1070
    74
1070
     0
1000
MTEXTEND
1000
MTEXTBEGIN
1070
    73
1070
     1
1070
    44
1040
1.0
1070
    74
1070
     0
1000
MTEXTEND
1000
MTEXTBEGIN
1070
    73
1070
     1
1070
    44
1040
1.0
1070
    74
1070
     0
1000
MTEXTEND
  0
SOLID
  5
5CF1
100
AcDbEntity
  8
AREA1
 62
     0
100
AcDbTrace
 10
-2.727345
 20
2.113088
 30
0.0
 11
-2.727345
 21
1.855537
 31
0.0
 12
-3.5
 22
1.984312
 32
0.0
 13
-3.5
 23
1.984312
 33
0.0
  0
SOLID
  5
5CF2
100
AcDbEntity
  8
AREA1
 62
     0
100
AcDbTrace
 10
2.727345
 20
2.113088
 30
0.0
 11
2.727345
 21
1.855537
 31
0.0
 12
3.5
 22
1.984312
 32
0.0
 13
3.5
 23
1.984312
 33
0.0
  0
POINT
  5
5CF3
100
AcDbEntity
  8
DEFPOINTS
 62
     0
100
AcDbPoint
 10
-3.5
 20
-8.59
 30
0.0
  0
POINT
  5
5CF4
100
AcDbEntity
  8
DEFPOINTS
 62
     0
100
AcDbPoint
 10
3.5
 20
-8.59
 30
0.0
  0
POINT
  5
5CF5
100
AcDbEntity
  8
DEFPOINTS
 62
     0
100
AcDbPoint
 10
3.5
 20
1.984312
 30
0.0
  0
ENDBLK
  5
5C7C
100
AcDbEntity
  8
0
100
AcDbBlockEnd
  0
BLOCK
  5
5C9D
100
AcDbEntity
  8
0
100
AcDbBlockBegin
  2
*D2
 70
     1
 10
0.0
 20
0.0
 30
0.0
  3
*D2
  1

  0
LINE
  5
5CE2
100
AcDbEntity
  8
AREA2
 62
     0
100
AcDbLine
 10
-2.830783
 20
8.125
 30
0.0
 11
-5.08322
 21
8.125
 31
0.0
1001
ACAD
1000
RTLwPs
1070
   158
  0
LINE
  5
5CE3
100
AcDbEntity
  8
AREA2
 62
     0
100
AcDbLine
 10
-3.768283
 20
0.0
 30
0.0
 11
-5.08322
 21
0.0
 31
0.0
1001
ACAD
1000
RTLwPs
1070
   158
  0
LINE
  5
5CE4
100
AcDbEntity
  8
AREA2
 62
     0
100
AcDbLine
 10
-4.310566
 20
8.897655
 30
0.0
 11
-4.310566
 21
9.670309
 31
0.0
1001
ACAD
1000
RTLwPs
1070
   158
  0
LINE
  5
5CE5
100
AcDbEntity
  8
AREA2
 62
     0
100
AcDbLine
 10
-4.310566
 20
-0.772655
 30
0.0
 11
-4.310566
 21
-1.545309
 31
0.0
1001
ACAD
1000
RTLwPs
1070
   158
  0
MTEXT
  5
5CE6
100
AcDbEntity
  8
AREA2
 62
     0
100
AcDbMText
 10
-4.310566
 20
3.969919
 30
0.0
 40
0.558028
 41
0.0
 71
     5
 72
     1
  1
\A1;8 1/8 [206.38]
 11
0.0
 21
1.0
 31
0.0
1001
ACAD
1000
MTEXTBEGIN
1070
    73
1070
     1
1070
    44
1040
1.0
1070
    74
1070
     0
1000
MTEXTEND
1000
MTEXTBEGIN
1070
    73
1070
     1
1070
    44
1040
1.0
1070
    74
1070
     0
1000
MTEXTEND
1000
MTEXTBEGIN
1070
    73
1070
     1
1070
    44
1040
1.0
1070
    74
1070
     0
1000
MTEXTEND
1000
MTEXTBEGIN
1070
    73
1070
     1
1070
    44
1040
1.0
1070
    74
1070
     0
1000
MTEXTEND
  0
SOLID
  5
5CE7
100
AcDbEntity
  8
AREA2
 62
     0
100
AcDbTrace
 10
-4.439342
 20
8.897655
 30
0.0
 11
-4.18179
 21
8.897655
 31
0.0
 12
-4.310566
 22
8.125
 32
0.0
 13
-4.310566
 23
8.125
 33
0.0
  0
SOLID
  5
5CE8
100
AcDbEntity
  8
AREA2
 62
     0
100
AcDbTrace
 10
-4.439342
 20
-0.772655
 30
0.0
 11
-4.18179
 21
-0.772655
 31
0.0
 12
-4.310566
 22
0.0
 32
0.0
 13
-4.310566
 23
0.0
 33
0.0
  0
POINT
  5
5CE9
100
AcDbEntity
  8
DEFPOINTS
 62
     0
100
AcDbPoint
 10
-2.5625
 20
8.125
 30
-0.0625
  0
POINT
  5
5CEA
100
AcDbEntity
  8
DEFPOINTS
 62
     0
100
AcDbPoint
 10
-3.5
 20
0.0
 30
8.5275
  0
POINT
  5
5CEB
100
AcDbEntity
  8
DEFPOINTS
 62
     0
100
AcDbPoint
 10
-4.310566
 20
0.0
 30
0.0
  0
ENDBLK
  5
5C9E
100
AcDbEntity
  8
0
100
AcDbBlockEnd
  0
ENDSEC
  0
SECTION
  2
ENTITIES
  0
CIRCLE
  5
5A00
100
AcDbEntity
  8
0
100
AcDbCircle
 10
2.0
 20
-0.5
 30
8.125
 40
0.4375
  0
CIRCLE
  5
5A01
100
AcDbEntity
  8
0
100
AcDbCircle
 10
-3.153
 20
-9.843
 30
0.0
 40
0.164
  0
ARC
  5
5A02
100
AcDbEntity
  8
0
100
AcDbCircle
 10
0.0
 20
-0.5
 30
0.0
 40
0.33
100
AcDbArc
 50
0.0
 51
58.789795
  0
ARC
  5
5A03
100
AcDbEntity
  8
0
100
AcDbCircle
 10
0.0
 20
-0.5
 30
0.0
 40
0.33
100
AcDbArc
 50
121.209984
 51
180.0
  0
LINE
  5
5A04
100
AcDbEntity
  8
0
100
AcDbLine
 10
0.33
 20
-0.83
 30
0.0
 11
-0.33
 21
-0.83
 31
0.0
  0
LINE
  5
5A05
100
AcDbEntity
  8
0
100
AcDbLine
 10
-0.33
 20
-0.83
 30
0.0
 11
-0.33
 21
-0.5
 31
0.0
  0
LINE
  5
5A06
100
AcDbEntity
  8
0
100
AcDbLine
 10
0.33
 20
-0.5
 30
0.0
 11
0.33
 21
-0.83
 31
0.0
  0
ARC
  5
5A07
100
AcDbEntity
  8
0
100
AcDbCircle
 10
0.0
 20
0.0
 30
0.0
 40
0.171
100
AcDbArc
 50
0.0
 51
180.0
  0
LINE
  5
5A08
100
AcDbEntity
  8
0
100
AcDbLine
 10
-0.171
 20
0.0
 30
0.0
 11
-0.171
 21
-0.217752
 31
0.0
  0
LINE
  5
5A09
100
AcDbEntity
  8
0
100
AcDbLine
 10
0.171
 20
0.0
 30
0.0
 11
0.171
 21
-0.21775
 31
0.0
  0
CIRCLE
  5
5A0A
100
AcDbEntity
  8
0
100
AcDbCircle
 10
0.992
 20
0.0
 30
0.0
 40
0.293
  0
CIRCLE
  5
5A0B
100
AcDbEntity
  8
0
100
AcDbCircle
 10
0.992
 20
0.0
 30
0.0
 40
0.1715
  0
CIRCLE
  5
5A0C
100
AcDbEntity
  8
0
100
AcDbCircle
 10
3.153
 20
-9.843
 30
0.0
 40
0.1715
  0
POLYLINE
  5
5A0D
100
AcDbEntity
  8
0
100
AcDbPolygonMesh
 66
     1
 10
0.0
 20
0.0
 30
0.0
 70
    16
 71
     6
 72
     3
  0
VERTEX
  5
5A0E
100
AcDbEntity
  8
0
100
AcDbVertex
100
AcDbPolygonMeshVertex
 10
1.0
 20
-6.81
 30
6.0625
 70
    64
  0
VERTEX
  5
5A0F
100
AcDbEntity
  8
0
100
AcDbVertex
100
AcDbPolygonMeshVertex
 10
1.0
 20
-6.81
 30
5.6875
 70
    64
  0
VERTEX
  5
5A10
100
AcDbEntity
  8
0
100
AcDbVertex
100
AcDbPolygonMeshVertex
 10
1.0
 20
-6.81
 30
5.6875
 70
    64
  0
VERTEX
  5
5A11
100
AcDbEntity
  8
0
100
AcDbVertex
100
AcDbPolygonMeshVertex
 10
-1.0
 20
-6.81
 30
6.0625
 70
    64
  0
VERTEX
  5
5A12
100
AcDbEntity
  8
0
100
AcDbVertex
100
AcDbPolygonMeshVertex
 10
-1.0
 20
-6.81
 30
5.6875
 70
    64
  0
VERTEX
  5
5A13
100
AcDbEntity
  8
0
100
AcDbVertex
100
AcDbPolygonMeshVertex
 10
-1.0
 20
-6.81
 30
5.6875
 70
    64
  0
VERTEX
  5
5A14
100
AcDbEntity
  8
0
100
AcDbVertex
100
AcDbPolygonMeshVertex
 10
-1.0
 20
-5.81
 30
6.0625
 70
    64
  0
VERTEX
  5
5A15
100
AcDbEntity
  8
0
100
AcDbVertex
100
AcDbPolygonMeshVertex
 10
-1.0
 20
-5.81
 30
5.6875
 70
    64
  0
VERTEX
  5
5A16
100
AcDbEntity
  8
0
100
AcDbVertex
100
AcDbPolygonMeshVertex
 10
-1.0
 20
-6.81
 30
5.6875
 70
    64
  0
VERTEX
  5
5A17
100
AcDbEntity
  8
0
100
AcDbVertex
100
AcDbPolygonMeshVertex
 10
1.0
 20
-5.81
 30
6.0625
 70
    64
  0
VERTEX
  5
5A18
100
AcDbEntity
  8
0
100
AcDbVertex
100
AcDbPolygonMeshVertex
 10
1.0
 20
-5.81
 30
5.6875
 70
    64
  0
VERTEX
  5
5A19
100
AcDbEntity
  8
0
100
AcDbVertex
100
AcDbPolygonMeshVertex
 10
1.0
 20
-6.81
 30
5.6875
 70
    64
  0
VERTEX
  5
5A1A
100
AcDbEntity
  8
0
100
AcDbVertex
100
AcDbPolygonMeshVertex
 10
1.0
 20
-5.81
 30
6.0625
 70
    64
  0
VERTEX
  5
5A1B
100
AcDbEntity
  8
0
100
AcDbVertex
100
AcDbPolygonMeshVertex
 10
1.0
 20
-5.81
 30
6.0625
 70
    64
  0
VERTEX
  5
5A1C
100
AcDbEntity
  8
0
100
AcDbVertex
100
AcDbPolygonMeshVertex
 10
1.0
 20
-6.81
 30
6.0625
 70
    64
  0
VERTEX
  5
5A1D
100
AcDbEntity
  8
0
100
AcDbVertex
100
AcDbPolygonMeshVertex
 10
-1.0
 20
-5.81
 30
6.0625
 70
    64
  0
VERTEX
  5
5A1E
100
AcDbEntity
  8
0
100
AcDbVertex
100
AcDbPolygonMeshVertex
 10
-1.0
 20
-5.81
 30
6.0625
 70
    64
  0
VERTEX
  5
5A1F
100
AcDbEntity
  8
0
100
AcDbVertex
100
AcDbPolygonMeshVertex
 10
-1.0
 20
-6.81
 30
6.0625
 70
    64
  0
SEQEND
  5
5A20
100
AcDbEntity
  8
0
  0
POLYLINE
  5
5A21
100
AcDbEntity
  8
0
100
AcDbPolygonMesh
 66
     1
 10
0.0
 20
0.0
 30
0.0
 70
    16
 71
     6
 72
     3
  0
VERTEX
  5
5A22
100
AcDbEntity
  8
0
100
AcDbVertex
100
AcDbPolygonMeshVertex
 10
3.0
 20
-1.06
 30
0.878
 70
    64
  0
VERTEX
  5
5A23
100
AcDbEntity
  8
0
100
AcDbVertex
100
AcDbPolygonMeshVertex
 10
3.0
 20
-1.06
 30
0.278
 70
    64
  0
VERTEX
  5
5A24
100
AcDbEntity
  8
0
100
AcDbVertex
100
AcDbPolygonMeshVertex
 10
3.0
 20
-1.06
 30
0.278
 70
    64
  0
VERTEX
  5
5A25
100
AcDbEntity
  8
0
100
AcDbVertex
100
AcDbPolygonMeshVertex
 10
-3.0
 20
-1.06
 30
0.878
 70
    64
  0
VERTEX
  5
5A26
100
AcDbEntity
  8
0
100
AcDbVertex
100
AcDbPolygonMeshVertex
 10
-3.0
 20
-1.06
 30
0.278
 70
    64
  0
VERTEX
  5
5A27
100
AcDbEntity
  8
0
100
AcDbVertex
100
AcDbPolygonMeshVertex
 10
-3.0
 20
-1.06
 30
0.278
 70
    64
  0
VERTEX
  5
5A28
100
AcDbEntity
  8
0
100
AcDbVertex
100
AcDbPolygonMeshVertex
 10
-3.0
 20
-0.66
 30
0.878
 70
    64
  0
VERTEX
  5
5A29
100
AcDbEntity
  8
0
100
AcDbVertex
100
AcDbPolygonMeshVertex
 10
-3.0
 20
-0.66
 30
0.278
 70
    64
  0
VERTEX
  5
5A2A
100
AcDbEntity
  8
0
100
AcDbVertex
100
AcDbPolygonMeshVertex
 10
-3.0
 20
-1.06
 30
0.278
 70
    64
  0
VERTEX
  5
5A2B
100
AcDbEntity
  8
0
100
AcDbVertex
100
AcDbPolygonMeshVertex
 10
3.0
 20
-0.66
 30
0.878
 70
    64
  0
VERTEX
  5
5A2C
100
AcDbEntity
  8
0
100
AcDbVertex
100
AcDbPolygonMeshVertex
 10
3.0
 20
-0.66
 30
0.278
 70
    64
  0
VERTEX
  5
5A2D
100
AcDbEntity
  8
0
100
AcDbVertex
100
AcDbPolygonMeshVertex
 10
3.0
 20
-1.06
 30
0.278
 70
    64
  0
VERTEX
  5
5A2E
100
AcDbEntity
  8
0
100
AcDbVertex
100
AcDbPolygonMeshVertex
 10
3.0
 20
-0.66
 30
0.878
 70
    64
  0
VERTEX
  5
5A2F
100
AcDbEntity
  8
0
100
AcDbVertex
100
AcDbPolygonMeshVertex
 10
3.0
 20
-0.66
 30
0.878
 70
    64
  0
VERTEX
  5
5A30
100
AcDbEntity
  8
0
100
AcDbVertex
100
AcDbPolygonMeshVertex
 10
3.0
 20
-1.06
 30
0.878
 70
    64
  0
VERTEX
  5
5A31
100
AcDbEntity
  8
0
100
AcDbVertex
100
AcDbPolygonMeshVertex
 10
-3.0
 20
-0.66
 30
0.878
 70
    64
  0
VERTEX
  5
5A32
100
AcDbEntity
  8
0
100
AcDbVertex
100
AcDbPolygonMeshVertex
 10
-3.0
 20
-0.66
 30
0.878
 70
    64
  0
VERTEX
  5
5A33
100
AcDbEntity
  8
0
100
AcDbVertex
100
AcDbPolygonMeshVertex
 10
-3.0
 20
-1.06
 30
0.878
 70
    64
  0
SEQEND
  5
5A34
100
AcDbEntity
  8
0
  0
LINE
  5
5A35
100
AcDbEntity
  8
0
100
AcDbLine
 10
-3.0
 20
-7.81
 30
3.75
 11
-3.0
 21
-7.81
 31
0.278
  0
POLYLINE
  5
5A36
100
AcDbEntity
  8
0
100
AcDbPolygonMesh
 66
     1
 10
0.0
 20
0.0
 30
0.0
 70
    16
 71
     6
 72
     3
  0
VERTEX
  5
5A37
100
AcDbEntity
  8
0
100
AcDbVertex
100
AcDbPolygonMeshVertex
 10
3.0
 20
-12.31
 30
3.75
 70
    64
  0
VERTEX
  5
5A38
100
AcDbEntity
  8
0
100
AcDbVertex
100
AcDbPolygonMeshVertex
 10
3.0
 20
-12.31
 30
0.278
 70
    64
  0
VERTEX
  5
5A39
100
AcDbEntity
  8
0
100
AcDbVertex
100
AcDbPolygonMeshVertex
 10
3.0
 20
-12.31
 30
0.278
 70
    64
  0
VERTEX
  5
5A3A
100
AcDbEntity
  8
0
100
AcDbVertex
100
AcDbPolygonMeshVertex
 10
-3.0
 20
-12.31
 30
3.75
 70
    64
  0
VERTEX
  5
5A3B
100
AcDbEntity
  8
0
100
AcDbVertex
100
AcDbPolygonMeshVertex
 10
-3.0
 20
-12.31
 30
0.278
 70
    64
  0
VERTEX
  5
5A3C
100
AcDbEntity
  8
0
100
AcDbVertex
100
AcDbPolygonMeshVertex
 10
-3.0
 20
-12.31
 30
0.278
 70
    64
  0
VERTEX
  5
5A3D
100
AcDbEntity
  8
0
100
AcDbVertex
100
AcDbPolygonMeshVertex
 10
-3.0
 20
-7.81
 30
3.75
 70
    64
  0
VERTEX
  5
5A3E
100
AcDbEntity
  8
0
100
AcDbVertex
100
AcDbPolygonMeshVertex
 10
-3.0
 20
-7.81
 30
0.278
 70
    64
  0
VERTEX
  5
5A3F
100
AcDbEntity
  8
0
100
AcDbVertex
100
AcDbPolygonMeshVertex
 10
-3.0
 20
-12.31
 30
0.278
 70
    64
  0
VERTEX
  5
5A40
100
AcDbEntity
  8
0
100
AcDbVertex
100
AcDbPolygonMeshVertex
 10
3.0
 20
-7.81
 30
3.75
 70
    64
  0
VERTEX
  5
5A41
100
AcDbEntity
  8
0
100
AcDbVertex
100
AcDbPolygonMeshVertex
 10
3.0
 20
-7.81
 30
0.278
 70
    64
  0
VERTEX
  5
5A42
100
AcDbEntity
  8
0
100
AcDbVertex
100
AcDbPolygonMeshVertex
 10
3.0
 20
-12.31
 30
0.278
 70
    64
  0
VERTEX
  5
5A43
100
AcDbEntity
  8
0
100
AcDbVertex
100
AcDbPolygonMeshVertex
 10
3.0
 20
-7.81
 30
3.75
 70
    64
  0
VERTEX
  5
5A44
100
AcDbEntity
  8
0
100
AcDbVertex
100
AcDbPolygonMeshVertex
 10
3.0
 20
-7.81
 30
3.75
 70
    64
  0
VERTEX
  5
5A45
100
AcDbEntity
  8
0
100
AcDbVertex
100
AcDbPolygonMeshVertex
 10
3.0
 20
-12.31
 30
3.75
 70
    64
  0
VERTEX
  5
5A46
100
AcDbEntity
  8
0
100
AcDbVertex
100
AcDbPolygonMeshVertex
 10
-3.0
 20
-7.81
 30
3.75
 70
    64
  0
VERTEX
  5
5A47
100
AcDbEntity
  8
0
100
AcDbVertex
100
AcDbPolygonMeshVertex
 10
-3.0
 20
-7.81
 30
3.75
 70
    64
  0
VERTEX
  5
5A48
100
AcDbEntity
  8
0
100
AcDbVertex
100
AcDbPolygonMeshVertex
 10
-3.0
 20
-12.31
 30
3.75
 70
    64
  0
SEQEND
  5
5A49
100
AcDbEntity
  8
0
  0
LINE
  5
5A4A
100
AcDbEntity
  8
0
100
AcDbLine
 10
-3.0
 20
-4.81
 30
5.5
 11
-3.0
 21
-4.81
 31
0.278
  0
POLYLINE
  5
5A4B
100
AcDbEntity
  8
0
100
AcDbPolygonMesh
 66
     1
 10
0.0
 20
0.0
 30
0.0
 70
    16
 71
     6
 72
     3
  0
VERTEX
  5
5A4C
100
AcDbEntity
  8
0
100
AcDbVertex
100
AcDbPolygonMeshVertex
 10
3.0
 20
-7.81
 30
5.6875
 70
    64
  0
VERTEX
  5
5A4D
100
AcDbEntity
  8
0
100
AcDbVertex
100
AcDbPolygonMeshVertex
 10
3.0
 20
-7.81
 30
0.278
 70
    64
  0
VERTEX
  5
5A4E
100
AcDbEntity
  8
0
100
AcDbVertex
100
AcDbPolygonMeshVertex
 10
3.0
 20
-7.81
 30
0.278
 70
    64
  0
VERTEX
  5
5A4F
100
AcDbEntity
  8
0
100
AcDbVertex
100
AcDbPolygonMeshVertex
 10
-3.0
 20
-7.81
 30
5.6875
 70
    64
  0
VERTEX
  5
5A50
100
AcDbEntity
  8
0
100
AcDbVertex
100
AcDbPolygonMeshVertex
 10
-3.0
 20
-7.81
 30
0.278
 70
    64
  0
VERTEX
  5
5A51
100
AcDbEntity
  8
0
100
AcDbVertex
100
AcDbPolygonMeshVertex
 10
-3.0
 20
-7.81
 30
0.278
 70
    64
  0
VERTEX
  5
5A52
100
AcDbEntity
  8
0
100
AcDbVertex
100
AcDbPolygonMeshVertex
 10
-3.0
 20
-4.81
 30
5.6875
 70
    64
  0
VERTEX
  5
5A53
100
AcDbEntity
  8
0
100
AcDbVertex
100
AcDbPolygonMeshVertex
 10
-3.0
 20
-4.81
 30
0.278
 70
    64
  0
VERTEX
  5
5A54
100
AcDbEntity
  8
0
100
AcDbVertex
100
AcDbPolygonMeshVertex
 10
-3.0
 20
-7.81
 30
0.278
 70
    64
  0
VERTEX
  5
5A55
100
AcDbEntity
  8
0
100
AcDbVertex
100
AcDbPolygonMeshVertex
 10
3.0
 20
-4.81
 30
5.6875
 70
    64
  0
VERTEX
  5
5A56
100
AcDbEntity
  8
0
100
AcDbVertex
100
AcDbPolygonMeshVertex
 10
3.0
 20
-4.81
 30
0.278
 70
    64
  0
VERTEX
  5
5A57
100
AcDbEntity
  8
0
100
AcDbVertex
100
AcDbPolygonMeshVertex
 10
3.0
 20
-7.81
 30
0.278
 70
    64
  0
VERTEX
  5
5A58
100
AcDbEntity
  8
0
100
AcDbVertex
100
AcDbPolygonMeshVertex
 10
3.0
 20
-4.81
 30
5.6875
 70
    64
  0
VERTEX
  5
5A59
100
AcDbEntity
  8
0
100
AcDbVertex
100
AcDbPolygonMeshVertex
 10
3.0
 20
-4.81
 30
5.6875
 70
    64
  0
VERTEX
  5
5A5A
100
AcDbEntity
  8
0
100
AcDbVertex
100
AcDbPolygonMeshVertex
 10
3.0
 20
-7.81
 30
5.6875
 70
    64
  0
VERTEX
  5
5A5B
100
AcDbEntity
  8
0
100
AcDbVertex
100
AcDbPolygonMeshVertex
 10
-3.0
 20
-4.81
 30
5.6875
 70
    64
  0
VERTEX
  5
5A5C
100
AcDbEntity
  8
0
100
AcDbVertex
100
AcDbPolygonMeshVertex
 10
-3.0
 20
-4.81
 30
5.6875
 70
    64
  0
VERTEX
  5
5A5D
100
AcDbEntity
  8
0
100
AcDbVertex
100
AcDbPolygonMeshVertex
 10
-3.0
 20
-7.81
 30
5.6875
 70
    64
  0
SEQEND
  5
5A5E
100
AcDbEntity
  8
0
  0
POLYLINE
  5
5A5F
100
AcDbEntity
  8
0
100
AcDbPolygonMesh
 66
     1
 10
0.0
 20
0.0
 30
0.0
 70
    16
 71
     6
 72
     3
  0
VERTEX
  5
5A60
100
AcDbEntity
  8
0
100
AcDbVertex
100
AcDbPolygonMeshVertex
 10
3.0
 20
-4.81
 30
5.5
 70
    64
  0
VERTEX
  5
5A61
100
AcDbEntity
  8
0
100
AcDbVertex
100
AcDbPolygonMeshVertex
 10
3.0
 20
-4.81
 30
0.278
 70
    64
  0
VERTEX
  5
5A62
100
AcDbEntity
  8
0
100
AcDbVertex
100
AcDbPolygonMeshVertex
 10
3.0
 20
-4.81
 30
0.278
 70
    64
  0
VERTEX
  5
5A63
100
AcDbEntity
  8
0
100
AcDbVertex
100
AcDbPolygonMeshVertex
 10
-3.0
 20
-4.81
 30
5.5
 70
    64
  0
VERTEX
  5
5A64
100
AcDbEntity
  8
0
100
AcDbVertex
100
AcDbPolygonMeshVertex
 10
-3.0
 20
-4.81
 30
0.278
 70
    64
  0
VERTEX
  5
5A65
100
AcDbEntity
  8
0
100
AcDbVertex
100
AcDbPolygonMeshVertex
 10
-3.0
 20
-4.81
 30
0.278
 70
    64
  0
VERTEX
  5
5A66
100
AcDbEntity
  8
0
100
AcDbVertex
100
AcDbPolygonMeshVertex
 10
-3.0
 20
-1.06
 30
5.5
 70
    64
  0
VERTEX
  5
5A67
100
AcDbEntity
  8
0
100
AcDbVertex
100
AcDbPolygonMeshVertex
 10
-3.0
 20
-1.06
 30
0.278
 70
    64
  0
VERTEX
  5
5A68
100
AcDbEntity
  8
0
100
AcDbVertex
100
AcDbPolygonMeshVertex
 10
-3.0
 20
-4.81
 30
0.278
 70
    64
  0
VERTEX
  5
5A69
100
AcDbEntity
  8
0
100
AcDbVertex
100
AcDbPolygonMeshVertex
 10
3.0
 20
-1.06
 30
5.5
 70
    64
  0
VERTEX
  5
5A6A
100
AcDbEntity
  8
0
100
AcDbVertex
100
AcDbPolygonMeshVertex
 10
3.0
 20
-1.06
 30
0.278
 70
    64
  0
VERTEX
  5
5A6B
100
AcDbEntity
  8
0
100
AcDbVertex
100
AcDbPolygonMeshVertex
 10
3.0
 20
-4.81
 30
0.278
 70
    64
  0
VERTEX
  5
5A6C
100
AcDbEntity
  8
0
100
AcDbVertex
100
AcDbPolygonMeshVertex
 10
3.0
 20
-1.06
 30
5.5
 70
    64
  0
VERTEX
  5
5A6D
100
AcDbEntity
  8
0
100
AcDbVertex
100
AcDbPolygonMeshVertex
 10
3.0
 20
-1.06
 30
5.5
 70
    64
  0
VERTEX
  5
5A6E
100
AcDbEntity
  8
0
100
AcDbVertex
100
AcDbPolygonMeshVertex
 10
3.0
 20
-4.81
 30
5.5
 70
    64
  0
VERTEX
  5
5A6F
100
AcDbEntity
  8
0
100
AcDbVertex
100
AcDbPolygonMeshVertex
 10
-3.0
 20
-1.06
 30
5.5
 70
    64
  0
VERTEX
  5
5A70
100
AcDbEntity
  8
0
100
AcDbVertex
100
AcDbPolygonMeshVertex
 10
-3.0
 20
-1.06
 30
5.5
 70
    64
  0
VERTEX
  5
5A71
100
AcDbEntity
  8
0
100
AcDbVertex
100
AcDbPolygonMeshVertex
 10
-3.0
 20
-4.81
 30
5.5
 70
    64
  0
SEQEND
  5
5A72
100
AcDbEntity
  8
0
  0
LINE
  5
5A73
100
AcDbEntity
  8
0
100
AcDbLine
 10
-3.0
 20
-2.06
 30
6.0
 11
-3.0
 21
-2.06
 31
5.5
  0
POLYLINE
  5
5A74
100
AcDbEntity
  8
0
100
AcDbPolygonMesh
 66
     1
 10
0.0
 20
0.0
 30
0.0
 70
    16
 71
     6
 72
     3
  0
VERTEX
  5
5A75
100
AcDbEntity
  8
0
100
AcDbVertex
100
AcDbPolygonMeshVertex
 10
3.0
 20
-2.31
 30
6.0
 70
    64
  0
VERTEX
  5
5A76
100
AcDbEntity
  8
0
100
AcDbVertex
100
AcDbPolygonMeshVertex
 10
3.0
 20
-2.31
 30
5.5
 70
    64
  0
VERTEX
  5
5A77
100
AcDbEntity
  8
0
100
AcDbVertex
100
AcDbPolygonMeshVertex
 10
3.0
 20
-2.31
 30
5.5
 70
    64
  0
VERTEX
  5
5A78
100
AcDbEntity
  8
0
100
AcDbVertex
100
AcDbPolygonMeshVertex
 10
-3.0
 20
-2.31
 30
6.0
 70
    64
  0
VERTEX
  5
5A79
100
AcDbEntity
  8
0
100
AcDbVertex
100
AcDbPolygonMeshVertex
 10
-3.0
 20
-2.31
 30
5.5
 70
    64
  0
VERTEX
  5
5A7A
100
AcDbEntity
  8
0
100
AcDbVertex
100
AcDbPolygonMeshVertex
 10
-3.0
 20
-2.31
 30
5.5
 70
    64
  0
VERTEX
  5
5A7B
100
AcDbEntity
  8
0
100
AcDbVertex
100
AcDbPolygonMeshVertex
 10
-3.0
 20
-2.06
 30
6.0
 70
    64
  0
VERTEX
  5
5A7C
100
AcDbEntity
  8
0
100
AcDbVertex
100
AcDbPolygonMeshVertex
 10
-3.0
 20
-2.06
 30
5.5
 70
    64
  0
VERTEX
  5
5A7D
100
AcDbEntity
  8
0
100
AcDbVertex
100
AcDbPolygonMeshVertex
 10
-3.0
 20
-2.31
 30
5.5
 70
    64
  0
VERTEX
  5
5A7E
100
AcDbEntity
  8
0
100
AcDbVertex
100
AcDbPolygonMeshVertex
 10
3.0
 20
-2.06
 30
6.0
 70
    64
  0
VERTEX
  5
5A7F
100
AcDbEntity
  8
0
100
AcDbVertex
100
AcDbPolygonMeshVertex
 10
3.0
 20
-2.06
 30
5.5
 70
    64
  0
VERTEX
  5
5A80
100
AcDbEntity
  8
0
100
AcDbVertex
100
AcDbPolygonMeshVertex
 10
3.0
 20
-2.31
 30
5.5
 70
    64
  0
VERTEX
  5
5A81
100
AcDbEntity
  8
0
100
AcDbVertex
100
AcDbPolygonMeshVertex
 10
3.0
 20
-2.06
 30
6.0
 70
    64
  0
VERTEX
  5
5A82
100
AcDbEntity
  8
0
100
AcDbVertex
100
AcDbPolygonMeshVertex
 10
3.0
 20
-2.06
 30
6.0
 70
    64
  0
VERTEX
  5
5A83
100
AcDbEntity
  8
0
100
AcDbVertex
100
AcDbPolygonMeshVertex
 10
3.0
 20
-2.31
 30
6.0
 70
    64
  0
VERTEX
  5
5A84
100
AcDbEntity
  8
0
100
AcDbVertex
100
AcDbPolygonMeshVertex
 10
-3.0
 20
-2.06
 30
6.0
 70
    64
  0
VERTEX
  5
5A85
100
AcDbEntity
  8
0
100
AcDbVertex
100
AcDbPolygonMeshVertex
 10
-3.0
 20
-2.06
 30
6.0
 70
    64
  0
VERTEX
  5
5A86
100
AcDbEntity
  8
0
100
AcDbVertex
100
AcDbPolygonMeshVertex
 10
-3.0
 20
-2.31
 30
6.0
 70
    64
  0
SEQEND
  5
5A87
100
AcDbEntity
  8
0
  0
POLYLINE
  5
5A88
100
AcDbEntity
  8
0
100
AcDbPolygonMesh
 66
     1
 10
0.0
 20
0.0
 30
0.0
 70
    16
 71
     6
 72
     3
  0
VERTEX
  5
5A89
100
AcDbEntity
  8
0
100
AcDbVertex
100
AcDbPolygonMeshVertex
 10
3.0
 20
-2.06
 30
6.5
 70
    64
  0
VERTEX
  5
5A8A
100
AcDbEntity
  8
0
100
AcDbVertex
100
AcDbPolygonMeshVertex
 10
3.0
 20
-2.06
 30
5.5
 70
    64
  0
VERTEX
  5
5A8B
100
AcDbEntity
  8
0
100
AcDbVertex
100
AcDbPolygonMeshVertex
 10
3.0
 20
-2.06
 30
5.5
 70
    64
  0
VERTEX
  5
5A8C
100
AcDbEntity
  8
0
100
AcDbVertex
100
AcDbPolygonMeshVertex
 10
-3.0
 20
-2.06
 30
6.5
 70
    64
  0
VERTEX
  5
5A8D
100
AcDbEntity
  8
0
100
AcDbVertex
100
AcDbPolygonMeshVertex
 10
-3.0
 20
-2.06
 30
5.5
 70
    64
  0
VERTEX
  5
5A8E
100
AcDbEntity
  8
0
100
AcDbVertex
100
AcDbPolygonMeshVertex
 10
-3.0
 20
-2.06
 30
5.5
 70
    64
  0
VERTEX
  5
5A8F
100
AcDbEntity
  8
0
100
AcDbVertex
100
AcDbPolygonMeshVertex
 10
-3.0
 20
-1.06
 30
6.5
 70
    64
  0
VERTEX
  5
5A90
100
AcDbEntity
  8
0
100
AcDbVertex
100
AcDbPolygonMeshVertex
 10
-3.0
 20
-1.06
 30
5.5
 70
    64
  0
VERTEX
  5
5A91
100
AcDbEntity
  8
0
100
AcDbVertex
100
AcDbPolygonMeshVertex
 10
-3.0
 20
-2.06
 30
5.5
 70
    64
  0
VERTEX
  5
5A92
100
AcDbEntity
  8
0
100
AcDbVertex
100
AcDbPolygonMeshVertex
 10
3.0
 20
-1.06
 30
6.5
 70
    64
  0
VERTEX
  5
5A93
100
AcDbEntity
  8
0
100
AcDbVertex
100
AcDbPolygonMeshVertex
 10
3.0
 20
-1.06
 30
5.5
 70
    64
  0
VERTEX
  5
5A94
100
AcDbEntity
  8
0
100
AcDbVertex
100
AcDbPolygonMeshVertex
 10
3.0
 20
-2.06
 30
5.5
 70
    64
  0
VERTEX
  5
5A95
100
AcDbEntity
  8
0
100
AcDbVertex
100
AcDbPolygonMeshVertex
 10
3.0
 20
-1.06
 30
6.5
 70
    64
  0
VERTEX
  5
5A96
100
AcDbEntity
  8
0
100
AcDbVertex
100
AcDbPolygonMeshVertex
 10
3.0
 20
-1.06
 30
6.5
 70
    64
  0
VERTEX
  5
5A97
100
AcDbEntity
  8
0
100
AcDbVertex
100
AcDbPolygonMeshVertex
 10
3.0
 20
-2.06
 30
6.5
 70
    64
  0
VERTEX
  5
5A98
100
AcDbEntity
  8
0
100
AcDbVertex
100
AcDbPolygonMeshVertex
 10
-3.0
 20
-1.06
 30
6.5
 70
    64
  0
VERTEX
  5
5A99
100
AcDbEntity
  8
0
100
AcDbVertex
100
AcDbPolygonMeshVertex
 10
-3.0
 20
-1.06
 30
6.5
 70
    64
  0
VERTEX
  5
5A9A
100
AcDbEntity
  8
0
100
AcDbVertex
100
AcDbPolygonMeshVertex
 10
-3.0
 20
-2.06
 30
6.5
 70
    64
  0
SEQEND
  5
5A9B
100
AcDbEntity
  8
0
  0
POLYLINE
  5
5A9C
100
AcDbEntity
  8
0
100
AcDbPolygonMesh
 66
     1
 10
0.0
 20
0.0
 30
0.0
 70
    16
 71
     6
 72
     3
  0
VERTEX
  5
5A9D
100
AcDbEntity
  8
0
100
AcDbVertex
100
AcDbPolygonMeshVertex
 10
1.4375
 20
0.0625
 30
8.125
 70
    64
  0
VERTEX
  5
5A9E
100
AcDbEntity
  8
0
100
AcDbVertex
100
AcDbPolygonMeshVertex
 10
1.4375
 20
0.0625
 30
6.75
 70
    64
  0
VERTEX
  5
5A9F
100
AcDbEntity
  8
0
100
AcDbVertex
100
AcDbPolygonMeshVertex
 10
1.4375
 20
0.0625
 30
6.75
 70
    64
  0
VERTEX
  5
5AA0
100
AcDbEntity
  8
0
100
AcDbVertex
100
AcDbPolygonMeshVertex
 10
2.5625
 20
0.0625
 30
8.125
 70
    64
  0
VERTEX
  5
5AA1
100
AcDbEntity
  8
0
100
AcDbVertex
100
AcDbPolygonMeshVertex
 10
2.5625
 20
0.0625
 30
6.75
 70
    64
  0
VERTEX
  5
5AA2
100
AcDbEntity
  8
0
100
AcDbVertex
100
AcDbPolygonMeshVertex
 10
2.5625
 20
0.0625
 30
6.75
 70
    64
  0
VERTEX
  5
5AA3
100
AcDbEntity
  8
0
100
AcDbVertex
100
AcDbPolygonMeshVertex
 10
2.5625
 20
-1.0625
 30
8.125
 70
    64
  0
VERTEX
  5
5AA4
100
AcDbEntity
  8
0
100
AcDbVertex
100
AcDbPolygonMeshVertex
 10
2.5625
 20
-1.0625
 30
6.75
 70
    64
  0
VERTEX
  5
5AA5
100
AcDbEntity
  8
0
100
AcDbVertex
100
AcDbPolygonMeshVertex
 10
2.5625
 20
0.0625
 30
6.75
 70
    64
  0
VERTEX
  5
5AA6
100
AcDbEntity
  8
0
100
AcDbVertex
100
AcDbPolygonMeshVertex
 10
1.4375
 20
-1.0625
 30
8.125
 70
    64
  0
VERTEX
  5
5AA7
100
AcDbEntity
  8
0
100
AcDbVertex
100
AcDbPolygonMeshVertex
 10
1.4375
 20
-1.0625
 30
6.75
 70
    64
  0
VERTEX
  5
5AA8
100
AcDbEntity
  8
0
100
AcDbVertex
100
AcDbPolygonMeshVertex
 10
1.4375
 20
0.0625
 30
6.75
 70
    64
  0
VERTEX
  5
5AA9
100
AcDbEntity
  8
0
100
AcDbVertex
100
AcDbPolygonMeshVertex
 10
1.4375
 20
-1.0625
 30
8.125
 70
    64
  0
VERTEX
  5
5AAA
100
AcDbEntity
  8
0
100
AcDbVertex
100
AcDbPolygonMeshVertex
 10
1.4375
 20
-1.0625
 30
8.125
 70
    64
  0
VERTEX
  5
5AAB
100
AcDbEntity
  8
0
100
AcDbVertex
100
AcDbPolygonMeshVertex
 10
1.4375
 20
0.0625
 30
8.125
 70
    64
  0
VERTEX
  5
5AAC
100
AcDbEntity
  8
0
100
AcDbVertex
100
AcDbPolygonMeshVertex
 10
2.5625
 20
-1.0625
 30
8.125
 70
    64
  0
VERTEX
  5
5AAD
100
AcDbEntity
  8
0
100
AcDbVertex
100
AcDbPolygonMeshVertex
 10
2.5625
 20
-1.0625
 30
8.125
 70
    64
  0
VERTEX
  5
5AAE
100
AcDbEntity
  8
0
100
AcDbVertex
100
AcDbPolygonMeshVertex
 10
2.5625
 20
0.0625
 30
8.125
 70
    64
  0
SEQEND
  5
5AAF
100
AcDbEntity
  8
0
  0
POLYLINE
  5
5AB0
100
AcDbEntity
  8
0
100
AcDbPolygonMesh
 66
     1
 10
0.0
 20
0.0
 30
0.0
 70
    16
 71
     6
 72
     3
  0
VERTEX
  5
5AB1
100
AcDbEntity
  8
0
100
AcDbVertex
100
AcDbPolygonMeshVertex
 10
1.4375
 20
-0.8125
 30
6.75
 70
    64
  0
VERTEX
  5
5AB2
100
AcDbEntity
  8
0
100
AcDbVertex
100
AcDbPolygonMeshVertex
 10
1.4375
 20
-0.8125
 30
6.5
 70
    64
  0
VERTEX
  5
5AB3
100
AcDbEntity
  8
0
100
AcDbVertex
100
AcDbPolygonMeshVertex
 10
1.4375
 20
-0.8125
 30
6.5
 70
    64
  0
VERTEX
  5
5AB4
100
AcDbEntity
  8
0
100
AcDbVertex
100
AcDbPolygonMeshVertex
 10
2.5625
 20
-0.8125
 30
6.75
 70
    64
  0
VERTEX
  5
5AB5
100
AcDbEntity
  8
0
100
AcDbVertex
100
AcDbPolygonMeshVertex
 10
2.5625
 20
-0.8125
 30
6.5
 70
    64
  0
VERTEX
  5
5AB6
100
AcDbEntity
  8
0
100
AcDbVertex
100
AcDbPolygonMeshVertex
 10
2.5625
 20
-0.8125
 30
6.5
 70
    64
  0
VERTEX
  5
5AB7
100
AcDbEntity
  8
0
100
AcDbVertex
100
AcDbPolygonMeshVertex
 10
2.5625
 20
-1.06
 30
6.75
 70
    64
  0
VERTEX
  5
5AB8
100
AcDbEntity
  8
0
100
AcDbVertex
100
AcDbPolygonMeshVertex
 10
2.5625
 20
-1.06
 30
6.5
 70
    64
  0
VERTEX
  5
5AB9
100
AcDbEntity
  8
0
100
AcDbVertex
100
AcDbPolygonMeshVertex
 10
2.5625
 20
-0.8125
 30
6.5
 70
    64
  0
VERTEX
  5
5ABA
100
AcDbEntity
  8
0
100
AcDbVertex
100
AcDbPolygonMeshVertex
 10
1.4375
 20
-1.06
 30
6.75
 70
    64
  0
VERTEX
  5
5ABB
100
AcDbEntity
  8
0
100
AcDbVertex
100
AcDbPolygonMeshVertex
 10
1.4375
 20
-1.06
 30
6.5
 70
    64
  0
VERTEX
  5
5ABC
100
AcDbEntity
  8
0
100
AcDbVertex
100
AcDbPolygonMeshVertex
 10
1.4375
 20
-0.8125
 30
6.5
 70
    64
  0
VERTEX
  5
5ABD
100
AcDbEntity
  8
0
100
AcDbVertex
100
AcDbPolygonMeshVertex
 10
1.4375
 20
-1.06
 30
6.75
 70
    64
  0
VERTEX
  5
5ABE
100
AcDbEntity
  8
0
100
AcDbVertex
100
AcDbPolygonMeshVertex
 10
1.4375
 20
-1.06
 30
6.75
 70
    64
  0
VERTEX
  5
5ABF
100
AcDbEntity
  8
0
100
AcDbVertex
100
AcDbPolygonMeshVertex
 10
1.4375
 20
-0.8125
 30
6.75
 70
    64
  0
VERTEX
  5
5AC0
100
AcDbEntity
  8
0
100
AcDbVertex
100
AcDbPolygonMeshVertex
 10
2.5625
 20
-1.06
 30
6.75
 70
    64
  0
VERTEX
  5
5AC1
100
AcDbEntity
  8
0
100
AcDbVertex
100
AcDbPolygonMeshVertex
 10
2.5625
 20
-1.06
 30
6.75
 70
    64
  0
VERTEX
  5
5AC2
100
AcDbEntity
  8
0
100
AcDbVertex
100
AcDbPolygonMeshVertex
 10
2.5625
 20
-0.8125
 30
6.75
 70
    64
  0
SEQEND
  5
5AC3
100
AcDbEntity
  8
0
  0
POLYLINE
  5
5AC4
100
AcDbEntity
  8
0
100
AcDbPolygonMesh
 66
     1
 10
0.0
 20
0.0
 30
0.0
 70
    16
 71
     6
 72
     3
  0
VERTEX
  5
5AC5
100
AcDbEntity
  8
0
100
AcDbVertex
100
AcDbPolygonMeshVertex
 10
1.4375
 20
-1.0625
 30
7.0
 70
    64
  0
VERTEX
  5
5AC6
100
AcDbEntity
  8
0
100
AcDbVertex
100
AcDbPolygonMeshVertex
 10
1.4375
 20
-1.0625
 30
6.75
 70
    64
  0
VERTEX
  5
5AC7
100
AcDbEntity
  8
0
100
AcDbVertex
100
AcDbPolygonMeshVertex
 10
1.4375
 20
-1.0625
 30
6.75
 70
    64
  0
VERTEX
  5
5AC8
100
AcDbEntity
  8
0
100
AcDbVertex
100
AcDbPolygonMeshVertex
 10
2.5625
 20
-1.0625
 30
7.0
 70
    64
  0
VERTEX
  5
5AC9
100
AcDbEntity
  8
0
100
AcDbVertex
100
AcDbPolygonMeshVertex
 10
2.5625
 20
-1.0625
 30
6.75
 70
    64
  0
VERTEX
  5
5ACA
100
AcDbEntity
  8
0
100
AcDbVertex
100
AcDbPolygonMeshVertex
 10
2.5625
 20
-1.0625
 30
6.75
 70
    64
  0
VERTEX
  5
5ACB
100
AcDbEntity
  8
0
100
AcDbVertex
100
AcDbPolygonMeshVertex
 10
2.5625
 20
-2.1875
 30
7.0
 70
    64
  0
VERTEX
  5
5ACC
100
AcDbEntity
  8
0
100
AcDbVertex
100
AcDbPolygonMeshVertex
 10
2.5625
 20
-2.1875
 30
6.75
 70
    64
  0
VERTEX
  5
5ACD
100
AcDbEntity
  8
0
100
AcDbVertex
100
AcDbPolygonMeshVertex
 10
2.5625
 20
-1.0625
 30
6.75
 70
    64
  0
VERTEX
  5
5ACE
100
AcDbEntity
  8
0
100
AcDbVertex
100
AcDbPolygonMeshVertex
 10
1.4375
 20
-2.1875
 30
7.0
 70
    64
  0
VERTEX
  5
5ACF
100
AcDbEntity
  8
0
100
AcDbVertex
100
AcDbPolygonMeshVertex
 10
1.4375
 20
-2.1875
 30
6.75
 70
    64
  0
VERTEX
  5
5AD0
100
AcDbEntity
  8
0
100
AcDbVertex
100
AcDbPolygonMeshVertex
 10
1.4375
 20
-1.0625
 30
6.75
 70
    64
  0
VERTEX
  5
5AD1
100
AcDbEntity
  8
0
100
AcDbVertex
100
AcDbPolygonMeshVertex
 10
1.4375
 20
-2.1875
 30
7.0
 70
    64
  0
VERTEX
  5
5AD2
100
AcDbEntity
  8
0
100
AcDbVertex
100
AcDbPolygonMeshVertex
 10
1.4375
 20
-2.1875
 30
7.0
 70
    64
  0
VERTEX
  5
5AD3
100
AcDbEntity
  8
0
100
AcDbVertex
100
AcDbPolygonMeshVertex
 10
1.4375
 20
-1.0625
 30
7.0
 70
    64
  0
VERTEX
  5
5AD4
100
AcDbEntity
  8
0
100
AcDbVertex
100
AcDbPolygonMeshVertex
 10
2.5625
 20
-2.1875
 30
7.0
 70
    64
  0
VERTEX
  5
5AD5
100
AcDbEntity
  8
0
100
AcDbVertex
100
AcDbPolygonMeshVertex
 10
2.5625
 20
-2.1875
 30
7.0
 70
    64
  0
VERTEX
  5
5AD6
100
AcDbEntity
  8
0
100
AcDbVertex
100
AcDbPolygonMeshVertex
 10
2.5625
 20
-1.0625
 30
7.0
 70
    64
  0
SEQEND
  5
5AD7
100
AcDbEntity
  8
0
  0
LWPOLYLINE
  5
5AD8
100
AcDbEntity
  8
0
100
AcDbPolyline
 90
        6
 70
     1
 43
0.0
 38
7.0
 10
1.75
 20
-2.058012
 10
2.25
 20
-2.058013
 10
2.5
 20
-1.625
 10
2.25
 20
-1.191988
 10
1.75
 20
-1.191987
 10
1.5
 20
-1.625
  0
LWPOLYLINE
  5
5AD9
100
AcDbEntity
  8
0
100
AcDbPolyline
 90
        6
 70
     1
 43
0.0
 38
8.125
 10
1.90625
 20
-0.66238
 10
2.09375
 20
-0.66238
 10
2.1875
 20
-0.5
 10
2.09375
 20
-0.33762
 10
1.90625
 20
-0.33762
 10
1.8125
 20
-0.5
  0
POLYLINE
  5
5ADA
100
AcDbEntity
  8
0
100
AcDbPolygonMesh
 66
     1
 10
0.0
 20
0.0
 30
0.0
 70
    16
 71
     6
 72
     3
  0
VERTEX
  5
5ADB
100
AcDbEntity
  8
0
100
AcDbVertex
100
AcDbPolygonMeshVertex
 10
-0.5625
 20
0.0625
 30
8.125
 70
    64
  0
VERTEX
  5
5ADC
100
AcDbEntity
  8
0
100
AcDbVertex
100
AcDbPolygonMeshVertex
 10
-0.5625
 20
0.0625
 30
6.75
 70
    64
  0
VERTEX
  5
5ADD
100
AcDbEntity
  8
0
100
AcDbVertex
100
AcDbPolygonMeshVertex
 10
-0.5625
 20
0.0625
 30
6.75
 70
    64
  0
VERTEX
  5
5ADE
100
AcDbEntity
  8
0
100
AcDbVertex
100
AcDbPolygonMeshVertex
 10
0.5625
 20
0.0625
 30
8.125
 70
    64
  0
VERTEX
  5
5ADF
100
AcDbEntity
  8
0
100
AcDbVertex
100
AcDbPolygonMeshVertex
 10
0.5625
 20
0.0625
 30
6.75
 70
    64
  0
VERTEX
  5
5AE0
100
AcDbEntity
  8
0
100
AcDbVertex
100
AcDbPolygonMeshVertex
 10
0.5625
 20
0.0625
 30
6.75
 70
    64
  0
VERTEX
  5
5AE1
100
AcDbEntity
  8
0
100
AcDbVertex
100
AcDbPolygonMeshVertex
 10
0.5625
 20
-1.0625
 30
8.125
 70
    64
  0
VERTEX
  5
5AE2
100
AcDbEntity
  8
0
100
AcDbVertex
100
AcDbPolygonMeshVertex
 10
0.5625
 20
-1.0625
 30
6.75
 70
    64
  0
VERTEX
  5
5AE3
100
AcDbEntity
  8
0
100
AcDbVertex
100
AcDbPolygonMeshVertex
 10
0.5625
 20
0.0625
 30
6.75
 70
    64
  0
VERTEX
  5
5AE4
100
AcDbEntity
  8
0
100
AcDbVertex
100
AcDbPolygonMeshVertex
 10
-0.5625
 20
-1.0625
 30
8.125
 70
    64
  0
VERTEX
  5
5AE5
100
AcDbEntity
  8
0
100
AcDbVertex
100
AcDbPolygonMeshVertex
 10
-0.5625
 20
-1.0625
 30
6.75
 70
    64
  0
VERTEX
  5
5AE6
100
AcDbEntity
  8
0
100
AcDbVertex
100
AcDbPolygonMeshVertex
 10
-0.5625
 20
0.0625
 30
6.75
 70
    64
  0
VERTEX
  5
5AE7
100
AcDbEntity
  8
0
100
AcDbVertex
100
AcDbPolygonMeshVertex
 10
-0.5625
 20
-1.0625
 30
8.125
 70
    64
  0
VERTEX
  5
5AE8
100
AcDbEntity
  8
0
100
AcDbVertex
100
AcDbPolygonMeshVertex
 10
-0.5625
 20
-1.0625
 30
8.125
 70
    64
  0
VERTEX
  5
5AE9
100
AcDbEntity
  8
0
100
AcDbVertex
100
AcDbPolygonMeshVertex
 10
-0.5625
 20
0.0625
 30
8.125
 70
    64
  0
VERTEX
  5
5AEA
100
AcDbEntity
  8
0
100
AcDbVertex
100
AcDbPolygonMeshVertex
 10
0.5625
 20
-1.0625
 30
8.125
 70
    64
  0
VERTEX
  5
5AEB
100
AcDbEntity
  8
0
100
AcDbVertex
100
AcDbPolygonMeshVertex
 10
0.5625
 20
-1.0625
 30
8.125
 70
    64
  0
VERTEX
  5
5AEC
100
AcDbEntity
  8
0
100
AcDbVertex
100
AcDbPolygonMeshVertex
 10
0.5625
 20
0.0625
 30
8.125
 70
    64
  0
SEQEND
  5
5AED
100
AcDbEntity
  8
0
  0
CIRCLE
  5
5AEE
100
AcDbEntity
  8
0
100
AcDbCircle
 10
0.0
 20
-0.5
 30
8.125
 40
0.4375
  0
LWPOLYLINE
  5
5AEF
100
AcDbEntity
  8
0
100
AcDbPolyline
 90
        6
 70
     1
 43
0.0
 38
8.125
 10
-0.09375
 20
-0.66238
 10
0.09375
 20
-0.66238
 10
0.1875
 20
-0.5
 10
0.09375
 20
-0.33762
 10
-0.09375
 20
-0.33762
 10
-0.1875
 20
-0.5
  0
POLYLINE
  5
5AF0
100
AcDbEntity
  8
0
100
AcDbPolygonMesh
 66
     1
 10
0.0
 20
0.0
 30
0.0
 70
    16
 71
     6
 72
     3
  0
VERTEX
  5
5AF1
100
AcDbEntity
  8
0
100
AcDbVertex
100
AcDbPolygonMeshVertex
 10
-0.5625
 20
-0.8125
 30
6.75
 70
    64
  0
VERTEX
  5
5AF2
100
AcDbEntity
  8
0
100
AcDbVertex
100
AcDbPolygonMeshVertex
 10
-0.5625
 20
-0.8125
 30
6.5
 70
    64
  0
VERTEX
  5
5AF3
100
AcDbEntity
  8
0
100
AcDbVertex
100
AcDbPolygonMeshVertex
 10
-0.5625
 20
-0.8125
 30
6.5
 70
    64
  0
VERTEX
  5
5AF4
100
AcDbEntity
  8
0
100
AcDbVertex
100
AcDbPolygonMeshVertex
 10
0.5625
 20
-0.8125
 30
6.75
 70
    64
  0
VERTEX
  5
5AF5
100
AcDbEntity
  8
0
100
AcDbVertex
100
AcDbPolygonMeshVertex
 10
0.5625
 20
-0.8125
 30
6.5
 70
    64
  0
VERTEX
  5
5AF6
100
AcDbEntity
  8
0
100
AcDbVertex
100
AcDbPolygonMeshVertex
 10
0.5625
 20
-0.8125
 30
6.5
 70
    64
  0
VERTEX
  5
5AF7
100
AcDbEntity
  8
0
100
AcDbVertex
100
AcDbPolygonMeshVertex
 10
0.5625
 20
-1.06
 30
6.75
 70
    64
  0
VERTEX
  5
5AF8
100
AcDbEntity
  8
0
100
AcDbVertex
100
AcDbPolygonMeshVertex
 10
0.5625
 20
-1.06
 30
6.5
 70
    64
  0
VERTEX
  5
5AF9
100
AcDbEntity
  8
0
100
AcDbVertex
100
AcDbPolygonMeshVertex
 10
0.5625
 20
-0.8125
 30
6.5
 70
    64
  0
VERTEX
  5
5AFA
100
AcDbEntity
  8
0
100
AcDbVertex
100
AcDbPolygonMeshVertex
 10
-0.5625
 20
-1.06
 30
6.75
 70
    64
  0
VERTEX
  5
5AFB
100
AcDbEntity
  8
0
100
AcDbVertex
100
AcDbPolygonMeshVertex
 10
-0.5625
 20
-1.06
 30
6.5
 70
    64
  0
VERTEX
  5
5AFC
100
AcDbEntity
  8
0
100
AcDbVertex
100
AcDbPolygonMeshVertex
 10
-0.5625
 20
-0.8125
 30
6.5
 70
    64
  0
VERTEX
  5
5AFD
100
AcDbEntity
  8
0
100
AcDbVertex
100
AcDbPolygonMeshVertex
 10
-0.5625
 20
-1.06
 30
6.75
 70
    64
  0
VERTEX
  5
5AFE
100
AcDbEntity
  8
0
100
AcDbVertex
100
AcDbPolygonMeshVertex
 10
-0.5625
 20
-1.06
 30
6.75
 70
    64
  0
VERTEX
  5
5AFF
100
AcDbEntity
  8
0
100
AcDbVertex
100
AcDbPolygonMeshVertex
 10
-0.5625
 20
-0.8125
 30
6.75
 70
    64
  0
VERTEX
  5
5B00
100
AcDbEntity
  8
0
100
AcDbVertex
100
AcDbPolygonMeshVertex
 10
0.5625
 20
-1.06
 30
6.75
 70
    64
  0
VERTEX
  5
5B01
100
AcDbEntity
  8
0
100
AcDbVertex
100
AcDbPolygonMeshVertex
 10
0.5625
 20
-1.06
 30
6.75
 70
    64
  0
VERTEX
  5
5B02
100
AcDbEntity
  8
0
100
AcDbVertex
100
AcDbPolygonMeshVertex
 10
0.5625
 20
-0.8125
 30
6.75
 70
    64
  0
SEQEND
  5
5B03
100
AcDbEntity
  8
0
  0
POLYLINE
  5
5B04
100
AcDbEntity
  8
0
100
AcDbPolygonMesh
 66
     1
 10
0.0
 20
0.0
 30
0.0
 70
    16
 71
     6
 72
     3
  0
VERTEX
  5
5B05
100
AcDbEntity
  8
0
100
AcDbVertex
100
AcDbPolygonMeshVertex
 10
-0.5625
 20
-1.0625
 30
7.0
 70
    64
  0
VERTEX
  5
5B06
100
AcDbEntity
  8
0
100
AcDbVertex
100
AcDbPolygonMeshVertex
 10
-0.5625
 20
-1.0625
 30
6.75
 70
    64
  0
VERTEX
  5
5B07
100
AcDbEntity
  8
0
100
AcDbVertex
100
AcDbPolygonMeshVertex
 10
-0.5625
 20
-1.0625
 30
6.75
 70
    64
  0
VERTEX
  5
5B08
100
AcDbEntity
  8
0
100
AcDbVertex
100
AcDbPolygonMeshVertex
 10
0.5625
 20
-1.0625
 30
7.0
 70
    64
  0
VERTEX
  5
5B09
100
AcDbEntity
  8
0
100
AcDbVertex
100
AcDbPolygonMeshVertex
 10
0.5625
 20
-1.0625
 30
6.75
 70
    64
  0
VERTEX
  5
5B0A
100
AcDbEntity
  8
0
100
AcDbVertex
100
AcDbPolygonMeshVertex
 10
0.5625
 20
-1.0625
 30
6.75
 70
    64
  0
VERTEX
  5
5B0B
100
AcDbEntity
  8
0
100
AcDbVertex
100
AcDbPolygonMeshVertex
 10
0.5625
 20
-2.1875
 30
7.0
 70
    64
  0
VERTEX
  5
5B0C
100
AcDbEntity
  8
0
100
AcDbVertex
100
AcDbPolygonMeshVertex
 10
0.5625
 20
-2.1875
 30
6.75
 70
    64
  0
VERTEX
  5
5B0D
100
AcDbEntity
  8
0
100
AcDbVertex
100
AcDbPolygonMeshVertex
 10
0.5625
 20
-1.0625
 30
6.75
 70
    64
  0
VERTEX
  5
5B0E
100
AcDbEntity
  8
0
100
AcDbVertex
100
AcDbPolygonMeshVertex
 10
-0.5625
 20
-2.1875
 30
7.0
 70
    64
  0
VERTEX
  5
5B0F
100
AcDbEntity
  8
0
100
AcDbVertex
100
AcDbPolygonMeshVertex
 10
-0.5625
 20
-2.1875
 30
6.75
 70
    64
  0
VERTEX
  5
5B10
100
AcDbEntity
  8
0
100
AcDbVertex
100
AcDbPolygonMeshVertex
 10
-0.5625
 20
-1.0625
 30
6.75
 70
    64
  0
VERTEX
  5
5B11
100
AcDbEntity
  8
0
100
AcDbVertex
100
AcDbPolygonMeshVertex
 10
-0.5625
 20
-2.1875
 30
7.0
 70
    64
  0
VERTEX
  5
5B12
100
AcDbEntity
  8
0
100
AcDbVertex
100
AcDbPolygonMeshVertex
 10
-0.5625
 20
-2.1875
 30
7.0
 70
    64
  0
VERTEX
  5
5B13
100
AcDbEntity
  8
0
100
AcDbVertex
100
AcDbPolygonMeshVertex
 10
-0.5625
 20
-1.0625
 30
7.0
 70
    64
  0
VERTEX
  5
5B14
100
AcDbEntity
  8
0
100
AcDbVertex
100
AcDbPolygonMeshVertex
 10
0.5625
 20
-2.1875
 30
7.0
 70
    64
  0
VERTEX
  5
5B15
100
AcDbEntity
  8
0
100
AcDbVertex
100
AcDbPolygonMeshVertex
 10
0.5625
 20
-2.1875
 30
7.0
 70
    64
  0
VERTEX
  5
5B16
100
AcDbEntity
  8
0
100
AcDbVertex
100
AcDbPolygonMeshVertex
 10
0.5625
 20
-1.0625
 30
7.0
 70
    64
  0
SEQEND
  5
5B17
100
AcDbEntity
  8
0
  0
LWPOLYLINE
  5
5B18
100
AcDbEntity
  8
0
100
AcDbPolyline
 90
        6
 70
     1
 43
0.0
 38
7.0
 10
-0.25
 20
-2.058012
 10
0.25
 20
-2.058013
 10
0.5
 20
-1.625
 10
0.25
 20
-1.191988
 10
-0.25
 20
-1.191987
 10
-0.5
 20
-1.625
  0
POLYLINE
  5
5B19
100
AcDbEntity
  8
0
100
AcDbPolygonMesh
 66
     1
 10
0.0
 20
0.0
 30
0.0
 70
    16
 71
     6
 72
     3
  0
VERTEX
  5
5B1A
100
AcDbEntity
  8
0
100
AcDbVertex
100
AcDbPolygonMeshVertex
 10
-2.5625
 20
0.0625
 30
8.125
 70
    64
  0
VERTEX
  5
5B1B
100
AcDbEntity
  8
0
100
AcDbVertex
100
AcDbPolygonMeshVertex
 10
-2.5625
 20
0.0625
 30
6.75
 70
    64
  0
VERTEX
  5
5B1C
100
AcDbEntity
  8
0
100
AcDbVertex
100
AcDbPolygonMeshVertex
 10
-2.5625
 20
0.0625
 30
6.75
 70
    64
  0
VERTEX
  5
5B1D
100
AcDbEntity
  8
0
100
AcDbVertex
100
AcDbPolygonMeshVertex
 10
-1.4375
 20
0.0625
 30
8.125
 70
    64
  0
VERTEX
  5
5B1E
100
AcDbEntity
  8
0
100
AcDbVertex
100
AcDbPolygonMeshVertex
 10
-1.4375
 20
0.0625
 30
6.75
 70
    64
  0
VERTEX
  5
5B1F
100
AcDbEntity
  8
0
100
AcDbVertex
100
AcDbPolygonMeshVertex
 10
-1.4375
 20
0.0625
 30
6.75
 70
    64
  0
VERTEX
  5
5B20
100
AcDbEntity
  8
0
100
AcDbVertex
100
AcDbPolygonMeshVertex
 10
-1.4375
 20
-1.0625
 30
8.125
 70
    64
  0
VERTEX
  5
5B21
100
AcDbEntity
  8
0
100
AcDbVertex
100
AcDbPolygonMeshVertex
 10
-1.4375
 20
-1.0625
 30
6.75
 70
    64
  0
VERTEX
  5
5B22
100
AcDbEntity
  8
0
100
AcDbVertex
100
AcDbPolygonMeshVertex
 10
-1.4375
 20
0.0625
 30
6.75
 70
    64
  0
VERTEX
  5
5B23
100
AcDbEntity
  8
0
100
AcDbVertex
100
AcDbPolygonMeshVertex
 10
-2.5625
 20
-1.0625
 30
8.125
 70
    64
  0
VERTEX
  5
5B24
100
AcDbEntity
  8
0
100
AcDbVertex
100
AcDbPolygonMeshVertex
 10
-2.5625
 20
-1.0625
 30
6.75
 70
    64
  0
VERTEX
  5
5B25
100
AcDbEntity
  8
0
100
AcDbVertex
100
AcDbPolygonMeshVertex
 10
-2.5625
 20
0.0625
 30
6.75
 70
    64
  0
VERTEX
  5
5B26
100
AcDbEntity
  8
0
100
AcDbVertex
100
AcDbPolygonMeshVertex
 10
-2.5625
 20
-1.0625
 30
8.125
 70
    64
  0
VERTEX
  5
5B27
100
AcDbEntity
  8
0
100
AcDbVertex
100
AcDbPolygonMeshVertex
 10
-2.5625
 20
-1.0625
 30
8.125
 70
    64
  0
VERTEX
  5
5B28
100
AcDbEntity
  8
0
100
AcDbVertex
100
AcDbPolygonMeshVertex
 10
-2.5625
 20
0.0625
 30
8.125
 70
    64
  0
VERTEX
  5
5B29
100
AcDbEntity
  8
0
100
AcDbVertex
100
AcDbPolygonMeshVertex
 10
-1.4375
 20
-1.0625
 30
8.125
 70
    64
  0
VERTEX
  5
5B2A
100
AcDbEntity
  8
0
100
AcDbVertex
100
AcDbPolygonMeshVertex
 10
-1.4375
 20
-1.0625
 30
8.125
 70
    64
  0
VERTEX
  5
5B2B
100
AcDbEntity
  8
0
100
AcDbVertex
100
AcDbPolygonMeshVertex
 10
-1.4375
 20
0.0625
 30
8.125
 70
    64
  0
SEQEND
  5
5B2C
100
AcDbEntity
  8
0
  0
CIRCLE
  5
5B2D
100
AcDbEntity
  8
0
100
AcDbCircle
 10
-2.0
 20
-0.5
 30
8.125
 40
0.4375
  0
LWPOLYLINE
  5
5B2E
100
AcDbEntity
  8
0
100
AcDbPolyline
 90
        6
 70
     1
 43
0.0
 38
8.125
 10
-2.09375
 20
-0.66238
 10
-1.90625
 20
-0.66238
 10
-1.8125
 20
-0.5
 10
-1.90625
 20
-0.33762
 10
-2.09375
 20
-0.33762
 10
-2.1875
 20
-0.5
  0
POLYLINE
  5
5B2F
100
AcDbEntity
  8
0
100
AcDbPolygonMesh
 66
     1
 10
0.0
 20
0.0
 30
0.0
 70
    16
 71
     6
 72
     3
  0
VERTEX
  5
5B30
100
AcDbEntity
  8
0
100
AcDbVertex
100
AcDbPolygonMeshVertex
 10
-2.5625
 20
-0.8125
 30
6.75
 70
    64
  0
VERTEX
  5
5B31
100
AcDbEntity
  8
0
100
AcDbVertex
100
AcDbPolygonMeshVertex
 10
-2.5625
 20
-0.8125
 30
6.5
 70
    64
  0
VERTEX
  5
5B32
100
AcDbEntity
  8
0
100
AcDbVertex
100
AcDbPolygonMeshVertex
 10
-2.5625
 20
-0.8125
 30
6.5
 70
    64
  0
VERTEX
  5
5B33
100
AcDbEntity
  8
0
100
AcDbVertex
100
AcDbPolygonMeshVertex
 10
-1.4375
 20
-0.8125
 30
6.75
 70
    64
  0
VERTEX
  5
5B34
100
AcDbEntity
  8
0
100
AcDbVertex
100
AcDbPolygonMeshVertex
 10
-1.4375
 20
-0.8125
 30
6.5
 70
    64
  0
VERTEX
  5
5B35
100
AcDbEntity
  8
0
100
AcDbVertex
100
AcDbPolygonMeshVertex
 10
-1.4375
 20
-0.8125
 30
6.5
 70
    64
  0
VERTEX
  5
5B36
100
AcDbEntity
  8
0
100
AcDbVertex
100
AcDbPolygonMeshVertex
 10
-1.4375
 20
-1.06
 30
6.75
 70
    64
  0
VERTEX
  5
5B37
100
AcDbEntity
  8
0
100
AcDbVertex
100
AcDbPolygonMeshVertex
 10
-1.4375
 20
-1.06
 30
6.5
 70
    64
  0
VERTEX
  5
5B38
100
AcDbEntity
  8
0
100
AcDbVertex
100
AcDbPolygonMeshVertex
 10
-1.4375
 20
-0.8125
 30
6.5
 70
    64
  0
VERTEX
  5
5B39
100
AcDbEntity
  8
0
100
AcDbVertex
100
AcDbPolygonMeshVertex
 10
-2.5625
 20
-1.06
 30
6.75
 70
    64
  0
VERTEX
  5
5B3A
100
AcDbEntity
  8
0
100
AcDbVertex
100
AcDbPolygonMeshVertex
 10
-2.5625
 20
-1.06
 30
6.5
 70
    64
  0
VERTEX
  5
5B3B
100
AcDbEntity
  8
0
100
AcDbVertex
100
AcDbPolygonMeshVertex
 10
-2.5625
 20
-0.8125
 30
6.5
 70
    64
  0
VERTEX
  5
5B3C
100
AcDbEntity
  8
0
100
AcDbVertex
100
AcDbPolygonMeshVertex
 10
-2.5625
 20
-1.06
 30
6.75
 70
    64
  0
VERTEX
  5
5B3D
100
AcDbEntity
  8
0
100
AcDbVertex
100
AcDbPolygonMeshVertex
 10
-2.5625
 20
-1.06
 30
6.75
 70
    64
  0
VERTEX
  5
5B3E
100
AcDbEntity
  8
0
100
AcDbVertex
100
AcDbPolygonMeshVertex
 10
-2.5625
 20
-0.8125
 30
6.75
 70
    64
  0
VERTEX
  5
5B3F
100
AcDbEntity
  8
0
100
AcDbVertex
100
AcDbPolygonMeshVertex
 10
-1.4375
 20
-1.06
 30
6.75
 70
    64
  0
VERTEX
  5
5B40
100
AcDbEntity
  8
0
100
AcDbVertex
100
AcDbPolygonMeshVertex
 10
-1.4375
 20
-1.06
 30
6.75
 70
    64
  0
VERTEX
  5
5B41
100
AcDbEntity
  8
0
100
AcDbVertex
100
AcDbPolygonMeshVertex
 10
-1.4375
 20
-0.8125
 30
6.75
 70
    64
  0
SEQEND
  5
5B42
100
AcDbEntity
  8
0
  0
POLYLINE
  5
5B43
100
AcDbEntity
  8
0
100
AcDbPolygonMesh
 66
     1
 10
0.0
 20
0.0
 30
0.0
 70
    16
 71
     6
 72
     3
  0
VERTEX
  5
5B44
100
AcDbEntity
  8
0
100
AcDbVertex
100
AcDbPolygonMeshVertex
 10
-2.5625
 20
-1.0625
 30
7.0
 70
    64
  0
VERTEX
  5
5B45
100
AcDbEntity
  8
0
100
AcDbVertex
100
AcDbPolygonMeshVertex
 10
-2.5625
 20
-1.0625
 30
6.75
 70
    64
  0
VERTEX
  5
5B46
100
AcDbEntity
  8
0
100
AcDbVertex
100
AcDbPolygonMeshVertex
 10
-2.5625
 20
-1.0625
 30
6.75
 70
    64
  0
VERTEX
  5
5B47
100
AcDbEntity
  8
0
100
AcDbVertex
100
AcDbPolygonMeshVertex
 10
-1.4375
 20
-1.0625
 30
7.0
 70
    64
  0
VERTEX
  5
5B48
100
AcDbEntity
  8
0
100
AcDbVertex
100
AcDbPolygonMeshVertex
 10
-1.4375
 20
-1.0625
 30
6.75
 70
    64
  0
VERTEX
  5
5B49
100
AcDbEntity
  8
0
100
AcDbVertex
100
AcDbPolygonMeshVertex
 10
-1.4375
 20
-1.0625
 30
6.75
 70
    64
  0
VERTEX
  5
5B4A
100
AcDbEntity
  8
0
100
AcDbVertex
100
AcDbPolygonMeshVertex
 10
-1.4375
 20
-2.1875
 30
7.0
 70
    64
  0
VERTEX
  5
5B4B
100
AcDbEntity
  8
0
100
AcDbVertex
100
AcDbPolygonMeshVertex
 10
-1.4375
 20
-2.1875
 30
6.75
 70
    64
  0
VERTEX
  5
5B4C
100
AcDbEntity
  8
0
100
AcDbVertex
100
AcDbPolygonMeshVertex
 10
-1.4375
 20
-1.0625
 30
6.75
 70
    64
  0
VERTEX
  5
5B4D
100
AcDbEntity
  8
0
100
AcDbVertex
100
AcDbPolygonMeshVertex
 10
-2.5625
 20
-2.1875
 30
7.0
 70
    64
  0
VERTEX
  5
5B4E
100
AcDbEntity
  8
0
100
AcDbVertex
100
AcDbPolygonMeshVertex
 10
-2.5625
 20
-2.1875
 30
6.75
 70
    64
  0
VERTEX
  5
5B4F
100
AcDbEntity
  8
0
100
AcDbVertex
100
AcDbPolygonMeshVertex
 10
-2.5625
 20
-1.0625
 30
6.75
 70
    64
  0
VERTEX
  5
5B50
100
AcDbEntity
  8
0
100
AcDbVertex
100
AcDbPolygonMeshVertex
 10
-2.5625
 20
-2.1875
 30
7.0
 70
    64
  0
VERTEX
  5
5B51
100
AcDbEntity
  8
0
100
AcDbVertex
100
AcDbPolygonMeshVertex
 10
-2.5625
 20
-2.1875
 30
7.0
 70
    64
  0
VERTEX
  5
5B52
100
AcDbEntity
  8
0
100
AcDbVertex
100
AcDbPolygonMeshVertex
 10
-2.5625
 20
-1.0625
 30
7.0
 70
    64
  0
VERTEX
  5
5B53
100
AcDbEntity
  8
0
100
AcDbVertex
100
AcDbPolygonMeshVertex
 10
-1.4375
 20
-2.1875
 30
7.0
 70
    64
  0
VERTEX
  5
5B54
100
AcDbEntity
  8
0
100
AcDbVertex
100
AcDbPolygonMeshVertex
 10
-1.4375
 20
-2.1875
 30
7.0
 70
    64
  0
VERTEX
  5
5B55
100
AcDbEntity
  8
0
100
AcDbVertex
100
AcDbPolygonMeshVertex
 10
-1.4375
 20
-1.0625
 30
7.0
 70
    64
  0
SEQEND
  5
5B56
100
AcDbEntity
  8
0
  0
LWPOLYLINE
  5
5B57
100
AcDbEntity
  8
0
100
AcDbPolyline
 90
        6
 70
     1
 43
0.0
 38
7.0
 10
-2.25
 20
-2.058012
 10
-1.75
 20
-2.058013
 10
-1.5
 20
-1.625
 10
-1.75
 20
-1.191988
 10
-2.25
 20
-1.191987
 10
-2.5
 20
-1.625
  0
POLYLINE
  5
5B58
100
AcDbEntity
  8
0
100
AcDbPolygonMesh
 66
     1
 10
0.0
 20
0.0
 30
0.0
 70
    16
 71
     6
 72
     3
  0
VERTEX
  5
5B59
100
AcDbEntity
  8
0
100
AcDbVertex
100
AcDbPolygonMeshVertex
 10
-2.565
 20
1.19
 30
4.375
 70
    64
  0
VERTEX
  5
5B5A
100
AcDbEntity
  8
0
100
AcDbVertex
100
AcDbPolygonMeshVertex
 10
-2.565
 20
1.19
 30
3.0
 70
    64
  0
VERTEX
  5
5B5B
100
AcDbEntity
  8
0
100
AcDbVertex
100
AcDbPolygonMeshVertex
 10
-2.565
 20
1.19
 30
3.0
 70
    64
  0
VERTEX
  5
5B5C
100
AcDbEntity
  8
0
100
AcDbVertex
100
AcDbPolygonMeshVertex
 10
-1.44
 20
1.19
 30
4.375
 70
    64
  0
VERTEX
  5
5B5D
100
AcDbEntity
  8
0
100
AcDbVertex
100
AcDbPolygonMeshVertex
 10
-1.44
 20
1.19
 30
3.0
 70
    64
  0
VERTEX
  5
5B5E
100
AcDbEntity
  8
0
100
AcDbVertex
100
AcDbPolygonMeshVertex
 10
-1.44
 20
1.19
 30
3.0
 70
    64
  0
VERTEX
  5
5B5F
100
AcDbEntity
  8
0
100
AcDbVertex
100
AcDbPolygonMeshVertex
 10
-1.44
 20
0.065
 30
4.375
 70
    64
  0
VERTEX
  5
5B60
100
AcDbEntity
  8
0
100
AcDbVertex
100
AcDbPolygonMeshVertex
 10
-1.44
 20
0.065
 30
3.0
 70
    64
  0
VERTEX
  5
5B61
100
AcDbEntity
  8
0
100
AcDbVertex
100
AcDbPolygonMeshVertex
 10
-1.44
 20
1.19
 30
3.0
 70
    64
  0
VERTEX
  5
5B62
100
AcDbEntity
  8
0
100
AcDbVertex
100
AcDbPolygonMeshVertex
 10
-2.565
 20
0.065
 30
4.375
 70
    64
  0
VERTEX
  5
5B63
100
AcDbEntity
  8
0
100
AcDbVertex
100
AcDbPolygonMeshVertex
 10
-2.565
 20
0.065
 30
3.0
 70
    64
  0
VERTEX
  5
5B64
100
AcDbEntity
  8
0
100
AcDbVertex
100
AcDbPolygonMeshVertex
 10
-2.565
 20
1.19
 30
3.0
 70
    64
  0
VERTEX
  5
5B65
100
AcDbEntity
  8
0
100
AcDbVertex
100
AcDbPolygonMeshVertex
 10
-2.565
 20
0.065
 30
4.375
 70
    64
  0
VERTEX
  5
5B66
100
AcDbEntity
  8
0
100
AcDbVertex
100
AcDbPolygonMeshVertex
 10
-2.565
 20
0.065
 30
4.375
 70
    64
  0
VERTEX
  5
5B67
100
AcDbEntity
  8
0
100
AcDbVertex
100
AcDbPolygonMeshVertex
 10
-2.565
 20
1.19
 30
4.375
 70
    64
  0
VERTEX
  5
5B68
100
AcDbEntity
  8
0
100
AcDbVertex
100
AcDbPolygonMeshVertex
 10
-1.44
 20
0.065
 30
4.375
 70
    64
  0
VERTEX
  5
5B69
100
AcDbEntity
  8
0
100
AcDbVertex
100
AcDbPolygonMeshVertex
 10
-1.44
 20
0.065
 30
4.375
 70
    64
  0
VERTEX
  5
5B6A
100
AcDbEntity
  8
0
100
AcDbVertex
100
AcDbPolygonMeshVertex
 10
-1.44
 20
1.19
 30
4.375
 70
    64
  0
SEQEND
  5
5B6B
100
AcDbEntity
  8
0
  0
CIRCLE
  5
5B6C
100
AcDbEntity
  8
0
100
AcDbCircle
 10
-2.0025
 20
0.6275
 30
4.375
 40
0.4375
  0
POLYLINE
  5
5B6D
100
AcDbEntity
  8
0
100
AcDbPolygonMesh
 66
     1
 10
0.0
 20
0.0
 30
0.0
 70
    16
 71
     6
 72
     3
  0
VERTEX
  5
5B6E
100
AcDbEntity
  8
0
100
AcDbVertex
100
AcDbPolygonMeshVertex
 10
-2.565
 20
0.315
 30
3.0
 70
    64
  0
VERTEX
  5
5B6F
100
AcDbEntity
  8
0
100
AcDbVertex
100
AcDbPolygonMeshVertex
 10
-2.565
 20
0.315
 30
2.75
 70
    64
  0
VERTEX
  5
5B70
100
AcDbEntity
  8
0
100
AcDbVertex
100
AcDbPolygonMeshVertex
 10
-2.565
 20
0.315
 30
2.75
 70
    64
  0
VERTEX
  5
5B71
100
AcDbEntity
  8
0
100
AcDbVertex
100
AcDbPolygonMeshVertex
 10
-1.44
 20
0.315
 30
3.0
 70
    64
  0
VERTEX
  5
5B72
100
AcDbEntity
  8
0
100
AcDbVertex
100
AcDbPolygonMeshVertex
 10
-1.44
 20
0.315
 30
2.75
 70
    64
  0
VERTEX
  5
5B73
100
AcDbEntity
  8
0
100
AcDbVertex
100
AcDbPolygonMeshVertex
 10
-1.44
 20
0.315
 30
2.75
 70
    64
  0
VERTEX
  5
5B74
100
AcDbEntity
  8
0
100
AcDbVertex
100
AcDbPolygonMeshVertex
 10
-1.44
 20
0.0675
 30
3.0
 70
    64
  0
VERTEX
  5
5B75
100
AcDbEntity
  8
0
100
AcDbVertex
100
AcDbPolygonMeshVertex
 10
-1.44
 20
0.0675
 30
2.75
 70
    64
  0
VERTEX
  5
5B76
100
AcDbEntity
  8
0
100
AcDbVertex
100
AcDbPolygonMeshVertex
 10
-1.44
 20
0.315
 30
2.75
 70
    64
  0
VERTEX
  5
5B77
100
AcDbEntity
  8
0
100
AcDbVertex
100
AcDbPolygonMeshVertex
 10
-2.565
 20
0.0675
 30
3.0
 70
    64
  0
VERTEX
  5
5B78
100
AcDbEntity
  8
0
100
AcDbVertex
100
AcDbPolygonMeshVertex
 10
-2.565
 20
0.0675
 30
2.75
 70
    64
  0
VERTEX
  5
5B79
100
AcDbEntity
  8
0
100
AcDbVertex
100
AcDbPolygonMeshVertex
 10
-2.565
 20
0.315
 30
2.75
 70
    64
  0
VERTEX
  5
5B7A
100
AcDbEntity
  8
0
100
AcDbVertex
100
AcDbPolygonMeshVertex
 10
-2.565
 20
0.0675
 30
3.0
 70
    64
  0
VERTEX
  5
5B7B
100
AcDbEntity
  8
0
100
AcDbVertex
100
AcDbPolygonMeshVertex
 10
-2.565
 20
0.0675
 30
3.0
 70
    64
  0
VERTEX
  5
5B7C
100
AcDbEntity
  8
0
100
AcDbVertex
100
AcDbPolygonMeshVertex
 10
-2.565
 20
0.315
 30
3.0
 70
    64
  0
VERTEX
  5
5B7D
100
AcDbEntity
  8
0
100
AcDbVertex
100
AcDbPolygonMeshVertex
 10
-1.44
 20
0.0675
 30
3.0
 70
    64
  0
VERTEX
  5
5B7E
100
AcDbEntity
  8
0
100
AcDbVertex
100
AcDbPolygonMeshVertex
 10
-1.44
 20
0.0675
 30
3.0
 70
    64
  0
VERTEX
  5
5B7F
100
AcDbEntity
  8
0
100
AcDbVertex
100
AcDbPolygonMeshVertex
 10
-1.44
 20
0.315
 30
3.0
 70
    64
  0
SEQEND
  5
5B80
100
AcDbEntity
  8
0
  0
POLYLINE
  5
5B81
100
AcDbEntity
  8
0
100
AcDbPolygonMesh
 66
     1
 10
0.0
 20
0.0
 30
0.0
 70
    16
 71
     6
 72
     3
  0
VERTEX
  5
5B82
100
AcDbEntity
  8
0
100
AcDbVertex
100
AcDbPolygonMeshVertex
 10
-2.565
 20
0.065
 30
3.25
 70
    64
  0
VERTEX
  5
5B83
100
AcDbEntity
  8
0
100
AcDbVertex
100
AcDbPolygonMeshVertex
 10
-2.565
 20
0.065
 30
3.0
 70
    64
  0
VERTEX
  5
5B84
100
AcDbEntity
  8
0
100
AcDbVertex
100
AcDbPolygonMeshVertex
 10
-2.565
 20
0.065
 30
3.0
 70
    64
  0
VERTEX
  5
5B85
100
AcDbEntity
  8
0
100
AcDbVertex
100
AcDbPolygonMeshVertex
 10
-1.44
 20
0.065
 30
3.25
 70
    64
  0
VERTEX
  5
5B86
100
AcDbEntity
  8
0
100
AcDbVertex
100
AcDbPolygonMeshVertex
 10
-1.44
 20
0.065
 30
3.0
 70
    64
  0
VERTEX
  5
5B87
100
AcDbEntity
  8
0
100
AcDbVertex
100
AcDbPolygonMeshVertex
 10
-1.44
 20
0.065
 30
3.0
 70
    64
  0
VERTEX
  5
5B88
100
AcDbEntity
  8
0
100
AcDbVertex
100
AcDbPolygonMeshVertex
 10
-1.44
 20
-1.06
 30
3.25
 70
    64
  0
VERTEX
  5
5B89
100
AcDbEntity
  8
0
100
AcDbVertex
100
AcDbPolygonMeshVertex
 10
-1.44
 20
-1.06
 30
3.0
 70
    64
  0
VERTEX
  5
5B8A
100
AcDbEntity
  8
0
100
AcDbVertex
100
AcDbPolygonMeshVertex
 10
-1.44
 20
0.065
 30
3.0
 70
    64
  0
VERTEX
  5
5B8B
100
AcDbEntity
  8
0
100
AcDbVertex
100
AcDbPolygonMeshVertex
 10
-2.565
 20
-1.06
 30
3.25
 70
    64
  0
VERTEX
  5
5B8C
100
AcDbEntity
  8
0
100
AcDbVertex
100
AcDbPolygonMeshVertex
 10
-2.565
 20
-1.06
 30
3.0
 70
    64
  0
VERTEX
  5
5B8D
100
AcDbEntity
  8
0
100
AcDbVertex
100
AcDbPolygonMeshVertex
 10
-2.565
 20
0.065
 30
3.0
 70
    64
  0
VERTEX
  5
5B8E
100
AcDbEntity
  8
0
100
AcDbVertex
100
AcDbPolygonMeshVertex
 10
-2.565
 20
-1.06
 30
3.25
 70
    64
  0
VERTEX
  5
5B8F
100
AcDbEntity
  8
0
100
AcDbVertex
100
AcDbPolygonMeshVertex
 10
-2.565
 20
-1.06
 30
3.25
 70
    64
  0
VERTEX
  5
5B90
100
AcDbEntity
  8
0
100
AcDbVertex
100
AcDbPolygonMeshVertex
 10
-2.565
 20
0.065
 30
3.25
 70
    64
  0
VERTEX
  5
5B91
100
AcDbEntity
  8
0
100
AcDbVertex
100
AcDbPolygonMeshVertex
 10
-1.44
 20
-1.06
 30
3.25
 70
    64
  0
VERTEX
  5
5B92
100
AcDbEntity
  8
0
100
AcDbVertex
100
AcDbPolygonMeshVertex
 10
-1.44
 20
-1.06
 30
3.25
 70
    64
  0
VERTEX
  5
5B93
100
AcDbEntity
  8
0
100
AcDbVertex
100
AcDbPolygonMeshVertex
 10
-1.44
 20
0.065
 30
3.25
 70
    64
  0
SEQEND
  5
5B94
100
AcDbEntity
  8
0
  0
LWPOLYLINE
  5
5B95
100
AcDbEntity
  8
0
100
AcDbPolyline
 90
        6
 70
     1
 43
0.0
 38
3.25
 10
-2.2525
 20
-0.930512
 10
-1.7525
 20
-0.930513
 10
-1.5025
 20
-0.4975
 10
-1.7525
 20
-0.064488
 10
-2.2525
 20
-0.064487
 10
-2.5025
 20
-0.4975
  0
CIRCLE
  5
5B96
100
AcDbEntity
  8
0
100
AcDbCircle
 10
-2.0025
 20
-0.4975
 30
3.25
 40
0.1875
  0
POLYLINE
  5
5B97
100
AcDbEntity
  8
0
100
AcDbPolygonMesh
 66
     1
 10
0.0
 20
0.0
 30
0.0
 70
    16
 71
     6
 72
     3
  0
VERTEX
  5
5B98
100
AcDbEntity
  8
0
100
AcDbVertex
100
AcDbPolygonMeshVertex
 10
-0.565
 20
1.19
 30
4.375
 70
    64
  0
VERTEX
  5
5B99
100
AcDbEntity
  8
0
100
AcDbVertex
100
AcDbPolygonMeshVertex
 10
-0.565
 20
1.19
 30
3.0
 70
    64
  0
VERTEX
  5
5B9A
100
AcDbEntity
  8
0
100
AcDbVertex
100
AcDbPolygonMeshVertex
 10
-0.565
 20
1.19
 30
3.0
 70
    64
  0
VERTEX
  5
5B9B
100
AcDbEntity
  8
0
100
AcDbVertex
100
AcDbPolygonMeshVertex
 10
0.56
 20
1.19
 30
4.375
 70
    64
  0
VERTEX
  5
5B9C
100
AcDbEntity
  8
0
100
AcDbVertex
100
AcDbPolygonMeshVertex
 10
0.56
 20
1.19
 30
3.0
 70
    64
  0
VERTEX
  5
5B9D
100
AcDbEntity
  8
0
100
AcDbVertex
100
AcDbPolygonMeshVertex
 10
0.56
 20
1.19
 30
3.0
 70
    64
  0
VERTEX
  5
5B9E
100
AcDbEntity
  8
0
100
AcDbVertex
100
AcDbPolygonMeshVertex
 10
0.56
 20
0.065
 30
4.375
 70
    64
  0
VERTEX
  5
5B9F
100
AcDbEntity
  8
0
100
AcDbVertex
100
AcDbPolygonMeshVertex
 10
0.56
 20
0.065
 30
3.0
 70
    64
  0
VERTEX
  5
5BA0
100
AcDbEntity
  8
0
100
AcDbVertex
100
AcDbPolygonMeshVertex
 10
0.56
 20
1.19
 30
3.0
 70
    64
  0
VERTEX
  5
5BA1
100
AcDbEntity
  8
0
100
AcDbVertex
100
AcDbPolygonMeshVertex
 10
-0.565
 20
0.065
 30
4.375
 70
    64
  0
VERTEX
  5
5BA2
100
AcDbEntity
  8
0
100
AcDbVertex
100
AcDbPolygonMeshVertex
 10
-0.565
 20
0.065
 30
3.0
 70
    64
  0
VERTEX
  5
5BA3
100
AcDbEntity
  8
0
100
AcDbVertex
100
AcDbPolygonMeshVertex
 10
-0.565
 20
1.19
 30
3.0
 70
    64
  0
VERTEX
  5
5BA4
100
AcDbEntity
  8
0
100
AcDbVertex
100
AcDbPolygonMeshVertex
 10
-0.565
 20
0.065
 30
4.375
 70
    64
  0
VERTEX
  5
5BA5
100
AcDbEntity
  8
0
100
AcDbVertex
100
AcDbPolygonMeshVertex
 10
-0.565
 20
0.065
 30
4.375
 70
    64
  0
VERTEX
  5
5BA6
100
AcDbEntity
  8
0
100
AcDbVertex
100
AcDbPolygonMeshVertex
 10
-0.565
 20
1.19
 30
4.375
 70
    64
  0
VERTEX
  5
5BA7
100
AcDbEntity
  8
0
100
AcDbVertex
100
AcDbPolygonMeshVertex
 10
0.56
 20
0.065
 30
4.375
 70
    64
  0
VERTEX
  5
5BA8
100
AcDbEntity
  8
0
100
AcDbVertex
100
AcDbPolygonMeshVertex
 10
0.56
 20
0.065
 30
4.375
 70
    64
  0
VERTEX
  5
5BA9
100
AcDbEntity
  8
0
100
AcDbVertex
100
AcDbPolygonMeshVertex
 10
0.56
 20
1.19
 30
4.375
 70
    64
  0
SEQEND
  5
5BAA
100
AcDbEntity
  8
0
  0
CIRCLE
  5
5BAB
100
AcDbEntity
  8
0
100
AcDbCircle
 10
-0.0025
 20
0.6275
 30
4.375
 40
0.4375
  0
POLYLINE
  5
5BAC
100
AcDbEntity
  8
0
100
AcDbPolygonMesh
 66
     1
 10
0.0
 20
0.0
 30
0.0
 70
    16
 71
     6
 72
     3
  0
VERTEX
  5
5BAD
100
AcDbEntity
  8
0
100
AcDbVertex
100
AcDbPolygonMeshVertex
 10
-0.565
 20
0.315
 30
3.0
 70
    64
  0
VERTEX
  5
5BAE
100
AcDbEntity
  8
0
100
AcDbVertex
100
AcDbPolygonMeshVertex
 10
-0.565
 20
0.315
 30
2.75
 70
    64
  0
VERTEX
  5
5BAF
100
AcDbEntity
  8
0
100
AcDbVertex
100
AcDbPolygonMeshVertex
 10
-0.565
 20
0.315
 30
2.75
 70
    64
  0
VERTEX
  5
5BB0
100
AcDbEntity
  8
0
100
AcDbVertex
100
AcDbPolygonMeshVertex
 10
0.56
 20
0.315
 30
3.0
 70
    64
  0
VERTEX
  5
5BB1
100
AcDbEntity
  8
0
100
AcDbVertex
100
AcDbPolygonMeshVertex
 10
0.56
 20
0.315
 30
2.75
 70
    64
  0
VERTEX
  5
5BB2
100
AcDbEntity
  8
0
100
AcDbVertex
100
AcDbPolygonMeshVertex
 10
0.56
 20
0.315
 30
2.75
 70
    64
  0
VERTEX
  5
5BB3
100
AcDbEntity
  8
0
100
AcDbVertex
100
AcDbPolygonMeshVertex
 10
0.56
 20
0.0675
 30
3.0
 70
    64
  0
VERTEX
  5
5BB4
100
AcDbEntity
  8
0
100
AcDbVertex
100
AcDbPolygonMeshVertex
 10
0.56
 20
0.0675
 30
2.75
 70
    64
  0
VERTEX
  5
5BB5
100
AcDbEntity
  8
0
100
AcDbVertex
100
AcDbPolygonMeshVertex
 10
0.56
 20
0.315
 30
2.75
 70
    64
  0
VERTEX
  5
5BB6
100
AcDbEntity
  8
0
100
AcDbVertex
100
AcDbPolygonMeshVertex
 10
-0.565
 20
0.0675
 30
3.0
 70
    64
  0
VERTEX
  5
5BB7
100
AcDbEntity
  8
0
100
AcDbVertex
100
AcDbPolygonMeshVertex
 10
-0.565
 20
0.0675
 30
2.75
 70
    64
  0
VERTEX
  5
5BB8
100
AcDbEntity
  8
0
100
AcDbVertex
100
AcDbPolygonMeshVertex
 10
-0.565
 20
0.315
 30
2.75
 70
    64
  0
VERTEX
  5
5BB9
100
AcDbEntity
  8
0
100
AcDbVertex
100
AcDbPolygonMeshVertex
 10
-0.565
 20
0.0675
 30
3.0
 70
    64
  0
VERTEX
  5
5BBA
100
AcDbEntity
  8
0
100
AcDbVertex
100
AcDbPolygonMeshVertex
 10
-0.565
 20
0.0675
 30
3.0
 70
    64
  0
VERTEX
  5
5BBB
100
AcDbEntity
  8
0
100
AcDbVertex
100
AcDbPolygonMeshVertex
 10
-0.565
 20
0.315
 30
3.0
 70
    64
  0
VERTEX
  5
5BBC
100
AcDbEntity
  8
0
100
AcDbVertex
100
AcDbPolygonMeshVertex
 10
0.56
 20
0.0675
 30
3.0
 70
    64
  0
VERTEX
  5
5BBD
100
AcDbEntity
  8
0
100
AcDbVertex
100
AcDbPolygonMeshVertex
 10
0.56
 20
0.0675
 30
3.0
 70
    64
  0
VERTEX
  5
5BBE
100
AcDbEntity
  8
0
100
AcDbVertex
100
AcDbPolygonMeshVertex
 10
0.56
 20
0.315
 30
3.0
 70
    64
  0
SEQEND
  5
5BBF
100
AcDbEntity
  8
0
  0
POLYLINE
  5
5BC0
100
AcDbEntity
  8
0
100
AcDbPolygonMesh
 66
     1
 10
0.0
 20
0.0
 30
0.0
 70
    16
 71
     6
 72
     3
  0
VERTEX
  5
5BC1
100
AcDbEntity
  8
0
100
AcDbVertex
100
AcDbPolygonMeshVertex
 10
-0.565
 20
0.065
 30
3.25
 70
    64
  0
VERTEX
  5
5BC2
100
AcDbEntity
  8
0
100
AcDbVertex
100
AcDbPolygonMeshVertex
 10
-0.565
 20
0.065
 30
3.0
 70
    64
  0
VERTEX
  5
5BC3
100
AcDbEntity
  8
0
100
AcDbVertex
100
AcDbPolygonMeshVertex
 10
-0.565
 20
0.065
 30
3.0
 70
    64
  0
VERTEX
  5
5BC4
100
AcDbEntity
  8
0
100
AcDbVertex
100
AcDbPolygonMeshVertex
 10
0.56
 20
0.065
 30
3.25
 70
    64
  0
VERTEX
  5
5BC5
100
AcDbEntity
  8
0
100
AcDbVertex
100
AcDbPolygonMeshVertex
 10
0.56
 20
0.065
 30
3.0
 70
    64
  0
VERTEX
  5
5BC6
100
AcDbEntity
  8
0
100
AcDbVertex
100
AcDbPolygonMeshVertex
 10
0.56
 20
0.065
 30
3.0
 70
    64
  0
VERTEX
  5
5BC7
100
AcDbEntity
  8
0
100
AcDbVertex
100
AcDbPolygonMeshVertex
 10
0.56
 20
-1.06
 30
3.25
 70
    64
  0
VERTEX
  5
5BC8
100
AcDbEntity
  8
0
100
AcDbVertex
100
AcDbPolygonMeshVertex
 10
0.56
 20
-1.06
 30
3.0
 70
    64
  0
VERTEX
  5
5BC9
100
AcDbEntity
  8
0
100
AcDbVertex
100
AcDbPolygonMeshVertex
 10
0.56
 20
0.065
 30
3.0
 70
    64
  0
VERTEX
  5
5BCA
100
AcDbEntity
  8
0
100
AcDbVertex
100
AcDbPolygonMeshVertex
 10
-0.565
 20
-1.06
 30
3.25
 70
    64
  0
VERTEX
  5
5BCB
100
AcDbEntity
  8
0
100
AcDbVertex
100
AcDbPolygonMeshVertex
 10
-0.565
 20
-1.06
 30
3.0
 70
    64
  0
VERTEX
  5
5BCC
100
AcDbEntity
  8
0
100
AcDbVertex
100
AcDbPolygonMeshVertex
 10
-0.565
 20
0.065
 30
3.0
 70
    64
  0
VERTEX
  5
5BCD
100
AcDbEntity
  8
0
100
AcDbVertex
100
AcDbPolygonMeshVertex
 10
-0.565
 20
-1.06
 30
3.25
 70
    64
  0
VERTEX
  5
5BCE
100
AcDbEntity
  8
0
100
AcDbVertex
100
AcDbPolygonMeshVertex
 10
-0.565
 20
-1.06
 30
3.25
 70
    64
  0
VERTEX
  5
5BCF
100
AcDbEntity
  8
0
100
AcDbVertex
100
AcDbPolygonMeshVertex
 10
-0.565
 20
0.065
 30
3.25
 70
    64
  0
VERTEX
  5
5BD0
100
AcDbEntity
  8
0
100
AcDbVertex
100
AcDbPolygonMeshVertex
 10
0.56
 20
-1.06
 30
3.25
 70
    64
  0
VERTEX
  5
5BD1
100
AcDbEntity
  8
0
100
AcDbVertex
100
AcDbPolygonMeshVertex
 10
0.56
 20
-1.06
 30
3.25
 70
    64
  0
VERTEX
  5
5BD2
100
AcDbEntity
  8
0
100
AcDbVertex
100
AcDbPolygonMeshVertex
 10
0.56
 20
0.065
 30
3.25
 70
    64
  0
SEQEND
  5
5BD3
100
AcDbEntity
  8
0
  0
LWPOLYLINE
  5
5BD4
100
AcDbEntity
  8
0
100
AcDbPolyline
 90
        6
 70
     1
 43
0.0
 38
3.25
 10
-0.2525
 20
-0.930512
 10
0.2475
 20
-0.930513
 10
0.4975
 20
-0.4975
 10
0.2475
 20
-0.064488
 10
-0.2525
 20
-0.064487
 10
-0.5025
 20
-0.4975
  0
CIRCLE
  5
5BD5
100
AcDbEntity
  8
0
100
AcDbCircle
 10
-0.0025
 20
-0.4975
 30
3.25
 40
0.1875
  0
POLYLINE
  5
5BD6
100
AcDbEntity
  8
0
100
AcDbPolygonMesh
 66
     1
 10
0.0
 20
0.0
 30
0.0
 70
    16
 71
     6
 72
     3
  0
VERTEX
  5
5BD7
100
AcDbEntity
  8
0
100
AcDbVertex
100
AcDbPolygonMeshVertex
 10
1.435
 20
1.19
 30
4.375
 70
    64
  0
VERTEX
  5
5BD8
100
AcDbEntity
  8
0
100
AcDbVertex
100
AcDbPolygonMeshVertex
 10
1.435
 20
1.19
 30
3.0
 70
    64
  0
VERTEX
  5
5BD9
100
AcDbEntity
  8
0
100
AcDbVertex
100
AcDbPolygonMeshVertex
 10
1.435
 20
1.19
 30
3.0
 70
    64
  0
VERTEX
  5
5BDA
100
AcDbEntity
  8
0
100
AcDbVertex
100
AcDbPolygonMeshVertex
 10
2.56
 20
1.19
 30
4.375
 70
    64
  0
VERTEX
  5
5BDB
100
AcDbEntity
  8
0
100
AcDbVertex
100
AcDbPolygonMeshVertex
 10
2.56
 20
1.19
 30
3.0
 70
    64
  0
VERTEX
  5
5BDC
100
AcDbEntity
  8
0
100
AcDbVertex
100
AcDbPolygonMeshVertex
 10
2.56
 20
1.19
 30
3.0
 70
    64
  0
VERTEX
  5
5BDD
100
AcDbEntity
  8
0
100
AcDbVertex
100
AcDbPolygonMeshVertex
 10
2.56
 20
0.065
 30
4.375
 70
    64
  0
VERTEX
  5
5BDE
100
AcDbEntity
  8
0
100
AcDbVertex
100
AcDbPolygonMeshVertex
 10
2.56
 20
0.065
 30
3.0
 70
    64
  0
VERTEX
  5
5BDF
100
AcDbEntity
  8
0
100
AcDbVertex
100
AcDbPolygonMeshVertex
 10
2.56
 20
1.19
 30
3.0
 70
    64
  0
VERTEX
  5
5BE0
100
AcDbEntity
  8
0
100
AcDbVertex
100
AcDbPolygonMeshVertex
 10
1.435
 20
0.065
 30
4.375
 70
    64
  0
VERTEX
  5
5BE1
100
AcDbEntity
  8
0
100
AcDbVertex
100
AcDbPolygonMeshVertex
 10
1.435
 20
0.065
 30
3.0
 70
    64
  0
VERTEX
  5
5BE2
100
AcDbEntity
  8
0
100
AcDbVertex
100
AcDbPolygonMeshVertex
 10
1.435
 20
1.19
 30
3.0
 70
    64
  0
VERTEX
  5
5BE3
100
AcDbEntity
  8
0
100
AcDbVertex
100
AcDbPolygonMeshVertex
 10
1.435
 20
0.065
 30
4.375
 70
    64
  0
VERTEX
  5
5BE4
100
AcDbEntity
  8
0
100
AcDbVertex
100
AcDbPolygonMeshVertex
 10
1.435
 20
0.065
 30
4.375
 70
    64
  0
VERTEX
  5
5BE5
100
AcDbEntity
  8
0
100
AcDbVertex
100
AcDbPolygonMeshVertex
 10
1.435
 20
1.19
 30
4.375
 70
    64
  0
VERTEX
  5
5BE6
100
AcDbEntity
  8
0
100
AcDbVertex
100
AcDbPolygonMeshVertex
 10
2.56
 20
0.065
 30
4.375
 70
    64
  0
VERTEX
  5
5BE7
100
AcDbEntity
  8
0
100
AcDbVertex
100
AcDbPolygonMeshVertex
 10
2.56
 20
0.065
 30
4.375
 70
    64
  0
VERTEX
  5
5BE8
100
AcDbEntity
  8
0
100
AcDbVertex
100
AcDbPolygonMeshVertex
 10
2.56
 20
1.19
 30
4.375
 70
    64
  0
SEQEND
  5
5BE9
100
AcDbEntity
  8
0
  0
CIRCLE
  5
5BEA
100
AcDbEntity
  8
0
100
AcDbCircle
 10
1.9975
 20
0.6275
 30
4.375
 40
0.4375
  0
POLYLINE
  5
5BEB
100
AcDbEntity
  8
0
100
AcDbPolygonMesh
 66
     1
 10
0.0
 20
0.0
 30
0.0
 70
    16
 71
     6
 72
     3
  0
VERTEX
  5
5BEC
100
AcDbEntity
  8
0
100
AcDbVertex
100
AcDbPolygonMeshVertex
 10
1.435
 20
0.315
 30
3.0
 70
    64
  0
VERTEX
  5
5BED
100
AcDbEntity
  8
0
100
AcDbVertex
100
AcDbPolygonMeshVertex
 10
1.435
 20
0.315
 30
2.75
 70
    64
  0
VERTEX
  5
5BEE
100
AcDbEntity
  8
0
100
AcDbVertex
100
AcDbPolygonMeshVertex
 10
1.435
 20
0.315
 30
2.75
 70
    64
  0
VERTEX
  5
5BEF
100
AcDbEntity
  8
0
100
AcDbVertex
100
AcDbPolygonMeshVertex
 10
2.56
 20
0.315
 30
3.0
 70
    64
  0
VERTEX
  5
5BF0
100
AcDbEntity
  8
0
100
AcDbVertex
100
AcDbPolygonMeshVertex
 10
2.56
 20
0.315
 30
2.75
 70
    64
  0
VERTEX
  5
5BF1
100
AcDbEntity
  8
0
100
AcDbVertex
100
AcDbPolygonMeshVertex
 10
2.56
 20
0.315
 30
2.75
 70
    64
  0
VERTEX
  5
5BF2
100
AcDbEntity
  8
0
100
AcDbVertex
100
AcDbPolygonMeshVertex
 10
2.56
 20
0.0675
 30
3.0
 70
    64
  0
VERTEX
  5
5BF3
100
AcDbEntity
  8
0
100
AcDbVertex
100
AcDbPolygonMeshVertex
 10
2.56
 20
0.0675
 30
2.75
 70
    64
  0
VERTEX
  5
5BF4
100
AcDbEntity
  8
0
100
AcDbVertex
100
AcDbPolygonMeshVertex
 10
2.56
 20
0.315
 30
2.75
 70
    64
  0
VERTEX
  5
5BF5
100
AcDbEntity
  8
0
100
AcDbVertex
100
AcDbPolygonMeshVertex
 10
1.435
 20
0.0675
 30
3.0
 70
    64
  0
VERTEX
  5
5BF6
100
AcDbEntity
  8
0
100
AcDbVertex
100
AcDbPolygonMeshVertex
 10
1.435
 20
0.0675
 30
2.75
 70
    64
  0
VERTEX
  5
5BF7
100
AcDbEntity
  8
0
100
AcDbVertex
100
AcDbPolygonMeshVertex
 10
1.435
 20
0.315
 30
2.75
 70
    64
  0
VERTEX
  5
5BF8
100
AcDbEntity
  8
0
100
AcDbVertex
100
AcDbPolygonMeshVertex
 10
1.435
 20
0.0675
 30
3.0
 70
    64
  0
VERTEX
  5
5BF9
100
AcDbEntity
  8
0
100
AcDbVertex
100
AcDbPolygonMeshVertex
 10
1.435
 20
0.0675
 30
3.0
 70
    64
  0
VERTEX
  5
5BFA
100
AcDbEntity
  8
0
100
AcDbVertex
100
AcDbPolygonMeshVertex
 10
1.435
 20
0.315
 30
3.0
 70
    64
  0
VERTEX
  5
5BFB
100
AcDbEntity
  8
0
100
AcDbVertex
100
AcDbPolygonMeshVertex
 10
2.56
 20
0.0675
 30
3.0
 70
    64
  0
VERTEX
  5
5BFC
100
AcDbEntity
  8
0
100
AcDbVertex
100
AcDbPolygonMeshVertex
 10
2.56
 20
0.0675
 30
3.0
 70
    64
  0
VERTEX
  5
5BFD
100
AcDbEntity
  8
0
100
AcDbVertex
100
AcDbPolygonMeshVertex
 10
2.56
 20
0.315
 30
3.0
 70
    64
  0
SEQEND
  5
5BFE
100
AcDbEntity
  8
0
  0
POLYLINE
  5
5BFF
100
AcDbEntity
  8
0
100
AcDbPolygonMesh
 66
     1
 10
0.0
 20
0.0
 30
0.0
 70
    16
 71
     6
 72
     3
  0
VERTEX
  5
5C00
100
AcDbEntity
  8
0
100
AcDbVertex
100
AcDbPolygonMeshVertex
 10
1.435
 20
0.065
 30
3.25
 70
    64
  0
VERTEX
  5
5C01
100
AcDbEntity
  8
0
100
AcDbVertex
100
AcDbPolygonMeshVertex
 10
1.435
 20
0.065
 30
3.0
 70
    64
  0
VERTEX
  5
5C02
100
AcDbEntity
  8
0
100
AcDbVertex
100
AcDbPolygonMeshVertex
 10
1.435
 20
0.065
 30
3.0
 70
    64
  0
VERTEX
  5
5C03
100
AcDbEntity
  8
0
100
AcDbVertex
100
AcDbPolygonMeshVertex
 10
2.56
 20
0.065
 30
3.25
 70
    64
  0
VERTEX
  5
5C04
100
AcDbEntity
  8
0
100
AcDbVertex
100
AcDbPolygonMeshVertex
 10
2.56
 20
0.065
 30
3.0
 70
    64
  0
VERTEX
  5
5C05
100
AcDbEntity
  8
0
100
AcDbVertex
100
AcDbPolygonMeshVertex
 10
2.56
 20
0.065
 30
3.0
 70
    64
  0
VERTEX
  5
5C06
100
AcDbEntity
  8
0
100
AcDbVertex
100
AcDbPolygonMeshVertex
 10
2.56
 20
-1.06
 30
3.25
 70
    64
  0
VERTEX
  5
5C07
100
AcDbEntity
  8
0
100
AcDbVertex
100
AcDbPolygonMeshVertex
 10
2.56
 20
-1.06
 30
3.0
 70
    64
  0
VERTEX
  5
5C08
100
AcDbEntity
  8
0
100
AcDbVertex
100
AcDbPolygonMeshVertex
 10
2.56
 20
0.065
 30
3.0
 70
    64
  0
VERTEX
  5
5C09
100
AcDbEntity
  8
0
100
AcDbVertex
100
AcDbPolygonMeshVertex
 10
1.435
 20
-1.06
 30
3.25
 70
    64
  0
VERTEX
  5
5C0A
100
AcDbEntity
  8
0
100
AcDbVertex
100
AcDbPolygonMeshVertex
 10
1.435
 20
-1.06
 30
3.0
 70
    64
  0
VERTEX
  5
5C0B
100
AcDbEntity
  8
0
100
AcDbVertex
100
AcDbPolygonMeshVertex
 10
1.435
 20
0.065
 30
3.0
 70
    64
  0
VERTEX
  5
5C0C
100
AcDbEntity
  8
0
100
AcDbVertex
100
AcDbPolygonMeshVertex
 10
1.435
 20
-1.06
 30
3.25
 70
    64
  0
VERTEX
  5
5C0D
100
AcDbEntity
  8
0
100
AcDbVertex
100
AcDbPolygonMeshVertex
 10
1.435
 20
-1.06
 30
3.25
 70
    64
  0
VERTEX
  5
5C0E
100
AcDbEntity
  8
0
100
AcDbVertex
100
AcDbPolygonMeshVertex
 10
1.435
 20
0.065
 30
3.25
 70
    64
  0
VERTEX
  5
5C0F
100
AcDbEntity
  8
0
100
AcDbVertex
100
AcDbPolygonMeshVertex
 10
2.56
 20
-1.06
 30
3.25
 70
    64
  0
VERTEX
  5
5C10
100
AcDbEntity
  8
0
100
AcDbVertex
100
AcDbPolygonMeshVertex
 10
2.56
 20
-1.06
 30
3.25
 70
    64
  0
VERTEX
  5
5C11
100
AcDbEntity
  8
0
100
AcDbVertex
100
AcDbPolygonMeshVertex
 10
2.56
 20
0.065
 30
3.25
 70
    64
  0
SEQEND
  5
5C12
100
AcDbEntity
  8
0
  0
LWPOLYLINE
  5
5C13
100
AcDbEntity
  8
0
100
AcDbPolyline
 90
        6
 70
     1
 43
0.0
 38
3.25
 10
1.7475
 20
-0.930512
 10
2.2475
 20
-0.930513
 10
2.4975
 20
-0.4975
 10
2.2475
 20
-0.064488
 10
1.7475
 20
-0.064487
 10
1.4975
 20
-0.4975
  0
CIRCLE
  5
5C14
100
AcDbEntity
  8
0
100
AcDbCircle
 10
1.9975
 20
-0.4975
 30
3.25
 40
0.1875
  0
LINE
  5
5C15
100
AcDbEntity
  8
0
100
AcDbLine
 10
-3.25
 20
-8.59
 30
0.0
 11
-3.25
 21
-11.030001
 31
0.0
  0
LINE
  5
5C16
100
AcDbEntity
  8
0
100
AcDbLine
 10
-3.25
 20
-8.59
 30
0.278
 11
-3.25
 21
-11.030001
 31
0.278
  0
LINE
  5
5C17
100
AcDbEntity
  8
0
100
AcDbLine
 10
3.25
 20
-8.59
 30
0.0
 11
3.25
 21
-11.030001
 31
0.0
  0
POLYLINE
  5
5C18
100
AcDbEntity
  8
0
100
AcDbPolygonMesh
 66
     1
 10
0.0
 20
0.0
 30
0.0
 70
    16
 71
     6
 72
     3
  0
VERTEX
  5
5C19
100
AcDbEntity
  8
0
100
AcDbVertex
100
AcDbPolygonMeshVertex
 10
3.25
 20
-11.030001
 30
0.278
 70
    64
  0
VERTEX
  5
5C1A
100
AcDbEntity
  8
0
100
AcDbVertex
100
AcDbPolygonMeshVertex
 10
3.25
 20
-11.030001
 30
0.0
 70
    64
  0
VERTEX
  5
5C1B
100
AcDbEntity
  8
0
100
AcDbVertex
100
AcDbPolygonMeshVertex
 10
3.25
 20
-11.030001
 30
0.0
 70
    64
  0
VERTEX
  5
5C1C
100
AcDbEntity
  8
0
100
AcDbVertex
100
AcDbPolygonMeshVertex
 10
-3.25
 20
-11.030001
 30
0.278
 70
    64
  0
VERTEX
  5
5C1D
100
AcDbEntity
  8
0
100
AcDbVertex
100
AcDbPolygonMeshVertex
 10
-3.25
 20
-11.030001
 30
0.0
 70
    64
  0
VERTEX
  5
5C1E
100
AcDbEntity
  8
0
100
AcDbVertex
100
AcDbPolygonMeshVertex
 10
-3.25
 20
-11.030001
 30
0.0
 70
    64
  0
VERTEX
  5
5C1F
100
AcDbEntity
  8
0
100
AcDbVertex
100
AcDbPolygonMeshVertex
 10
-3.25
 20
-1.226667
 30
0.278
 70
    64
  0
VERTEX
  5
5C20
100
AcDbEntity
  8
0
100
AcDbVertex
100
AcDbPolygonMeshVertex
 10
-3.25
 20
-1.226667
 30
0.0
 70
    64
  0
VERTEX
  5
5C21
100
AcDbEntity
  8
0
100
AcDbVertex
100
AcDbPolygonMeshVertex
 10
-3.25
 20
-11.030001
 30
0.0
 70
    64
  0
VERTEX
  5
5C22
100
AcDbEntity
  8
0
100
AcDbVertex
100
AcDbPolygonMeshVertex
 10
3.25
 20
-1.226667
 30
0.278
 70
    64
  0
VERTEX
  5
5C23
100
AcDbEntity
  8
0
100
AcDbVertex
100
AcDbPolygonMeshVertex
 10
3.25
 20
-1.226667
 30
0.0
 70
    64
  0
VERTEX
  5
5C24
100
AcDbEntity
  8
0
100
AcDbVertex
100
AcDbPolygonMeshVertex
 10
3.25
 20
-11.030001
 30
0.0
 70
    64
  0
VERTEX
  5
5C25
100
AcDbEntity
  8
0
100
AcDbVertex
100
AcDbPolygonMeshVertex
 10
3.25
 20
-1.226667
 30
0.278
 70
    64
  0
VERTEX
  5
5C26
100
AcDbEntity
  8
0
100
AcDbVertex
100
AcDbPolygonMeshVertex
 10
3.25
 20
-1.226667
 30
0.278
 70
    64
  0
VERTEX
  5
5C27
100
AcDbEntity
  8
0
100
AcDbVertex
100
AcDbPolygonMeshVertex
 10
3.25
 20
-11.030001
 30
0.278
 70
    64
  0
VERTEX
  5
5C28
100
AcDbEntity
  8
0
100
AcDbVertex
100
AcDbPolygonMeshVertex
 10
-3.25
 20
-1.226667
 30
0.278
 70
    64
  0
VERTEX
  5
5C29
100
AcDbEntity
  8
0
100
AcDbVertex
100
AcDbPolygonMeshVertex
 10
-3.25
 20
-1.226667
 30
0.278
 70
    64
  0
VERTEX
  5
5C2A
100
AcDbEntity
  8
0
100
AcDbVertex
100
AcDbPolygonMeshVertex
 10
-3.25
 20
-11.030001
 30
0.278
 70
    64
  0
SEQEND
  5
5C2B
100
AcDbEntity
  8
0
  0
3DFACE
  5
5C2C
100
AcDbEntity
  8
0
100
AcDbFace
 10
-3.25
 20
-11.030001
 30
0.0
 11
-3.25
 21
-11.030001
 31
0.278
 12
-3.5
 22
-10.163975
 32
0.278
 13
-3.5
 23
-10.163975
 33
0.0
  0
3DFACE
  5
5C2D
100
AcDbEntity
  8
0
100
AcDbFace
 10
-3.25
 20
-8.59
 30
0.278
 11
-3.5
 21
-8.59
 31
0.278
 12
-3.5
 22
-8.59
 32
0.0
 13
-3.25
 23
-8.59
 33
0.0
  0
3DFACE
  5
5C2E
100
AcDbEntity
  8
0
100
AcDbFace
 10
-3.5
 20
-10.163975
 30
0.278
 11
-3.5
 21
-8.59
 31
0.278
 12
-3.5
 22
-8.59
 32
0.0
 13
-3.5
 23
-10.163975
 33
0.0
  0
3DFACE
  5
5C2F
100
AcDbEntity
  8
0
100
AcDbFace
 10
3.25
 20
-11.030001
 30
0.0
 11
3.25
 21
-11.030001
 31
0.278
 12
3.5
 22
-10.163975
 32
0.278
 13
3.5
 23
-10.163975
 33
0.0
  0
3DFACE
  5
5C30
100
AcDbEntity
  8
0
100
AcDbFace
 10
3.5
 20
-10.163975
 30
0.278
 11
3.5
 21
-8.59
 31
0.278
 12
3.5
 22
-8.59
 32
0.0
 13
3.5
 23
-10.163975
 33
0.0
  0
3DFACE
  5
5C31
100
AcDbEntity
  8
0
100
AcDbFace
 10
3.25
 20
-8.59
 30
0.278
 11
3.5
 21
-8.59
 31
0.278
 12
3.5
 22
-8.59
 32
0.0
 13
3.25
 23
-8.59
 33
0.0
  0
3DFACE
  5
5C32
100
AcDbEntity
  8
0
100
AcDbFace
 10
3.25
 20
-1.226667
 30
0.278
 11
2.125
 21
0.38
 31
0.278
 12
-2.125
 22
0.38
 32
0.278
 13
-3.25
 23
-1.226667
 33
0.278
  0
3DFACE
  5
5C33
100
AcDbEntity
  8
0
100
AcDbFace
 10
3.25
 20
-1.226667
 30
0.0
 11
2.125
 21
0.38
 31
0.0
 12
-2.125
 22
0.38
 32
0.0
 13
-3.25
 23
-1.226667
 33
0.0
  0
3DFACE
  5
5C34
100
AcDbEntity
  8
0
100
AcDbFace
 10
3.25
 20
-1.226667
 30
0.0
 11
3.25
 21
-1.226667
 31
0.278
 12
2.125
 22
0.38
 32
0.278
 13
2.125
 23
0.38
 33
0.0
  0
3DFACE
  5
5C35
100
AcDbEntity
  8
0
100
AcDbFace
 10
2.125
 20
0.38
 30
0.278
 11
2.125
 21
0.38
 31
0.0
 12
-2.125
 22
0.38
 32
0.0
 13
-2.125
 23
0.38
 33
0.278
  0
3DFACE
  5
5C36
100
AcDbEntity
  8
0
100
AcDbFace
 10
-2.125
 20
0.38
 30
0.0
 11
-2.125
 21
0.38
 31
0.278
 12
-3.25
 22
-1.226667
 32
0.278
 13
-3.25
 23
-1.226667
 33
0.0
  0
LINE
  5
5C37
100
AcDbEntity
  8
0
100
AcDbLine
 10
-0.171
 20
0.0
 30
0.278
 11
-0.171
 21
-0.217752
 31
0.278
  0
ARC
  5
5C38
100
AcDbEntity
  8
0
100
AcDbCircle
 10
0.0
 20
-0.5
 30
0.278
 40
0.33
100
AcDbArc
 50
121.209984
 51
180.0
  0
LINE
  5
5C39
100
AcDbEntity
  8
0
100
AcDbLine
 10
-0.33
 20
-0.83
 30
0.278
 11
-0.33
 21
-0.5
 31
0.278
  0
LINE
  5
5C3A
100
AcDbEntity
  8
0
100
AcDbLine
 10
0.33
 20
-0.83
 30
0.278
 11
-0.33
 21
-0.83
 31
0.278
  0
LINE
  5
5C3B
100
AcDbEntity
  8
0
100
AcDbLine
 10
0.33
 20
-0.5
 30
0.278
 11
0.33
 21
-0.83
 31
0.278
  0
ARC
  5
5C3C
100
AcDbEntity
  8
0
100
AcDbCircle
 10
0.0
 20
-0.5
 30
0.278
 40
0.33
100
AcDbArc
 50
0.0
 51
58.789795
  0
LINE
  5
5C3D
100
AcDbEntity
  8
0
100
AcDbLine
 10
0.171
 20
0.0
 30
0.278
 11
0.171
 21
-0.21775
 31
0.278
  0
ARC
  5
5C3E
100
AcDbEntity
  8
0
100
AcDbCircle
 10
0.0
 20
0.0
 30
0.278
 40
0.171
100
AcDbArc
 50
0.0
 51
180.0
  0
CIRCLE
  5
5C3F
100
AcDbEntity
  8
0
100
AcDbCircle
 10
0.992
 20
0.0
 30
0.278
 40
0.1715
  0
CIRCLE
  5
5C40
100
AcDbEntity
  8
0
100
AcDbCircle
 10
0.992
 20
0.0
 30
0.278
 40
0.293
  0
CIRCLE
  5
5C41
100
AcDbEntity
  8
0
100
AcDbCircle
 10
-3.153
 20
-9.843
 30
0.278
 40
0.164
  0
CIRCLE
  5
5C42
100
AcDbEntity
  8
0
100
AcDbCircle
 10
3.153
 20
-9.843
 30
0.278
 40
0.1715
  0
TEXT
  5
5C43
100
AcDbEntity
  8
0
100
AcDbText
 10
-2.150903
 20
0.523366
 30
4.375
 40
0.255168
  1
T1
100
AcDbText
  0
TEXT
  5
5C44
100
AcDbEntity
  8
0
100
AcDbText
 10
-0.182808
 20
0.489073
 30
4.375
 40
0.255168
  1
T2
100
AcDbText
  0
TEXT
  5
5C45
100
AcDbEntity
  8
0
100
AcDbText
 10
1.834184
 20
0.491436
 30
4.375
 40
0.255168
  1
T3
100
AcDbText
  0
TEXT
  5
5C46
100
AcDbEntity
  8
0
100
AcDbText
 10
-2.167336
 20
-1.741113
 30
7.0
 40
0.255168
  1
L1
100
AcDbText
  0
TEXT
  5
5C47
100
AcDbEntity
  8
0
100
AcDbText
 10
-0.199241
 20
-1.738751
 30
7.0
 40
0.255168
  1
L2
100
AcDbText
  0
TEXT
  5
5C48
100
AcDbEntity
  8
0
100
AcDbText
 10
1.793303
 20
-1.785262
 30
7.0
 40
0.255168
  1
L3
100
AcDbText
  0
ATTDEF
  5
5C49
100
AcDbEntity
  8
ATTRIBUTES
100
AcDbText
 10
-2.509502
 20
-7.703768
 30
-0.001535
 40
0.252472
  1
ALLEN-BRADLEY
100
AcDbAttributeDefinition
  3
MANUFACTURER NAME?
  2
AC_VND_LABEL
 70
     1
  0
ATTDEF
  5
5C4A
100
AcDbEntity
  8
ATTRIBUTES
100
AcDbText
 10
-2.509502
 20
-8.229751
 30
-0.001535
 40
0.252472
  1
500L-F
100
AcDbAttributeDefinition
  3
CATALOG NUMBER?
  2
AC_PART_NO
 70
     1
  0
ATTDEF
  5
5C4B
100
AcDbEntity
  8
ATTRIBUTES
100
AcDbText
 10
-2.509502
 20
-8.755734
 30
-0.001535
 40
0.252472
  1
NEMA AC NON-MOTOR LOADS TOP WIRING CONTACTOR; SIZE 5; 3P
100
AcDbAttributeDefinition
  3
PART DESCRIPTION?
  2
AC_DESCRIPTION
 70
     1
  0
ATTDEF
  5
5C4C
100
AcDbEntity
  8
ATTRIBUTES
100
AcDbText
 10
-2.509502
 20
-9.281717
 30
-0.001535
 40
0.252472
  1

100
AcDbAttributeDefinition
  3
DEVICE ID?
  2
DEVICE_ID
 70
     1
  0
ATTDEF
  5
5C4D
100
AcDbEntity
  8
ATTRIBUTES
100
AcDbText
 10
-2.509502
 20
-9.8077
 30
-0.001535
 40
0.252472
  1

100
AcDbAttributeDefinition
  3
CUSTOMER PART NUMBER?
  2
AC_CPART_NO
 70
     1
  0
ATTDEF
  5
5C4E
100
AcDbEntity
  8
ATTRIBUTES
100
AcDbText
 10
-2.509502
 20
-10.333683
 30
-0.001535
 40
0.252472
  1

100
AcDbAttributeDefinition
  3
CUSTOMER NOTE?
  2
AC_NOTE
 70
     1
  0
ATTDEF
  5
5C4F
100
AcDbEntity
  8
ATTRIBUTES
100
AcDbText
 10
-2.509502
 20
-10.859666
 30
-0.001535
 40
0.252472
  1

100
AcDbAttributeDefinition
  3
FASTENER DATA?
  2
FASTENER
 70
     1
  0
ATTDEF
  5
5C50
100
AcDbEntity
  8
ATTRIBUTES
100
AcDbText
 10
-2.509502
 20
-11.385649
 30
-0.001535
 40
0.252472
  1
INCH
100
AcDbAttributeDefinition
  3
UNIT OF SCALE?
  2
AC_SCALE_UNIT
 70
     1
  0
ATTDEF
  5
5C51
100
AcDbEntity
  8
ATTRIBUTES
100
AcDbText
 10
-2.509502
 20
-11.911632
 30
-0.001535
 40
0.252472
  1
0
100
AcDbAttributeDefinition
  3
VIEW CODE?
  2
AC_VIEW_CODE
 70
     1
  0
POINT
  5
5C52
100
AcDbEntity
  8
DIMS-MTG-HOLES
100
AcDbPoint
 10
0.0
 20
0.0
 30
0.0
  0
POINT
  5
5C53
100
AcDbEntity
  8
DIMS-MTG-HOLES
100
AcDbPoint
 10
0.992
 20
0.0
 30
0.0
  0
POINT
  5
5C54
100
AcDbEntity
  8
DIMS-MTG-HOLES
100
AcDbPoint
 10
-3.153
 20
-9.843
 30
0.0
  0
POINT
  5
5C55
100
AcDbEntity
  8
DIMS-MTG-HOLES
100
AcDbPoint
 10
3.153
 20
-9.843
 30
0.0
  0
DIMENSION
  5
5C56
100
AcDbEntity
  8
AREA1
100
AcDbDimension
  2
*D0
 10
-5.003538
 20
-12.31
 30
0.0
 11
-5.003538
 21
-5.740486
 31
0.0
 70
   160
  3
ABECAD_3V
100
AcDbAlignedDimension
 13
-2.565
 23
1.19
 33
3.0
 14
-3.0
 24
-12.31
 34
0.278
 50
90.0
100
AcDbRotatedDimension
1001
ACAD
1000
DSTYLE
1002
{
1070
    40
1040
4.292525
1002
}
  0
DIMENSION
  5
5C57
100
AcDbEntity
  8
AREA1
100
AcDbDimension
  2
*D1
 10
3.5
 20
1.984312
 30
0.0
 11
0.05419
 21
1.984312
 31
0.0
 70
   160
  3
ABECAD_3V
100
AcDbAlignedDimension
 13
-3.5
 23
-8.59
 33
0.0
 14
3.5
 24
-8.59
 34
0.0
100
AcDbRotatedDimension
1001
ACAD
1000
DSTYLE
1002
{
1070
    40
1040
4.292525
1002
}
  0
LWPOLYLINE
  5
5C58
100
AcDbEntity
  8
SCALE
100
AcDbPolyline
 90
        4
 70
     1
 43
0.0
 10
-0.581835
 20
-12.65204
 10
0.553794
 20
-12.65204
 10
0.553794
 20
-13.493649
 10
-0.581835
 20
-13.493649
  0
LINE
  5
5C59
100
AcDbEntity
  8
SCALE
100
AcDbLine
 10
-0.523836
 20
-13.032118
 30
0.0
 11
0.476164
 21
-13.032118
 31
0.0
  0
LINE
  5
5C5A
100
AcDbEntity
  8
SCALE
100
AcDbLine
 10
-0.523836
 20
-13.332118
 30
0.0
 11
-0.130136
 21
-13.332118
 31
0.0
  0
LINE
  5
5C5B
100
AcDbEntity
  8
SCALE
100
AcDbLine
 10
-0.523836
 20
-13.132118
 30
0.0
 11
-0.523836
 21
-12.932118
 31
0.0
  0
TEXT
  5
5C5C
100
AcDbEntity
  8
SCALE
100
AcDbText
 10
-0.46786
 20
-13.284433
 30
0.0
 40
0.0625
  1
[10mm]
100
AcDbText
  0
LINE
  5
5C5D
100
AcDbEntity
  8
SCALE
100
AcDbLine
 10
-0.523836
 20
-13.432118
 30
0.0
 11
-0.523836
 21
-13.232118
 31
0.0
  0
TEXT
  5
5C5E
100
AcDbEntity
  8
SCALE
100
AcDbText
 10
-0.522306
 20
-12.757241
 30
0.0
 40
0.0625
  1
SCALE:
100
AcDbText
  0
LINE
  5
5C5F
100
AcDbEntity
  8
SCALE
100
AcDbLine
 10
-0.130136
 20
-13.432118
 30
0.0
 11
-0.130136
 21
-13.232118
 31
0.0
  0
TEXT
  5
5C60
100
AcDbEntity
  8
SCALE
100
AcDbText
 10
-0.160553
 20
-12.963069
 30
0.0
 40
0.0625
  1
1 Inch
100
AcDbText
  0
LINE
  5
5C61
100
AcDbEntity
  8
SCALE
100
AcDbLine
 10
0.476164
 20
-13.032118
 30
0.0
 11
0.476164
 21
-13.132118
 31
0.0
  0
LINE
  5
5C62
100
AcDbEntity
  8
SCALE
100
AcDbLine
 10
0.476164
 20
-13.132118
 30
0.0
 11
0.476164
 21
-12.932118
 31
0.0
  0
DIMENSION
  5
5C91
100
AcDbEntity
  8
AREA2
100
AcDbDimension
  2
*D2
 10
-4.310566
 20
0.0
 30
0.0
 11
-4.310566
 21
3.969919
 31
0.0
 70
   160
210
0.0
220
-1.0
230
0.0
  3
ABECAD_3V
100
AcDbAlignedDimension
 13
-2.5625
 23
0.0625
 33
8.125
 14
-3.5
 24
-8.5275
 34
0.0
 50
90.0
100
AcDbRotatedDimension
1001
ACAD
1000
DSTYLE
1002
{
1070
    40
1040
4.292525
1002
}
  0
VIEWPORT
  5
2C
102
{ACAD_XDICTIONARY
360
5DCC
102
}
100
AcDbEntity
 67
     1
  8
0
100
AcDbViewport
 10
4.999849
 20
3.750155
 30
0.0
 40
13.389022
 41
7.577951
 68
     1
 69
     1
1001
ACAD
1000
MVIEW
1002
{
1070
    16
1010
0.0
1020
0.0
1030
0.0
1010
0.0
1020
0.0
1030
1.0
1040
0.0
1040
7.577951
1040
4.999849
1040
3.750155
1040
50.0
1040
0.0
1040
0.0
1070
     0
1070
   100
1070
     1
1070
     1
1070
     0
1070
     0
1070
     0
1070
     0
1040
0.0
1040
0.0
1040
0.0
1040
1.0
1040
1.0
1040
0.0
1040
0.0
1070
     0
1002
{
1002
}
1002
}
  0
VIEWPORT
  5
2D
102
{ACAD_XDICTIONARY
360
5DCE
102
}
100
AcDbEntity
 67
     1
  8
0
100
AcDbViewport
 10
2.5
 20
5.625
 30
0.0
 40
5.0
 41
3.75
 68
     2
 69
     2
1001
ACAD
1000
MVIEW
1002
{
1070
    16
1010
0.0
1020
0.0
1030
0.0
1010
0.0
1020
0.0
1030
1.0
1040
0.0
1040
16.09697
1040
-0.841769
1040
-4.877277
1040
50.0
1040
0.0
1040
0.0
1070
     0
1070
   100
1070
     1
1070
     0
1070
     0
1070
     0
1070
     0
1070
     0
1040
0.0
1040
0.0
1040
0.0
1040
1.0
1040
1.0
1040
0.0
1040
0.0
1070
     0
1002
{
1003
AREA2
1002
}
1002
}
  0
VIEWPORT
  5
2E
102
{ACAD_XDICTIONARY
360
5DD0
102
}
100
AcDbEntity
 67
     1
  8
0
100
AcDbViewport
 10
2.5
 20
1.875
 30
0.0
 40
5.0
 41
3.75
 68
     3
 69
     3
1001
ACAD
1000
MVIEW
1002
{
1070
    16
1010
0.0
1020
0.0
1030
0.0
1010
0.0
1020
-1.0
1030
0.0
1040
0.0
1040
14.89868
1040
-0.708176
1040
3.81
1040
50.0
1040
0.0
1040
0.0
1070
     0
1070
   100
1070
     1
1070
     0
1070
     0
1070
     0
1070
     0
1070
     0
1040
0.0
1040
0.0
1040
0.0
1040
1.0
1040
1.0
1040
0.0
1040
0.0
1070
     0
1002
{
1003
AREA1
1002
}
1002
}
  0
VIEWPORT
  5
2F
102
{ACAD_XDICTIONARY
360
5DD2
102
}
100
AcDbEntity
 67
     1
  8
0
100
AcDbViewport
 10
7.5
 20
3.75
 30
0.0
 40
5.0
 41
7.5
 68
     4
 69
     4
1001
ACAD
1000
MVIEW
1002
{
1070
    16
1010
0.0
1020
0.0
1030
0.0
1010
-1.0
1020
-1.0
1030
1.0
1040
0.0
1040
26.361597
1040
3.410305
1040
0.660149
1040
50.0
1040
0.0
1040
0.0
1070
     0
1070
   100
1070
     1
1070
     0
1070
     0
1070
     0
1070
     0
1070
     0
1040
0.0
1040
0.0
1040
0.0
1040
1.0
1040
1.0
1040
0.0
1040
0.0
1070
     0
1002
{
1003
AREA1
1003
AREA2
1002
}
1002
}
  0
TEXT
  5
42D
100
AcDbEntity
 67
     1
  8
0
100
AcDbText
 10
5.253785
 20
7.092701
 30
0.0
 40
0.2
  1
500L-F
100
AcDbText
  0
TEXT
  5
431
100
AcDbEntity
 67
     1
  8
0
100
AcDbText
 10
5.253785
 20
6.759368
 30
0.0
 40
0.2
  1
NEMA AC NON-MOTOR LOADS 
100
AcDbText
1001
ACAD
1000
R13OBJECT
1002
{
1005
42D
1002
}
  0
TEXT
  5
9FD
100
AcDbEntity
 67
     1
  8
0
100
AcDbText
 10
5.253785
 20
6.426973
 30
0.0
 40
0.2
  1
TOP WIRING CONTACTOR; 
100
AcDbText
1001
ACAD
1000
R13OBJECT
1002
{
1005
42D
1002
}
  0
TEXT
  5
43C2
100
AcDbEntity
 67
     1
  8
0
100
AcDbText
 10
5.253785
 20
6.095352
 30
0.0
 40
0.2
  1
SIZE 5; 3P
100
AcDbText
1001
ACAD
1000
R13OBJECT
1002
{
1005
42D
1002
}
  0
ENDSEC
  0
SECTION
  2
OBJECTS
  0
DICTIONARY
  5
46D
100
AcDbDictionary
  3
ACAD_GROUP
350
46E
  3
ACAD_LAYOUT
350
49E
  3
ACAD_MLINESTYLE
350
47B
  3
ACAD_PLOTSETTINGS
350
49F
  3
ACAD_PLOTSTYLENAME
350
49C
  3
ACDBHEADERROUNDTRIPXREC
350
5DAB
  3
ACDBVARIABLEDICTIONARY
350
48D
  0
DICTIONARY
  5
5DA9
100
AcDbDictionary
280
     1
  3
ACAD_XREC_ROUNDTRIP
360
5DAA
  0
DICTIONARY
  5
5DD6
100
AcDbDictionary
280
     1
  3
ACAD_XREC_ROUNDTRIP
360
5DD7
  0
DICTIONARY
  5
5DD8
100
AcDbDictionary
280
     1
  3
ACAD_XREC_ROUNDTRIP
360
5DD9
  0
DICTIONARY
  5
5DDC
100
AcDbDictionary
280
     1
  3
ACAD_XREC_ROUNDTRIP
360
5DDD
  0
DICTIONARY
  5
4D2
100
AcDbDictionary
280
     1
  3
ACAD_LAYOUTSELFREF
360
5DD5
  0
DICTIONARY
  5
4D0
100
AcDbDictionary
280
     1
  3
ACAD_LAYOUTSELFREF
360
5DD4
  0
DICTIONARY
  5
5DCC
100
AcDbDictionary
280
     1
  3
ACAD_XREC_ROUNDTRIP
360
5DCD
  0
DICTIONARY
  5
5DCE
100
AcDbDictionary
280
     1
  3
ACAD_XREC_ROUNDTRIP
360
5DCF
  0
DICTIONARY
  5
5DD0
100
AcDbDictionary
280
     1
  3
ACAD_XREC_ROUNDTRIP
360
5DD1
  0
DICTIONARY
  5
5DD2
100
AcDbDictionary
280
     1
  3
ACAD_XREC_ROUNDTRIP
360
5DD3
  0
DICTIONARY
  5
46E
102
{ACAD_REACTORS
330
46D
102
}
100
AcDbDictionary
  0
DICTIONARY
  5
49E
102
{ACAD_XDICTIONARY
360
5DDA
102
}
102
{ACAD_REACTORS
330
46D
102
}
100
AcDbDictionary
  3
LAYOUT1
350
4A1
  3
MODEL
350
4A0
  0
DICTIONARY
  5
47B
102
{ACAD_REACTORS
330
46D
102
}
100
AcDbDictionary
  3
STANDARD
350
47C
  0
DICTIONARY
  5
49F
102
{ACAD_REACTORS
330
46D
102
}
100
AcDbDictionary
  0
ACAD_PROXY_OBJECT
  5
49C
102
{ACAD_REACTORS
330
46D
102
}
100
AcDbProxyObject
 90
      499
 91
      501
 93
       86
310
405010041939BDC9B585B0
350
49D
340
49D
 94
        0
  0
DICTIONARY
  5
5DAB
102
{ACAD_REACTORS
330
46D
102
}
100
AcDbDictionary
  3
CEPSNTYPE
350
5DB5
  3
DIMSTYLEDATA
350
5DB9
  3
FINGERPRINTGUID
350
5DB6
  3
HYPERLINKBASE
350
5DAE
  3
INSUNITS
350
5DB4
  3
LAYOUTDICT
350
5DB0
  3
LWETCUNION
350
5DB3
  3
PLOTSETDICT
350
5DB1
  3
PLOTSTYLNAMDICT
350
5DB2
  3
PSVPSCALE
350
5DB8
  3
PUCSBASE
350
5DBC
  3
PUCSORGBACK
350
5DC2
  3
PUCSORGBOTTOM
350
5DBE
  3
PUCSORGFRONT
350
5DC1
  3
PUCSORGLEFT
350
5DBF
  3
PUCSORGRIGHT
350
5DC0
  3
PUCSORGTOP
350
5DBD
  3
PUCSORTHOREF
350
5DBA
  3
PUCSORTHOVIEW
350
5DBB
  3
STYLESHEET
350
5DAF
  3
TSTACKALIGN
350
5DAC
  3
TSTACKSIZE
350
5DAD
  3
UCSBASE
350
5DC5
  3
UCSORGBACK
350
5DCB
  3
UCSORGBOTTOM
350
5DC7
  3
UCSORGFRONT
350
5DCA
  3
UCSORGLEFT
350
5DC8
  3
UCSORGRIGHT
350
5DC9
  3
UCSORGTOP
350
5DC6
  3
UCSORTHOREF
350
5DC3
  3
UCSORTHOVIEW
350
5DC4
  3
VERSIONGUID
350
5DB7
  0
DICTIONARY
  5
48D
102
{ACAD_REACTORS
330
46D
102
}
100
AcDbDictionary
  3
DIMADEC
350
48E
  0
XRECORD
  5
5DAA
102
{ACAD_REACTORS
330
5DA9
102
}
100
AcDbXrecord
102
EXTNAMES
  1
*ACTIVE
  2
*Active
102
UCS
 74
     0
 71
     1
 10
0.0
 20
0.0
 30
0.0
 10
1.0
 20
0.0
 30
0.0
 10
0.0
 20
1.0
 30
0.0
146
0.0
 79
     1
102
VIEW
281
     0
  0
XRECORD
  5
5DD7
102
{ACAD_REACTORS
330
5DD6
102
}
100
AcDbXrecord
102
PLOTBIT
280
     0
  0
XRECORD
  5
5DD9
102
{ACAD_REACTORS
330
5DD8
102
}
100
AcDbXrecord
102
ACADR14ROUNDTRIP
1000
DSTYLE
1002
{
1070
   276
 70
     2
1070
   277
 70
     5
1070
   279
 70
     2
1002
}
  0
XRECORD
  5
5DDD
102
{ACAD_REACTORS
330
5DDC
102
}
100
AcDbXrecord
102
ACADR14ROUNDTRIP
1000
DSTYLE
1002
{
1070
   276
 70
     2
1070
   277
 70
     5
1070
   279
 70
     2
1070
   289
 70
     2
1002
}
  0
XRECORD
  5
5DD5
102
{ACAD_REACTORS
330
4D2
102
}
100
AcDbXrecord
340
478
  0
XRECORD
  5
5DD4
102
{ACAD_REACTORS
330
4D0
102
}
100
AcDbXrecord
340
475
  0
XRECORD
  5
5DCD
102
{ACAD_REACTORS
330
5DCC
102
}
100
AcDbXrecord
102
UCS
 74
     0
 71
     1
 10
0.0
 20
0.0
 30
0.0
 10
1.0
 20
0.0
 30
0.0
 10
0.0
 20
1.0
 30
0.0
146
0.0
 79
     0
102
VIEW
281
     0
102
NEWVIEWCONTROL
280
     4
  0
XRECORD
  5
5DCF
102
{ACAD_REACTORS
330
5DCE
102
}
100
AcDbXrecord
102
UCS
 74
     0
 71
     1
 10
0.0
 20
0.0
 30
0.0
 10
1.0
 20
0.0
 30
0.0
 10
0.0
 20
1.0
 30
0.0
146
0.0
 79
     1
102
VIEW
281
     0
102
NEWVIEWCONTROL
280
     4
  0
XRECORD
  5
5DD1
102
{ACAD_REACTORS
330
5DD0
102
}
100
AcDbXrecord
102
UCS
 74
     0
 71
     1
 10
0.0
 20
0.0
 30
0.0
 10
1.0
 20
0.0
 30
0.0
 10
0.0
 20
0.0
 30
1.0
146
0.0
 79
     3
102
VIEW
281
     0
102
NEWVIEWCONTROL
280
     4
  0
XRECORD
  5
5DD3
102
{ACAD_REACTORS
330
5DD2
102
}
100
AcDbXrecord
102
UCS
 74
     0
 71
     1
 10
0.0
 20
0.0
 30
0.0
 10
1.0
 20
0.0
 30
0.0
 10
0.0
 20
1.0
 30
0.0
146
0.0
 79
     0
102
VIEW
281
     0
102
NEWVIEWCONTROL
280
     4
  0
DICTIONARY
  5
5DDA
100
AcDbDictionary
280
     1
  3
ACAD_XREC_ROUNDTRIP
360
5DDB
  0
ACAD_PROXY_OBJECT
  5
4A1
102
{ACAD_REACTORS
330
49E
102
}
100
AcDbProxyObject
 90
      499
 91
      503
 93
     2044
310
91D4850204C617365724A65742035303030205365726965732050434C20362C008000000C0BB1B1440000000102F06C510000000000BC1B1440000000002E06C5100000000C0CCFC6A4000000018199D9C501064C6574746572A901406AA427D84144352EEE3F47D11959985D5B1D08148C4D081C195B88185CDCDA59DB9B5
310
95B9D1CCB98DD18A30EDE3B1BBFDBC0FC1D572C8D6D0C833F1A2B3054E9249F0FD074C61796F75743140501A97D7DB4AA43C31EFF91E46EBA53B71EFD1B32A15809809100B2537F8EAD447D02A6A6A00200C0093BD106FC0000F06EE366FABE00201F20307FD62FC4424FF2920002440160B7F435600079000000004000C06
310
23E0
330
475
330
2C
340
0
340
0
 94
        0
  0
ACAD_PROXY_OBJECT
  5
4A0
102
{ACAD_REACTORS
330
49E
102
}
100
AcDbProxyObject
 90
      499
 91
      503
 93
      924
310
91D4850204C617365724A65742035303030205365726965732050434C20362C01AAAAAAAAA547D11959985D5B1D08148C4D081C195B88185CDCDA59DB9B595B9D1CCB98DD18A69054D6F64656C901A800000000000000000000000000000000000000000000A1000000000000008902A6A6AAAA0
330
478
330
0
340
0
340
0
 94
        0
  0
MLINESTYLE
  5
47C
102
{ACAD_REACTORS
330
47B
102
}
100
AcDbMlineStyle
  2
STANDARD
 70
     0
  3

 62
   256
 51
90.0
 52
90.0
 71
     2
 49
0.5
 62
   256
  6
BYLAYER
 49
-0.5
 62
   256
  6
BYLAYER
  0
ACAD_PROXY_OBJECT
  5
49D
102
{ACAD_REACTORS
330
49C
102
}
100
AcDbProxyObject
 90
      499
 91
      502
 93
        0
 94
        0
  0
XRECORD
  5
5DB5
102
{ACAD_REACTORS
330
5DAB
102
}
100
AcDbXrecord
 90
        0
  0
XRECORD
  5
5DB9
102
{ACAD_REACTORS
330
5DAB
102
}
100
AcDbXrecord
1000
DSTYLE
1002
{
1070
   276
 70
     2
1070
   277
 70
     5
1070
   279
 70
     2
1002
}
  0
XRECORD
  5
5DB6
102
{ACAD_REACTORS
330
5DAB
102
}
100
AcDbXrecord
  1
{6E0CF4B5-225E-11D4-A150-00A0CC3303EC}
  0
XRECORD
  5
5DAE
102
{ACAD_REACTORS
330
5DAB
102
}
100
AcDbXrecord
  1

  0
XRECORD
  5
5DB4
102
{ACAD_REACTORS
330
5DAB
102
}
100
AcDbXrecord
 90
        0
  0
XRECORD
  5
5DB0
102
{ACAD_REACTORS
330
5DAB
102
}
100
AcDbXrecord
340
49E
  0
XRECORD
  5
5DB3
102
{ACAD_REACTORS
330
5DAB
102
}
100
AcDbXrecord
 90
    14877
  0
XRECORD
  5
5DB1
102
{ACAD_REACTORS
330
5DAB
102
}
100
AcDbXrecord
340
49F
  0
XRECORD
  5
5DB2
102
{ACAD_REACTORS
330
5DAB
102
}
100
AcDbXrecord
340
49C
  0
XRECORD
  5
5DB8
102
{ACAD_REACTORS
330
5DAB
102
}
100
AcDbXrecord
 40
0.0
  0
XRECORD
  5
5DBC
102
{ACAD_REACTORS
330
5DAB
102
}
100
AcDbXrecord
340
0
  0
XRECORD
  5
5DC2
102
{ACAD_REACTORS
330
5DAB
102
}
100
AcDbXrecord
 10
0.0
 20
0.0
 30
0.0
  0
XRECORD
  5
5DBE
102
{ACAD_REACTORS
330
5DAB
102
}
100
AcDbXrecord
 10
0.0
 20
0.0
 30
0.0
  0
XRECORD
  5
5DC1
102
{ACAD_REACTORS
330
5DAB
102
}
100
AcDbXrecord
 10
0.0
 20
0.0
 30
0.0
  0
XRECORD
  5
5DBF
102
{ACAD_REACTORS
330
5DAB
102
}
100
AcDbXrecord
 10
0.0
 20
0.0
 30
0.0
  0
XRECORD
  5
5DC0
102
{ACAD_REACTORS
330
5DAB
102
}
100
AcDbXrecord
 10
0.0
 20
0.0
 30
0.0
  0
XRECORD
  5
5DBD
102
{ACAD_REACTORS
330
5DAB
102
}
100
AcDbXrecord
 10
0.0
 20
0.0
 30
0.0
  0
XRECORD
  5
5DBA
102
{ACAD_REACTORS
330
5DAB
102
}
100
AcDbXrecord
340
0
  0
XRECORD
  5
5DBB
102
{ACAD_REACTORS
330
5DAB
102
}
100
AcDbXrecord
 70
     0
  0
XRECORD
  5
5DAF
102
{ACAD_REACTORS
330
5DAB
102
}
100
AcDbXrecord
  1

  0
XRECORD
  5
5DAC
102
{ACAD_REACTORS
330
5DAB
102
}
100
AcDbXrecord
 90
        1
  0
XRECORD
  5
5DAD
102
{ACAD_REACTORS
330
5DAB
102
}
100
AcDbXrecord
 90
       70
  0
XRECORD
  5
5DC5
102
{ACAD_REACTORS
330
5DAB
102
}
100
AcDbXrecord
340
0
  0
XRECORD
  5
5DCB
102
{ACAD_REACTORS
330
5DAB
102
}
100
AcDbXrecord
 10
0.0
 20
0.0
 30
0.0
  0
XRECORD
  5
5DC7
102
{ACAD_REACTORS
330
5DAB
102
}
100
AcDbXrecord
 10
0.0
 20
0.0
 30
0.0
  0
XRECORD
  5
5DCA
102
{ACAD_REACTORS
330
5DAB
102
}
100
AcDbXrecord
 10
0.0
 20
0.0
 30
0.0
  0
XRECORD
  5
5DC8
102
{ACAD_REACTORS
330
5DAB
102
}
100
AcDbXrecord
 10
0.0
 20
0.0
 30
0.0
  0
XRECORD
  5
5DC9
102
{ACAD_REACTORS
330
5DAB
102
}
100
AcDbXrecord
 10
0.0
 20
0.0
 30
0.0
  0
XRECORD
  5
5DC6
102
{ACAD_REACTORS
330
5DAB
102
}
100
AcDbXrecord
 10
0.0
 20
0.0
 30
0.0
  0
XRECORD
  5
5DC3
102
{ACAD_REACTORS
330
5DAB
102
}
100
AcDbXrecord
340
0
  0
XRECORD
  5
5DC4
102
{ACAD_REACTORS
330
5DAB
102
}
100
AcDbXrecord
 70
     1
  0
XRECORD
  5
5DB7
102
{ACAD_REACTORS
330
5DAB
102
}
100
AcDbXrecord
  1
{24E29E61-5B8B-456A-8836-AC6EA824C917}
  0
DICTIONARYVAR
  5
48E
102
{ACAD_REACTORS
330
48D
102
}
100
DictionaryVariables
280
     0
  1
0
  0
XRECORD
  5
5DDB
102
{ACAD_REACTORS
330
5DDA
102
}
100
AcDbXrecord
102
EXTNAMES
  1
LAYOUT1
  2
Layout1
  1
MODEL
  2
Model
  0
ENDSEC
  0
EOF
