  0
SECTION
  2
HEADER
  9
$ACADVER
  1
AC1014
  9
$ACADMAINTVER
 70
     8
  9
$DWGCODEPAGE
  3
ANSI_1252
  9
$INSBASE
 10
0.0
 20
0.0
 30
0.0
  9
$EXTMIN
 10
-4.862371
 20
-13.598904
 30
0.0
  9
$EXTMAX
 10
3.5
 20
2.319918
 30
8.125
  9
$LIMMIN
 10
0.0
 20
0.0
  9
$LIMMAX
 10
12.0
 20
9.0
  9
$ORTHOMODE
 70
     0
  9
$REGENMODE
 70
     1
  9
$FILLMODE
 70
     1
  9
$QTEXTMODE
 70
     0
  9
$MIRRTEXT
 70
     1
  9
$DRAGMODE
 70
     2
  9
$LTSCALE
 40
1.0
  9
$OSMODE
 70
     0
  9
$ATTMODE
 70
     1
  9
$TEXTSIZE
 40
0.12
  9
$TRACEWID
 40
0.05
  9
$TEXTSTYLE
  7
STANDARD
  9
$CLAYER
  8
0
  9
$CELTYPE
  6
BYLAYER
  9
$CECOLOR
 62
   256
  9
$CELTSCALE
 40
1.0
  9
$DELOBJ
 70
     1
  9
$DISPSILH
 70
     0
  9
$DIMSCALE
 40
1.0
  9
$DIMASZ
 40
0.18
  9
$DIMEXO
 40
0.0625
  9
$DIMDLI
 40
0.375
  9
$DIMRND
 40
0.0
  9
$DIMDLE
 40
0.0
  9
$DIMEXE
 40
0.18
  9
$DIMTP
 40
0.0
  9
$DIMTM
 40
0.0
  9
$DIMTXT
 40
0.3
  9
$DIMCEN
 40
0.09
  9
$DIMTSZ
 40
0.0
  9
$DIMTOL
 70
     0
  9
$DIMLIM
 70
     0
  9
$DIMTIH
 70
     0
  9
$DIMTOH
 70
     1
  9
$DIMSE1
 70
     0
  9
$DIMSE2
 70
     0
  9
$DIMTAD
 70
     0
  9
$DIMZIN
 70
     4
  9
$DIMBLK
  1

  9
$DIMASO
 70
     1
  9
$DIMSHO
 70
     1
  9
$DIMPOST
  1

  9
$DIMAPOST
  1

  9
$DIMALT
 70
     1
  9
$DIMALTD
 70
     2
  9
$DIMALTF
 40
25.4
  9
$DIMLFAC
 40
1.0
  9
$DIMTOFL
 70
     0
  9
$DIMTVP
 40
0.0
  9
$DIMTIX
 70
     0
  9
$DIMSOXD
 70
     0
  9
$DIMSAH
 70
     0
  9
$DIMBLK1
  1

  9
$DIMBLK2
  1

  9
$DIMSTYLE
  2
ABECAD_3D
  9
$DIMCLRD
 70
     0
  9
$DIMCLRE
 70
     0
  9
$DIMCLRT
 70
     0
  9
$DIMTFAC
 40
1.5
  9
$DIMGAP
 40
0.09
  9
$DIMJUST
 70
     0
  9
$DIMSD1
 70
     0
  9
$DIMSD2
 70
     0
  9
$DIMTOLJ
 70
     1
  9
$DIMTZIN
 70
     4
  9
$DIMALTZ
 70
     4
  9
$DIMALTTZ
 70
     4
  9
$DIMFIT
 70
     5
  9
$DIMUPT
 70
     1
  9
$DIMUNIT
 70
     7
  9
$DIMDEC
 70
     6
  9
$DIMTDEC
 70
     6
  9
$DIMALTU
 70
     2
  9
$DIMALTTD
 70
     2
  9
$DIMTXSTY
  7
STANDARD
  9
$DIMAUNIT
 70
     0
  9
$LUNITS
 70
     2
  9
$LUPREC
 70
     4
  9
$SKETCHINC
 40
0.1
  9
$FILLETRAD
 40
0.0
  9
$AUNITS
 70
     0
  9
$AUPREC
 70
     0
  9
$MENU
  1
ACAD
  9
$ELEVATION
 40
0.0
  9
$PELEVATION
 40
0.0
  9
$THICKNESS
 40
0.0
  9
$LIMCHECK
 70
     0
  9
$BLIPMODE
 70
     0
  9
$CHAMFERA
 40
0.0
  9
$CHAMFERB
 40
0.0
  9
$CHAMFERC
 40
0.0
  9
$CHAMFERD
 40
0.0
  9
$SKPOLY
 70
     0
  9
$TDCREATE
 40
2451726.438389120
  9
$TDUPDATE
 40
2452661.468128471
  9
$TDINDWG
 40
0.0348640046
  9
$TDUSRTIMER
 40
0.0348640046
  9
$USRTIMER
 70
     1
  9
$ANGBASE
 50
0.0
  9
$ANGDIR
 70
     0
  9
$PDMODE
 70
     3
  9
$PDSIZE
 40
0.09
  9
$PLINEWID
 40
0.0
  9
$COORDS
 70
     1
  9
$SPLFRAME
 70
     1
  9
$SPLINETYPE
 70
     6
  9
$SPLINESEGS
 70
     8
  9
$ATTDIA
 70
     0
  9
$ATTREQ
 70
     1
  9
$HANDLING
 70
     1
  9
$HANDSEED
  5
47B78
  9
$SURFTAB1
 70
     6
  9
$SURFTAB2
 70
     6
  9
$SURFTYPE
 70
     6
  9
$SURFU
 70
     6
  9
$SURFV
 70
     6
  9
$UCSNAME
  2

  9
$UCSORG
 10
0.0
 20
0.0
 30
0.0
  9
$UCSXDIR
 10
1.0
 20
0.0
 30
0.0
  9
$UCSYDIR
 10
0.0
 20
1.0
 30
0.0
  9
$PUCSNAME
  2

  9
$PUCSORG
 10
0.0
 20
0.0
 30
0.0
  9
$PUCSXDIR
 10
1.0
 20
0.0
 30
0.0
  9
$PUCSYDIR
 10
0.0
 20
1.0
 30
0.0
  9
$USERI1
 70
     0
  9
$USERI2
 70
     0
  9
$USERI3
 70
     0
  9
$USERI4
 70
     0
  9
$USERI5
 70
     0
  9
$USERR1
 40
0.0
  9
$USERR2
 40
0.0
  9
$USERR3
 40
0.0
  9
$USERR4
 40
0.0
  9
$USERR5
 40
0.0
  9
$WORLDVIEW
 70
     1
  9
$SHADEDGE
 70
     3
  9
$SHADEDIF
 70
    70
  9
$TILEMODE
 70
     1
  9
$MAXACTVP
 70
    16
  9
$PINSBASE
 10
0.0
 20
0.0
 30
0.0
  9
$PLIMCHECK
 70
     0
  9
$PEXTMIN
 10
1.000000E+20
 20
1.000000E+20
 30
1.000000E+20
  9
$PEXTMAX
 10
-1.000000E+20
 20
-1.000000E+20
 30
-1.000000E+20
  9
$PLIMMIN
 10
0.0
 20
0.0
  9
$PLIMMAX
 10
12.0
 20
9.0
  9
$UNITMODE
 70
     0
  9
$VISRETAIN
 70
     0
  9
$PLINEGEN
 70
     0
  9
$PSLTSCALE
 70
     1
  9
$TREEDEPTH
 70
  3020
  9
$PICKSTYLE
 70
     1
  9
$CMLSTYLE
  2
STANDARD
  9
$CMLJUST
 70
     0
  9
$CMLSCALE
 40
1.0
  9
$PROXYGRAPHICS
 70
     1
  9
$MEASUREMENT
 70
     0
  0
ENDSEC
  0
SECTION
  2
CLASSES
  0
CLASS
  1
DICTIONARYVAR
  2
AcDbDictionaryVar
  3
"AutoCAD"
 90
        0
280
     0
281
     0
  0
CLASS
  1
ACDBDICTIONARYWDFLT
  2
AcDbDictionaryWithDefault
  3
AutoCAD 2000
 90
        0
280
     0
281
     0
  0
CLASS
  1
ACDBPLACEHOLDER
  2
AcDbPlaceHolder
  3
AutoCAD 2000
 90
        0
280
     0
281
     0
  0
CLASS
  1
LAYOUT
  2
AcDbLayout
  3
AutoCAD 2000
 90
        0
280
     0
281
     0
  0
CLASS
  1
LONG_TRANSACTION
  2
AcDbLongTransaction
  3
AutoCAD 2000
 90
        0
280
     0
281
     0
  0
CLASS
  1
LWPOLYLINE
  2
AcDbPolyline
  3
"AutoCAD"
 90
        0
280
     0
281
     1
  0
CLASS
  1
HATCH
  2
AcDbHatch
  3
"ACAD_SEDONA"
 90
        0
280
     0
281
     1
  0
CLASS
  1
XRECORD
  2
AcDbXrecord
  3
"<Built In>"
 90
        0
280
     0
281
     0
  0
CLASS
  1
LONG_TRANSACTION
  2
AcDbLongTransaction
  3
AutoCAD 2000
 90
        0
280
     0
281
     0
  0
CLASS
  1
LWPOLYLINE
  2
AcDbPolyline
  3
"AutoCAD"
 90
        0
280
     0
281
     1
  0
CLASS
  1
HATCH
  2
AcDbHatch
  3
"ACAD_SEDONA"
 90
        0
280
     0
281
     1
  0
CLASS
  1
XRECORD
  2
AcDbXrecord
  3
"<Built In>"
 90
        0
280
     0
281
     0
  0
CLASS
  1
LONG_TRANSACTION
  2
AcDbLongTransaction
  3
AutoCAD 2000
 90
        0
280
     0
281
     0
  0
CLASS
  1
LWPOLYLINE
  2
AcDbPolyline
  3
"AutoCAD"
 90
        0
280
     0
281
     1
  0
CLASS
  1
HATCH
  2
AcDbHatch
  3
"ACAD_SEDONA"
 90
        0
280
     0
281
     1
  0
CLASS
  1
XRECORD
  2
AcDbXrecord
  3
"<Built In>"
 90
        0
280
     0
281
     0
  0
CLASS
  1
LONG_TRANSACTION
  2
AcDbLongTransaction
  3
AutoCAD 2000
 90
        0
280
     0
281
     0
  0
CLASS
  1
LWPOLYLINE
  2
AcDbPolyline
  3
"AutoCAD"
 90
        0
280
     0
281
     1
  0
CLASS
  1
HATCH
  2
AcDbHatch
  3
"ACAD_SEDONA"
 90
        0
280
     0
281
     1
  0
CLASS
  1
XRECORD
  2
AcDbXrecord
  3
"<Built In>"
 90
        0
280
     0
281
     0
  0
CLASS
  1
LONG_TRANSACTION
  2
AcDbLongTransaction
  3
AutoCAD 2000
 90
        0
280
     0
281
     0
  0
CLASS
  1
LWPOLYLINE
  2
AcDbPolyline
  3
"AutoCAD"
 90
        0
280
     0
281
     1
  0
CLASS
  1
HATCH
  2
AcDbHatch
  3
"ACAD_SEDONA"
 90
        0
280
     0
281
     1
  0
CLASS
  1
XRECORD
  2
AcDbXrecord
  3
"<Built In>"
 90
        0
280
     0
281
     0
  0
CLASS
  1
LONG_TRANSACTION
  2
AcDbLongTransaction
  3
AutoCAD 2000
 90
        0
280
     0
281
     0
  0
CLASS
  1
LWPOLYLINE
  2
AcDbPolyline
  3
"AutoCAD"
 90
        0
280
     0
281
     1
  0
CLASS
  1
HATCH
  2
AcDbHatch
  3
"ACAD_SEDONA"
 90
        0
280
     0
281
     1
  0
CLASS
  1
XRECORD
  2
AcDbXrecord
  3
"<Built In>"
 90
        0
280
     0
281
     0
  0
CLASS
  1
LONG_TRANSACTION
  2
AcDbLongTransaction
  3
AutoCAD 2000
 90
        0
280
     0
281
     0
  0
CLASS
  1
LWPOLYLINE
  2
AcDbPolyline
  3
"AutoCAD"
 90
        0
280
     0
281
     1
  0
CLASS
  1
HATCH
  2
AcDbHatch
  3
"ACAD_SEDONA"
 90
        0
280
     0
281
     1
  0
CLASS
  1
XRECORD
  2
AcDbXrecord
  3
"<Built In>"
 90
        0
280
     0
281
     0
  0
CLASS
  1
LONG_TRANSACTION
  2
AcDbLongTransaction
  3
AutoCAD 2000
 90
        0
280
     0
281
     0
  0
CLASS
  1
LWPOLYLINE
  2
AcDbPolyline
  3
"AutoCAD"
 90
        0
280
     0
281
     1
  0
CLASS
  1
HATCH
  2
AcDbHatch
  3
"ACAD_SEDONA"
 90
        0
280
     0
281
     1
  0
CLASS
  1
XRECORD
  2
AcDbXrecord
  3
"<Built In>"
 90
        0
280
     0
281
     0
  0
CLASS
  1
LONG_TRANSACTION
  2
AcDbLongTransaction
  3
AutoCAD 2000
 90
        0
280
     0
281
     0
  0
CLASS
  1
LWPOLYLINE
  2
AcDbPolyline
  3
"AutoCAD"
 90
        0
280
     0
281
     1
  0
CLASS
  1
HATCH
  2
AcDbHatch
  3
"ACAD_SEDONA"
 90
        0
280
     0
281
     1
  0
CLASS
  1
XRECORD
  2
AcDbXrecord
  3
"<Built In>"
 90
        0
280
     0
281
     0
  0
ENDSEC
  0
SECTION
  2
TABLES
  0
TABLE
  2
VPORT
  5
458C7
100
AcDbSymbolTable
 70
     1
  0
VPORT
  5
47B47
102
{ACAD_XDICTIONARY
360
47B4A
102
}
100
AcDbSymbolTableRecord
100
AcDbViewportTableRecord
  2
*ACTIVE
 70
     0
 10
0.0
 20
0.0
 11
1.0
 21
1.0
 12
-0.681128
 22
-5.639149
 13
0.0
 23
0.0
 14
0.25
 24
0.25
 15
0.25
 25
0.25
 16
0.0
 26
0.0
 36
1.0
 17
0.0
 27
0.0
 37
0.0
 40
16.085588
 41
1.766839
 42
50.0
 43
0.0
 44
0.0
 50
0.0
 51
0.0
 71
     0
 72
 20000
 73
     1
 74
     1
 75
     0
 76
     0
 77
     0
 78
     0
  0
ENDTAB
  0
TABLE
  2
LTYPE
  5
458C4
100
AcDbSymbolTable
 70
     1
  0
LTYPE
  5
458D0
100
AcDbSymbolTableRecord
100
AcDbLinetypeTableRecord
  2
BYBLOCK
 70
     0
  3

 72
    65
 73
     0
 40
0.0
  0
LTYPE
  5
458D1
100
AcDbSymbolTableRecord
100
AcDbLinetypeTableRecord
  2
BYLAYER
 70
     0
  3

 72
    65
 73
     0
 40
0.0
  0
LTYPE
  5
458D2
100
AcDbSymbolTableRecord
100
AcDbLinetypeTableRecord
  2
CONTINUOUS
 70
     0
  3
Solid line
 72
    65
 73
     0
 40
0.0
  0
ENDTAB
  0
TABLE
  2
LAYER
  5
458C1
100
AcDbSymbolTable
 70
     7
  0
LAYER
  5
458CD
100
AcDbSymbolTableRecord
100
AcDbLayerTableRecord
  2
0
 70
     0
 62
     7
  6
CONTINUOUS
  0
LAYER
  5
458EA
100
AcDbSymbolTableRecord
100
AcDbLayerTableRecord
  2
DIMS-MTG-HOLES
 70
     0
 62
     1
  6
CONTINUOUS
  0
LAYER
  5
458EB
100
AcDbSymbolTableRecord
100
AcDbLayerTableRecord
  2
ATTRIBUTES
 70
     0
 62
     7
  6
CONTINUOUS
  0
LAYER
  5
4593B
102
{ACAD_XDICTIONARY
360
47B73
102
}
100
AcDbSymbolTableRecord
100
AcDbLayerTableRecord
  2
AREA1
 70
     0
 62
    -7
  6
CONTINUOUS
  0
LAYER
  5
45940
102
{ACAD_XDICTIONARY
360
47B48
102
}
100
AcDbSymbolTableRecord
100
AcDbLayerTableRecord
  2
DEFPOINTS
 70
     0
 62
    -7
  6
CONTINUOUS
  0
LAYER
  5
45954
100
AcDbSymbolTableRecord
100
AcDbLayerTableRecord
  2
SCALE
 70
     0
 62
    -7
  6
CONTINUOUS
  0
LAYER
  5
459D2
100
AcDbSymbolTableRecord
100
AcDbLayerTableRecord
  2
SNAP_POINTS
 70
     0
 62
    -1
  6
CONTINUOUS
  0
ENDTAB
  0
TABLE
  2
STYLE
  5
458C2
100
AcDbSymbolTable
 70
     1
  0
STYLE
  5
458CE
100
AcDbSymbolTableRecord
100
AcDbTextStyleTableRecord
  2
STANDARD
 70
     0
 40
0.0
 41
1.0
 50
0.0
 71
     0
 42
0.12
  3
txt
  4

  0
ENDTAB
  0
TABLE
  2
VIEW
  5
458C5
100
AcDbSymbolTable
 70
     0
  0
ENDTAB
  0
TABLE
  2
UCS
  5
458C6
100
AcDbSymbolTable
 70
     0
  0
ENDTAB
  0
TABLE
  2
APPID
  5
458C8
100
AcDbSymbolTable
 70
     1
  0
APPID
  5
458CF
100
AcDbSymbolTableRecord
100
AcDbRegAppTableRecord
  2
ACAD
 70
     0
  0
ENDTAB
  0
TABLE
  2
DIMSTYLE
  5
458C9
100
AcDbSymbolTable
 70
     1
  0
DIMSTYLE
105
458F6
102
{ACAD_XDICTIONARY
360
47B6F
102
}
102
{ACAD_REACTORS
330
47A02
330
47A10
102
}
100
AcDbSymbolTableRecord
100
AcDbDimStyleTableRecord
  2
ABECAD_3D
 70
     0
  3

  4

  5

  6

  7

 40
1.0
 41
0.18
 42
0.0625
 43
0.375
 44
0.18
 45
0.0
 46
0.0
 47
0.0
 48
0.0
140
0.3
141
0.09
142
0.0
143
25.4
144
1.0
145
0.0
146
1.5
147
0.09
 71
     0
 72
     0
 73
     0
 74
     1
 75
     0
 76
     0
 77
     0
 78
     4
170
     1
171
     2
172
     0
173
     0
174
     0
175
     0
176
     0
177
     0
178
     0
270
     7
271
     6
272
     6
273
     2
274
     2
340
458CE
275
     0
280
     0
281
     0
282
     0
283
     1
284
     4
285
     4
286
     4
287
     5
288
     1
  0
ENDTAB
  0
TABLE
  2
BLOCK_RECORD
  5
458C0
100
AcDbSymbolTable
 70
     2
  0
BLOCK_RECORD
  5
458D6
102
{ACAD_XDICTIONARY
360
4592C
102
}
100
AcDbSymbolTableRecord
100
AcDbBlockTableRecord
  2
*MODEL_SPACE
  0
BLOCK_RECORD
  5
458D3
102
{ACAD_XDICTIONARY
360
4592A
102
}
100
AcDbSymbolTableRecord
100
AcDbBlockTableRecord
  2
*PAPER_SPACE
  0
BLOCK_RECORD
  5
47A03
100
AcDbSymbolTableRecord
100
AcDbBlockTableRecord
  2
*D0
  0
BLOCK_RECORD
  5
47A11
100
AcDbSymbolTableRecord
100
AcDbBlockTableRecord
  2
*D1
  0
ENDTAB
  0
ENDSEC
  0
SECTION
  2
BLOCKS
  0
BLOCK
  5
458DF
100
AcDbEntity
  8
0
100
AcDbBlockBegin
  2
*MODEL_SPACE
 70
     0
 10
0.0
 20
0.0
 30
0.0
  3
*MODEL_SPACE
  1

  0
ENDBLK
  5
458E0
100
AcDbEntity
  8
0
100
AcDbBlockEnd
  0
BLOCK
  5
458DD
100
AcDbEntity
 67
     1
  8
0
100
AcDbBlockBegin
  2
*PAPER_SPACE
 70
     0
 10
0.0
 20
0.0
 30
0.0
  3
*PAPER_SPACE
  1

  0
ENDBLK
  5
458DE
100
AcDbEntity
 67
     1
  8
0
100
AcDbBlockEnd
  0
BLOCK
  5
47A0E
100
AcDbEntity
  8
0
100
AcDbBlockBegin
  2
*D0
 70
     1
 10
0.0
 20
0.0
 30
0.0
  3
*D0
  1

  0
LINE
  5
47A6B
100
AcDbEntity
  8
AREA1
 62
     0
100
AcDbLine
 10
-2.6275
 20
1.19
 30
0.0
 11
-4.862371
 21
1.19
 31
0.0
1001
ACAD
1000
RTLwPs
1070
   158
  0
LINE
  5
47A6C
100
AcDbEntity
  8
AREA1
 62
     0
100
AcDbLine
 10
-3.0625
 20
-12.31
 30
0.0
 11
-4.862371
 21
-12.31
 31
0.0
1001
ACAD
1000
RTLwPs
1070
   158
  0
LINE
  5
47A6D
100
AcDbEntity
  8
AREA1
 62
     0
100
AcDbLine
 10
-4.682371
 20
1.01
 30
0.0
 11
-4.682371
 21
-3.737969
 31
0.0
1001
ACAD
1000
RTLwPs
1070
   158
  0
LINE
  5
47A6E
100
AcDbEntity
  8
AREA1
 62
     0
100
AcDbLine
 10
-4.682371
 20
-12.13
 30
0.0
 11
-4.682371
 21
-7.667969
 31
0.0
1001
ACAD
1000
RTLwPs
1070
   158
  0
MTEXT
  5
47A6F
100
AcDbEntity
  8
AREA1
 62
     0
100
AcDbMText
 10
-4.682371
 20
-5.702969
 30
0.0
 40
0.3
 41
0.0
 71
     5
 72
     1
  1
\A1;13 1/2 [342.90]
 11
0.0
 21
1.0
 31
0.0
1001
ACAD
1000
MTEXTBEGIN
1070
    73
1070
     1
1070
    44
1040
1.0
1070
    74
1070
     0
1000
MTEXTEND
1000
MTEXTBEGIN
1070
    73
1070
     1
1070
    44
1040
1.0
1070
    74
1070
     0
1000
MTEXTEND
1000
MTEXTBEGIN
1070
    73
1070
     1
1070
    44
1040
1.0
1070
    74
1070
     0
1000
MTEXTEND
1000
MTEXTBEGIN
1070
    73
1070
     1
1070
    44
1040
1.0
1070
    74
1070
     0
1000
MTEXTEND
1000
MTEXTBEGIN
1070
    73
1070
     1
1070
    44
1040
1.0
1070
    74
1070
     0
1000
MTEXTEND
  0
SOLID
  5
47A70
100
AcDbEntity
  8
AREA1
 62
     0
100
AcDbTrace
 10
-4.712371
 20
1.01
 30
0.0
 11
-4.652371
 21
1.01
 31
0.0
 12
-4.682371
 22
1.19
 32
0.0
 13
-4.682371
 23
1.19
 33
0.0
  0
SOLID
  5
47A71
100
AcDbEntity
  8
AREA1
 62
     0
100
AcDbTrace
 10
-4.712371
 20
-12.13
 30
0.0
 11
-4.652371
 21
-12.13
 31
0.0
 12
-4.682371
 22
-12.31
 32
0.0
 13
-4.682371
 23
-12.31
 33
0.0
  0
POINT
  5
47A72
100
AcDbEntity
  8
DEFPOINTS
 62
     0
100
AcDbPoint
 10
-2.565
 20
1.19
 30
3.0
  0
POINT
  5
47A73
100
AcDbEntity
  8
DEFPOINTS
 62
     0
100
AcDbPoint
 10
-3.0
 20
-12.31
 30
0.278
  0
POINT
  5
47A74
100
AcDbEntity
  8
DEFPOINTS
 62
     0
100
AcDbPoint
 10
-4.682371
 20
-12.31
 30
0.0
  0
ENDBLK
  5
47A0F
100
AcDbEntity
  8
0
100
AcDbBlockEnd
  0
BLOCK
  5
47A1C
100
AcDbEntity
  8
0
100
AcDbBlockBegin
  2
*D1
 70
     1
 10
0.0
 20
0.0
 30
0.0
  3
*D1
  1

  0
LINE
  5
47A75
100
AcDbEntity
  8
AREA1
 62
     0
100
AcDbLine
 10
-3.5
 20
-8.5275
 30
0.0
 11
-3.5
 21
2.319918
 31
0.0
1001
ACAD
1000
RTLwPs
1070
   158
  0
LINE
  5
47A76
100
AcDbEntity
  8
AREA1
 62
     0
100
AcDbLine
 10
3.5
 20
-8.5275
 30
0.0
 11
3.5
 21
2.319918
 31
0.0
1001
ACAD
1000
RTLwPs
1070
   158
  0
LINE
  5
47A77
100
AcDbEntity
  8
AREA1
 62
     0
100
AcDbLine
 10
-3.32
 20
2.139918
 30
0.0
 11
-1.203659
 21
2.139918
 31
0.0
1001
ACAD
1000
RTLwPs
1070
   158
  0
LINE
  5
47A78
100
AcDbEntity
  8
AREA1
 62
     0
100
AcDbLine
 10
3.32
 20
2.139918
 30
0.0
 11
1.326341
 21
2.139918
 31
0.0
1001
ACAD
1000
RTLwPs
1070
   158
  0
MTEXT
  5
47A79
100
AcDbEntity
  8
AREA1
 62
     0
100
AcDbMText
 10
0.061341
 20
2.139918
 30
0.0
 40
0.3
 41
0.0
 71
     5
 72
     1
  1
\A1;7 [177.80]
1001
ACAD
1000
MTEXTBEGIN
1070
    73
1070
     1
1070
    44
1040
1.0
1070
    74
1070
     0
1000
MTEXTEND
1000
MTEXTBEGIN
1070
    73
1070
     1
1070
    44
1040
1.0
1070
    74
1070
     0
1000
MTEXTEND
1000
MTEXTBEGIN
1070
    73
1070
     1
1070
    44
1040
1.0
1070
    74
1070
     0
1000
MTEXTEND
1000
MTEXTBEGIN
1070
    73
1070
     1
1070
    44
1040
1.0
1070
    74
1070
     0
1000
MTEXTEND
1000
MTEXTBEGIN
1070
    73
1070
     1
1070
    44
1040
1.0
1070
    74
1070
     0
1000
MTEXTEND
  0
SOLID
  5
47A7A
100
AcDbEntity
  8
AREA1
 62
     0
100
AcDbTrace
 10
-3.32
 20
2.169918
 30
0.0
 11
-3.32
 21
2.109918
 31
0.0
 12
-3.5
 22
2.139918
 32
0.0
 13
-3.5
 23
2.139918
 33
0.0
  0
SOLID
  5
47A7B
100
AcDbEntity
  8
AREA1
 62
     0
100
AcDbTrace
 10
3.32
 20
2.169918
 30
0.0
 11
3.32
 21
2.109918
 31
0.0
 12
3.5
 22
2.139918
 32
0.0
 13
3.5
 23
2.139918
 33
0.0
  0
POINT
  5
47A7C
100
AcDbEntity
  8
DEFPOINTS
 62
     0
100
AcDbPoint
 10
-3.5
 20
-8.59
 30
0.0
  0
POINT
  5
47A7D
100
AcDbEntity
  8
DEFPOINTS
 62
     0
100
AcDbPoint
 10
3.5
 20
-8.59
 30
0.0
  0
POINT
  5
47A7E
100
AcDbEntity
  8
DEFPOINTS
 62
     0
100
AcDbPoint
 10
3.5
 20
2.139918
 30
0.0
  0
ENDBLK
  5
47A1D
100
AcDbEntity
  8
0
100
AcDbBlockEnd
  0
ENDSEC
  0
SECTION
  2
ENTITIES
  0
CIRCLE
  5
477AC
100
AcDbEntity
  8
0
100
AcDbCircle
 10
2.0
 20
-0.5
 30
8.125
 40
0.4375
  0
CIRCLE
  5
477AD
100
AcDbEntity
  8
0
100
AcDbCircle
 10
-3.153
 20
-9.843
 30
0.0
 40
0.164
  0
ARC
  5
477AE
100
AcDbEntity
  8
0
100
AcDbCircle
 10
0.0
 20
-0.5
 30
0.0
 40
0.33
100
AcDbArc
 50
0.0
 51
58.789795
  0
ARC
  5
477AF
100
AcDbEntity
  8
0
100
AcDbCircle
 10
0.0
 20
-0.5
 30
0.0
 40
0.33
100
AcDbArc
 50
121.209984
 51
180.0
  0
LINE
  5
477B0
100
AcDbEntity
  8
0
100
AcDbLine
 10
0.33
 20
-0.83
 30
0.0
 11
-0.33
 21
-0.83
 31
0.0
  0
LINE
  5
477B1
100
AcDbEntity
  8
0
100
AcDbLine
 10
-0.33
 20
-0.83
 30
0.0
 11
-0.33
 21
-0.5
 31
0.0
  0
LINE
  5
477B2
100
AcDbEntity
  8
0
100
AcDbLine
 10
0.33
 20
-0.5
 30
0.0
 11
0.33
 21
-0.83
 31
0.0
  0
ARC
  5
477B3
100
AcDbEntity
  8
0
100
AcDbCircle
 10
0.0
 20
0.0
 30
0.0
 40
0.171
100
AcDbArc
 50
0.0
 51
180.0
  0
LINE
  5
477B4
100
AcDbEntity
  8
0
100
AcDbLine
 10
-0.171
 20
0.0
 30
0.0
 11
-0.171
 21
-0.217752
 31
0.0
  0
LINE
  5
477B5
100
AcDbEntity
  8
0
100
AcDbLine
 10
0.171
 20
0.0
 30
0.0
 11
0.171
 21
-0.21775
 31
0.0
  0
CIRCLE
  5
477B6
100
AcDbEntity
  8
0
100
AcDbCircle
 10
0.992
 20
0.0
 30
0.0
 40
0.293
  0
CIRCLE
  5
477B7
100
AcDbEntity
  8
0
100
AcDbCircle
 10
0.992
 20
0.0
 30
0.0
 40
0.1715
  0
CIRCLE
  5
477B8
100
AcDbEntity
  8
0
100
AcDbCircle
 10
3.153
 20
-9.843
 30
0.0
 40
0.1715
  0
POLYLINE
  5
477B9
100
AcDbEntity
  8
0
100
AcDbPolygonMesh
 66
     1
 10
0.0
 20
0.0
 30
0.0
 70
    16
 71
     6
 72
     3
  0
VERTEX
  5
477BA
100
AcDbEntity
  8
0
100
AcDbVertex
100
AcDbPolygonMeshVertex
 10
1.0
 20
-6.81
 30
6.0625
 70
    64
  0
VERTEX
  5
477BB
100
AcDbEntity
  8
0
100
AcDbVertex
100
AcDbPolygonMeshVertex
 10
1.0
 20
-6.81
 30
5.6875
 70
    64
  0
VERTEX
  5
477BC
100
AcDbEntity
  8
0
100
AcDbVertex
100
AcDbPolygonMeshVertex
 10
1.0
 20
-6.81
 30
5.6875
 70
    64
  0
VERTEX
  5
477BD
100
AcDbEntity
  8
0
100
AcDbVertex
100
AcDbPolygonMeshVertex
 10
-1.0
 20
-6.81
 30
6.0625
 70
    64
  0
VERTEX
  5
477BE
100
AcDbEntity
  8
0
100
AcDbVertex
100
AcDbPolygonMeshVertex
 10
-1.0
 20
-6.81
 30
5.6875
 70
    64
  0
VERTEX
  5
477BF
100
AcDbEntity
  8
0
100
AcDbVertex
100
AcDbPolygonMeshVertex
 10
-1.0
 20
-6.81
 30
5.6875
 70
    64
  0
VERTEX
  5
477C0
100
AcDbEntity
  8
0
100
AcDbVertex
100
AcDbPolygonMeshVertex
 10
-1.0
 20
-5.81
 30
6.0625
 70
    64
  0
VERTEX
  5
477C1
100
AcDbEntity
  8
0
100
AcDbVertex
100
AcDbPolygonMeshVertex
 10
-1.0
 20
-5.81
 30
5.6875
 70
    64
  0
VERTEX
  5
477C2
100
AcDbEntity
  8
0
100
AcDbVertex
100
AcDbPolygonMeshVertex
 10
-1.0
 20
-6.81
 30
5.6875
 70
    64
  0
VERTEX
  5
477C3
100
AcDbEntity
  8
0
100
AcDbVertex
100
AcDbPolygonMeshVertex
 10
1.0
 20
-5.81
 30
6.0625
 70
    64
  0
VERTEX
  5
477C4
100
AcDbEntity
  8
0
100
AcDbVertex
100
AcDbPolygonMeshVertex
 10
1.0
 20
-5.81
 30
5.6875
 70
    64
  0
VERTEX
  5
477C5
100
AcDbEntity
  8
0
100
AcDbVertex
100
AcDbPolygonMeshVertex
 10
1.0
 20
-6.81
 30
5.6875
 70
    64
  0
VERTEX
  5
477C6
100
AcDbEntity
  8
0
100
AcDbVertex
100
AcDbPolygonMeshVertex
 10
1.0
 20
-5.81
 30
6.0625
 70
    64
  0
VERTEX
  5
477C7
100
AcDbEntity
  8
0
100
AcDbVertex
100
AcDbPolygonMeshVertex
 10
1.0
 20
-5.81
 30
6.0625
 70
    64
  0
VERTEX
  5
477C8
100
AcDbEntity
  8
0
100
AcDbVertex
100
AcDbPolygonMeshVertex
 10
1.0
 20
-6.81
 30
6.0625
 70
    64
  0
VERTEX
  5
477C9
100
AcDbEntity
  8
0
100
AcDbVertex
100
AcDbPolygonMeshVertex
 10
-1.0
 20
-5.81
 30
6.0625
 70
    64
  0
VERTEX
  5
477CA
100
AcDbEntity
  8
0
100
AcDbVertex
100
AcDbPolygonMeshVertex
 10
-1.0
 20
-5.81
 30
6.0625
 70
    64
  0
VERTEX
  5
477CB
100
AcDbEntity
  8
0
100
AcDbVertex
100
AcDbPolygonMeshVertex
 10
-1.0
 20
-6.81
 30
6.0625
 70
    64
  0
SEQEND
  5
477CC
100
AcDbEntity
  8
0
  0
POLYLINE
  5
477CD
100
AcDbEntity
  8
0
100
AcDbPolygonMesh
 66
     1
 10
0.0
 20
0.0
 30
0.0
 70
    16
 71
     6
 72
     3
  0
VERTEX
  5
477CE
100
AcDbEntity
  8
0
100
AcDbVertex
100
AcDbPolygonMeshVertex
 10
3.0
 20
-1.06
 30
0.878
 70
    64
  0
VERTEX
  5
477CF
100
AcDbEntity
  8
0
100
AcDbVertex
100
AcDbPolygonMeshVertex
 10
3.0
 20
-1.06
 30
0.278
 70
    64
  0
VERTEX
  5
477D0
100
AcDbEntity
  8
0
100
AcDbVertex
100
AcDbPolygonMeshVertex
 10
3.0
 20
-1.06
 30
0.278
 70
    64
  0
VERTEX
  5
477D1
100
AcDbEntity
  8
0
100
AcDbVertex
100
AcDbPolygonMeshVertex
 10
-3.0
 20
-1.06
 30
0.878
 70
    64
  0
VERTEX
  5
477D2
100
AcDbEntity
  8
0
100
AcDbVertex
100
AcDbPolygonMeshVertex
 10
-3.0
 20
-1.06
 30
0.278
 70
    64
  0
VERTEX
  5
477D3
100
AcDbEntity
  8
0
100
AcDbVertex
100
AcDbPolygonMeshVertex
 10
-3.0
 20
-1.06
 30
0.278
 70
    64
  0
VERTEX
  5
477D4
100
AcDbEntity
  8
0
100
AcDbVertex
100
AcDbPolygonMeshVertex
 10
-3.0
 20
-0.66
 30
0.878
 70
    64
  0
VERTEX
  5
477D5
100
AcDbEntity
  8
0
100
AcDbVertex
100
AcDbPolygonMeshVertex
 10
-3.0
 20
-0.66
 30
0.278
 70
    64
  0
VERTEX
  5
477D6
100
AcDbEntity
  8
0
100
AcDbVertex
100
AcDbPolygonMeshVertex
 10
-3.0
 20
-1.06
 30
0.278
 70
    64
  0
VERTEX
  5
477D7
100
AcDbEntity
  8
0
100
AcDbVertex
100
AcDbPolygonMeshVertex
 10
3.0
 20
-0.66
 30
0.878
 70
    64
  0
VERTEX
  5
477D8
100
AcDbEntity
  8
0
100
AcDbVertex
100
AcDbPolygonMeshVertex
 10
3.0
 20
-0.66
 30
0.278
 70
    64
  0
VERTEX
  5
477D9
100
AcDbEntity
  8
0
100
AcDbVertex
100
AcDbPolygonMeshVertex
 10
3.0
 20
-1.06
 30
0.278
 70
    64
  0
VERTEX
  5
477DA
100
AcDbEntity
  8
0
100
AcDbVertex
100
AcDbPolygonMeshVertex
 10
3.0
 20
-0.66
 30
0.878
 70
    64
  0
VERTEX
  5
477DB
100
AcDbEntity
  8
0
100
AcDbVertex
100
AcDbPolygonMeshVertex
 10
3.0
 20
-0.66
 30
0.878
 70
    64
  0
VERTEX
  5
477DC
100
AcDbEntity
  8
0
100
AcDbVertex
100
AcDbPolygonMeshVertex
 10
3.0
 20
-1.06
 30
0.878
 70
    64
  0
VERTEX
  5
477DD
100
AcDbEntity
  8
0
100
AcDbVertex
100
AcDbPolygonMeshVertex
 10
-3.0
 20
-0.66
 30
0.878
 70
    64
  0
VERTEX
  5
477DE
100
AcDbEntity
  8
0
100
AcDbVertex
100
AcDbPolygonMeshVertex
 10
-3.0
 20
-0.66
 30
0.878
 70
    64
  0
VERTEX
  5
477DF
100
AcDbEntity
  8
0
100
AcDbVertex
100
AcDbPolygonMeshVertex
 10
-3.0
 20
-1.06
 30
0.878
 70
    64
  0
SEQEND
  5
477E0
100
AcDbEntity
  8
0
  0
LINE
  5
477E1
100
AcDbEntity
  8
0
100
AcDbLine
 10
-3.0
 20
-7.81
 30
3.75
 11
-3.0
 21
-7.81
 31
0.278
  0
POLYLINE
  5
477E2
100
AcDbEntity
  8
0
100
AcDbPolygonMesh
 66
     1
 10
0.0
 20
0.0
 30
0.0
 70
    16
 71
     6
 72
     3
  0
VERTEX
  5
477E3
100
AcDbEntity
  8
0
100
AcDbVertex
100
AcDbPolygonMeshVertex
 10
3.0
 20
-12.31
 30
3.75
 70
    64
  0
VERTEX
  5
477E4
100
AcDbEntity
  8
0
100
AcDbVertex
100
AcDbPolygonMeshVertex
 10
3.0
 20
-12.31
 30
0.278
 70
    64
  0
VERTEX
  5
477E5
100
AcDbEntity
  8
0
100
AcDbVertex
100
AcDbPolygonMeshVertex
 10
3.0
 20
-12.31
 30
0.278
 70
    64
  0
VERTEX
  5
477E6
100
AcDbEntity
  8
0
100
AcDbVertex
100
AcDbPolygonMeshVertex
 10
-3.0
 20
-12.31
 30
3.75
 70
    64
  0
VERTEX
  5
477E7
100
AcDbEntity
  8
0
100
AcDbVertex
100
AcDbPolygonMeshVertex
 10
-3.0
 20
-12.31
 30
0.278
 70
    64
  0
VERTEX
  5
477E8
100
AcDbEntity
  8
0
100
AcDbVertex
100
AcDbPolygonMeshVertex
 10
-3.0
 20
-12.31
 30
0.278
 70
    64
  0
VERTEX
  5
477E9
100
AcDbEntity
  8
0
100
AcDbVertex
100
AcDbPolygonMeshVertex
 10
-3.0
 20
-7.81
 30
3.75
 70
    64
  0
VERTEX
  5
477EA
100
AcDbEntity
  8
0
100
AcDbVertex
100
AcDbPolygonMeshVertex
 10
-3.0
 20
-7.81
 30
0.278
 70
    64
  0
VERTEX
  5
477EB
100
AcDbEntity
  8
0
100
AcDbVertex
100
AcDbPolygonMeshVertex
 10
-3.0
 20
-12.31
 30
0.278
 70
    64
  0
VERTEX
  5
477EC
100
AcDbEntity
  8
0
100
AcDbVertex
100
AcDbPolygonMeshVertex
 10
3.0
 20
-7.81
 30
3.75
 70
    64
  0
VERTEX
  5
477ED
100
AcDbEntity
  8
0
100
AcDbVertex
100
AcDbPolygonMeshVertex
 10
3.0
 20
-7.81
 30
0.278
 70
    64
  0
VERTEX
  5
477EE
100
AcDbEntity
  8
0
100
AcDbVertex
100
AcDbPolygonMeshVertex
 10
3.0
 20
-12.31
 30
0.278
 70
    64
  0
VERTEX
  5
477EF
100
AcDbEntity
  8
0
100
AcDbVertex
100
AcDbPolygonMeshVertex
 10
3.0
 20
-7.81
 30
3.75
 70
    64
  0
VERTEX
  5
477F0
100
AcDbEntity
  8
0
100
AcDbVertex
100
AcDbPolygonMeshVertex
 10
3.0
 20
-7.81
 30
3.75
 70
    64
  0
VERTEX
  5
477F1
100
AcDbEntity
  8
0
100
AcDbVertex
100
AcDbPolygonMeshVertex
 10
3.0
 20
-12.31
 30
3.75
 70
    64
  0
VERTEX
  5
477F2
100
AcDbEntity
  8
0
100
AcDbVertex
100
AcDbPolygonMeshVertex
 10
-3.0
 20
-7.81
 30
3.75
 70
    64
  0
VERTEX
  5
477F3
100
AcDbEntity
  8
0
100
AcDbVertex
100
AcDbPolygonMeshVertex
 10
-3.0
 20
-7.81
 30
3.75
 70
    64
  0
VERTEX
  5
477F4
100
AcDbEntity
  8
0
100
AcDbVertex
100
AcDbPolygonMeshVertex
 10
-3.0
 20
-12.31
 30
3.75
 70
    64
  0
SEQEND
  5
477F5
100
AcDbEntity
  8
0
  0
LINE
  5
477F6
100
AcDbEntity
  8
0
100
AcDbLine
 10
-3.0
 20
-4.81
 30
5.5
 11
-3.0
 21
-4.81
 31
0.278
  0
POLYLINE
  5
477F7
100
AcDbEntity
  8
0
100
AcDbPolygonMesh
 66
     1
 10
0.0
 20
0.0
 30
0.0
 70
    16
 71
     6
 72
     3
  0
VERTEX
  5
477F8
100
AcDbEntity
  8
0
100
AcDbVertex
100
AcDbPolygonMeshVertex
 10
3.0
 20
-7.81
 30
5.6875
 70
    64
  0
VERTEX
  5
477F9
100
AcDbEntity
  8
0
100
AcDbVertex
100
AcDbPolygonMeshVertex
 10
3.0
 20
-7.81
 30
0.278
 70
    64
  0
VERTEX
  5
477FA
100
AcDbEntity
  8
0
100
AcDbVertex
100
AcDbPolygonMeshVertex
 10
3.0
 20
-7.81
 30
0.278
 70
    64
  0
VERTEX
  5
477FB
100
AcDbEntity
  8
0
100
AcDbVertex
100
AcDbPolygonMeshVertex
 10
-3.0
 20
-7.81
 30
5.6875
 70
    64
  0
VERTEX
  5
477FC
100
AcDbEntity
  8
0
100
AcDbVertex
100
AcDbPolygonMeshVertex
 10
-3.0
 20
-7.81
 30
0.278
 70
    64
  0
VERTEX
  5
477FD
100
AcDbEntity
  8
0
100
AcDbVertex
100
AcDbPolygonMeshVertex
 10
-3.0
 20
-7.81
 30
0.278
 70
    64
  0
VERTEX
  5
477FE
100
AcDbEntity
  8
0
100
AcDbVertex
100
AcDbPolygonMeshVertex
 10
-3.0
 20
-4.81
 30
5.6875
 70
    64
  0
VERTEX
  5
477FF
100
AcDbEntity
  8
0
100
AcDbVertex
100
AcDbPolygonMeshVertex
 10
-3.0
 20
-4.81
 30
0.278
 70
    64
  0
VERTEX
  5
47800
100
AcDbEntity
  8
0
100
AcDbVertex
100
AcDbPolygonMeshVertex
 10
-3.0
 20
-7.81
 30
0.278
 70
    64
  0
VERTEX
  5
47801
100
AcDbEntity
  8
0
100
AcDbVertex
100
AcDbPolygonMeshVertex
 10
3.0
 20
-4.81
 30
5.6875
 70
    64
  0
VERTEX
  5
47802
100
AcDbEntity
  8
0
100
AcDbVertex
100
AcDbPolygonMeshVertex
 10
3.0
 20
-4.81
 30
0.278
 70
    64
  0
VERTEX
  5
47803
100
AcDbEntity
  8
0
100
AcDbVertex
100
AcDbPolygonMeshVertex
 10
3.0
 20
-7.81
 30
0.278
 70
    64
  0
VERTEX
  5
47804
100
AcDbEntity
  8
0
100
AcDbVertex
100
AcDbPolygonMeshVertex
 10
3.0
 20
-4.81
 30
5.6875
 70
    64
  0
VERTEX
  5
47805
100
AcDbEntity
  8
0
100
AcDbVertex
100
AcDbPolygonMeshVertex
 10
3.0
 20
-4.81
 30
5.6875
 70
    64
  0
VERTEX
  5
47806
100
AcDbEntity
  8
0
100
AcDbVertex
100
AcDbPolygonMeshVertex
 10
3.0
 20
-7.81
 30
5.6875
 70
    64
  0
VERTEX
  5
47807
100
AcDbEntity
  8
0
100
AcDbVertex
100
AcDbPolygonMeshVertex
 10
-3.0
 20
-4.81
 30
5.6875
 70
    64
  0
VERTEX
  5
47808
100
AcDbEntity
  8
0
100
AcDbVertex
100
AcDbPolygonMeshVertex
 10
-3.0
 20
-4.81
 30
5.6875
 70
    64
  0
VERTEX
  5
47809
100
AcDbEntity
  8
0
100
AcDbVertex
100
AcDbPolygonMeshVertex
 10
-3.0
 20
-7.81
 30
5.6875
 70
    64
  0
SEQEND
  5
4780A
100
AcDbEntity
  8
0
  0
POLYLINE
  5
4780B
100
AcDbEntity
  8
0
100
AcDbPolygonMesh
 66
     1
 10
0.0
 20
0.0
 30
0.0
 70
    16
 71
     6
 72
     3
  0
VERTEX
  5
4780C
100
AcDbEntity
  8
0
100
AcDbVertex
100
AcDbPolygonMeshVertex
 10
3.0
 20
-4.81
 30
5.5
 70
    64
  0
VERTEX
  5
4780D
100
AcDbEntity
  8
0
100
AcDbVertex
100
AcDbPolygonMeshVertex
 10
3.0
 20
-4.81
 30
0.278
 70
    64
  0
VERTEX
  5
4780E
100
AcDbEntity
  8
0
100
AcDbVertex
100
AcDbPolygonMeshVertex
 10
3.0
 20
-4.81
 30
0.278
 70
    64
  0
VERTEX
  5
4780F
100
AcDbEntity
  8
0
100
AcDbVertex
100
AcDbPolygonMeshVertex
 10
-3.0
 20
-4.81
 30
5.5
 70
    64
  0
VERTEX
  5
47810
100
AcDbEntity
  8
0
100
AcDbVertex
100
AcDbPolygonMeshVertex
 10
-3.0
 20
-4.81
 30
0.278
 70
    64
  0
VERTEX
  5
47811
100
AcDbEntity
  8
0
100
AcDbVertex
100
AcDbPolygonMeshVertex
 10
-3.0
 20
-4.81
 30
0.278
 70
    64
  0
VERTEX
  5
47812
100
AcDbEntity
  8
0
100
AcDbVertex
100
AcDbPolygonMeshVertex
 10
-3.0
 20
-1.06
 30
5.5
 70
    64
  0
VERTEX
  5
47813
100
AcDbEntity
  8
0
100
AcDbVertex
100
AcDbPolygonMeshVertex
 10
-3.0
 20
-1.06
 30
0.278
 70
    64
  0
VERTEX
  5
47814
100
AcDbEntity
  8
0
100
AcDbVertex
100
AcDbPolygonMeshVertex
 10
-3.0
 20
-4.81
 30
0.278
 70
    64
  0
VERTEX
  5
47815
100
AcDbEntity
  8
0
100
AcDbVertex
100
AcDbPolygonMeshVertex
 10
3.0
 20
-1.06
 30
5.5
 70
    64
  0
VERTEX
  5
47816
100
AcDbEntity
  8
0
100
AcDbVertex
100
AcDbPolygonMeshVertex
 10
3.0
 20
-1.06
 30
0.278
 70
    64
  0
VERTEX
  5
47817
100
AcDbEntity
  8
0
100
AcDbVertex
100
AcDbPolygonMeshVertex
 10
3.0
 20
-4.81
 30
0.278
 70
    64
  0
VERTEX
  5
47818
100
AcDbEntity
  8
0
100
AcDbVertex
100
AcDbPolygonMeshVertex
 10
3.0
 20
-1.06
 30
5.5
 70
    64
  0
VERTEX
  5
47819
100
AcDbEntity
  8
0
100
AcDbVertex
100
AcDbPolygonMeshVertex
 10
3.0
 20
-1.06
 30
5.5
 70
    64
  0
VERTEX
  5
4781A
100
AcDbEntity
  8
0
100
AcDbVertex
100
AcDbPolygonMeshVertex
 10
3.0
 20
-4.81
 30
5.5
 70
    64
  0
VERTEX
  5
4781B
100
AcDbEntity
  8
0
100
AcDbVertex
100
AcDbPolygonMeshVertex
 10
-3.0
 20
-1.06
 30
5.5
 70
    64
  0
VERTEX
  5
4781C
100
AcDbEntity
  8
0
100
AcDbVertex
100
AcDbPolygonMeshVertex
 10
-3.0
 20
-1.06
 30
5.5
 70
    64
  0
VERTEX
  5
4781D
100
AcDbEntity
  8
0
100
AcDbVertex
100
AcDbPolygonMeshVertex
 10
-3.0
 20
-4.81
 30
5.5
 70
    64
  0
SEQEND
  5
4781E
100
AcDbEntity
  8
0
  0
LINE
  5
4781F
100
AcDbEntity
  8
0
100
AcDbLine
 10
-3.0
 20
-2.06
 30
6.0
 11
-3.0
 21
-2.06
 31
5.5
  0
POLYLINE
  5
47820
100
AcDbEntity
  8
0
100
AcDbPolygonMesh
 66
     1
 10
0.0
 20
0.0
 30
0.0
 70
    16
 71
     6
 72
     3
  0
VERTEX
  5
47821
100
AcDbEntity
  8
0
100
AcDbVertex
100
AcDbPolygonMeshVertex
 10
3.0
 20
-2.31
 30
6.0
 70
    64
  0
VERTEX
  5
47822
100
AcDbEntity
  8
0
100
AcDbVertex
100
AcDbPolygonMeshVertex
 10
3.0
 20
-2.31
 30
5.5
 70
    64
  0
VERTEX
  5
47823
100
AcDbEntity
  8
0
100
AcDbVertex
100
AcDbPolygonMeshVertex
 10
3.0
 20
-2.31
 30
5.5
 70
    64
  0
VERTEX
  5
47824
100
AcDbEntity
  8
0
100
AcDbVertex
100
AcDbPolygonMeshVertex
 10
-3.0
 20
-2.31
 30
6.0
 70
    64
  0
VERTEX
  5
47825
100
AcDbEntity
  8
0
100
AcDbVertex
100
AcDbPolygonMeshVertex
 10
-3.0
 20
-2.31
 30
5.5
 70
    64
  0
VERTEX
  5
47826
100
AcDbEntity
  8
0
100
AcDbVertex
100
AcDbPolygonMeshVertex
 10
-3.0
 20
-2.31
 30
5.5
 70
    64
  0
VERTEX
  5
47827
100
AcDbEntity
  8
0
100
AcDbVertex
100
AcDbPolygonMeshVertex
 10
-3.0
 20
-2.06
 30
6.0
 70
    64
  0
VERTEX
  5
47828
100
AcDbEntity
  8
0
100
AcDbVertex
100
AcDbPolygonMeshVertex
 10
-3.0
 20
-2.06
 30
5.5
 70
    64
  0
VERTEX
  5
47829
100
AcDbEntity
  8
0
100
AcDbVertex
100
AcDbPolygonMeshVertex
 10
-3.0
 20
-2.31
 30
5.5
 70
    64
  0
VERTEX
  5
4782A
100
AcDbEntity
  8
0
100
AcDbVertex
100
AcDbPolygonMeshVertex
 10
3.0
 20
-2.06
 30
6.0
 70
    64
  0
VERTEX
  5
4782B
100
AcDbEntity
  8
0
100
AcDbVertex
100
AcDbPolygonMeshVertex
 10
3.0
 20
-2.06
 30
5.5
 70
    64
  0
VERTEX
  5
4782C
100
AcDbEntity
  8
0
100
AcDbVertex
100
AcDbPolygonMeshVertex
 10
3.0
 20
-2.31
 30
5.5
 70
    64
  0
VERTEX
  5
4782D
100
AcDbEntity
  8
0
100
AcDbVertex
100
AcDbPolygonMeshVertex
 10
3.0
 20
-2.06
 30
6.0
 70
    64
  0
VERTEX
  5
4782E
100
AcDbEntity
  8
0
100
AcDbVertex
100
AcDbPolygonMeshVertex
 10
3.0
 20
-2.06
 30
6.0
 70
    64
  0
VERTEX
  5
4782F
100
AcDbEntity
  8
0
100
AcDbVertex
100
AcDbPolygonMeshVertex
 10
3.0
 20
-2.31
 30
6.0
 70
    64
  0
VERTEX
  5
47830
100
AcDbEntity
  8
0
100
AcDbVertex
100
AcDbPolygonMeshVertex
 10
-3.0
 20
-2.06
 30
6.0
 70
    64
  0
VERTEX
  5
47831
100
AcDbEntity
  8
0
100
AcDbVertex
100
AcDbPolygonMeshVertex
 10
-3.0
 20
-2.06
 30
6.0
 70
    64
  0
VERTEX
  5
47832
100
AcDbEntity
  8
0
100
AcDbVertex
100
AcDbPolygonMeshVertex
 10
-3.0
 20
-2.31
 30
6.0
 70
    64
  0
SEQEND
  5
47833
100
AcDbEntity
  8
0
  0
POLYLINE
  5
47834
100
AcDbEntity
  8
0
100
AcDbPolygonMesh
 66
     1
 10
0.0
 20
0.0
 30
0.0
 70
    16
 71
     6
 72
     3
  0
VERTEX
  5
47835
100
AcDbEntity
  8
0
100
AcDbVertex
100
AcDbPolygonMeshVertex
 10
3.0
 20
-2.06
 30
6.5
 70
    64
  0
VERTEX
  5
47836
100
AcDbEntity
  8
0
100
AcDbVertex
100
AcDbPolygonMeshVertex
 10
3.0
 20
-2.06
 30
5.5
 70
    64
  0
VERTEX
  5
47837
100
AcDbEntity
  8
0
100
AcDbVertex
100
AcDbPolygonMeshVertex
 10
3.0
 20
-2.06
 30
5.5
 70
    64
  0
VERTEX
  5
47838
100
AcDbEntity
  8
0
100
AcDbVertex
100
AcDbPolygonMeshVertex
 10
-3.0
 20
-2.06
 30
6.5
 70
    64
  0
VERTEX
  5
47839
100
AcDbEntity
  8
0
100
AcDbVertex
100
AcDbPolygonMeshVertex
 10
-3.0
 20
-2.06
 30
5.5
 70
    64
  0
VERTEX
  5
4783A
100
AcDbEntity
  8
0
100
AcDbVertex
100
AcDbPolygonMeshVertex
 10
-3.0
 20
-2.06
 30
5.5
 70
    64
  0
VERTEX
  5
4783B
100
AcDbEntity
  8
0
100
AcDbVertex
100
AcDbPolygonMeshVertex
 10
-3.0
 20
-1.06
 30
6.5
 70
    64
  0
VERTEX
  5
4783C
100
AcDbEntity
  8
0
100
AcDbVertex
100
AcDbPolygonMeshVertex
 10
-3.0
 20
-1.06
 30
5.5
 70
    64
  0
VERTEX
  5
4783D
100
AcDbEntity
  8
0
100
AcDbVertex
100
AcDbPolygonMeshVertex
 10
-3.0
 20
-2.06
 30
5.5
 70
    64
  0
VERTEX
  5
4783E
100
AcDbEntity
  8
0
100
AcDbVertex
100
AcDbPolygonMeshVertex
 10
3.0
 20
-1.06
 30
6.5
 70
    64
  0
VERTEX
  5
4783F
100
AcDbEntity
  8
0
100
AcDbVertex
100
AcDbPolygonMeshVertex
 10
3.0
 20
-1.06
 30
5.5
 70
    64
  0
VERTEX
  5
47840
100
AcDbEntity
  8
0
100
AcDbVertex
100
AcDbPolygonMeshVertex
 10
3.0
 20
-2.06
 30
5.5
 70
    64
  0
VERTEX
  5
47841
100
AcDbEntity
  8
0
100
AcDbVertex
100
AcDbPolygonMeshVertex
 10
3.0
 20
-1.06
 30
6.5
 70
    64
  0
VERTEX
  5
47842
100
AcDbEntity
  8
0
100
AcDbVertex
100
AcDbPolygonMeshVertex
 10
3.0
 20
-1.06
 30
6.5
 70
    64
  0
VERTEX
  5
47843
100
AcDbEntity
  8
0
100
AcDbVertex
100
AcDbPolygonMeshVertex
 10
3.0
 20
-2.06
 30
6.5
 70
    64
  0
VERTEX
  5
47844
100
AcDbEntity
  8
0
100
AcDbVertex
100
AcDbPolygonMeshVertex
 10
-3.0
 20
-1.06
 30
6.5
 70
    64
  0
VERTEX
  5
47845
100
AcDbEntity
  8
0
100
AcDbVertex
100
AcDbPolygonMeshVertex
 10
-3.0
 20
-1.06
 30
6.5
 70
    64
  0
VERTEX
  5
47846
100
AcDbEntity
  8
0
100
AcDbVertex
100
AcDbPolygonMeshVertex
 10
-3.0
 20
-2.06
 30
6.5
 70
    64
  0
SEQEND
  5
47847
100
AcDbEntity
  8
0
  0
POLYLINE
  5
47848
100
AcDbEntity
  8
0
100
AcDbPolygonMesh
 66
     1
 10
0.0
 20
0.0
 30
0.0
 70
    16
 71
     6
 72
     3
  0
VERTEX
  5
47849
100
AcDbEntity
  8
0
100
AcDbVertex
100
AcDbPolygonMeshVertex
 10
1.4375
 20
0.0625
 30
8.125
 70
    64
  0
VERTEX
  5
4784A
100
AcDbEntity
  8
0
100
AcDbVertex
100
AcDbPolygonMeshVertex
 10
1.4375
 20
0.0625
 30
6.75
 70
    64
  0
VERTEX
  5
4784B
100
AcDbEntity
  8
0
100
AcDbVertex
100
AcDbPolygonMeshVertex
 10
1.4375
 20
0.0625
 30
6.75
 70
    64
  0
VERTEX
  5
4784C
100
AcDbEntity
  8
0
100
AcDbVertex
100
AcDbPolygonMeshVertex
 10
2.5625
 20
0.0625
 30
8.125
 70
    64
  0
VERTEX
  5
4784D
100
AcDbEntity
  8
0
100
AcDbVertex
100
AcDbPolygonMeshVertex
 10
2.5625
 20
0.0625
 30
6.75
 70
    64
  0
VERTEX
  5
4784E
100
AcDbEntity
  8
0
100
AcDbVertex
100
AcDbPolygonMeshVertex
 10
2.5625
 20
0.0625
 30
6.75
 70
    64
  0
VERTEX
  5
4784F
100
AcDbEntity
  8
0
100
AcDbVertex
100
AcDbPolygonMeshVertex
 10
2.5625
 20
-1.0625
 30
8.125
 70
    64
  0
VERTEX
  5
47850
100
AcDbEntity
  8
0
100
AcDbVertex
100
AcDbPolygonMeshVertex
 10
2.5625
 20
-1.0625
 30
6.75
 70
    64
  0
VERTEX
  5
47851
100
AcDbEntity
  8
0
100
AcDbVertex
100
AcDbPolygonMeshVertex
 10
2.5625
 20
0.0625
 30
6.75
 70
    64
  0
VERTEX
  5
47852
100
AcDbEntity
  8
0
100
AcDbVertex
100
AcDbPolygonMeshVertex
 10
1.4375
 20
-1.0625
 30
8.125
 70
    64
  0
VERTEX
  5
47853
100
AcDbEntity
  8
0
100
AcDbVertex
100
AcDbPolygonMeshVertex
 10
1.4375
 20
-1.0625
 30
6.75
 70
    64
  0
VERTEX
  5
47854
100
AcDbEntity
  8
0
100
AcDbVertex
100
AcDbPolygonMeshVertex
 10
1.4375
 20
0.0625
 30
6.75
 70
    64
  0
VERTEX
  5
47855
100
AcDbEntity
  8
0
100
AcDbVertex
100
AcDbPolygonMeshVertex
 10
1.4375
 20
-1.0625
 30
8.125
 70
    64
  0
VERTEX
  5
47856
100
AcDbEntity
  8
0
100
AcDbVertex
100
AcDbPolygonMeshVertex
 10
1.4375
 20
-1.0625
 30
8.125
 70
    64
  0
VERTEX
  5
47857
100
AcDbEntity
  8
0
100
AcDbVertex
100
AcDbPolygonMeshVertex
 10
1.4375
 20
0.0625
 30
8.125
 70
    64
  0
VERTEX
  5
47858
100
AcDbEntity
  8
0
100
AcDbVertex
100
AcDbPolygonMeshVertex
 10
2.5625
 20
-1.0625
 30
8.125
 70
    64
  0
VERTEX
  5
47859
100
AcDbEntity
  8
0
100
AcDbVertex
100
AcDbPolygonMeshVertex
 10
2.5625
 20
-1.0625
 30
8.125
 70
    64
  0
VERTEX
  5
4785A
100
AcDbEntity
  8
0
100
AcDbVertex
100
AcDbPolygonMeshVertex
 10
2.5625
 20
0.0625
 30
8.125
 70
    64
  0
SEQEND
  5
4785B
100
AcDbEntity
  8
0
  0
POLYLINE
  5
4785C
100
AcDbEntity
  8
0
100
AcDbPolygonMesh
 66
     1
 10
0.0
 20
0.0
 30
0.0
 70
    16
 71
     6
 72
     3
  0
VERTEX
  5
4785D
100
AcDbEntity
  8
0
100
AcDbVertex
100
AcDbPolygonMeshVertex
 10
1.4375
 20
-0.8125
 30
6.75
 70
    64
  0
VERTEX
  5
4785E
100
AcDbEntity
  8
0
100
AcDbVertex
100
AcDbPolygonMeshVertex
 10
1.4375
 20
-0.8125
 30
6.5
 70
    64
  0
VERTEX
  5
4785F
100
AcDbEntity
  8
0
100
AcDbVertex
100
AcDbPolygonMeshVertex
 10
1.4375
 20
-0.8125
 30
6.5
 70
    64
  0
VERTEX
  5
47860
100
AcDbEntity
  8
0
100
AcDbVertex
100
AcDbPolygonMeshVertex
 10
2.5625
 20
-0.8125
 30
6.75
 70
    64
  0
VERTEX
  5
47861
100
AcDbEntity
  8
0
100
AcDbVertex
100
AcDbPolygonMeshVertex
 10
2.5625
 20
-0.8125
 30
6.5
 70
    64
  0
VERTEX
  5
47862
100
AcDbEntity
  8
0
100
AcDbVertex
100
AcDbPolygonMeshVertex
 10
2.5625
 20
-0.8125
 30
6.5
 70
    64
  0
VERTEX
  5
47863
100
AcDbEntity
  8
0
100
AcDbVertex
100
AcDbPolygonMeshVertex
 10
2.5625
 20
-1.06
 30
6.75
 70
    64
  0
VERTEX
  5
47864
100
AcDbEntity
  8
0
100
AcDbVertex
100
AcDbPolygonMeshVertex
 10
2.5625
 20
-1.06
 30
6.5
 70
    64
  0
VERTEX
  5
47865
100
AcDbEntity
  8
0
100
AcDbVertex
100
AcDbPolygonMeshVertex
 10
2.5625
 20
-0.8125
 30
6.5
 70
    64
  0
VERTEX
  5
47866
100
AcDbEntity
  8
0
100
AcDbVertex
100
AcDbPolygonMeshVertex
 10
1.4375
 20
-1.06
 30
6.75
 70
    64
  0
VERTEX
  5
47867
100
AcDbEntity
  8
0
100
AcDbVertex
100
AcDbPolygonMeshVertex
 10
1.4375
 20
-1.06
 30
6.5
 70
    64
  0
VERTEX
  5
47868
100
AcDbEntity
  8
0
100
AcDbVertex
100
AcDbPolygonMeshVertex
 10
1.4375
 20
-0.8125
 30
6.5
 70
    64
  0
VERTEX
  5
47869
100
AcDbEntity
  8
0
100
AcDbVertex
100
AcDbPolygonMeshVertex
 10
1.4375
 20
-1.06
 30
6.75
 70
    64
  0
VERTEX
  5
4786A
100
AcDbEntity
  8
0
100
AcDbVertex
100
AcDbPolygonMeshVertex
 10
1.4375
 20
-1.06
 30
6.75
 70
    64
  0
VERTEX
  5
4786B
100
AcDbEntity
  8
0
100
AcDbVertex
100
AcDbPolygonMeshVertex
 10
1.4375
 20
-0.8125
 30
6.75
 70
    64
  0
VERTEX
  5
4786C
100
AcDbEntity
  8
0
100
AcDbVertex
100
AcDbPolygonMeshVertex
 10
2.5625
 20
-1.06
 30
6.75
 70
    64
  0
VERTEX
  5
4786D
100
AcDbEntity
  8
0
100
AcDbVertex
100
AcDbPolygonMeshVertex
 10
2.5625
 20
-1.06
 30
6.75
 70
    64
  0
VERTEX
  5
4786E
100
AcDbEntity
  8
0
100
AcDbVertex
100
AcDbPolygonMeshVertex
 10
2.5625
 20
-0.8125
 30
6.75
 70
    64
  0
SEQEND
  5
4786F
100
AcDbEntity
  8
0
  0
POLYLINE
  5
47870
100
AcDbEntity
  8
0
100
AcDbPolygonMesh
 66
     1
 10
0.0
 20
0.0
 30
0.0
 70
    16
 71
     6
 72
     3
  0
VERTEX
  5
47871
100
AcDbEntity
  8
0
100
AcDbVertex
100
AcDbPolygonMeshVertex
 10
1.4375
 20
-1.0625
 30
7.0
 70
    64
  0
VERTEX
  5
47872
100
AcDbEntity
  8
0
100
AcDbVertex
100
AcDbPolygonMeshVertex
 10
1.4375
 20
-1.0625
 30
6.75
 70
    64
  0
VERTEX
  5
47873
100
AcDbEntity
  8
0
100
AcDbVertex
100
AcDbPolygonMeshVertex
 10
1.4375
 20
-1.0625
 30
6.75
 70
    64
  0
VERTEX
  5
47874
100
AcDbEntity
  8
0
100
AcDbVertex
100
AcDbPolygonMeshVertex
 10
2.5625
 20
-1.0625
 30
7.0
 70
    64
  0
VERTEX
  5
47875
100
AcDbEntity
  8
0
100
AcDbVertex
100
AcDbPolygonMeshVertex
 10
2.5625
 20
-1.0625
 30
6.75
 70
    64
  0
VERTEX
  5
47876
100
AcDbEntity
  8
0
100
AcDbVertex
100
AcDbPolygonMeshVertex
 10
2.5625
 20
-1.0625
 30
6.75
 70
    64
  0
VERTEX
  5
47877
100
AcDbEntity
  8
0
100
AcDbVertex
100
AcDbPolygonMeshVertex
 10
2.5625
 20
-2.1875
 30
7.0
 70
    64
  0
VERTEX
  5
47878
100
AcDbEntity
  8
0
100
AcDbVertex
100
AcDbPolygonMeshVertex
 10
2.5625
 20
-2.1875
 30
6.75
 70
    64
  0
VERTEX
  5
47879
100
AcDbEntity
  8
0
100
AcDbVertex
100
AcDbPolygonMeshVertex
 10
2.5625
 20
-1.0625
 30
6.75
 70
    64
  0
VERTEX
  5
4787A
100
AcDbEntity
  8
0
100
AcDbVertex
100
AcDbPolygonMeshVertex
 10
1.4375
 20
-2.1875
 30
7.0
 70
    64
  0
VERTEX
  5
4787B
100
AcDbEntity
  8
0
100
AcDbVertex
100
AcDbPolygonMeshVertex
 10
1.4375
 20
-2.1875
 30
6.75
 70
    64
  0
VERTEX
  5
4787C
100
AcDbEntity
  8
0
100
AcDbVertex
100
AcDbPolygonMeshVertex
 10
1.4375
 20
-1.0625
 30
6.75
 70
    64
  0
VERTEX
  5
4787D
100
AcDbEntity
  8
0
100
AcDbVertex
100
AcDbPolygonMeshVertex
 10
1.4375
 20
-2.1875
 30
7.0
 70
    64
  0
VERTEX
  5
4787E
100
AcDbEntity
  8
0
100
AcDbVertex
100
AcDbPolygonMeshVertex
 10
1.4375
 20
-2.1875
 30
7.0
 70
    64
  0
VERTEX
  5
4787F
100
AcDbEntity
  8
0
100
AcDbVertex
100
AcDbPolygonMeshVertex
 10
1.4375
 20
-1.0625
 30
7.0
 70
    64
  0
VERTEX
  5
47880
100
AcDbEntity
  8
0
100
AcDbVertex
100
AcDbPolygonMeshVertex
 10
2.5625
 20
-2.1875
 30
7.0
 70
    64
  0
VERTEX
  5
47881
100
AcDbEntity
  8
0
100
AcDbVertex
100
AcDbPolygonMeshVertex
 10
2.5625
 20
-2.1875
 30
7.0
 70
    64
  0
VERTEX
  5
47882
100
AcDbEntity
  8
0
100
AcDbVertex
100
AcDbPolygonMeshVertex
 10
2.5625
 20
-1.0625
 30
7.0
 70
    64
  0
SEQEND
  5
47883
100
AcDbEntity
  8
0
  0
LWPOLYLINE
  5
47884
100
AcDbEntity
  8
0
100
AcDbPolyline
 90
        6
 70
     1
 43
0.0
 38
7.0
 10
1.75
 20
-2.058012
 10
2.25
 20
-2.058013
 10
2.5
 20
-1.625
 10
2.25
 20
-1.191988
 10
1.75
 20
-1.191987
 10
1.5
 20
-1.625
  0
LWPOLYLINE
  5
47885
100
AcDbEntity
  8
0
100
AcDbPolyline
 90
        6
 70
     1
 43
0.0
 38
8.125
 10
1.90625
 20
-0.66238
 10
2.09375
 20
-0.66238
 10
2.1875
 20
-0.5
 10
2.09375
 20
-0.33762
 10
1.90625
 20
-0.33762
 10
1.8125
 20
-0.5
  0
POLYLINE
  5
47886
100
AcDbEntity
  8
0
100
AcDbPolygonMesh
 66
     1
 10
0.0
 20
0.0
 30
0.0
 70
    16
 71
     6
 72
     3
  0
VERTEX
  5
47887
100
AcDbEntity
  8
0
100
AcDbVertex
100
AcDbPolygonMeshVertex
 10
-0.5625
 20
0.0625
 30
8.125
 70
    64
  0
VERTEX
  5
47888
100
AcDbEntity
  8
0
100
AcDbVertex
100
AcDbPolygonMeshVertex
 10
-0.5625
 20
0.0625
 30
6.75
 70
    64
  0
VERTEX
  5
47889
100
AcDbEntity
  8
0
100
AcDbVertex
100
AcDbPolygonMeshVertex
 10
-0.5625
 20
0.0625
 30
6.75
 70
    64
  0
VERTEX
  5
4788A
100
AcDbEntity
  8
0
100
AcDbVertex
100
AcDbPolygonMeshVertex
 10
0.5625
 20
0.0625
 30
8.125
 70
    64
  0
VERTEX
  5
4788B
100
AcDbEntity
  8
0
100
AcDbVertex
100
AcDbPolygonMeshVertex
 10
0.5625
 20
0.0625
 30
6.75
 70
    64
  0
VERTEX
  5
4788C
100
AcDbEntity
  8
0
100
AcDbVertex
100
AcDbPolygonMeshVertex
 10
0.5625
 20
0.0625
 30
6.75
 70
    64
  0
VERTEX
  5
4788D
100
AcDbEntity
  8
0
100
AcDbVertex
100
AcDbPolygonMeshVertex
 10
0.5625
 20
-1.0625
 30
8.125
 70
    64
  0
VERTEX
  5
4788E
100
AcDbEntity
  8
0
100
AcDbVertex
100
AcDbPolygonMeshVertex
 10
0.5625
 20
-1.0625
 30
6.75
 70
    64
  0
VERTEX
  5
4788F
100
AcDbEntity
  8
0
100
AcDbVertex
100
AcDbPolygonMeshVertex
 10
0.5625
 20
0.0625
 30
6.75
 70
    64
  0
VERTEX
  5
47890
100
AcDbEntity
  8
0
100
AcDbVertex
100
AcDbPolygonMeshVertex
 10
-0.5625
 20
-1.0625
 30
8.125
 70
    64
  0
VERTEX
  5
47891
100
AcDbEntity
  8
0
100
AcDbVertex
100
AcDbPolygonMeshVertex
 10
-0.5625
 20
-1.0625
 30
6.75
 70
    64
  0
VERTEX
  5
47892
100
AcDbEntity
  8
0
100
AcDbVertex
100
AcDbPolygonMeshVertex
 10
-0.5625
 20
0.0625
 30
6.75
 70
    64
  0
VERTEX
  5
47893
100
AcDbEntity
  8
0
100
AcDbVertex
100
AcDbPolygonMeshVertex
 10
-0.5625
 20
-1.0625
 30
8.125
 70
    64
  0
VERTEX
  5
47894
100
AcDbEntity
  8
0
100
AcDbVertex
100
AcDbPolygonMeshVertex
 10
-0.5625
 20
-1.0625
 30
8.125
 70
    64
  0
VERTEX
  5
47895
100
AcDbEntity
  8
0
100
AcDbVertex
100
AcDbPolygonMeshVertex
 10
-0.5625
 20
0.0625
 30
8.125
 70
    64
  0
VERTEX
  5
47896
100
AcDbEntity
  8
0
100
AcDbVertex
100
AcDbPolygonMeshVertex
 10
0.5625
 20
-1.0625
 30
8.125
 70
    64
  0
VERTEX
  5
47897
100
AcDbEntity
  8
0
100
AcDbVertex
100
AcDbPolygonMeshVertex
 10
0.5625
 20
-1.0625
 30
8.125
 70
    64
  0
VERTEX
  5
47898
100
AcDbEntity
  8
0
100
AcDbVertex
100
AcDbPolygonMeshVertex
 10
0.5625
 20
0.0625
 30
8.125
 70
    64
  0
SEQEND
  5
47899
100
AcDbEntity
  8
0
  0
CIRCLE
  5
4789A
100
AcDbEntity
  8
0
100
AcDbCircle
 10
0.0
 20
-0.5
 30
8.125
 40
0.4375
  0
LWPOLYLINE
  5
4789B
100
AcDbEntity
  8
0
100
AcDbPolyline
 90
        6
 70
     1
 43
0.0
 38
8.125
 10
-0.09375
 20
-0.66238
 10
0.09375
 20
-0.66238
 10
0.1875
 20
-0.5
 10
0.09375
 20
-0.33762
 10
-0.09375
 20
-0.33762
 10
-0.1875
 20
-0.5
  0
POLYLINE
  5
4789C
100
AcDbEntity
  8
0
100
AcDbPolygonMesh
 66
     1
 10
0.0
 20
0.0
 30
0.0
 70
    16
 71
     6
 72
     3
  0
VERTEX
  5
4789D
100
AcDbEntity
  8
0
100
AcDbVertex
100
AcDbPolygonMeshVertex
 10
-0.5625
 20
-0.8125
 30
6.75
 70
    64
  0
VERTEX
  5
4789E
100
AcDbEntity
  8
0
100
AcDbVertex
100
AcDbPolygonMeshVertex
 10
-0.5625
 20
-0.8125
 30
6.5
 70
    64
  0
VERTEX
  5
4789F
100
AcDbEntity
  8
0
100
AcDbVertex
100
AcDbPolygonMeshVertex
 10
-0.5625
 20
-0.8125
 30
6.5
 70
    64
  0
VERTEX
  5
478A0
100
AcDbEntity
  8
0
100
AcDbVertex
100
AcDbPolygonMeshVertex
 10
0.5625
 20
-0.8125
 30
6.75
 70
    64
  0
VERTEX
  5
478A1
100
AcDbEntity
  8
0
100
AcDbVertex
100
AcDbPolygonMeshVertex
 10
0.5625
 20
-0.8125
 30
6.5
 70
    64
  0
VERTEX
  5
478A2
100
AcDbEntity
  8
0
100
AcDbVertex
100
AcDbPolygonMeshVertex
 10
0.5625
 20
-0.8125
 30
6.5
 70
    64
  0
VERTEX
  5
478A3
100
AcDbEntity
  8
0
100
AcDbVertex
100
AcDbPolygonMeshVertex
 10
0.5625
 20
-1.06
 30
6.75
 70
    64
  0
VERTEX
  5
478A4
100
AcDbEntity
  8
0
100
AcDbVertex
100
AcDbPolygonMeshVertex
 10
0.5625
 20
-1.06
 30
6.5
 70
    64
  0
VERTEX
  5
478A5
100
AcDbEntity
  8
0
100
AcDbVertex
100
AcDbPolygonMeshVertex
 10
0.5625
 20
-0.8125
 30
6.5
 70
    64
  0
VERTEX
  5
478A6
100
AcDbEntity
  8
0
100
AcDbVertex
100
AcDbPolygonMeshVertex
 10
-0.5625
 20
-1.06
 30
6.75
 70
    64
  0
VERTEX
  5
478A7
100
AcDbEntity
  8
0
100
AcDbVertex
100
AcDbPolygonMeshVertex
 10
-0.5625
 20
-1.06
 30
6.5
 70
    64
  0
VERTEX
  5
478A8
100
AcDbEntity
  8
0
100
AcDbVertex
100
AcDbPolygonMeshVertex
 10
-0.5625
 20
-0.8125
 30
6.5
 70
    64
  0
VERTEX
  5
478A9
100
AcDbEntity
  8
0
100
AcDbVertex
100
AcDbPolygonMeshVertex
 10
-0.5625
 20
-1.06
 30
6.75
 70
    64
  0
VERTEX
  5
478AA
100
AcDbEntity
  8
0
100
AcDbVertex
100
AcDbPolygonMeshVertex
 10
-0.5625
 20
-1.06
 30
6.75
 70
    64
  0
VERTEX
  5
478AB
100
AcDbEntity
  8
0
100
AcDbVertex
100
AcDbPolygonMeshVertex
 10
-0.5625
 20
-0.8125
 30
6.75
 70
    64
  0
VERTEX
  5
478AC
100
AcDbEntity
  8
0
100
AcDbVertex
100
AcDbPolygonMeshVertex
 10
0.5625
 20
-1.06
 30
6.75
 70
    64
  0
VERTEX
  5
478AD
100
AcDbEntity
  8
0
100
AcDbVertex
100
AcDbPolygonMeshVertex
 10
0.5625
 20
-1.06
 30
6.75
 70
    64
  0
VERTEX
  5
478AE
100
AcDbEntity
  8
0
100
AcDbVertex
100
AcDbPolygonMeshVertex
 10
0.5625
 20
-0.8125
 30
6.75
 70
    64
  0
SEQEND
  5
478AF
100
AcDbEntity
  8
0
  0
POLYLINE
  5
478B0
100
AcDbEntity
  8
0
100
AcDbPolygonMesh
 66
     1
 10
0.0
 20
0.0
 30
0.0
 70
    16
 71
     6
 72
     3
  0
VERTEX
  5
478B1
100
AcDbEntity
  8
0
100
AcDbVertex
100
AcDbPolygonMeshVertex
 10
-0.5625
 20
-1.0625
 30
7.0
 70
    64
  0
VERTEX
  5
478B2
100
AcDbEntity
  8
0
100
AcDbVertex
100
AcDbPolygonMeshVertex
 10
-0.5625
 20
-1.0625
 30
6.75
 70
    64
  0
VERTEX
  5
478B3
100
AcDbEntity
  8
0
100
AcDbVertex
100
AcDbPolygonMeshVertex
 10
-0.5625
 20
-1.0625
 30
6.75
 70
    64
  0
VERTEX
  5
478B4
100
AcDbEntity
  8
0
100
AcDbVertex
100
AcDbPolygonMeshVertex
 10
0.5625
 20
-1.0625
 30
7.0
 70
    64
  0
VERTEX
  5
478B5
100
AcDbEntity
  8
0
100
AcDbVertex
100
AcDbPolygonMeshVertex
 10
0.5625
 20
-1.0625
 30
6.75
 70
    64
  0
VERTEX
  5
478B6
100
AcDbEntity
  8
0
100
AcDbVertex
100
AcDbPolygonMeshVertex
 10
0.5625
 20
-1.0625
 30
6.75
 70
    64
  0
VERTEX
  5
478B7
100
AcDbEntity
  8
0
100
AcDbVertex
100
AcDbPolygonMeshVertex
 10
0.5625
 20
-2.1875
 30
7.0
 70
    64
  0
VERTEX
  5
478B8
100
AcDbEntity
  8
0
100
AcDbVertex
100
AcDbPolygonMeshVertex
 10
0.5625
 20
-2.1875
 30
6.75
 70
    64
  0
VERTEX
  5
478B9
100
AcDbEntity
  8
0
100
AcDbVertex
100
AcDbPolygonMeshVertex
 10
0.5625
 20
-1.0625
 30
6.75
 70
    64
  0
VERTEX
  5
478BA
100
AcDbEntity
  8
0
100
AcDbVertex
100
AcDbPolygonMeshVertex
 10
-0.5625
 20
-2.1875
 30
7.0
 70
    64
  0
VERTEX
  5
478BB
100
AcDbEntity
  8
0
100
AcDbVertex
100
AcDbPolygonMeshVertex
 10
-0.5625
 20
-2.1875
 30
6.75
 70
    64
  0
VERTEX
  5
478BC
100
AcDbEntity
  8
0
100
AcDbVertex
100
AcDbPolygonMeshVertex
 10
-0.5625
 20
-1.0625
 30
6.75
 70
    64
  0
VERTEX
  5
478BD
100
AcDbEntity
  8
0
100
AcDbVertex
100
AcDbPolygonMeshVertex
 10
-0.5625
 20
-2.1875
 30
7.0
 70
    64
  0
VERTEX
  5
478BE
100
AcDbEntity
  8
0
100
AcDbVertex
100
AcDbPolygonMeshVertex
 10
-0.5625
 20
-2.1875
 30
7.0
 70
    64
  0
VERTEX
  5
478BF
100
AcDbEntity
  8
0
100
AcDbVertex
100
AcDbPolygonMeshVertex
 10
-0.5625
 20
-1.0625
 30
7.0
 70
    64
  0
VERTEX
  5
478C0
100
AcDbEntity
  8
0
100
AcDbVertex
100
AcDbPolygonMeshVertex
 10
0.5625
 20
-2.1875
 30
7.0
 70
    64
  0
VERTEX
  5
478C1
100
AcDbEntity
  8
0
100
AcDbVertex
100
AcDbPolygonMeshVertex
 10
0.5625
 20
-2.1875
 30
7.0
 70
    64
  0
VERTEX
  5
478C2
100
AcDbEntity
  8
0
100
AcDbVertex
100
AcDbPolygonMeshVertex
 10
0.5625
 20
-1.0625
 30
7.0
 70
    64
  0
SEQEND
  5
478C3
100
AcDbEntity
  8
0
  0
LWPOLYLINE
  5
478C4
100
AcDbEntity
  8
0
100
AcDbPolyline
 90
        6
 70
     1
 43
0.0
 38
7.0
 10
-0.25
 20
-2.058012
 10
0.25
 20
-2.058013
 10
0.5
 20
-1.625
 10
0.25
 20
-1.191988
 10
-0.25
 20
-1.191987
 10
-0.5
 20
-1.625
  0
POLYLINE
  5
478C5
100
AcDbEntity
  8
0
100
AcDbPolygonMesh
 66
     1
 10
0.0
 20
0.0
 30
0.0
 70
    16
 71
     6
 72
     3
  0
VERTEX
  5
478C6
100
AcDbEntity
  8
0
100
AcDbVertex
100
AcDbPolygonMeshVertex
 10
-2.5625
 20
0.0625
 30
8.125
 70
    64
  0
VERTEX
  5
478C7
100
AcDbEntity
  8
0
100
AcDbVertex
100
AcDbPolygonMeshVertex
 10
-2.5625
 20
0.0625
 30
6.75
 70
    64
  0
VERTEX
  5
478C8
100
AcDbEntity
  8
0
100
AcDbVertex
100
AcDbPolygonMeshVertex
 10
-2.5625
 20
0.0625
 30
6.75
 70
    64
  0
VERTEX
  5
478C9
100
AcDbEntity
  8
0
100
AcDbVertex
100
AcDbPolygonMeshVertex
 10
-1.4375
 20
0.0625
 30
8.125
 70
    64
  0
VERTEX
  5
478CA
100
AcDbEntity
  8
0
100
AcDbVertex
100
AcDbPolygonMeshVertex
 10
-1.4375
 20
0.0625
 30
6.75
 70
    64
  0
VERTEX
  5
478CB
100
AcDbEntity
  8
0
100
AcDbVertex
100
AcDbPolygonMeshVertex
 10
-1.4375
 20
0.0625
 30
6.75
 70
    64
  0
VERTEX
  5
478CC
100
AcDbEntity
  8
0
100
AcDbVertex
100
AcDbPolygonMeshVertex
 10
-1.4375
 20
-1.0625
 30
8.125
 70
    64
  0
VERTEX
  5
478CD
100
AcDbEntity
  8
0
100
AcDbVertex
100
AcDbPolygonMeshVertex
 10
-1.4375
 20
-1.0625
 30
6.75
 70
    64
  0
VERTEX
  5
478CE
100
AcDbEntity
  8
0
100
AcDbVertex
100
AcDbPolygonMeshVertex
 10
-1.4375
 20
0.0625
 30
6.75
 70
    64
  0
VERTEX
  5
478CF
100
AcDbEntity
  8
0
100
AcDbVertex
100
AcDbPolygonMeshVertex
 10
-2.5625
 20
-1.0625
 30
8.125
 70
    64
  0
VERTEX
  5
478D0
100
AcDbEntity
  8
0
100
AcDbVertex
100
AcDbPolygonMeshVertex
 10
-2.5625
 20
-1.0625
 30
6.75
 70
    64
  0
VERTEX
  5
478D1
100
AcDbEntity
  8
0
100
AcDbVertex
100
AcDbPolygonMeshVertex
 10
-2.5625
 20
0.0625
 30
6.75
 70
    64
  0
VERTEX
  5
478D2
100
AcDbEntity
  8
0
100
AcDbVertex
100
AcDbPolygonMeshVertex
 10
-2.5625
 20
-1.0625
 30
8.125
 70
    64
  0
VERTEX
  5
478D3
100
AcDbEntity
  8
0
100
AcDbVertex
100
AcDbPolygonMeshVertex
 10
-2.5625
 20
-1.0625
 30
8.125
 70
    64
  0
VERTEX
  5
478D4
100
AcDbEntity
  8
0
100
AcDbVertex
100
AcDbPolygonMeshVertex
 10
-2.5625
 20
0.0625
 30
8.125
 70
    64
  0
VERTEX
  5
478D5
100
AcDbEntity
  8
0
100
AcDbVertex
100
AcDbPolygonMeshVertex
 10
-1.4375
 20
-1.0625
 30
8.125
 70
    64
  0
VERTEX
  5
478D6
100
AcDbEntity
  8
0
100
AcDbVertex
100
AcDbPolygonMeshVertex
 10
-1.4375
 20
-1.0625
 30
8.125
 70
    64
  0
VERTEX
  5
478D7
100
AcDbEntity
  8
0
100
AcDbVertex
100
AcDbPolygonMeshVertex
 10
-1.4375
 20
0.0625
 30
8.125
 70
    64
  0
SEQEND
  5
478D8
100
AcDbEntity
  8
0
  0
CIRCLE
  5
478D9
100
AcDbEntity
  8
0
100
AcDbCircle
 10
-2.0
 20
-0.5
 30
8.125
 40
0.4375
  0
LWPOLYLINE
  5
478DA
100
AcDbEntity
  8
0
100
AcDbPolyline
 90
        6
 70
     1
 43
0.0
 38
8.125
 10
-2.09375
 20
-0.66238
 10
-1.90625
 20
-0.66238
 10
-1.8125
 20
-0.5
 10
-1.90625
 20
-0.33762
 10
-2.09375
 20
-0.33762
 10
-2.1875
 20
-0.5
  0
POLYLINE
  5
478DB
100
AcDbEntity
  8
0
100
AcDbPolygonMesh
 66
     1
 10
0.0
 20
0.0
 30
0.0
 70
    16
 71
     6
 72
     3
  0
VERTEX
  5
478DC
100
AcDbEntity
  8
0
100
AcDbVertex
100
AcDbPolygonMeshVertex
 10
-2.5625
 20
-0.8125
 30
6.75
 70
    64
  0
VERTEX
  5
478DD
100
AcDbEntity
  8
0
100
AcDbVertex
100
AcDbPolygonMeshVertex
 10
-2.5625
 20
-0.8125
 30
6.5
 70
    64
  0
VERTEX
  5
478DE
100
AcDbEntity
  8
0
100
AcDbVertex
100
AcDbPolygonMeshVertex
 10
-2.5625
 20
-0.8125
 30
6.5
 70
    64
  0
VERTEX
  5
478DF
100
AcDbEntity
  8
0
100
AcDbVertex
100
AcDbPolygonMeshVertex
 10
-1.4375
 20
-0.8125
 30
6.75
 70
    64
  0
VERTEX
  5
478E0
100
AcDbEntity
  8
0
100
AcDbVertex
100
AcDbPolygonMeshVertex
 10
-1.4375
 20
-0.8125
 30
6.5
 70
    64
  0
VERTEX
  5
478E1
100
AcDbEntity
  8
0
100
AcDbVertex
100
AcDbPolygonMeshVertex
 10
-1.4375
 20
-0.8125
 30
6.5
 70
    64
  0
VERTEX
  5
478E2
100
AcDbEntity
  8
0
100
AcDbVertex
100
AcDbPolygonMeshVertex
 10
-1.4375
 20
-1.06
 30
6.75
 70
    64
  0
VERTEX
  5
478E3
100
AcDbEntity
  8
0
100
AcDbVertex
100
AcDbPolygonMeshVertex
 10
-1.4375
 20
-1.06
 30
6.5
 70
    64
  0
VERTEX
  5
478E4
100
AcDbEntity
  8
0
100
AcDbVertex
100
AcDbPolygonMeshVertex
 10
-1.4375
 20
-0.8125
 30
6.5
 70
    64
  0
VERTEX
  5
478E5
100
AcDbEntity
  8
0
100
AcDbVertex
100
AcDbPolygonMeshVertex
 10
-2.5625
 20
-1.06
 30
6.75
 70
    64
  0
VERTEX
  5
478E6
100
AcDbEntity
  8
0
100
AcDbVertex
100
AcDbPolygonMeshVertex
 10
-2.5625
 20
-1.06
 30
6.5
 70
    64
  0
VERTEX
  5
478E7
100
AcDbEntity
  8
0
100
AcDbVertex
100
AcDbPolygonMeshVertex
 10
-2.5625
 20
-0.8125
 30
6.5
 70
    64
  0
VERTEX
  5
478E8
100
AcDbEntity
  8
0
100
AcDbVertex
100
AcDbPolygonMeshVertex
 10
-2.5625
 20
-1.06
 30
6.75
 70
    64
  0
VERTEX
  5
478E9
100
AcDbEntity
  8
0
100
AcDbVertex
100
AcDbPolygonMeshVertex
 10
-2.5625
 20
-1.06
 30
6.75
 70
    64
  0
VERTEX
  5
478EA
100
AcDbEntity
  8
0
100
AcDbVertex
100
AcDbPolygonMeshVertex
 10
-2.5625
 20
-0.8125
 30
6.75
 70
    64
  0
VERTEX
  5
478EB
100
AcDbEntity
  8
0
100
AcDbVertex
100
AcDbPolygonMeshVertex
 10
-1.4375
 20
-1.06
 30
6.75
 70
    64
  0
VERTEX
  5
478EC
100
AcDbEntity
  8
0
100
AcDbVertex
100
AcDbPolygonMeshVertex
 10
-1.4375
 20
-1.06
 30
6.75
 70
    64
  0
VERTEX
  5
478ED
100
AcDbEntity
  8
0
100
AcDbVertex
100
AcDbPolygonMeshVertex
 10
-1.4375
 20
-0.8125
 30
6.75
 70
    64
  0
SEQEND
  5
478EE
100
AcDbEntity
  8
0
  0
POLYLINE
  5
478EF
100
AcDbEntity
  8
0
100
AcDbPolygonMesh
 66
     1
 10
0.0
 20
0.0
 30
0.0
 70
    16
 71
     6
 72
     3
  0
VERTEX
  5
478F0
100
AcDbEntity
  8
0
100
AcDbVertex
100
AcDbPolygonMeshVertex
 10
-2.5625
 20
-1.0625
 30
7.0
 70
    64
  0
VERTEX
  5
478F1
100
AcDbEntity
  8
0
100
AcDbVertex
100
AcDbPolygonMeshVertex
 10
-2.5625
 20
-1.0625
 30
6.75
 70
    64
  0
VERTEX
  5
478F2
100
AcDbEntity
  8
0
100
AcDbVertex
100
AcDbPolygonMeshVertex
 10
-2.5625
 20
-1.0625
 30
6.75
 70
    64
  0
VERTEX
  5
478F3
100
AcDbEntity
  8
0
100
AcDbVertex
100
AcDbPolygonMeshVertex
 10
-1.4375
 20
-1.0625
 30
7.0
 70
    64
  0
VERTEX
  5
478F4
100
AcDbEntity
  8
0
100
AcDbVertex
100
AcDbPolygonMeshVertex
 10
-1.4375
 20
-1.0625
 30
6.75
 70
    64
  0
VERTEX
  5
478F5
100
AcDbEntity
  8
0
100
AcDbVertex
100
AcDbPolygonMeshVertex
 10
-1.4375
 20
-1.0625
 30
6.75
 70
    64
  0
VERTEX
  5
478F6
100
AcDbEntity
  8
0
100
AcDbVertex
100
AcDbPolygonMeshVertex
 10
-1.4375
 20
-2.1875
 30
7.0
 70
    64
  0
VERTEX
  5
478F7
100
AcDbEntity
  8
0
100
AcDbVertex
100
AcDbPolygonMeshVertex
 10
-1.4375
 20
-2.1875
 30
6.75
 70
    64
  0
VERTEX
  5
478F8
100
AcDbEntity
  8
0
100
AcDbVertex
100
AcDbPolygonMeshVertex
 10
-1.4375
 20
-1.0625
 30
6.75
 70
    64
  0
VERTEX
  5
478F9
100
AcDbEntity
  8
0
100
AcDbVertex
100
AcDbPolygonMeshVertex
 10
-2.5625
 20
-2.1875
 30
7.0
 70
    64
  0
VERTEX
  5
478FA
100
AcDbEntity
  8
0
100
AcDbVertex
100
AcDbPolygonMeshVertex
 10
-2.5625
 20
-2.1875
 30
6.75
 70
    64
  0
VERTEX
  5
478FB
100
AcDbEntity
  8
0
100
AcDbVertex
100
AcDbPolygonMeshVertex
 10
-2.5625
 20
-1.0625
 30
6.75
 70
    64
  0
VERTEX
  5
478FC
100
AcDbEntity
  8
0
100
AcDbVertex
100
AcDbPolygonMeshVertex
 10
-2.5625
 20
-2.1875
 30
7.0
 70
    64
  0
VERTEX
  5
478FD
100
AcDbEntity
  8
0
100
AcDbVertex
100
AcDbPolygonMeshVertex
 10
-2.5625
 20
-2.1875
 30
7.0
 70
    64
  0
VERTEX
  5
478FE
100
AcDbEntity
  8
0
100
AcDbVertex
100
AcDbPolygonMeshVertex
 10
-2.5625
 20
-1.0625
 30
7.0
 70
    64
  0
VERTEX
  5
478FF
100
AcDbEntity
  8
0
100
AcDbVertex
100
AcDbPolygonMeshVertex
 10
-1.4375
 20
-2.1875
 30
7.0
 70
    64
  0
VERTEX
  5
47900
100
AcDbEntity
  8
0
100
AcDbVertex
100
AcDbPolygonMeshVertex
 10
-1.4375
 20
-2.1875
 30
7.0
 70
    64
  0
VERTEX
  5
47901
100
AcDbEntity
  8
0
100
AcDbVertex
100
AcDbPolygonMeshVertex
 10
-1.4375
 20
-1.0625
 30
7.0
 70
    64
  0
SEQEND
  5
47902
100
AcDbEntity
  8
0
  0
LWPOLYLINE
  5
47903
100
AcDbEntity
  8
0
100
AcDbPolyline
 90
        6
 70
     1
 43
0.0
 38
7.0
 10
-2.25
 20
-2.058012
 10
-1.75
 20
-2.058013
 10
-1.5
 20
-1.625
 10
-1.75
 20
-1.191988
 10
-2.25
 20
-1.191987
 10
-2.5
 20
-1.625
  0
POLYLINE
  5
47904
100
AcDbEntity
  8
0
100
AcDbPolygonMesh
 66
     1
 10
0.0
 20
0.0
 30
0.0
 70
    16
 71
     6
 72
     3
  0
VERTEX
  5
47905
100
AcDbEntity
  8
0
100
AcDbVertex
100
AcDbPolygonMeshVertex
 10
-2.565
 20
1.19
 30
4.375
 70
    64
  0
VERTEX
  5
47906
100
AcDbEntity
  8
0
100
AcDbVertex
100
AcDbPolygonMeshVertex
 10
-2.565
 20
1.19
 30
3.0
 70
    64
  0
VERTEX
  5
47907
100
AcDbEntity
  8
0
100
AcDbVertex
100
AcDbPolygonMeshVertex
 10
-2.565
 20
1.19
 30
3.0
 70
    64
  0
VERTEX
  5
47908
100
AcDbEntity
  8
0
100
AcDbVertex
100
AcDbPolygonMeshVertex
 10
-1.44
 20
1.19
 30
4.375
 70
    64
  0
VERTEX
  5
47909
100
AcDbEntity
  8
0
100
AcDbVertex
100
AcDbPolygonMeshVertex
 10
-1.44
 20
1.19
 30
3.0
 70
    64
  0
VERTEX
  5
4790A
100
AcDbEntity
  8
0
100
AcDbVertex
100
AcDbPolygonMeshVertex
 10
-1.44
 20
1.19
 30
3.0
 70
    64
  0
VERTEX
  5
4790B
100
AcDbEntity
  8
0
100
AcDbVertex
100
AcDbPolygonMeshVertex
 10
-1.44
 20
0.065
 30
4.375
 70
    64
  0
VERTEX
  5
4790C
100
AcDbEntity
  8
0
100
AcDbVertex
100
AcDbPolygonMeshVertex
 10
-1.44
 20
0.065
 30
3.0
 70
    64
  0
VERTEX
  5
4790D
100
AcDbEntity
  8
0
100
AcDbVertex
100
AcDbPolygonMeshVertex
 10
-1.44
 20
1.19
 30
3.0
 70
    64
  0
VERTEX
  5
4790E
100
AcDbEntity
  8
0
100
AcDbVertex
100
AcDbPolygonMeshVertex
 10
-2.565
 20
0.065
 30
4.375
 70
    64
  0
VERTEX
  5
4790F
100
AcDbEntity
  8
0
100
AcDbVertex
100
AcDbPolygonMeshVertex
 10
-2.565
 20
0.065
 30
3.0
 70
    64
  0
VERTEX
  5
47910
100
AcDbEntity
  8
0
100
AcDbVertex
100
AcDbPolygonMeshVertex
 10
-2.565
 20
1.19
 30
3.0
 70
    64
  0
VERTEX
  5
47911
100
AcDbEntity
  8
0
100
AcDbVertex
100
AcDbPolygonMeshVertex
 10
-2.565
 20
0.065
 30
4.375
 70
    64
  0
VERTEX
  5
47912
100
AcDbEntity
  8
0
100
AcDbVertex
100
AcDbPolygonMeshVertex
 10
-2.565
 20
0.065
 30
4.375
 70
    64
  0
VERTEX
  5
47913
100
AcDbEntity
  8
0
100
AcDbVertex
100
AcDbPolygonMeshVertex
 10
-2.565
 20
1.19
 30
4.375
 70
    64
  0
VERTEX
  5
47914
100
AcDbEntity
  8
0
100
AcDbVertex
100
AcDbPolygonMeshVertex
 10
-1.44
 20
0.065
 30
4.375
 70
    64
  0
VERTEX
  5
47915
100
AcDbEntity
  8
0
100
AcDbVertex
100
AcDbPolygonMeshVertex
 10
-1.44
 20
0.065
 30
4.375
 70
    64
  0
VERTEX
  5
47916
100
AcDbEntity
  8
0
100
AcDbVertex
100
AcDbPolygonMeshVertex
 10
-1.44
 20
1.19
 30
4.375
 70
    64
  0
SEQEND
  5
47917
100
AcDbEntity
  8
0
  0
CIRCLE
  5
47918
100
AcDbEntity
  8
0
100
AcDbCircle
 10
-2.0025
 20
0.6275
 30
4.375
 40
0.4375
  0
POLYLINE
  5
47919
100
AcDbEntity
  8
0
100
AcDbPolygonMesh
 66
     1
 10
0.0
 20
0.0
 30
0.0
 70
    16
 71
     6
 72
     3
  0
VERTEX
  5
4791A
100
AcDbEntity
  8
0
100
AcDbVertex
100
AcDbPolygonMeshVertex
 10
-2.565
 20
0.315
 30
3.0
 70
    64
  0
VERTEX
  5
4791B
100
AcDbEntity
  8
0
100
AcDbVertex
100
AcDbPolygonMeshVertex
 10
-2.565
 20
0.315
 30
2.75
 70
    64
  0
VERTEX
  5
4791C
100
AcDbEntity
  8
0
100
AcDbVertex
100
AcDbPolygonMeshVertex
 10
-2.565
 20
0.315
 30
2.75
 70
    64
  0
VERTEX
  5
4791D
100
AcDbEntity
  8
0
100
AcDbVertex
100
AcDbPolygonMeshVertex
 10
-1.44
 20
0.315
 30
3.0
 70
    64
  0
VERTEX
  5
4791E
100
AcDbEntity
  8
0
100
AcDbVertex
100
AcDbPolygonMeshVertex
 10
-1.44
 20
0.315
 30
2.75
 70
    64
  0
VERTEX
  5
4791F
100
AcDbEntity
  8
0
100
AcDbVertex
100
AcDbPolygonMeshVertex
 10
-1.44
 20
0.315
 30
2.75
 70
    64
  0
VERTEX
  5
47920
100
AcDbEntity
  8
0
100
AcDbVertex
100
AcDbPolygonMeshVertex
 10
-1.44
 20
0.0675
 30
3.0
 70
    64
  0
VERTEX
  5
47921
100
AcDbEntity
  8
0
100
AcDbVertex
100
AcDbPolygonMeshVertex
 10
-1.44
 20
0.0675
 30
2.75
 70
    64
  0
VERTEX
  5
47922
100
AcDbEntity
  8
0
100
AcDbVertex
100
AcDbPolygonMeshVertex
 10
-1.44
 20
0.315
 30
2.75
 70
    64
  0
VERTEX
  5
47923
100
AcDbEntity
  8
0
100
AcDbVertex
100
AcDbPolygonMeshVertex
 10
-2.565
 20
0.0675
 30
3.0
 70
    64
  0
VERTEX
  5
47924
100
AcDbEntity
  8
0
100
AcDbVertex
100
AcDbPolygonMeshVertex
 10
-2.565
 20
0.0675
 30
2.75
 70
    64
  0
VERTEX
  5
47925
100
AcDbEntity
  8
0
100
AcDbVertex
100
AcDbPolygonMeshVertex
 10
-2.565
 20
0.315
 30
2.75
 70
    64
  0
VERTEX
  5
47926
100
AcDbEntity
  8
0
100
AcDbVertex
100
AcDbPolygonMeshVertex
 10
-2.565
 20
0.0675
 30
3.0
 70
    64
  0
VERTEX
  5
47927
100
AcDbEntity
  8
0
100
AcDbVertex
100
AcDbPolygonMeshVertex
 10
-2.565
 20
0.0675
 30
3.0
 70
    64
  0
VERTEX
  5
47928
100
AcDbEntity
  8
0
100
AcDbVertex
100
AcDbPolygonMeshVertex
 10
-2.565
 20
0.315
 30
3.0
 70
    64
  0
VERTEX
  5
47929
100
AcDbEntity
  8
0
100
AcDbVertex
100
AcDbPolygonMeshVertex
 10
-1.44
 20
0.0675
 30
3.0
 70
    64
  0
VERTEX
  5
4792A
100
AcDbEntity
  8
0
100
AcDbVertex
100
AcDbPolygonMeshVertex
 10
-1.44
 20
0.0675
 30
3.0
 70
    64
  0
VERTEX
  5
4792B
100
AcDbEntity
  8
0
100
AcDbVertex
100
AcDbPolygonMeshVertex
 10
-1.44
 20
0.315
 30
3.0
 70
    64
  0
SEQEND
  5
4792C
100
AcDbEntity
  8
0
  0
POLYLINE
  5
4792D
100
AcDbEntity
  8
0
100
AcDbPolygonMesh
 66
     1
 10
0.0
 20
0.0
 30
0.0
 70
    16
 71
     6
 72
     3
  0
VERTEX
  5
4792E
100
AcDbEntity
  8
0
100
AcDbVertex
100
AcDbPolygonMeshVertex
 10
-2.565
 20
0.065
 30
3.25
 70
    64
  0
VERTEX
  5
4792F
100
AcDbEntity
  8
0
100
AcDbVertex
100
AcDbPolygonMeshVertex
 10
-2.565
 20
0.065
 30
3.0
 70
    64
  0
VERTEX
  5
47930
100
AcDbEntity
  8
0
100
AcDbVertex
100
AcDbPolygonMeshVertex
 10
-2.565
 20
0.065
 30
3.0
 70
    64
  0
VERTEX
  5
47931
100
AcDbEntity
  8
0
100
AcDbVertex
100
AcDbPolygonMeshVertex
 10
-1.44
 20
0.065
 30
3.25
 70
    64
  0
VERTEX
  5
47932
100
AcDbEntity
  8
0
100
AcDbVertex
100
AcDbPolygonMeshVertex
 10
-1.44
 20
0.065
 30
3.0
 70
    64
  0
VERTEX
  5
47933
100
AcDbEntity
  8
0
100
AcDbVertex
100
AcDbPolygonMeshVertex
 10
-1.44
 20
0.065
 30
3.0
 70
    64
  0
VERTEX
  5
47934
100
AcDbEntity
  8
0
100
AcDbVertex
100
AcDbPolygonMeshVertex
 10
-1.44
 20
-1.06
 30
3.25
 70
    64
  0
VERTEX
  5
47935
100
AcDbEntity
  8
0
100
AcDbVertex
100
AcDbPolygonMeshVertex
 10
-1.44
 20
-1.06
 30
3.0
 70
    64
  0
VERTEX
  5
47936
100
AcDbEntity
  8
0
100
AcDbVertex
100
AcDbPolygonMeshVertex
 10
-1.44
 20
0.065
 30
3.0
 70
    64
  0
VERTEX
  5
47937
100
AcDbEntity
  8
0
100
AcDbVertex
100
AcDbPolygonMeshVertex
 10
-2.565
 20
-1.06
 30
3.25
 70
    64
  0
VERTEX
  5
47938
100
AcDbEntity
  8
0
100
AcDbVertex
100
AcDbPolygonMeshVertex
 10
-2.565
 20
-1.06
 30
3.0
 70
    64
  0
VERTEX
  5
47939
100
AcDbEntity
  8
0
100
AcDbVertex
100
AcDbPolygonMeshVertex
 10
-2.565
 20
0.065
 30
3.0
 70
    64
  0
VERTEX
  5
4793A
100
AcDbEntity
  8
0
100
AcDbVertex
100
AcDbPolygonMeshVertex
 10
-2.565
 20
-1.06
 30
3.25
 70
    64
  0
VERTEX
  5
4793B
100
AcDbEntity
  8
0
100
AcDbVertex
100
AcDbPolygonMeshVertex
 10
-2.565
 20
-1.06
 30
3.25
 70
    64
  0
VERTEX
  5
4793C
100
AcDbEntity
  8
0
100
AcDbVertex
100
AcDbPolygonMeshVertex
 10
-2.565
 20
0.065
 30
3.25
 70
    64
  0
VERTEX
  5
4793D
100
AcDbEntity
  8
0
100
AcDbVertex
100
AcDbPolygonMeshVertex
 10
-1.44
 20
-1.06
 30
3.25
 70
    64
  0
VERTEX
  5
4793E
100
AcDbEntity
  8
0
100
AcDbVertex
100
AcDbPolygonMeshVertex
 10
-1.44
 20
-1.06
 30
3.25
 70
    64
  0
VERTEX
  5
4793F
100
AcDbEntity
  8
0
100
AcDbVertex
100
AcDbPolygonMeshVertex
 10
-1.44
 20
0.065
 30
3.25
 70
    64
  0
SEQEND
  5
47940
100
AcDbEntity
  8
0
  0
LWPOLYLINE
  5
47941
100
AcDbEntity
  8
0
100
AcDbPolyline
 90
        6
 70
     1
 43
0.0
 38
3.25
 10
-2.2525
 20
-0.930512
 10
-1.7525
 20
-0.930513
 10
-1.5025
 20
-0.4975
 10
-1.7525
 20
-0.064488
 10
-2.2525
 20
-0.064487
 10
-2.5025
 20
-0.4975
  0
CIRCLE
  5
47942
100
AcDbEntity
  8
0
100
AcDbCircle
 10
-2.0025
 20
-0.4975
 30
3.25
 40
0.1875
  0
POLYLINE
  5
47943
100
AcDbEntity
  8
0
100
AcDbPolygonMesh
 66
     1
 10
0.0
 20
0.0
 30
0.0
 70
    16
 71
     6
 72
     3
  0
VERTEX
  5
47944
100
AcDbEntity
  8
0
100
AcDbVertex
100
AcDbPolygonMeshVertex
 10
-0.565
 20
1.19
 30
4.375
 70
    64
  0
VERTEX
  5
47945
100
AcDbEntity
  8
0
100
AcDbVertex
100
AcDbPolygonMeshVertex
 10
-0.565
 20
1.19
 30
3.0
 70
    64
  0
VERTEX
  5
47946
100
AcDbEntity
  8
0
100
AcDbVertex
100
AcDbPolygonMeshVertex
 10
-0.565
 20
1.19
 30
3.0
 70
    64
  0
VERTEX
  5
47947
100
AcDbEntity
  8
0
100
AcDbVertex
100
AcDbPolygonMeshVertex
 10
0.56
 20
1.19
 30
4.375
 70
    64
  0
VERTEX
  5
47948
100
AcDbEntity
  8
0
100
AcDbVertex
100
AcDbPolygonMeshVertex
 10
0.56
 20
1.19
 30
3.0
 70
    64
  0
VERTEX
  5
47949
100
AcDbEntity
  8
0
100
AcDbVertex
100
AcDbPolygonMeshVertex
 10
0.56
 20
1.19
 30
3.0
 70
    64
  0
VERTEX
  5
4794A
100
AcDbEntity
  8
0
100
AcDbVertex
100
AcDbPolygonMeshVertex
 10
0.56
 20
0.065
 30
4.375
 70
    64
  0
VERTEX
  5
4794B
100
AcDbEntity
  8
0
100
AcDbVertex
100
AcDbPolygonMeshVertex
 10
0.56
 20
0.065
 30
3.0
 70
    64
  0
VERTEX
  5
4794C
100
AcDbEntity
  8
0
100
AcDbVertex
100
AcDbPolygonMeshVertex
 10
0.56
 20
1.19
 30
3.0
 70
    64
  0
VERTEX
  5
4794D
100
AcDbEntity
  8
0
100
AcDbVertex
100
AcDbPolygonMeshVertex
 10
-0.565
 20
0.065
 30
4.375
 70
    64
  0
VERTEX
  5
4794E
100
AcDbEntity
  8
0
100
AcDbVertex
100
AcDbPolygonMeshVertex
 10
-0.565
 20
0.065
 30
3.0
 70
    64
  0
VERTEX
  5
4794F
100
AcDbEntity
  8
0
100
AcDbVertex
100
AcDbPolygonMeshVertex
 10
-0.565
 20
1.19
 30
3.0
 70
    64
  0
VERTEX
  5
47950
100
AcDbEntity
  8
0
100
AcDbVertex
100
AcDbPolygonMeshVertex
 10
-0.565
 20
0.065
 30
4.375
 70
    64
  0
VERTEX
  5
47951
100
AcDbEntity
  8
0
100
AcDbVertex
100
AcDbPolygonMeshVertex
 10
-0.565
 20
0.065
 30
4.375
 70
    64
  0
VERTEX
  5
47952
100
AcDbEntity
  8
0
100
AcDbVertex
100
AcDbPolygonMeshVertex
 10
-0.565
 20
1.19
 30
4.375
 70
    64
  0
VERTEX
  5
47953
100
AcDbEntity
  8
0
100
AcDbVertex
100
AcDbPolygonMeshVertex
 10
0.56
 20
0.065
 30
4.375
 70
    64
  0
VERTEX
  5
47954
100
AcDbEntity
  8
0
100
AcDbVertex
100
AcDbPolygonMeshVertex
 10
0.56
 20
0.065
 30
4.375
 70
    64
  0
VERTEX
  5
47955
100
AcDbEntity
  8
0
100
AcDbVertex
100
AcDbPolygonMeshVertex
 10
0.56
 20
1.19
 30
4.375
 70
    64
  0
SEQEND
  5
47956
100
AcDbEntity
  8
0
  0
CIRCLE
  5
47957
100
AcDbEntity
  8
0
100
AcDbCircle
 10
-0.0025
 20
0.6275
 30
4.375
 40
0.4375
  0
POLYLINE
  5
47958
100
AcDbEntity
  8
0
100
AcDbPolygonMesh
 66
     1
 10
0.0
 20
0.0
 30
0.0
 70
    16
 71
     6
 72
     3
  0
VERTEX
  5
47959
100
AcDbEntity
  8
0
100
AcDbVertex
100
AcDbPolygonMeshVertex
 10
-0.565
 20
0.315
 30
3.0
 70
    64
  0
VERTEX
  5
4795A
100
AcDbEntity
  8
0
100
AcDbVertex
100
AcDbPolygonMeshVertex
 10
-0.565
 20
0.315
 30
2.75
 70
    64
  0
VERTEX
  5
4795B
100
AcDbEntity
  8
0
100
AcDbVertex
100
AcDbPolygonMeshVertex
 10
-0.565
 20
0.315
 30
2.75
 70
    64
  0
VERTEX
  5
4795C
100
AcDbEntity
  8
0
100
AcDbVertex
100
AcDbPolygonMeshVertex
 10
0.56
 20
0.315
 30
3.0
 70
    64
  0
VERTEX
  5
4795D
100
AcDbEntity
  8
0
100
AcDbVertex
100
AcDbPolygonMeshVertex
 10
0.56
 20
0.315
 30
2.75
 70
    64
  0
VERTEX
  5
4795E
100
AcDbEntity
  8
0
100
AcDbVertex
100
AcDbPolygonMeshVertex
 10
0.56
 20
0.315
 30
2.75
 70
    64
  0
VERTEX
  5
4795F
100
AcDbEntity
  8
0
100
AcDbVertex
100
AcDbPolygonMeshVertex
 10
0.56
 20
0.0675
 30
3.0
 70
    64
  0
VERTEX
  5
47960
100
AcDbEntity
  8
0
100
AcDbVertex
100
AcDbPolygonMeshVertex
 10
0.56
 20
0.0675
 30
2.75
 70
    64
  0
VERTEX
  5
47961
100
AcDbEntity
  8
0
100
AcDbVertex
100
AcDbPolygonMeshVertex
 10
0.56
 20
0.315
 30
2.75
 70
    64
  0
VERTEX
  5
47962
100
AcDbEntity
  8
0
100
AcDbVertex
100
AcDbPolygonMeshVertex
 10
-0.565
 20
0.0675
 30
3.0
 70
    64
  0
VERTEX
  5
47963
100
AcDbEntity
  8
0
100
AcDbVertex
100
AcDbPolygonMeshVertex
 10
-0.565
 20
0.0675
 30
2.75
 70
    64
  0
VERTEX
  5
47964
100
AcDbEntity
  8
0
100
AcDbVertex
100
AcDbPolygonMeshVertex
 10
-0.565
 20
0.315
 30
2.75
 70
    64
  0
VERTEX
  5
47965
100
AcDbEntity
  8
0
100
AcDbVertex
100
AcDbPolygonMeshVertex
 10
-0.565
 20
0.0675
 30
3.0
 70
    64
  0
VERTEX
  5
47966
100
AcDbEntity
  8
0
100
AcDbVertex
100
AcDbPolygonMeshVertex
 10
-0.565
 20
0.0675
 30
3.0
 70
    64
  0
VERTEX
  5
47967
100
AcDbEntity
  8
0
100
AcDbVertex
100
AcDbPolygonMeshVertex
 10
-0.565
 20
0.315
 30
3.0
 70
    64
  0
VERTEX
  5
47968
100
AcDbEntity
  8
0
100
AcDbVertex
100
AcDbPolygonMeshVertex
 10
0.56
 20
0.0675
 30
3.0
 70
    64
  0
VERTEX
  5
47969
100
AcDbEntity
  8
0
100
AcDbVertex
100
AcDbPolygonMeshVertex
 10
0.56
 20
0.0675
 30
3.0
 70
    64
  0
VERTEX
  5
4796A
100
AcDbEntity
  8
0
100
AcDbVertex
100
AcDbPolygonMeshVertex
 10
0.56
 20
0.315
 30
3.0
 70
    64
  0
SEQEND
  5
4796B
100
AcDbEntity
  8
0
  0
POLYLINE
  5
4796C
100
AcDbEntity
  8
0
100
AcDbPolygonMesh
 66
     1
 10
0.0
 20
0.0
 30
0.0
 70
    16
 71
     6
 72
     3
  0
VERTEX
  5
4796D
100
AcDbEntity
  8
0
100
AcDbVertex
100
AcDbPolygonMeshVertex
 10
-0.565
 20
0.065
 30
3.25
 70
    64
  0
VERTEX
  5
4796E
100
AcDbEntity
  8
0
100
AcDbVertex
100
AcDbPolygonMeshVertex
 10
-0.565
 20
0.065
 30
3.0
 70
    64
  0
VERTEX
  5
4796F
100
AcDbEntity
  8
0
100
AcDbVertex
100
AcDbPolygonMeshVertex
 10
-0.565
 20
0.065
 30
3.0
 70
    64
  0
VERTEX
  5
47970
100
AcDbEntity
  8
0
100
AcDbVertex
100
AcDbPolygonMeshVertex
 10
0.56
 20
0.065
 30
3.25
 70
    64
  0
VERTEX
  5
47971
100
AcDbEntity
  8
0
100
AcDbVertex
100
AcDbPolygonMeshVertex
 10
0.56
 20
0.065
 30
3.0
 70
    64
  0
VERTEX
  5
47972
100
AcDbEntity
  8
0
100
AcDbVertex
100
AcDbPolygonMeshVertex
 10
0.56
 20
0.065
 30
3.0
 70
    64
  0
VERTEX
  5
47973
100
AcDbEntity
  8
0
100
AcDbVertex
100
AcDbPolygonMeshVertex
 10
0.56
 20
-1.06
 30
3.25
 70
    64
  0
VERTEX
  5
47974
100
AcDbEntity
  8
0
100
AcDbVertex
100
AcDbPolygonMeshVertex
 10
0.56
 20
-1.06
 30
3.0
 70
    64
  0
VERTEX
  5
47975
100
AcDbEntity
  8
0
100
AcDbVertex
100
AcDbPolygonMeshVertex
 10
0.56
 20
0.065
 30
3.0
 70
    64
  0
VERTEX
  5
47976
100
AcDbEntity
  8
0
100
AcDbVertex
100
AcDbPolygonMeshVertex
 10
-0.565
 20
-1.06
 30
3.25
 70
    64
  0
VERTEX
  5
47977
100
AcDbEntity
  8
0
100
AcDbVertex
100
AcDbPolygonMeshVertex
 10
-0.565
 20
-1.06
 30
3.0
 70
    64
  0
VERTEX
  5
47978
100
AcDbEntity
  8
0
100
AcDbVertex
100
AcDbPolygonMeshVertex
 10
-0.565
 20
0.065
 30
3.0
 70
    64
  0
VERTEX
  5
47979
100
AcDbEntity
  8
0
100
AcDbVertex
100
AcDbPolygonMeshVertex
 10
-0.565
 20
-1.06
 30
3.25
 70
    64
  0
VERTEX
  5
4797A
100
AcDbEntity
  8
0
100
AcDbVertex
100
AcDbPolygonMeshVertex
 10
-0.565
 20
-1.06
 30
3.25
 70
    64
  0
VERTEX
  5
4797B
100
AcDbEntity
  8
0
100
AcDbVertex
100
AcDbPolygonMeshVertex
 10
-0.565
 20
0.065
 30
3.25
 70
    64
  0
VERTEX
  5
4797C
100
AcDbEntity
  8
0
100
AcDbVertex
100
AcDbPolygonMeshVertex
 10
0.56
 20
-1.06
 30
3.25
 70
    64
  0
VERTEX
  5
4797D
100
AcDbEntity
  8
0
100
AcDbVertex
100
AcDbPolygonMeshVertex
 10
0.56
 20
-1.06
 30
3.25
 70
    64
  0
VERTEX
  5
4797E
100
AcDbEntity
  8
0
100
AcDbVertex
100
AcDbPolygonMeshVertex
 10
0.56
 20
0.065
 30
3.25
 70
    64
  0
SEQEND
  5
4797F
100
AcDbEntity
  8
0
  0
LWPOLYLINE
  5
47980
100
AcDbEntity
  8
0
100
AcDbPolyline
 90
        6
 70
     1
 43
0.0
 38
3.25
 10
-0.2525
 20
-0.930512
 10
0.2475
 20
-0.930513
 10
0.4975
 20
-0.4975
 10
0.2475
 20
-0.064488
 10
-0.2525
 20
-0.064487
 10
-0.5025
 20
-0.4975
  0
CIRCLE
  5
47981
100
AcDbEntity
  8
0
100
AcDbCircle
 10
-0.0025
 20
-0.4975
 30
3.25
 40
0.1875
  0
POLYLINE
  5
47982
100
AcDbEntity
  8
0
100
AcDbPolygonMesh
 66
     1
 10
0.0
 20
0.0
 30
0.0
 70
    16
 71
     6
 72
     3
  0
VERTEX
  5
47983
100
AcDbEntity
  8
0
100
AcDbVertex
100
AcDbPolygonMeshVertex
 10
1.435
 20
1.19
 30
4.375
 70
    64
  0
VERTEX
  5
47984
100
AcDbEntity
  8
0
100
AcDbVertex
100
AcDbPolygonMeshVertex
 10
1.435
 20
1.19
 30
3.0
 70
    64
  0
VERTEX
  5
47985
100
AcDbEntity
  8
0
100
AcDbVertex
100
AcDbPolygonMeshVertex
 10
1.435
 20
1.19
 30
3.0
 70
    64
  0
VERTEX
  5
47986
100
AcDbEntity
  8
0
100
AcDbVertex
100
AcDbPolygonMeshVertex
 10
2.56
 20
1.19
 30
4.375
 70
    64
  0
VERTEX
  5
47987
100
AcDbEntity
  8
0
100
AcDbVertex
100
AcDbPolygonMeshVertex
 10
2.56
 20
1.19
 30
3.0
 70
    64
  0
VERTEX
  5
47988
100
AcDbEntity
  8
0
100
AcDbVertex
100
AcDbPolygonMeshVertex
 10
2.56
 20
1.19
 30
3.0
 70
    64
  0
VERTEX
  5
47989
100
AcDbEntity
  8
0
100
AcDbVertex
100
AcDbPolygonMeshVertex
 10
2.56
 20
0.065
 30
4.375
 70
    64
  0
VERTEX
  5
4798A
100
AcDbEntity
  8
0
100
AcDbVertex
100
AcDbPolygonMeshVertex
 10
2.56
 20
0.065
 30
3.0
 70
    64
  0
VERTEX
  5
4798B
100
AcDbEntity
  8
0
100
AcDbVertex
100
AcDbPolygonMeshVertex
 10
2.56
 20
1.19
 30
3.0
 70
    64
  0
VERTEX
  5
4798C
100
AcDbEntity
  8
0
100
AcDbVertex
100
AcDbPolygonMeshVertex
 10
1.435
 20
0.065
 30
4.375
 70
    64
  0
VERTEX
  5
4798D
100
AcDbEntity
  8
0
100
AcDbVertex
100
AcDbPolygonMeshVertex
 10
1.435
 20
0.065
 30
3.0
 70
    64
  0
VERTEX
  5
4798E
100
AcDbEntity
  8
0
100
AcDbVertex
100
AcDbPolygonMeshVertex
 10
1.435
 20
1.19
 30
3.0
 70
    64
  0
VERTEX
  5
4798F
100
AcDbEntity
  8
0
100
AcDbVertex
100
AcDbPolygonMeshVertex
 10
1.435
 20
0.065
 30
4.375
 70
    64
  0
VERTEX
  5
47990
100
AcDbEntity
  8
0
100
AcDbVertex
100
AcDbPolygonMeshVertex
 10
1.435
 20
0.065
 30
4.375
 70
    64
  0
VERTEX
  5
47991
100
AcDbEntity
  8
0
100
AcDbVertex
100
AcDbPolygonMeshVertex
 10
1.435
 20
1.19
 30
4.375
 70
    64
  0
VERTEX
  5
47992
100
AcDbEntity
  8
0
100
AcDbVertex
100
AcDbPolygonMeshVertex
 10
2.56
 20
0.065
 30
4.375
 70
    64
  0
VERTEX
  5
47993
100
AcDbEntity
  8
0
100
AcDbVertex
100
AcDbPolygonMeshVertex
 10
2.56
 20
0.065
 30
4.375
 70
    64
  0
VERTEX
  5
47994
100
AcDbEntity
  8
0
100
AcDbVertex
100
AcDbPolygonMeshVertex
 10
2.56
 20
1.19
 30
4.375
 70
    64
  0
SEQEND
  5
47995
100
AcDbEntity
  8
0
  0
CIRCLE
  5
47996
100
AcDbEntity
  8
0
100
AcDbCircle
 10
1.9975
 20
0.6275
 30
4.375
 40
0.4375
  0
POLYLINE
  5
47997
100
AcDbEntity
  8
0
100
AcDbPolygonMesh
 66
     1
 10
0.0
 20
0.0
 30
0.0
 70
    16
 71
     6
 72
     3
  0
VERTEX
  5
47998
100
AcDbEntity
  8
0
100
AcDbVertex
100
AcDbPolygonMeshVertex
 10
1.435
 20
0.315
 30
3.0
 70
    64
  0
VERTEX
  5
47999
100
AcDbEntity
  8
0
100
AcDbVertex
100
AcDbPolygonMeshVertex
 10
1.435
 20
0.315
 30
2.75
 70
    64
  0
VERTEX
  5
4799A
100
AcDbEntity
  8
0
100
AcDbVertex
100
AcDbPolygonMeshVertex
 10
1.435
 20
0.315
 30
2.75
 70
    64
  0
VERTEX
  5
4799B
100
AcDbEntity
  8
0
100
AcDbVertex
100
AcDbPolygonMeshVertex
 10
2.56
 20
0.315
 30
3.0
 70
    64
  0
VERTEX
  5
4799C
100
AcDbEntity
  8
0
100
AcDbVertex
100
AcDbPolygonMeshVertex
 10
2.56
 20
0.315
 30
2.75
 70
    64
  0
VERTEX
  5
4799D
100
AcDbEntity
  8
0
100
AcDbVertex
100
AcDbPolygonMeshVertex
 10
2.56
 20
0.315
 30
2.75
 70
    64
  0
VERTEX
  5
4799E
100
AcDbEntity
  8
0
100
AcDbVertex
100
AcDbPolygonMeshVertex
 10
2.56
 20
0.0675
 30
3.0
 70
    64
  0
VERTEX
  5
4799F
100
AcDbEntity
  8
0
100
AcDbVertex
100
AcDbPolygonMeshVertex
 10
2.56
 20
0.0675
 30
2.75
 70
    64
  0
VERTEX
  5
479A0
100
AcDbEntity
  8
0
100
AcDbVertex
100
AcDbPolygonMeshVertex
 10
2.56
 20
0.315
 30
2.75
 70
    64
  0
VERTEX
  5
479A1
100
AcDbEntity
  8
0
100
AcDbVertex
100
AcDbPolygonMeshVertex
 10
1.435
 20
0.0675
 30
3.0
 70
    64
  0
VERTEX
  5
479A2
100
AcDbEntity
  8
0
100
AcDbVertex
100
AcDbPolygonMeshVertex
 10
1.435
 20
0.0675
 30
2.75
 70
    64
  0
VERTEX
  5
479A3
100
AcDbEntity
  8
0
100
AcDbVertex
100
AcDbPolygonMeshVertex
 10
1.435
 20
0.315
 30
2.75
 70
    64
  0
VERTEX
  5
479A4
100
AcDbEntity
  8
0
100
AcDbVertex
100
AcDbPolygonMeshVertex
 10
1.435
 20
0.0675
 30
3.0
 70
    64
  0
VERTEX
  5
479A5
100
AcDbEntity
  8
0
100
AcDbVertex
100
AcDbPolygonMeshVertex
 10
1.435
 20
0.0675
 30
3.0
 70
    64
  0
VERTEX
  5
479A6
100
AcDbEntity
  8
0
100
AcDbVertex
100
AcDbPolygonMeshVertex
 10
1.435
 20
0.315
 30
3.0
 70
    64
  0
VERTEX
  5
479A7
100
AcDbEntity
  8
0
100
AcDbVertex
100
AcDbPolygonMeshVertex
 10
2.56
 20
0.0675
 30
3.0
 70
    64
  0
VERTEX
  5
479A8
100
AcDbEntity
  8
0
100
AcDbVertex
100
AcDbPolygonMeshVertex
 10
2.56
 20
0.0675
 30
3.0
 70
    64
  0
VERTEX
  5
479A9
100
AcDbEntity
  8
0
100
AcDbVertex
100
AcDbPolygonMeshVertex
 10
2.56
 20
0.315
 30
3.0
 70
    64
  0
SEQEND
  5
479AA
100
AcDbEntity
  8
0
  0
POLYLINE
  5
479AB
100
AcDbEntity
  8
0
100
AcDbPolygonMesh
 66
     1
 10
0.0
 20
0.0
 30
0.0
 70
    16
 71
     6
 72
     3
  0
VERTEX
  5
479AC
100
AcDbEntity
  8
0
100
AcDbVertex
100
AcDbPolygonMeshVertex
 10
1.435
 20
0.065
 30
3.25
 70
    64
  0
VERTEX
  5
479AD
100
AcDbEntity
  8
0
100
AcDbVertex
100
AcDbPolygonMeshVertex
 10
1.435
 20
0.065
 30
3.0
 70
    64
  0
VERTEX
  5
479AE
100
AcDbEntity
  8
0
100
AcDbVertex
100
AcDbPolygonMeshVertex
 10
1.435
 20
0.065
 30
3.0
 70
    64
  0
VERTEX
  5
479AF
100
AcDbEntity
  8
0
100
AcDbVertex
100
AcDbPolygonMeshVertex
 10
2.56
 20
0.065
 30
3.25
 70
    64
  0
VERTEX
  5
479B0
100
AcDbEntity
  8
0
100
AcDbVertex
100
AcDbPolygonMeshVertex
 10
2.56
 20
0.065
 30
3.0
 70
    64
  0
VERTEX
  5
479B1
100
AcDbEntity
  8
0
100
AcDbVertex
100
AcDbPolygonMeshVertex
 10
2.56
 20
0.065
 30
3.0
 70
    64
  0
VERTEX
  5
479B2
100
AcDbEntity
  8
0
100
AcDbVertex
100
AcDbPolygonMeshVertex
 10
2.56
 20
-1.06
 30
3.25
 70
    64
  0
VERTEX
  5
479B3
100
AcDbEntity
  8
0
100
AcDbVertex
100
AcDbPolygonMeshVertex
 10
2.56
 20
-1.06
 30
3.0
 70
    64
  0
VERTEX
  5
479B4
100
AcDbEntity
  8
0
100
AcDbVertex
100
AcDbPolygonMeshVertex
 10
2.56
 20
0.065
 30
3.0
 70
    64
  0
VERTEX
  5
479B5
100
AcDbEntity
  8
0
100
AcDbVertex
100
AcDbPolygonMeshVertex
 10
1.435
 20
-1.06
 30
3.25
 70
    64
  0
VERTEX
  5
479B6
100
AcDbEntity
  8
0
100
AcDbVertex
100
AcDbPolygonMeshVertex
 10
1.435
 20
-1.06
 30
3.0
 70
    64
  0
VERTEX
  5
479B7
100
AcDbEntity
  8
0
100
AcDbVertex
100
AcDbPolygonMeshVertex
 10
1.435
 20
0.065
 30
3.0
 70
    64
  0
VERTEX
  5
479B8
100
AcDbEntity
  8
0
100
AcDbVertex
100
AcDbPolygonMeshVertex
 10
1.435
 20
-1.06
 30
3.25
 70
    64
  0
VERTEX
  5
479B9
100
AcDbEntity
  8
0
100
AcDbVertex
100
AcDbPolygonMeshVertex
 10
1.435
 20
-1.06
 30
3.25
 70
    64
  0
VERTEX
  5
479BA
100
AcDbEntity
  8
0
100
AcDbVertex
100
AcDbPolygonMeshVertex
 10
1.435
 20
0.065
 30
3.25
 70
    64
  0
VERTEX
  5
479BB
100
AcDbEntity
  8
0
100
AcDbVertex
100
AcDbPolygonMeshVertex
 10
2.56
 20
-1.06
 30
3.25
 70
    64
  0
VERTEX
  5
479BC
100
AcDbEntity
  8
0
100
AcDbVertex
100
AcDbPolygonMeshVertex
 10
2.56
 20
-1.06
 30
3.25
 70
    64
  0
VERTEX
  5
479BD
100
AcDbEntity
  8
0
100
AcDbVertex
100
AcDbPolygonMeshVertex
 10
2.56
 20
0.065
 30
3.25
 70
    64
  0
SEQEND
  5
479BE
100
AcDbEntity
  8
0
  0
LWPOLYLINE
  5
479BF
100
AcDbEntity
  8
0
100
AcDbPolyline
 90
        6
 70
     1
 43
0.0
 38
3.25
 10
1.7475
 20
-0.930512
 10
2.2475
 20
-0.930513
 10
2.4975
 20
-0.4975
 10
2.2475
 20
-0.064488
 10
1.7475
 20
-0.064487
 10
1.4975
 20
-0.4975
  0
CIRCLE
  5
479C0
100
AcDbEntity
  8
0
100
AcDbCircle
 10
1.9975
 20
-0.4975
 30
3.25
 40
0.1875
  0
LINE
  5
479C1
100
AcDbEntity
  8
0
100
AcDbLine
 10
-3.25
 20
-8.59
 30
0.0
 11
-3.25
 21
-11.030001
 31
0.0
  0
LINE
  5
479C2
100
AcDbEntity
  8
0
100
AcDbLine
 10
-3.25
 20
-8.59
 30
0.278
 11
-3.25
 21
-11.030001
 31
0.278
  0
LINE
  5
479C3
100
AcDbEntity
  8
0
100
AcDbLine
 10
3.25
 20
-8.59
 30
0.0
 11
3.25
 21
-11.030001
 31
0.0
  0
POLYLINE
  5
479C4
100
AcDbEntity
  8
0
100
AcDbPolygonMesh
 66
     1
 10
0.0
 20
0.0
 30
0.0
 70
    16
 71
     6
 72
     3
  0
VERTEX
  5
479C5
100
AcDbEntity
  8
0
100
AcDbVertex
100
AcDbPolygonMeshVertex
 10
3.25
 20
-11.030001
 30
0.278
 70
    64
  0
VERTEX
  5
479C6
100
AcDbEntity
  8
0
100
AcDbVertex
100
AcDbPolygonMeshVertex
 10
3.25
 20
-11.030001
 30
0.0
 70
    64
  0
VERTEX
  5
479C7
100
AcDbEntity
  8
0
100
AcDbVertex
100
AcDbPolygonMeshVertex
 10
3.25
 20
-11.030001
 30
0.0
 70
    64
  0
VERTEX
  5
479C8
100
AcDbEntity
  8
0
100
AcDbVertex
100
AcDbPolygonMeshVertex
 10
-3.25
 20
-11.030001
 30
0.278
 70
    64
  0
VERTEX
  5
479C9
100
AcDbEntity
  8
0
100
AcDbVertex
100
AcDbPolygonMeshVertex
 10
-3.25
 20
-11.030001
 30
0.0
 70
    64
  0
VERTEX
  5
479CA
100
AcDbEntity
  8
0
100
AcDbVertex
100
AcDbPolygonMeshVertex
 10
-3.25
 20
-11.030001
 30
0.0
 70
    64
  0
VERTEX
  5
479CB
100
AcDbEntity
  8
0
100
AcDbVertex
100
AcDbPolygonMeshVertex
 10
-3.25
 20
-1.226667
 30
0.278
 70
    64
  0
VERTEX
  5
479CC
100
AcDbEntity
  8
0
100
AcDbVertex
100
AcDbPolygonMeshVertex
 10
-3.25
 20
-1.226667
 30
0.0
 70
    64
  0
VERTEX
  5
479CD
100
AcDbEntity
  8
0
100
AcDbVertex
100
AcDbPolygonMeshVertex
 10
-3.25
 20
-11.030001
 30
0.0
 70
    64
  0
VERTEX
  5
479CE
100
AcDbEntity
  8
0
100
AcDbVertex
100
AcDbPolygonMeshVertex
 10
3.25
 20
-1.226667
 30
0.278
 70
    64
  0
VERTEX
  5
479CF
100
AcDbEntity
  8
0
100
AcDbVertex
100
AcDbPolygonMeshVertex
 10
3.25
 20
-1.226667
 30
0.0
 70
    64
  0
VERTEX
  5
479D0
100
AcDbEntity
  8
0
100
AcDbVertex
100
AcDbPolygonMeshVertex
 10
3.25
 20
-11.030001
 30
0.0
 70
    64
  0
VERTEX
  5
479D1
100
AcDbEntity
  8
0
100
AcDbVertex
100
AcDbPolygonMeshVertex
 10
3.25
 20
-1.226667
 30
0.278
 70
    64
  0
VERTEX
  5
479D2
100
AcDbEntity
  8
0
100
AcDbVertex
100
AcDbPolygonMeshVertex
 10
3.25
 20
-1.226667
 30
0.278
 70
    64
  0
VERTEX
  5
479D3
100
AcDbEntity
  8
0
100
AcDbVertex
100
AcDbPolygonMeshVertex
 10
3.25
 20
-11.030001
 30
0.278
 70
    64
  0
VERTEX
  5
479D4
100
AcDbEntity
  8
0
100
AcDbVertex
100
AcDbPolygonMeshVertex
 10
-3.25
 20
-1.226667
 30
0.278
 70
    64
  0
VERTEX
  5
479D5
100
AcDbEntity
  8
0
100
AcDbVertex
100
AcDbPolygonMeshVertex
 10
-3.25
 20
-1.226667
 30
0.278
 70
    64
  0
VERTEX
  5
479D6
100
AcDbEntity
  8
0
100
AcDbVertex
100
AcDbPolygonMeshVertex
 10
-3.25
 20
-11.030001
 30
0.278
 70
    64
  0
SEQEND
  5
479D7
100
AcDbEntity
  8
0
  0
3DFACE
  5
479D8
100
AcDbEntity
  8
0
100
AcDbFace
 10
-3.25
 20
-11.030001
 30
0.0
 11
-3.25
 21
-11.030001
 31
0.278
 12
-3.5
 22
-10.163975
 32
0.278
 13
-3.5
 23
-10.163975
 33
0.0
  0
3DFACE
  5
479D9
100
AcDbEntity
  8
0
100
AcDbFace
 10
-3.25
 20
-8.59
 30
0.278
 11
-3.5
 21
-8.59
 31
0.278
 12
-3.5
 22
-8.59
 32
0.0
 13
-3.25
 23
-8.59
 33
0.0
  0
3DFACE
  5
479DA
100
AcDbEntity
  8
0
100
AcDbFace
 10
-3.5
 20
-10.163975
 30
0.278
 11
-3.5
 21
-8.59
 31
0.278
 12
-3.5
 22
-8.59
 32
0.0
 13
-3.5
 23
-10.163975
 33
0.0
  0
3DFACE
  5
479DB
100
AcDbEntity
  8
0
100
AcDbFace
 10
3.25
 20
-11.030001
 30
0.0
 11
3.25
 21
-11.030001
 31
0.278
 12
3.5
 22
-10.163975
 32
0.278
 13
3.5
 23
-10.163975
 33
0.0
  0
3DFACE
  5
479DC
100
AcDbEntity
  8
0
100
AcDbFace
 10
3.5
 20
-10.163975
 30
0.278
 11
3.5
 21
-8.59
 31
0.278
 12
3.5
 22
-8.59
 32
0.0
 13
3.5
 23
-10.163975
 33
0.0
  0
3DFACE
  5
479DD
100
AcDbEntity
  8
0
100
AcDbFace
 10
3.25
 20
-8.59
 30
0.278
 11
3.5
 21
-8.59
 31
0.278
 12
3.5
 22
-8.59
 32
0.0
 13
3.25
 23
-8.59
 33
0.0
  0
3DFACE
  5
479DE
100
AcDbEntity
  8
0
100
AcDbFace
 10
3.25
 20
-1.226667
 30
0.278
 11
2.125
 21
0.38
 31
0.278
 12
-2.125
 22
0.38
 32
0.278
 13
-3.25
 23
-1.226667
 33
0.278
  0
3DFACE
  5
479DF
100
AcDbEntity
  8
0
100
AcDbFace
 10
3.25
 20
-1.226667
 30
0.0
 11
2.125
 21
0.38
 31
0.0
 12
-2.125
 22
0.38
 32
0.0
 13
-3.25
 23
-1.226667
 33
0.0
  0
3DFACE
  5
479E0
100
AcDbEntity
  8
0
100
AcDbFace
 10
3.25
 20
-1.226667
 30
0.0
 11
3.25
 21
-1.226667
 31
0.278
 12
2.125
 22
0.38
 32
0.278
 13
2.125
 23
0.38
 33
0.0
  0
3DFACE
  5
479E1
100
AcDbEntity
  8
0
100
AcDbFace
 10
2.125
 20
0.38
 30
0.278
 11
2.125
 21
0.38
 31
0.0
 12
-2.125
 22
0.38
 32
0.0
 13
-2.125
 23
0.38
 33
0.278
  0
3DFACE
  5
479E2
100
AcDbEntity
  8
0
100
AcDbFace
 10
-2.125
 20
0.38
 30
0.0
 11
-2.125
 21
0.38
 31
0.278
 12
-3.25
 22
-1.226667
 32
0.278
 13
-3.25
 23
-1.226667
 33
0.0
  0
LINE
  5
479E3
100
AcDbEntity
  8
0
100
AcDbLine
 10
-0.171
 20
0.0
 30
0.278
 11
-0.171
 21
-0.217752
 31
0.278
  0
ARC
  5
479E4
100
AcDbEntity
  8
0
100
AcDbCircle
 10
0.0
 20
-0.5
 30
0.278
 40
0.33
100
AcDbArc
 50
121.209984
 51
180.0
  0
LINE
  5
479E5
100
AcDbEntity
  8
0
100
AcDbLine
 10
-0.33
 20
-0.83
 30
0.278
 11
-0.33
 21
-0.5
 31
0.278
  0
LINE
  5
479E6
100
AcDbEntity
  8
0
100
AcDbLine
 10
0.33
 20
-0.83
 30
0.278
 11
-0.33
 21
-0.83
 31
0.278
  0
LINE
  5
479E7
100
AcDbEntity
  8
0
100
AcDbLine
 10
0.33
 20
-0.5
 30
0.278
 11
0.33
 21
-0.83
 31
0.278
  0
ARC
  5
479E8
100
AcDbEntity
  8
0
100
AcDbCircle
 10
0.0
 20
-0.5
 30
0.278
 40
0.33
100
AcDbArc
 50
0.0
 51
58.789795
  0
LINE
  5
479E9
100
AcDbEntity
  8
0
100
AcDbLine
 10
0.171
 20
0.0
 30
0.278
 11
0.171
 21
-0.21775
 31
0.278
  0
ARC
  5
479EA
100
AcDbEntity
  8
0
100
AcDbCircle
 10
0.0
 20
0.0
 30
0.278
 40
0.171
100
AcDbArc
 50
0.0
 51
180.0
  0
CIRCLE
  5
479EB
100
AcDbEntity
  8
0
100
AcDbCircle
 10
0.992
 20
0.0
 30
0.278
 40
0.1715
  0
CIRCLE
  5
479EC
100
AcDbEntity
  8
0
100
AcDbCircle
 10
0.992
 20
0.0
 30
0.278
 40
0.293
  0
CIRCLE
  5
479ED
100
AcDbEntity
  8
0
100
AcDbCircle
 10
-3.153
 20
-9.843
 30
0.278
 40
0.164
  0
CIRCLE
  5
479EE
100
AcDbEntity
  8
0
100
AcDbCircle
 10
3.153
 20
-9.843
 30
0.278
 40
0.1715
  0
TEXT
  5
479EF
100
AcDbEntity
  8
0
100
AcDbText
 10
-2.109698
 20
0.540047
 30
4.375
 40
0.206353
  1
T1
100
AcDbText
  0
TEXT
  5
479F0
100
AcDbEntity
  8
0
100
AcDbText
 10
-0.155914
 20
0.514031
 30
4.375
 40
0.206353
  1
T2
100
AcDbText
  0
TEXT
  5
479F1
100
AcDbEntity
  8
0
100
AcDbText
 10
1.850878
 20
0.518292
 30
4.375
 40
0.206353
  1
T3
100
AcDbText
  0
TEXT
  5
479F2
100
AcDbEntity
  8
0
100
AcDbText
 10
-2.128168
 20
-1.739845
 30
7.0
 40
0.206353
  1
L1
100
AcDbText
  0
TEXT
  5
479F3
100
AcDbEntity
  8
0
100
AcDbText
 10
-0.166032
 20
-1.750723
 30
7.0
 40
0.206353
  1
L2
100
AcDbText
  0
TEXT
  5
479F4
100
AcDbEntity
  8
0
100
AcDbText
 10
1.824835
 20
-1.746462
 30
7.0
 40
0.206353
  1
L3
100
AcDbText
  0
ATTDEF
  5
479F5
100
AcDbEntity
  8
ATTRIBUTES
100
AcDbText
 10
-2.800425
 20
-8.730615
 30
0.0
 40
0.20265
  1
ALLEN-BRADLEY
100
AcDbAttributeDefinition
  3
MANUFACTURER NAME?
  2
AC_VND_LABEL
 70
     1
  0
ATTDEF
  5
479F6
100
AcDbEntity
  8
ATTRIBUTES
100
AcDbText
 10
-2.800425
 20
-9.152802
 30
0.0
 40
0.20265
  1
500-F
100
AcDbAttributeDefinition
  3
CATALOG NUMBER?
  2
AC_PART_NO
 70
     1
  0
ATTDEF
  5
479F7
100
AcDbEntity
  8
ATTRIBUTES
100
AcDbText
 10
-2.800425
 20
-9.574989
 30
0.0
 40
0.20265
  1
NEMA AC TOP WIRING CONTACTOR; SIZE 5; 3P
100
AcDbAttributeDefinition
  3
PART DESCRIPTION?
  2
AC_DESCRIPTION
 70
     1
  0
ATTDEF
  5
479F8
100
AcDbEntity
  8
ATTRIBUTES
100
AcDbText
 10
-2.800425
 20
-9.997175
 30
0.0
 40
0.20265
  1

100
AcDbAttributeDefinition
  3
DEVICE ID?
  2
DEVICE_ID
 70
     1
  0
ATTDEF
  5
479F9
100
AcDbEntity
  8
ATTRIBUTES
100
AcDbText
 10
-2.800425
 20
-10.419362
 30
0.0
 40
0.20265
  1

100
AcDbAttributeDefinition
  3
CUSTOMER PART NUMBER?
  2
AC_CPART_NO
 70
     1
  0
ATTDEF
  5
479FA
100
AcDbEntity
  8
ATTRIBUTES
100
AcDbText
 10
-2.800425
 20
-10.841549
 30
0.0
 40
0.20265
  1

100
AcDbAttributeDefinition
  3
CUSTOMER NOTE?
  2
AC_NOTE
 70
     1
  0
ATTDEF
  5
479FB
100
AcDbEntity
  8
ATTRIBUTES
100
AcDbText
 10
-2.800425
 20
-11.263735
 30
0.0
 40
0.20265
  1

100
AcDbAttributeDefinition
  3
FASTENER DATA?
  2
FASTENER
 70
     1
  0
ATTDEF
  5
479FC
100
AcDbEntity
  8
ATTRIBUTES
100
AcDbText
 10
-2.800425
 20
-11.685922
 30
0.0
 40
0.20265
  1
INCH
100
AcDbAttributeDefinition
  3
UNIT OF SCALE?
  2
AC_SCALE_UNIT
 70
     1
  0
ATTDEF
  5
479FD
100
AcDbEntity
  8
ATTRIBUTES
100
AcDbText
 10
-2.800425
 20
-12.108108
 30
0.0
 40
0.20265
  1
0
100
AcDbAttributeDefinition
  3
VIEW CODE?
  2
AC_VIEW_CODE
 70
     1
  0
POINT
  5
479FE
100
AcDbEntity
  8
DIMS-MTG-HOLES
100
AcDbPoint
 10
0.0
 20
0.0
 30
0.0
  0
POINT
  5
479FF
100
AcDbEntity
  8
DIMS-MTG-HOLES
100
AcDbPoint
 10
0.992
 20
0.0
 30
0.0
  0
POINT
  5
47A00
100
AcDbEntity
  8
DIMS-MTG-HOLES
100
AcDbPoint
 10
-3.153
 20
-9.843
 30
0.0
  0
POINT
  5
47A01
100
AcDbEntity
  8
DIMS-MTG-HOLES
100
AcDbPoint
 10
3.153
 20
-9.843
 30
0.0
  0
DIMENSION
  5
47A02
100
AcDbEntity
  8
AREA1
100
AcDbDimension
  2
*D0
 10
-4.682371
 20
-12.31
 30
0.0
 11
-4.682371
 21
-5.702969
 31
0.0
 70
   160
  3
ABECAD_3D
100
AcDbAlignedDimension
 13
-2.565
 23
1.19
 33
3.0
 14
-3.0
 24
-12.31
 34
0.278
 50
90.0
100
AcDbRotatedDimension
  0
DIMENSION
  5
47A10
100
AcDbEntity
  8
AREA1
100
AcDbDimension
  2
*D1
 10
3.5
 20
2.139918
 30
0.0
 11
0.061341
 21
2.139918
 31
0.0
 70
   160
  3
ABECAD_3D
100
AcDbAlignedDimension
 13
-3.5
 23
-8.59
 33
0.0
 14
3.5
 24
-8.59
 34
0.0
100
AcDbRotatedDimension
  0
LWPOLYLINE
  5
47A2D
100
AcDbEntity
  8
SCALE
100
AcDbPolyline
 90
        4
 70
     1
 43
0.0
 10
-0.610069
 20
-12.757295
 10
0.52556
 20
-12.757295
 10
0.52556
 20
-13.598904
 10
-0.610069
 20
-13.598904
  0
LINE
  5
47A2E
100
AcDbEntity
  8
SCALE
100
AcDbLine
 10
-0.55207
 20
-13.137373
 30
0.0
 11
0.44793
 21
-13.137373
 31
0.0
  0
LINE
  5
47A2F
100
AcDbEntity
  8
SCALE
100
AcDbLine
 10
-0.55207
 20
-13.437373
 30
0.0
 11
-0.15837
 21
-13.437373
 31
0.0
  0
LINE
  5
47A30
100
AcDbEntity
  8
SCALE
100
AcDbLine
 10
-0.55207
 20
-13.237373
 30
0.0
 11
-0.55207
 21
-13.037373
 31
0.0
  0
TEXT
  5
47A31
100
AcDbEntity
  8
SCALE
100
AcDbText
 10
-0.496094
 20
-13.389688
 30
0.0
 40
0.0625
  1
[10mm]
100
AcDbText
  0
LINE
  5
47A32
100
AcDbEntity
  8
SCALE
100
AcDbLine
 10
-0.55207
 20
-13.537373
 30
0.0
 11
-0.55207
 21
-13.337373
 31
0.0
  0
TEXT
  5
47A33
100
AcDbEntity
  8
SCALE
100
AcDbText
 10
-0.55054
 20
-12.862496
 30
0.0
 40
0.0625
  1
SCALE:
100
AcDbText
  0
LINE
  5
47A34
100
AcDbEntity
  8
SCALE
100
AcDbLine
 10
-0.15837
 20
-13.537373
 30
0.0
 11
-0.15837
 21
-13.337373
 31
0.0
  0
TEXT
  5
47A35
100
AcDbEntity
  8
SCALE
100
AcDbText
 10
-0.188787
 20
-13.068324
 30
0.0
 40
0.0625
  1
1 Inch
100
AcDbText
  0
LINE
  5
47A36
100
AcDbEntity
  8
SCALE
100
AcDbLine
 10
0.44793
 20
-13.137373
 30
0.0
 11
0.44793
 21
-13.237373
 31
0.0
  0
LINE
  5
47A37
100
AcDbEntity
  8
SCALE
100
AcDbLine
 10
0.44793
 20
-13.237373
 30
0.0
 11
0.44793
 21
-13.037373
 31
0.0
  0
ENDSEC
  0
SECTION
  2
OBJECTS
  0
DICTIONARY
  5
458CB
100
AcDbDictionary
  3
ACAD_GROUP
350
458CC
  3
ACAD_LAYOUT
350
458FB
  3
ACAD_MLINESTYLE
350
458D9
  3
ACAD_PLOTSETTINGS
350
458FC
  3
ACAD_PLOTSTYLENAME
350
458F9
  3
ACDBHEADERROUNDTRIPXREC
350
47B4C
  3
ACDBVARIABLEDICTIONARY
350
458E1
  3
DWGPROPS
350
45901
  0
DICTIONARY
  5
47B4A
100
AcDbDictionary
280
     1
  3
ACAD_XREC_ROUNDTRIP
360
47B4B
  0
DICTIONARY
  5
47B73
100
AcDbDictionary
280
     1
  3
ACAD_XREC_ROUNDTRIP
360
47B74
  0
DICTIONARY
  5
47B48
100
AcDbDictionary
280
     1
  3
ACAD_XREC_ROUNDTRIP
360
47B49
  0
DICTIONARY
  5
47B6F
100
AcDbDictionary
280
     1
  3
ACAD_XREC_ROUNDTRIP
360
47B70
  0
DICTIONARY
  5
4592C
100
AcDbDictionary
280
     1
  3
ACAD_LAYOUTSELFREF
360
47B6E
  0
DICTIONARY
  5
4592A
100
AcDbDictionary
280
     1
  3
ACAD_LAYOUTSELFREF
360
47B6D
  0
DICTIONARY
  5
458CC
102
{ACAD_REACTORS
330
458CB
102
}
100
AcDbDictionary
  0
DICTIONARY
  5
458FB
102
{ACAD_XDICTIONARY
360
47B71
102
}
102
{ACAD_REACTORS
330
458CB
102
}
100
AcDbDictionary
  3
LAYOUT1
350
458FE
  3
MODEL
350
458FD
  0
DICTIONARY
  5
458D9
102
{ACAD_REACTORS
330
458CB
102
}
100
AcDbDictionary
  3
STANDARD
350
458DA
  0
DICTIONARY
  5
458FC
102
{ACAD_REACTORS
330
458CB
102
}
100
AcDbDictionary
  0
ACAD_PROXY_OBJECT
  5
458F9
102
{ACAD_REACTORS
330
458CB
102
}
100
AcDbProxyObject
 90
      499
 91
      501
 93
       86
310
405010041939BDC9B585B1
350
458FA
340
458FA
 94
        0
  0
DICTIONARY
  5
47B4C
102
{ACAD_REACTORS
330
458CB
102
}
100
AcDbDictionary
  3
CEPSNTYPE
350
47B56
  3
DIMSTYLEDATA
350
47B5A
  3
FINGERPRINTGUID
350
47B57
  3
HYPERLINKBASE
350
47B4F
  3
INSUNITS
350
47B55
  3
LAYOUTDICT
350
47B51
  3
LWETCUNION
350
47B54
  3
PLOTSETDICT
350
47B52
  3
PLOTSTYLNAMDICT
350
47B53
  3
PSVPSCALE
350
47B59
  3
PUCSBASE
350
47B5D
  3
PUCSORGBACK
350
47B63
  3
PUCSORGBOTTOM
350
47B5F
  3
PUCSORGFRONT
350
47B62
  3
PUCSORGLEFT
350
47B60
  3
PUCSORGRIGHT
350
47B61
  3
PUCSORGTOP
350
47B5E
  3
PUCSORTHOREF
350
47B5B
  3
PUCSORTHOVIEW
350
47B5C
  3
STYLESHEET
350
47B50
  3
TSTACKALIGN
350
47B4D
  3
TSTACKSIZE
350
47B4E
  3
UCSBASE
350
47B66
  3
UCSORGBACK
350
47B6C
  3
UCSORGBOTTOM
350
47B68
  3
UCSORGFRONT
350
47B6B
  3
UCSORGLEFT
350
47B69
  3
UCSORGRIGHT
350
47B6A
  3
UCSORGTOP
350
47B67
  3
UCSORTHOREF
350
47B64
  3
UCSORTHOVIEW
350
47B65
  3
VERSIONGUID
350
47B58
  0
DICTIONARY
  5
458E1
102
{ACAD_REACTORS
330
458CB
102
}
100
AcDbDictionary
  3
DIMADEC
350
458E2
  0
XRECORD
  5
45901
102
{ACAD_REACTORS
330
458CB
102
}
100
AcDbXrecord
  1
DWGPROPS COOKIE
  2

  3

  4

  6

  7

  8
colin
  9

300
=
301
=
302
=
303
=
304
=
305
=
306
=
307
=
308
=
309
=
 40
0.000599
 41
2451670.444777
 42
2451670.445376
  1

 90
        0
  0
XRECORD
  5
47B4B
102
{ACAD_REACTORS
330
47B4A
102
}
100
AcDbXrecord
102
EXTNAMES
  1
*ACTIVE
  2
*Active
102
UCS
 74
     0
 71
     1
 10
0.0
 20
0.0
 30
0.0
 10
1.0
 20
0.0
 30
0.0
 10
0.0
 20
1.0
 30
0.0
146
0.0
 79
     1
102
VIEW
281
     0
  0
XRECORD
  5
47B74
102
{ACAD_REACTORS
330
47B73
102
}
100
AcDbXrecord
102
PLOTBIT
280
     0
  0
XRECORD
  5
47B49
102
{ACAD_REACTORS
330
47B48
102
}
100
AcDbXrecord
102
EXTNAMES
  1
DEFPOINTS
  2
Defpoints
102
PLOTBIT
280
     0
  0
XRECORD
  5
47B70
102
{ACAD_REACTORS
330
47B6F
102
}
100
AcDbXrecord
102
ACADR14ROUNDTRIP
1000
DSTYLE
1002
{
1070
   276
 70
     2
1070
   277
 70
     5
1070
   279
 70
     2
1002
}
  0
XRECORD
  5
47B6E
102
{ACAD_REACTORS
330
4592C
102
}
100
AcDbXrecord
340
458D6
  0
XRECORD
  5
47B6D
102
{ACAD_REACTORS
330
4592A
102
}
100
AcDbXrecord
340
458D3
  0
DICTIONARY
  5
47B71
100
AcDbDictionary
280
     1
  3
ACAD_XREC_ROUNDTRIP
360
47B72
  0
ACAD_PROXY_OBJECT
  5
458FE
102
{ACAD_REACTORS
330
458FB
102
}
100
AcDbProxyObject
 90
      499
 91
      503
 93
     1348
310
91D4850204C617365724A65742035303030205365726965732050434C20362C00AAAAAA416AA547D11959985D5B1D08148C4D081C195B88185CDCDA59DB9B595B9D1CCB98DD1891069074C61796F75743140501A800000000000000000000000000000000000000000000A1000000000000008902A6A6A10232D5E076BC551
310
0408CB5781DAF154410232D5E076BC5510408CB5781DAF15C410232D5E076BC5710408CB5781DAF15C40
330
458D3
330
0
340
0
340
0
 94
        0
  0
ACAD_PROXY_OBJECT
  5
458FD
102
{ACAD_REACTORS
330
458FB
102
}
100
AcDbProxyObject
 90
      499
 91
      503
 93
      924
310
91D4850204C617365724A65742035303030205365726965732050434C20362C01AAAAAAAAA547D11959985D5B1D08148C4D081C195B88185CDCDA59DB9B595B9D1CCB98DD18A69054D6F64656C901A800000000000000000000000000000000000000000000A1000000000000008902A6A6AAAA0
330
458D6
330
0
340
0
340
0
 94
        0
  0
MLINESTYLE
  5
458DA
102
{ACAD_REACTORS
330
458D9
102
}
100
AcDbMlineStyle
  2
STANDARD
 70
     0
  3

 62
   256
 51
90.0
 52
90.0
 71
     2
 49
0.5
 62
   256
  6
BYLAYER
 49
-0.5
 62
   256
  6
BYLAYER
  0
ACAD_PROXY_OBJECT
  5
458FA
102
{ACAD_REACTORS
330
458F9
102
}
100
AcDbProxyObject
 90
      499
 91
      502
 93
        0
 94
        0
  0
XRECORD
  5
47B56
102
{ACAD_REACTORS
330
47B4C
102
}
100
AcDbXrecord
 90
        0
  0
XRECORD
  5
47B5A
102
{ACAD_REACTORS
330
47B4C
102
}
100
AcDbXrecord
1000
DSTYLE
1002
{
1070
   276
 70
     2
1070
   277
 70
     5
1070
   279
 70
     2
1002
}
  0
XRECORD
  5
47B57
102
{ACAD_REACTORS
330
47B4C
102
}
100
AcDbXrecord
  1
{6E0CF4B8-225E-11D4-A150-00A0CC3303EC}
  0
XRECORD
  5
47B4F
102
{ACAD_REACTORS
330
47B4C
102
}
100
AcDbXrecord
  1

  0
XRECORD
  5
47B55
102
{ACAD_REACTORS
330
47B4C
102
}
100
AcDbXrecord
 90
        0
  0
XRECORD
  5
47B51
102
{ACAD_REACTORS
330
47B4C
102
}
100
AcDbXrecord
340
458FB
  0
XRECORD
  5
47B54
102
{ACAD_REACTORS
330
47B4C
102
}
100
AcDbXrecord
 90
    14877
  0
XRECORD
  5
47B52
102
{ACAD_REACTORS
330
47B4C
102
}
100
AcDbXrecord
340
458FC
  0
XRECORD
  5
47B53
102
{ACAD_REACTORS
330
47B4C
102
}
100
AcDbXrecord
340
458F9
  0
XRECORD
  5
47B59
102
{ACAD_REACTORS
330
47B4C
102
}
100
AcDbXrecord
 40
0.0
  0
XRECORD
  5
47B5D
102
{ACAD_REACTORS
330
47B4C
102
}
100
AcDbXrecord
340
0
  0
XRECORD
  5
47B63
102
{ACAD_REACTORS
330
47B4C
102
}
100
AcDbXrecord
 10
0.0
 20
0.0
 30
0.0
  0
XRECORD
  5
47B5F
102
{ACAD_REACTORS
330
47B4C
102
}
100
AcDbXrecord
 10
0.0
 20
0.0
 30
0.0
  0
XRECORD
  5
47B62
102
{ACAD_REACTORS
330
47B4C
102
}
100
AcDbXrecord
 10
0.0
 20
0.0
 30
0.0
  0
XRECORD
  5
47B60
102
{ACAD_REACTORS
330
47B4C
102
}
100
AcDbXrecord
 10
0.0
 20
0.0
 30
0.0
  0
XRECORD
  5
47B61
102
{ACAD_REACTORS
330
47B4C
102
}
100
AcDbXrecord
 10
0.0
 20
0.0
 30
0.0
  0
XRECORD
  5
47B5E
102
{ACAD_REACTORS
330
47B4C
102
}
100
AcDbXrecord
 10
0.0
 20
0.0
 30
0.0
  0
XRECORD
  5
47B5B
102
{ACAD_REACTORS
330
47B4C
102
}
100
AcDbXrecord
340
0
  0
XRECORD
  5
47B5C
102
{ACAD_REACTORS
330
47B4C
102
}
100
AcDbXrecord
 70
     0
  0
XRECORD
  5
47B50
102
{ACAD_REACTORS
330
47B4C
102
}
100
AcDbXrecord
  1

  0
XRECORD
  5
47B4D
102
{ACAD_REACTORS
330
47B4C
102
}
100
AcDbXrecord
 90
        1
  0
XRECORD
  5
47B4E
102
{ACAD_REACTORS
330
47B4C
102
}
100
AcDbXrecord
 90
       70
  0
XRECORD
  5
47B66
102
{ACAD_REACTORS
330
47B4C
102
}
100
AcDbXrecord
340
0
  0
XRECORD
  5
47B6C
102
{ACAD_REACTORS
330
47B4C
102
}
100
AcDbXrecord
 10
0.0
 20
0.0
 30
0.0
  0
XRECORD
  5
47B68
102
{ACAD_REACTORS
330
47B4C
102
}
100
AcDbXrecord
 10
0.0
 20
0.0
 30
0.0
  0
XRECORD
  5
47B6B
102
{ACAD_REACTORS
330
47B4C
102
}
100
AcDbXrecord
 10
0.0
 20
0.0
 30
0.0
  0
XRECORD
  5
47B69
102
{ACAD_REACTORS
330
47B4C
102
}
100
AcDbXrecord
 10
0.0
 20
0.0
 30
0.0
  0
XRECORD
  5
47B6A
102
{ACAD_REACTORS
330
47B4C
102
}
100
AcDbXrecord
 10
0.0
 20
0.0
 30
0.0
  0
XRECORD
  5
47B67
102
{ACAD_REACTORS
330
47B4C
102
}
100
AcDbXrecord
 10
0.0
 20
0.0
 30
0.0
  0
XRECORD
  5
47B64
102
{ACAD_REACTORS
330
47B4C
102
}
100
AcDbXrecord
340
0
  0
XRECORD
  5
47B65
102
{ACAD_REACTORS
330
47B4C
102
}
100
AcDbXrecord
 70
     1
  0
XRECORD
  5
47B58
102
{ACAD_REACTORS
330
47B4C
102
}
100
AcDbXrecord
  1
{A47C5FDF-FB4E-4F37-8DA3-52DCCE87AC95}
  0
DICTIONARYVAR
  5
458E2
102
{ACAD_REACTORS
330
458E1
102
}
100
DictionaryVariables
280
     0
  1
0
  0
XRECORD
  5
47B72
102
{ACAD_REACTORS
330
47B71
102
}
100
AcDbXrecord
102
EXTNAMES
  1
LAYOUT1
  2
Layout1
  1
MODEL
  2
Model
  0
ENDSEC
  0
EOF
