  0
SECTION
  2
HEADER
  9
$ACADVER
  1
AC1014
  9
$ACADMAINTVER
 70
     8
  9
$DWGCODEPAGE
  3
ANSI_1252
  9
$INSBASE
 10
0.0
 20
0.0
 30
0.0
  9
$EXTMIN
 10
-5.406088
 20
-10.981014
 30
0.0
  9
$EXTMAX
 10
4.218661
 20
1.752767
 30
6.5
  9
$LIMMIN
 10
0.0
 20
0.0
  9
$LIMMAX
 10
12.0
 20
9.0
  9
$ORTHOMODE
 70
     0
  9
$REGENMODE
 70
     1
  9
$FILLMODE
 70
     1
  9
$QTEXTMODE
 70
     0
  9
$MIRRTEXT
 70
     1
  9
$DRAGMODE
 70
     2
  9
$LTSCALE
 40
1.0
  9
$OSMODE
 70
     0
  9
$ATTMODE
 70
     0
  9
$TEXTSIZE
 40
0.2
  9
$TRACEWID
 40
0.05
  9
$TEXTSTYLE
  7
STANDARD
  9
$CLAYER
  8
0
  9
$CELTYPE
  6
BYLAYER
  9
$CECOLOR
 62
   256
  9
$CELTSCALE
 40
1.0
  9
$DELOBJ
 70
     1
  9
$DISPSILH
 70
     0
  9
$DIMSCALE
 40
0.0
  9
$DIMASZ
 40
0.18
  9
$DIMEXO
 40
0.0625
  9
$DIMDLI
 40
0.375
  9
$DIMRND
 40
0.0
  9
$DIMDLE
 40
0.0
  9
$DIMEXE
 40
0.18
  9
$DIMTP
 40
0.0
  9
$DIMTM
 40
0.0
  9
$DIMTXT
 40
0.13
  9
$DIMCEN
 40
0.09
  9
$DIMTSZ
 40
0.0
  9
$DIMTOL
 70
     0
  9
$DIMLIM
 70
     0
  9
$DIMTIH
 70
     0
  9
$DIMTOH
 70
     1
  9
$DIMSE1
 70
     0
  9
$DIMSE2
 70
     0
  9
$DIMTAD
 70
     0
  9
$DIMZIN
 70
     4
  9
$DIMBLK
  1

  9
$DIMASO
 70
     1
  9
$DIMSHO
 70
     1
  9
$DIMPOST
  1

  9
$DIMAPOST
  1

  9
$DIMALT
 70
     1
  9
$DIMALTD
 70
     2
  9
$DIMALTF
 40
25.4
  9
$DIMLFAC
 40
1.0
  9
$DIMTOFL
 70
     0
  9
$DIMTVP
 40
0.0
  9
$DIMTIX
 70
     0
  9
$DIMSOXD
 70
     0
  9
$DIMSAH
 70
     0
  9
$DIMBLK1
  1

  9
$DIMBLK2
  1

  9
$DIMSTYLE
  2
ABECAD_3V
  9
$DIMCLRD
 70
     0
  9
$DIMCLRE
 70
     0
  9
$DIMCLRT
 70
     0
  9
$DIMTFAC
 40
1.5
  9
$DIMGAP
 40
0.09
  9
$DIMJUST
 70
     0
  9
$DIMSD1
 70
     0
  9
$DIMSD2
 70
     0
  9
$DIMTOLJ
 70
     1
  9
$DIMTZIN
 70
     4
  9
$DIMALTZ
 70
     4
  9
$DIMALTTZ
 70
     4
  9
$DIMFIT
 70
     5
  9
$DIMUPT
 70
     1
  9
$DIMUNIT
 70
     7
  9
$DIMDEC
 70
     6
  9
$DIMTDEC
 70
     6
  9
$DIMALTU
 70
     2
  9
$DIMALTTD
 70
     2
  9
$DIMTXSTY
  7
STANDARD
  9
$DIMAUNIT
 70
     0
  9
$LUNITS
 70
     2
  9
$LUPREC
 70
     6
  9
$SKETCHINC
 40
0.1
  9
$FILLETRAD
 40
0.0
  9
$AUNITS
 70
     0
  9
$AUPREC
 70
     0
  9
$MENU
  1
acad
  9
$ELEVATION
 40
0.0
  9
$PELEVATION
 40
0.0
  9
$THICKNESS
 40
0.0
  9
$LIMCHECK
 70
     0
  9
$BLIPMODE
 70
     0
  9
$CHAMFERA
 40
0.0
  9
$CHAMFERB
 40
0.0
  9
$CHAMFERC
 40
0.0
  9
$CHAMFERD
 40
0.0
  9
$SKPOLY
 70
     0
  9
$TDCREATE
 40
2451726.438362384
  9
$TDUPDATE
 40
2452661.468684143
  9
$TDINDWG
 40
0.0456138889
  9
$TDUSRTIMER
 40
0.0456138889
  9
$USRTIMER
 70
     1
  9
$ANGBASE
 50
0.0
  9
$ANGDIR
 70
     0
  9
$PDMODE
 70
     3
  9
$PDSIZE
 40
0.18
  9
$PLINEWID
 40
0.0
  9
$COORDS
 70
     1
  9
$SPLFRAME
 70
     0
  9
$SPLINETYPE
 70
     6
  9
$SPLINESEGS
 70
     8
  9
$ATTDIA
 70
     0
  9
$ATTREQ
 70
     1
  9
$HANDLING
 70
     1
  9
$HANDSEED
  5
387A
  9
$SURFTAB1
 70
     6
  9
$SURFTAB2
 70
     6
  9
$SURFTYPE
 70
     6
  9
$SURFU
 70
     6
  9
$SURFV
 70
     6
  9
$UCSNAME
  2

  9
$UCSORG
 10
0.0
 20
0.0
 30
0.0
  9
$UCSXDIR
 10
1.0
 20
0.0
 30
0.0
  9
$UCSYDIR
 10
0.0
 20
1.0
 30
0.0
  9
$PUCSNAME
  2

  9
$PUCSORG
 10
0.0
 20
0.0
 30
0.0
  9
$PUCSXDIR
 10
1.0
 20
0.0
 30
0.0
  9
$PUCSYDIR
 10
0.0
 20
1.0
 30
0.0
  9
$USERI1
 70
     0
  9
$USERI2
 70
     0
  9
$USERI3
 70
     0
  9
$USERI4
 70
     0
  9
$USERI5
 70
     0
  9
$USERR1
 40
0.0
  9
$USERR2
 40
0.0
  9
$USERR3
 40
0.0
  9
$USERR4
 40
0.0
  9
$USERR5
 40
0.0
  9
$WORLDVIEW
 70
     1
  9
$SHADEDGE
 70
     3
  9
$SHADEDIF
 70
    70
  9
$TILEMODE
 70
     0
  9
$MAXACTVP
 70
    16
  9
$PINSBASE
 10
0.0
 20
0.0
 30
0.0
  9
$PLIMCHECK
 70
     0
  9
$PEXTMIN
 10
0.0
 20
0.0
 30
0.0
  9
$PEXTMAX
 10
10.0
 20
7.5
 30
0.0
  9
$PLIMMIN
 10
-0.187029
 20
-0.186938
  9
$PLIMMAX
 10
10.187518
 20
7.829757
  9
$UNITMODE
 70
     0
  9
$VISRETAIN
 70
     0
  9
$PLINEGEN
 70
     0
  9
$PSLTSCALE
 70
     1
  9
$TREEDEPTH
 70
  3020
  9
$PICKSTYLE
 70
     1
  9
$CMLSTYLE
  2
STANDARD
  9
$CMLJUST
 70
     0
  9
$CMLSCALE
 40
1.0
  9
$PROXYGRAPHICS
 70
     1
  9
$MEASUREMENT
 70
     0
  0
ENDSEC
  0
SECTION
  2
CLASSES
  0
CLASS
  1
DICTIONARYVAR
  2
AcDbDictionaryVar
  3
"AutoCAD"
 90
        0
280
     0
281
     0
  0
CLASS
  1
ACDBDICTIONARYWDFLT
  2
AcDbDictionaryWithDefault
  3
AutoCAD 2000
 90
        0
280
     0
281
     0
  0
CLASS
  1
ACDBPLACEHOLDER
  2
AcDbPlaceHolder
  3
AutoCAD 2000
 90
        0
280
     0
281
     0
  0
CLASS
  1
LAYOUT
  2
AcDbLayout
  3
AutoCAD 2000
 90
        0
280
     0
281
     0
  0
CLASS
  1
LONG_TRANSACTION
  2
AcDbLongTransaction
  3
AutoCAD 2000
 90
        0
280
     0
281
     0
  0
CLASS
  1
LWPOLYLINE
  2
AcDbPolyline
  3
"AutoCAD"
 90
        0
280
     0
281
     1
  0
CLASS
  1
HATCH
  2
AcDbHatch
  3
"ACAD_SEDONA"
 90
        0
280
     0
281
     1
  0
CLASS
  1
XRECORD
  2
AcDbXrecord
  3
"<Built In>"
 90
        0
280
     0
281
     0
  0
CLASS
  1
LONG_TRANSACTION
  2
AcDbLongTransaction
  3
AutoCAD 2000
 90
        0
280
     0
281
     0
  0
CLASS
  1
LWPOLYLINE
  2
AcDbPolyline
  3
"AutoCAD"
 90
        0
280
     0
281
     1
  0
CLASS
  1
HATCH
  2
AcDbHatch
  3
"ACAD_SEDONA"
 90
        0
280
     0
281
     1
  0
CLASS
  1
XRECORD
  2
AcDbXrecord
  3
"<Built In>"
 90
        0
280
     0
281
     0
  0
CLASS
  1
LONG_TRANSACTION
  2
AcDbLongTransaction
  3
AutoCAD 2000
 90
        0
280
     0
281
     0
  0
CLASS
  1
LWPOLYLINE
  2
AcDbPolyline
  3
"AutoCAD"
 90
        0
280
     0
281
     1
  0
CLASS
  1
HATCH
  2
AcDbHatch
  3
"ACAD_SEDONA"
 90
        0
280
     0
281
     1
  0
CLASS
  1
XRECORD
  2
AcDbXrecord
  3
"<Built In>"
 90
        0
280
     0
281
     0
  0
CLASS
  1
LONG_TRANSACTION
  2
AcDbLongTransaction
  3
AutoCAD 2000
 90
        0
280
     0
281
     0
  0
CLASS
  1
LWPOLYLINE
  2
AcDbPolyline
  3
"AutoCAD"
 90
        0
280
     0
281
     1
  0
CLASS
  1
HATCH
  2
AcDbHatch
  3
"ACAD_SEDONA"
 90
        0
280
     0
281
     1
  0
CLASS
  1
XRECORD
  2
AcDbXrecord
  3
"<Built In>"
 90
        0
280
     0
281
     0
  0
CLASS
  1
LONG_TRANSACTION
  2
AcDbLongTransaction
  3
AutoCAD 2000
 90
        0
280
     0
281
     0
  0
CLASS
  1
LWPOLYLINE
  2
AcDbPolyline
  3
"AutoCAD"
 90
        0
280
     0
281
     1
  0
CLASS
  1
HATCH
  2
AcDbHatch
  3
"ACAD_SEDONA"
 90
        0
280
     0
281
     1
  0
CLASS
  1
XRECORD
  2
AcDbXrecord
  3
"<Built In>"
 90
        0
280
     0
281
     0
  0
CLASS
  1
LONG_TRANSACTION
  2
AcDbLongTransaction
  3
AutoCAD 2000
 90
        0
280
     0
281
     0
  0
CLASS
  1
LWPOLYLINE
  2
AcDbPolyline
  3
"AutoCAD"
 90
        0
280
     0
281
     1
  0
CLASS
  1
HATCH
  2
AcDbHatch
  3
"ACAD_SEDONA"
 90
        0
280
     0
281
     1
  0
CLASS
  1
XRECORD
  2
AcDbXrecord
  3
"<Built In>"
 90
        0
280
     0
281
     0
  0
CLASS
  1
LONG_TRANSACTION
  2
AcDbLongTransaction
  3
AutoCAD 2000
 90
        0
280
     0
281
     0
  0
CLASS
  1
LWPOLYLINE
  2
AcDbPolyline
  3
"AutoCAD"
 90
        0
280
     0
281
     1
  0
CLASS
  1
HATCH
  2
AcDbHatch
  3
"ACAD_SEDONA"
 90
        0
280
     0
281
     1
  0
CLASS
  1
XRECORD
  2
AcDbXrecord
  3
"<Built In>"
 90
        0
280
     0
281
     0
  0
CLASS
  1
LONG_TRANSACTION
  2
AcDbLongTransaction
  3
AutoCAD 2000
 90
        0
280
     0
281
     0
  0
CLASS
  1
LWPOLYLINE
  2
AcDbPolyline
  3
"AutoCAD"
 90
        0
280
     0
281
     1
  0
CLASS
  1
HATCH
  2
AcDbHatch
  3
"ACAD_SEDONA"
 90
        0
280
     0
281
     1
  0
CLASS
  1
XRECORD
  2
AcDbXrecord
  3
"<Built In>"
 90
        0
280
     0
281
     0
  0
CLASS
  1
LONG_TRANSACTION
  2
AcDbLongTransaction
  3
AutoCAD 2000
 90
        0
280
     0
281
     0
  0
CLASS
  1
LWPOLYLINE
  2
AcDbPolyline
  3
"AutoCAD"
 90
        0
280
     0
281
     1
  0
CLASS
  1
HATCH
  2
AcDbHatch
  3
"ACAD_SEDONA"
 90
        0
280
     0
281
     1
  0
CLASS
  1
XRECORD
  2
AcDbXrecord
  3
"<Built In>"
 90
        0
280
     0
281
     0
  0
CLASS
  1
LONG_TRANSACTION
  2
AcDbLongTransaction
  3
AutoCAD 2000
 90
        0
280
     0
281
     0
  0
CLASS
  1
LWPOLYLINE
  2
AcDbPolyline
  3
"AutoCAD"
 90
        0
280
     0
281
     1
  0
CLASS
  1
HATCH
  2
AcDbHatch
  3
"ACAD_SEDONA"
 90
        0
280
     0
281
     1
  0
CLASS
  1
XRECORD
  2
AcDbXrecord
  3
"<Built In>"
 90
        0
280
     0
281
     0
  0
ENDSEC
  0
SECTION
  2
TABLES
  0
TABLE
  2
VPORT
  5
469
100
AcDbSymbolTable
 70
     1
  0
VPORT
  5
3809
102
{ACAD_XDICTIONARY
360
3842
102
}
100
AcDbSymbolTableRecord
100
AcDbViewportTableRecord
  2
*ACTIVE
 70
     0
 10
0.0
 20
0.0
 11
1.0
 21
1.0
 12
-0.593714
 22
-4.614124
 13
0.0
 23
0.0
 14
1.0
 24
1.0
 15
0.0
 25
0.0
 16
0.0
 26
0.0
 36
1.0
 17
0.0
 27
0.0
 37
0.0
 40
12.86551
 41
1.766839
 42
50.0
 43
0.0
 44
0.0
 50
0.0
 51
0.0
 71
     0
 72
   100
 73
     1
 74
     1
 75
     0
 76
     0
 77
     0
 78
     0
  0
ENDTAB
  0
TABLE
  2
LTYPE
  5
466
100
AcDbSymbolTable
 70
     1
  0
LTYPE
  5
472
100
AcDbSymbolTableRecord
100
AcDbLinetypeTableRecord
  2
BYBLOCK
 70
     0
  3

 72
    65
 73
     0
 40
0.0
  0
LTYPE
  5
473
100
AcDbSymbolTableRecord
100
AcDbLinetypeTableRecord
  2
BYLAYER
 70
     0
  3

 72
    65
 73
     0
 40
0.0
  0
LTYPE
  5
474
100
AcDbSymbolTableRecord
100
AcDbLinetypeTableRecord
  2
CONTINUOUS
 70
     0
  3
Solid line
 72
    65
 73
     0
 40
0.0
  0
ENDTAB
  0
TABLE
  2
LAYER
  5
463
100
AcDbSymbolTable
 70
     8
  0
LAYER
  5
46F
100
AcDbSymbolTableRecord
100
AcDbLayerTableRecord
  2
0
 70
     0
 62
     7
  6
CONTINUOUS
  0
LAYER
  5
485
100
AcDbSymbolTableRecord
100
AcDbLayerTableRecord
  2
AREA1
 70
     0
 62
     7
  6
CONTINUOUS
  0
LAYER
  5
486
100
AcDbSymbolTableRecord
100
AcDbLayerTableRecord
  2
AREA2
 70
     0
 62
     7
  6
CONTINUOUS
  0
LAYER
  5
494
102
{ACAD_XDICTIONARY
360
386F
102
}
100
AcDbSymbolTableRecord
100
AcDbLayerTableRecord
  2
DEFPOINTS
 70
     0
 62
    -7
  6
CONTINUOUS
  0
LAYER
  5
495
100
AcDbSymbolTableRecord
100
AcDbLayerTableRecord
  2
DIMS-MTG-HOLES
 70
     0
 62
    -1
  6
CONTINUOUS
  0
LAYER
  5
4E6
100
AcDbSymbolTableRecord
100
AcDbLayerTableRecord
  2
SCALE
 70
     0
 62
    -7
  6
CONTINUOUS
  0
LAYER
  5
4ED
100
AcDbSymbolTableRecord
100
AcDbLayerTableRecord
  2
SNAP_POINTS
 70
     0
 62
    -1
  6
CONTINUOUS
  0
LAYER
  5
4F1
100
AcDbSymbolTableRecord
100
AcDbLayerTableRecord
  2
ATTRIBUTES
 70
     0
 62
    -7
  6
CONTINUOUS
  0
ENDTAB
  0
TABLE
  2
STYLE
  5
464
100
AcDbSymbolTable
 70
     1
  0
STYLE
  5
470
100
AcDbSymbolTableRecord
100
AcDbTextStyleTableRecord
  2
STANDARD
 70
     0
 40
0.0
 41
1.0
 50
0.0
 71
     0
 42
0.2
  3
txt
  4

  0
ENDTAB
  0
TABLE
  2
VIEW
  5
467
100
AcDbSymbolTable
 70
     0
  0
ENDTAB
  0
TABLE
  2
UCS
  5
468
100
AcDbSymbolTable
 70
     0
  0
ENDTAB
  0
TABLE
  2
APPID
  5
46A
100
AcDbSymbolTable
 70
     2
  0
APPID
  5
471
100
AcDbSymbolTableRecord
100
AcDbRegAppTableRecord
  2
ACAD
 70
     0
  0
APPID
  5
47E
100
AcDbSymbolTableRecord
100
AcDbRegAppTableRecord
  2
AVE_RENDER
 70
     0
  0
ENDTAB
  0
TABLE
  2
DIMSTYLE
  5
46B
100
AcDbSymbolTable
 70
     2
  0
DIMSTYLE
105
49A
102
{ACAD_XDICTIONARY
360
3871
102
}
102
{ACAD_REACTORS
330
372A
330
36FB
330
36FA
102
}
100
AcDbSymbolTableRecord
100
AcDbDimStyleTableRecord
  2
ABECAD_3V
 70
     0
  3

  4

  5

  6

  7

 40
0.0
 41
0.18
 42
0.0625
 43
0.375
 44
0.18
 45
0.0
 46
0.0
 47
0.0
 48
0.0
140
0.13
141
0.09
142
0.0
143
25.4
144
1.0
145
0.0
146
1.5
147
0.09
 71
     0
 72
     0
 73
     0
 74
     1
 75
     0
 76
     0
 77
     0
 78
     4
170
     1
171
     2
172
     0
173
     0
174
     0
175
     0
176
     0
177
     0
178
     0
270
     7
271
     6
272
     6
273
     2
274
     2
340
470
275
     0
280
     0
281
     0
282
     0
283
     1
284
     4
285
     4
286
     4
287
     5
288
     1
  0
DIMSTYLE
105
512
102
{ACAD_XDICTIONARY
360
3875
102
}
100
AcDbSymbolTableRecord
100
AcDbDimStyleTableRecord
  2
ABECAD_3D
 70
     0
  3

  4

  5

  6

  7

 40
1.0
 41
0.18
 42
0.0625
 43
0.375
 44
0.18
 45
0.0
 46
0.0
 47
0.0
 48
0.0
140
0.18
141
0.09
142
0.0
143
25.4
144
1.0
145
0.0
146
1.5
147
0.09
 71
     0
 72
     0
 73
     0
 74
     1
 75
     0
 76
     0
 77
     0
 78
     4
170
     1
171
     2
172
     0
173
     0
174
     0
175
     0
176
     0
177
     0
178
     0
270
     7
271
     6
272
     6
273
     2
274
     2
340
470
275
     0
280
     0
281
     0
282
     0
283
     1
284
     4
285
     4
286
     4
287
     5
288
     1
  0
ENDTAB
  0
TABLE
  2
BLOCK_RECORD
  5
462
100
AcDbSymbolTable
 70
     3
  0
BLOCK_RECORD
  5
478
102
{ACAD_XDICTIONARY
360
4D2
102
}
100
AcDbSymbolTableRecord
100
AcDbBlockTableRecord
  2
*MODEL_SPACE
  0
BLOCK_RECORD
  5
475
102
{ACAD_XDICTIONARY
360
4D0
102
}
100
AcDbSymbolTableRecord
100
AcDbBlockTableRecord
  2
*PAPER_SPACE
  0
BLOCK_RECORD
  5
36FC
100
AcDbSymbolTableRecord
100
AcDbBlockTableRecord
  2
*D0
  0
BLOCK_RECORD
  5
3709
100
AcDbSymbolTableRecord
100
AcDbBlockTableRecord
  2
*D1
  0
BLOCK_RECORD
  5
372B
100
AcDbSymbolTableRecord
100
AcDbBlockTableRecord
  2
*D2
  0
ENDTAB
  0
ENDSEC
  0
SECTION
  2
BLOCKS
  0
BLOCK
  5
48B
100
AcDbEntity
  8
0
100
AcDbBlockBegin
  2
*MODEL_SPACE
 70
     0
 10
0.0
 20
0.0
 30
0.0
  3
*MODEL_SPACE
  1

  0
ENDBLK
  5
48C
100
AcDbEntity
  8
0
100
AcDbBlockEnd
  0
BLOCK
  5
489
100
AcDbEntity
 67
     1
  8
0
100
AcDbBlockBegin
  2
*PAPER_SPACE
 70
     0
 10
0.0
 20
0.0
 30
0.0
  3
*PAPER_SPACE
  1

  0
ENDBLK
  5
48A
100
AcDbEntity
 67
     1
  8
0
100
AcDbBlockEnd
  0
BLOCK
  5
3707
100
AcDbEntity
  8
0
100
AcDbBlockBegin
  2
*D0
 70
     1
 10
0.0
 20
0.0
 30
0.0
  3
*D0
  1

  0
LINE
  5
378F
100
AcDbEntity
  8
AREA1
 62
     0
100
AcDbLine
 10
-1.86149
 20
0.281835
 30
0.0
 11
-5.406088
 21
0.281835
 31
0.0
1001
ACAD
1000
RTLwPs
1070
   158
  0
LINE
  5
3790
100
AcDbEntity
  8
AREA1
 62
     0
100
AcDbLine
 10
-2.582476
 20
-9.88
 30
0.0
 11
-5.406088
 21
-9.88
 31
0.0
1001
ACAD
1000
RTLwPs
1070
   158
  0
LINE
  5
3791
100
AcDbEntity
  8
AREA1
 62
     0
100
AcDbLine
 10
-4.851758
 20
-0.272495
 30
0.0
 11
-4.851758
 21
-1.938091
 31
0.0
1001
ACAD
1000
RTLwPs
1070
   158
  0
LINE
  5
3792
100
AcDbEntity
  8
AREA1
 62
     0
100
AcDbLine
 10
-4.851758
 20
-9.32567
 30
0.0
 11
-4.851758
 21
-7.763693
 31
0.0
1001
ACAD
1000
RTLwPs
1070
   158
  0
MTEXT
  5
3793
100
AcDbEntity
  8
AREA1
 62
     0
100
AcDbMText
 10
-4.851758
 20
-4.850892
 30
0.0
 40
0.40035
 41
0.0
 71
     5
 72
     1
  1
\A1;10 5/32 [258.11]
 11
0.0
 21
1.0
 31
0.0
1001
ACAD
1000
MTEXTBEGIN
1070
    73
1070
     1
1070
    44
1040
1.0
1070
    74
1070
     0
1000
MTEXTEND
1000
MTEXTBEGIN
1070
    73
1070
     1
1070
    44
1040
1.0
1070
    74
1070
     0
1000
MTEXTEND
1000
MTEXTBEGIN
1070
    73
1070
     1
1070
    44
1040
1.0
1070
    74
1070
     0
1000
MTEXTEND
1000
MTEXTBEGIN
1070
    73
1070
     1
1070
    44
1040
1.0
1070
    74
1070
     0
1000
MTEXTEND
  0
SOLID
  5
3794
100
AcDbEntity
  8
AREA1
 62
     0
100
AcDbTrace
 10
-4.944146
 20
-0.272495
 30
0.0
 11
-4.759369
 21
-0.272495
 31
0.0
 12
-4.851758
 22
0.281835
 32
0.0
 13
-4.851758
 23
0.281835
 33
0.0
  0
SOLID
  5
3795
100
AcDbEntity
  8
AREA1
 62
     0
100
AcDbTrace
 10
-4.944146
 20
-9.32567
 30
0.0
 11
-4.759369
 21
-9.32567
 31
0.0
 12
-4.851758
 22
-9.88
 32
0.0
 13
-4.851758
 23
-9.88
 33
0.0
  0
POINT
  5
3796
100
AcDbEntity
  8
DEFPOINTS
 62
     0
100
AcDbPoint
 10
-1.669014
 20
0.281835
 30
1.81
  0
POINT
  5
3797
100
AcDbEntity
  8
DEFPOINTS
 62
     0
100
AcDbPoint
 10
-2.39
 20
-9.88
 30
0.19
  0
POINT
  5
3798
100
AcDbEntity
  8
DEFPOINTS
 62
     0
100
AcDbPoint
 10
-4.851758
 20
-9.88
 30
0.0
  0
ENDBLK
  5
3708
100
AcDbEntity
  8
0
100
AcDbBlockEnd
  0
BLOCK
  5
3714
100
AcDbEntity
  8
0
100
AcDbBlockBegin
  2
*D1
 70
     1
 10
0.0
 20
0.0
 30
0.0
  3
*D1
  1

  0
LINE
  5
3785
100
AcDbEntity
  8
AREA1
 62
     0
100
AcDbLine
 10
-3.01
 20
-7.547524
 30
0.0
 11
-3.01
 21
1.752767
 31
0.0
1001
ACAD
1000
RTLwPs
1070
   158
  0
LINE
  5
3786
100
AcDbEntity
  8
AREA1
 62
     0
100
AcDbLine
 10
3.11
 20
-7.547524
 30
0.0
 11
3.11
 21
1.752767
 31
0.0
1001
ACAD
1000
RTLwPs
1070
   158
  0
LINE
  5
3787
100
AcDbEntity
  8
AREA1
 62
     0
100
AcDbLine
 10
-3.56433
 20
1.198437
 30
0.0
 11
-4.118661
 21
1.198437
 31
0.0
1001
ACAD
1000
RTLwPs
1070
   158
  0
LINE
  5
3788
100
AcDbEntity
  8
AREA1
 62
     0
100
AcDbLine
 10
3.66433
 20
1.198437
 30
0.0
 11
4.218661
 21
1.198437
 31
0.0
1001
ACAD
1000
RTLwPs
1070
   158
  0
MTEXT
  5
3789
100
AcDbEntity
  8
AREA1
 62
     0
100
AcDbMText
 10
0.167107
 20
1.198437
 30
0.0
 40
0.40035
 41
0.0
 71
     5
 72
     1
  1
\A1;6 1/8 [155.45]
1001
ACAD
1000
MTEXTBEGIN
1070
    73
1070
     1
1070
    44
1040
1.0
1070
    74
1070
     0
1000
MTEXTEND
1000
MTEXTBEGIN
1070
    73
1070
     1
1070
    44
1040
1.0
1070
    74
1070
     0
1000
MTEXTEND
1000
MTEXTBEGIN
1070
    73
1070
     1
1070
    44
1040
1.0
1070
    74
1070
     0
1000
MTEXTEND
1000
MTEXTBEGIN
1070
    73
1070
     1
1070
    44
1040
1.0
1070
    74
1070
     0
1000
MTEXTEND
  0
SOLID
  5
378A
100
AcDbEntity
  8
AREA1
 62
     0
100
AcDbTrace
 10
-3.56433
 20
1.290825
 30
0.0
 11
-3.56433
 21
1.106048
 31
0.0
 12
-3.01
 22
1.198437
 32
0.0
 13
-3.01
 23
1.198437
 33
0.0
  0
SOLID
  5
378B
100
AcDbEntity
  8
AREA1
 62
     0
100
AcDbTrace
 10
3.66433
 20
1.290825
 30
0.0
 11
3.66433
 21
1.106048
 31
0.0
 12
3.11
 22
1.198437
 32
0.0
 13
3.11
 23
1.198437
 33
0.0
  0
POINT
  5
378C
100
AcDbEntity
  8
DEFPOINTS
 62
     0
100
AcDbPoint
 10
-3.01
 20
-7.74
 30
0.0
  0
POINT
  5
378D
100
AcDbEntity
  8
DEFPOINTS
 62
     0
100
AcDbPoint
 10
3.11
 20
-7.74
 30
0.0
  0
POINT
  5
378E
100
AcDbEntity
  8
DEFPOINTS
 62
     0
100
AcDbPoint
 10
3.11
 20
1.198437
 30
0.0
  0
ENDBLK
  5
3715
100
AcDbEntity
  8
0
100
AcDbBlockEnd
  0
BLOCK
  5
3736
100
AcDbEntity
  8
0
100
AcDbBlockBegin
  2
*D2
 70
     1
 10
0.0
 20
0.0
 30
0.0
  3
*D2
  1

  0
LINE
  5
377B
100
AcDbEntity
  8
AREA2
 62
     0
100
AcDbLine
 10
-2.107476
 20
6.5
 30
0.0
 11
-4.675555
 21
6.5
 31
0.0
1001
ACAD
1000
RTLwPs
1070
   158
  0
LINE
  5
377C
100
AcDbEntity
  8
AREA2
 62
     0
100
AcDbLine
 10
-3.202476
 20
0.0
 30
0.0
 11
-4.675555
 21
0.0
 31
0.0
1001
ACAD
1000
RTLwPs
1070
   158
  0
LINE
  5
377D
100
AcDbEntity
  8
AREA2
 62
     0
100
AcDbLine
 10
-4.121224
 20
5.94567
 30
0.0
 11
-4.121224
 21
5.812333
 31
0.0
1001
ACAD
1000
RTLwPs
1070
   158
  0
LINE
  5
377E
100
AcDbEntity
  8
AREA2
 62
     0
100
AcDbLine
 10
-4.121224
 20
0.55433
 30
0.0
 11
-4.121224
 21
0.787431
 31
0.0
1001
ACAD
1000
RTLwPs
1070
   158
  0
MTEXT
  5
377F
100
AcDbEntity
  8
AREA2
 62
     0
100
AcDbMText
 10
-4.121224
 20
3.299882
 30
0.0
 40
0.40035
 41
0.0
 71
     5
 72
     1
  1
\A1;6 1/2 [165.10]
 11
0.0
 21
1.0
 31
0.0
1001
ACAD
1000
MTEXTBEGIN
1070
    73
1070
     1
1070
    44
1040
1.0
1070
    74
1070
     0
1000
MTEXTEND
1000
MTEXTBEGIN
1070
    73
1070
     1
1070
    44
1040
1.0
1070
    74
1070
     0
1000
MTEXTEND
1000
MTEXTBEGIN
1070
    73
1070
     1
1070
    44
1040
1.0
1070
    74
1070
     0
1000
MTEXTEND
1000
MTEXTBEGIN
1070
    73
1070
     1
1070
    44
1040
1.0
1070
    74
1070
     0
1000
MTEXTEND
  0
SOLID
  5
3780
100
AcDbEntity
  8
AREA2
 62
     0
100
AcDbTrace
 10
-4.213613
 20
5.94567
 30
0.0
 11
-4.028836
 21
5.94567
 31
0.0
 12
-4.121224
 22
6.5
 32
0.0
 13
-4.121224
 23
6.5
 33
0.0
  0
SOLID
  5
3781
100
AcDbEntity
  8
AREA2
 62
     0
100
AcDbTrace
 10
-4.213613
 20
0.55433
 30
0.0
 11
-4.028836
 21
0.55433
 31
0.0
 12
-4.121224
 22
0.0
 32
0.0
 13
-4.121224
 23
0.0
 33
0.0
  0
POINT
  5
3782
100
AcDbEntity
  8
DEFPOINTS
 62
     0
100
AcDbPoint
 10
-1.915
 20
6.5
 30
0.69
  0
POINT
  5
3783
100
AcDbEntity
  8
DEFPOINTS
 62
     0
100
AcDbPoint
 10
-3.01
 20
0.0
 30
-0.281835
  0
POINT
  5
3784
100
AcDbEntity
  8
DEFPOINTS
 62
     0
100
AcDbPoint
 10
-4.121224
 20
0.0
 30
0.0
  0
ENDBLK
  5
3737
100
AcDbEntity
  8
0
100
AcDbBlockEnd
  0
ENDSEC
  0
SECTION
  2
ENTITIES
  0
LWPOLYLINE
  5
34A7
100
AcDbEntity
  8
SCALE
100
AcDbPolyline
 90
        4
 70
     1
 43
0.0
 10
-0.399434
 20
-10.139405
 10
0.736195
 20
-10.139405
 10
0.736195
 20
-10.981014
 10
-0.399434
 20
-10.981014
  0
LINE
  5
34A8
100
AcDbEntity
  8
SCALE
100
AcDbLine
 10
-0.341435
 20
-10.519483
 30
0.0
 11
0.658565
 21
-10.519483
 31
0.0
  0
LINE
  5
34A9
100
AcDbEntity
  8
SCALE
100
AcDbLine
 10
-0.341435
 20
-10.819483
 30
0.0
 11
0.052265
 21
-10.819483
 31
0.0
  0
LINE
  5
34AA
100
AcDbEntity
  8
SCALE
100
AcDbLine
 10
-0.341435
 20
-10.619483
 30
0.0
 11
-0.341435
 21
-10.419483
 31
0.0
  0
TEXT
  5
34AB
100
AcDbEntity
  8
SCALE
100
AcDbText
 10
-0.285459
 20
-10.771798
 30
0.0
 40
0.0625
  1
[10mm]
100
AcDbText
  0
LINE
  5
34AC
100
AcDbEntity
  8
SCALE
100
AcDbLine
 10
-0.341435
 20
-10.919483
 30
0.0
 11
-0.341435
 21
-10.719483
 31
0.0
  0
TEXT
  5
34AD
100
AcDbEntity
  8
SCALE
100
AcDbText
 10
-0.339905
 20
-10.244606
 30
0.0
 40
0.0625
  1
SCALE:
100
AcDbText
  0
LINE
  5
34AE
100
AcDbEntity
  8
SCALE
100
AcDbLine
 10
0.052265
 20
-10.919483
 30
0.0
 11
0.052265
 21
-10.719483
 31
0.0
  0
TEXT
  5
34AF
100
AcDbEntity
  8
SCALE
100
AcDbText
 10
0.021848
 20
-10.450434
 30
0.0
 40
0.0625
  1
1 Inch
100
AcDbText
  0
LINE
  5
34B0
100
AcDbEntity
  8
SCALE
100
AcDbLine
 10
0.658565
 20
-10.519483
 30
0.0
 11
0.658565
 21
-10.619483
 31
0.0
  0
LINE
  5
34B1
100
AcDbEntity
  8
SCALE
100
AcDbLine
 10
0.658565
 20
-10.619483
 30
0.0
 11
0.658565
 21
-10.419483
 31
0.0
  0
LINE
  5
34B2
100
AcDbEntity
  8
0
100
AcDbLine
 10
-0.23
 20
-0.75
 30
0.0
 11
0.33
 21
-0.75
 31
0.0
  0
LINE
  5
34B3
100
AcDbEntity
  8
0
100
AcDbLine
 10
-0.23
 20
-0.75
 30
0.19
 11
0.33
 21
-0.75
 31
0.19
  0
LINE
  5
34B4
100
AcDbEntity
  8
0
100
AcDbLine
 10
-2.57
 20
-8.66
 30
0.0
 11
-2.57
 21
-8.66
 31
0.19
  0
LINE
  5
34B5
100
AcDbEntity
  8
0
100
AcDbLine
 10
-0.502263
 20
-5.827579
 30
5.69
 11
-0.417878
 21
-6.0626
 31
5.69
  0
LINE
  5
34B6
100
AcDbEntity
  8
0
100
AcDbLine
 10
-0.487299
 20
-5.821797
 30
5.69
 11
-0.402914
 21
-6.056818
 31
5.69
  0
CIRCLE
  5
34B7
100
AcDbEntity
  8
0
100
AcDbCircle
 10
-0.45
 20
-5.94
 30
5.69
 40
0.125
  0
LINE
  5
34B8
100
AcDbEntity
  8
0
100
AcDbLine
 10
-0.09
 20
0.0
 30
0.0
 11
-0.09
 21
-0.197513
 31
0.0
  0
LINE
  5
34B9
100
AcDbEntity
  8
0
100
AcDbLine
 10
-0.09
 20
0.0
 30
0.19
 11
-0.09
 21
-0.197513
 31
0.19
  0
ARC
  5
34BA
100
AcDbEntity
  8
0
100
AcDbCircle
 10
0.05
 20
-0.44
 30
0.0
 40
0.28
100
AcDbArc
 50
120.0
 51
179.999985
  0
ARC
  5
34BB
100
AcDbEntity
  8
0
100
AcDbCircle
 10
0.05
 20
-0.44
 30
0.19
 40
0.28
100
AcDbArc
 50
120.0
 51
179.999985
  0
LINE
  5
34BC
100
AcDbEntity
  8
0
100
AcDbLine
 10
-0.23
 20
-0.44
 30
0.0
 11
-0.23
 21
-0.75
 31
0.0
  0
LINE
  5
34BD
100
AcDbEntity
  8
0
100
AcDbLine
 10
-0.23
 20
-0.44
 30
0.19
 11
-0.23
 21
-0.75
 31
0.19
  0
LINE
  5
34BE
100
AcDbEntity
  8
0
100
AcDbLine
 10
-0.23
 20
-0.75
 30
0.0
 11
-0.23
 21
-0.75
 31
0.19
  0
LINE
  5
34BF
100
AcDbEntity
  8
0
100
AcDbLine
 10
-0.23
 20
-0.44
 30
0.0
 11
-0.23
 21
-0.44
 31
0.19
  0
LINE
  5
34C0
100
AcDbEntity
  8
0
100
AcDbLine
 10
-0.09
 20
-0.197513
 30
0.0
 11
-0.09
 21
-0.197513
 31
0.19
  0
CIRCLE
  5
34C1
100
AcDbEntity
  8
0
100
AcDbCircle
 10
-1.54
 20
-1.065
 30
6.5
 40
0.22
  0
CIRCLE
  5
34C2
100
AcDbEntity
  8
0
100
AcDbCircle
 10
2.81
 20
-8.66
 30
0.0
 40
0.14
  0
CIRCLE
  5
34C3
100
AcDbEntity
  8
0
100
AcDbCircle
 10
2.81
 20
-8.66
 30
0.19
 40
0.14
  0
LINE
  5
34C4
100
AcDbEntity
  8
0
100
AcDbLine
 10
2.95
 20
-8.66
 30
0.0
 11
2.95
 21
-8.66
 31
0.19
  0
CIRCLE
  5
34C5
100
AcDbEntity
  8
0
100
AcDbCircle
 10
0.55
 20
-5.94
 30
5.69
 40
0.125
  0
LINE
  5
34C6
100
AcDbEntity
  8
0
100
AcDbLine
 10
0.497737
 20
-5.827579
 30
5.69
 11
0.582122
 21
-6.0626
 31
5.69
  0
LINE
  5
34C7
100
AcDbEntity
  8
0
100
AcDbLine
 10
0.512701
 20
-5.821797
 30
5.69
 11
0.597086
 21
-6.056818
 31
5.69
  0
CIRCLE
  5
34C8
100
AcDbEntity
  8
0
100
AcDbCircle
 10
0.83
 20
0.0
 30
0.0
 40
0.14
  0
CIRCLE
  5
34C9
100
AcDbEntity
  8
0
100
AcDbCircle
 10
0.83
 20
0.0
 30
0.19
 40
0.14
  0
LINE
  5
34CA
100
AcDbEntity
  8
0
100
AcDbLine
 10
0.19
 20
0.0
 30
0.19
 11
0.19
 21
-0.197513
 31
0.19
  0
ARC
  5
34CB
100
AcDbEntity
  8
0
100
AcDbCircle
 10
0.05
 20
-0.44
 30
0.0
 40
0.28
100
AcDbArc
 50
0.0
 51
60.0
  0
ARC
  5
34CC
100
AcDbEntity
  8
0
100
AcDbCircle
 10
0.05
 20
-0.44
 30
0.19
 40
0.28
100
AcDbArc
 50
0.0
 51
60.0
  0
LINE
  5
34CD
100
AcDbEntity
  8
0
100
AcDbLine
 10
0.19
 20
-0.197513
 30
0.0
 11
0.19
 21
-0.197513
 31
0.19
  0
LINE
  5
34CE
100
AcDbEntity
  8
0
100
AcDbLine
 10
0.33
 20
-0.44
 30
0.0
 11
0.33
 21
-0.75
 31
0.0
  0
LINE
  5
34CF
100
AcDbEntity
  8
0
100
AcDbLine
 10
0.33
 20
-0.44
 30
0.19
 11
0.33
 21
-0.75
 31
0.19
  0
LINE
  5
34D0
100
AcDbEntity
  8
0
100
AcDbLine
 10
0.33
 20
-0.75
 30
0.0
 11
0.33
 21
-0.75
 31
0.19
  0
LINE
  5
34D1
100
AcDbEntity
  8
0
100
AcDbLine
 10
0.33
 20
-0.44
 30
0.0
 11
0.33
 21
-0.44
 31
0.19
  0
LINE
  5
34D2
100
AcDbEntity
  8
0
100
AcDbLine
 10
0.97
 20
0.0
 30
0.0
 11
0.97
 21
0.0
 31
0.19
  0
CIRCLE
  5
34D3
100
AcDbEntity
  8
0
100
AcDbCircle
 10
-2.71
 20
-8.66
 30
0.0
 40
0.14
  0
CIRCLE
  5
34D4
100
AcDbEntity
  8
0
100
AcDbCircle
 10
-2.71
 20
-8.66
 30
0.19
 40
0.14
  0
POLYLINE
  5
34D5
100
AcDbEntity
  8
0
100
AcDbPolygonMesh
 66
     1
 10
0.0
 20
0.0
 30
0.0
 70
    16
 71
     6
 72
     3
  0
VERTEX
  5
34D6
100
AcDbEntity
  8
0
100
AcDbVertex
100
AcDbPolygonMeshVertex
 10
2.8
 20
-8.5
 30
4.88
 70
    64
  0
VERTEX
  5
34D7
100
AcDbEntity
  8
0
100
AcDbVertex
100
AcDbPolygonMeshVertex
 10
2.8
 20
-8.5
 30
2.0
 70
    64
  0
VERTEX
  5
34D8
100
AcDbEntity
  8
0
100
AcDbVertex
100
AcDbPolygonMeshVertex
 10
2.8
 20
-8.5
 30
2.0
 70
    64
  0
VERTEX
  5
34D9
100
AcDbEntity
  8
0
100
AcDbVertex
100
AcDbPolygonMeshVertex
 10
-2.7
 20
-8.5
 30
4.88
 70
    64
  0
VERTEX
  5
34DA
100
AcDbEntity
  8
0
100
AcDbVertex
100
AcDbPolygonMeshVertex
 10
-2.7
 20
-8.5
 30
2.0
 70
    64
  0
VERTEX
  5
34DB
100
AcDbEntity
  8
0
100
AcDbVertex
100
AcDbPolygonMeshVertex
 10
-2.7
 20
-8.5
 30
2.0
 70
    64
  0
VERTEX
  5
34DC
100
AcDbEntity
  8
0
100
AcDbVertex
100
AcDbPolygonMeshVertex
 10
-2.7
 20
-4.56
 30
4.88
 70
    64
  0
VERTEX
  5
34DD
100
AcDbEntity
  8
0
100
AcDbVertex
100
AcDbPolygonMeshVertex
 10
-2.7
 20
-4.56
 30
2.0
 70
    64
  0
VERTEX
  5
34DE
100
AcDbEntity
  8
0
100
AcDbVertex
100
AcDbPolygonMeshVertex
 10
-2.7
 20
-8.5
 30
2.0
 70
    64
  0
VERTEX
  5
34DF
100
AcDbEntity
  8
0
100
AcDbVertex
100
AcDbPolygonMeshVertex
 10
2.8
 20
-4.56
 30
4.88
 70
    64
  0
VERTEX
  5
34E0
100
AcDbEntity
  8
0
100
AcDbVertex
100
AcDbPolygonMeshVertex
 10
2.8
 20
-4.56
 30
2.0
 70
    64
  0
VERTEX
  5
34E1
100
AcDbEntity
  8
0
100
AcDbVertex
100
AcDbPolygonMeshVertex
 10
2.8
 20
-8.5
 30
2.0
 70
    64
  0
VERTEX
  5
34E2
100
AcDbEntity
  8
0
100
AcDbVertex
100
AcDbPolygonMeshVertex
 10
2.8
 20
-4.56
 30
4.88
 70
    64
  0
VERTEX
  5
34E3
100
AcDbEntity
  8
0
100
AcDbVertex
100
AcDbPolygonMeshVertex
 10
2.8
 20
-4.56
 30
4.88
 70
    64
  0
VERTEX
  5
34E4
100
AcDbEntity
  8
0
100
AcDbVertex
100
AcDbPolygonMeshVertex
 10
2.8
 20
-8.5
 30
4.88
 70
    64
  0
VERTEX
  5
34E5
100
AcDbEntity
  8
0
100
AcDbVertex
100
AcDbPolygonMeshVertex
 10
-2.7
 20
-4.56
 30
4.88
 70
    64
  0
VERTEX
  5
34E6
100
AcDbEntity
  8
0
100
AcDbVertex
100
AcDbPolygonMeshVertex
 10
-2.7
 20
-4.56
 30
4.88
 70
    64
  0
VERTEX
  5
34E7
100
AcDbEntity
  8
0
100
AcDbVertex
100
AcDbPolygonMeshVertex
 10
-2.7
 20
-8.5
 30
4.88
 70
    64
  0
SEQEND
  5
34E8
100
AcDbEntity
  8
0
  0
LINE
  5
34E9
100
AcDbEntity
  8
0
100
AcDbLine
 10
-2.39
 20
-8.5
 30
0.19
 11
-2.39
 21
-9.88
 31
0.19
  0
LINE
  5
34EA
100
AcDbEntity
  8
0
100
AcDbLine
 10
2.49
 20
-8.5
 30
0.19
 11
2.49
 21
-9.88
 31
0.19
  0
POLYLINE
  5
34EB
100
AcDbEntity
  8
0
100
AcDbPolygonMesh
 66
     1
 10
0.0
 20
0.0
 30
0.0
 70
    16
 71
     6
 72
     3
  0
VERTEX
  5
34EC
100
AcDbEntity
  8
0
100
AcDbVertex
100
AcDbPolygonMeshVertex
 10
2.49
 20
-9.88
 30
1.0
 70
    64
  0
VERTEX
  5
34ED
100
AcDbEntity
  8
0
100
AcDbVertex
100
AcDbPolygonMeshVertex
 10
2.49
 20
-9.88
 30
0.19
 70
    64
  0
VERTEX
  5
34EE
100
AcDbEntity
  8
0
100
AcDbVertex
100
AcDbPolygonMeshVertex
 10
2.49
 20
-9.88
 30
0.19
 70
    64
  0
VERTEX
  5
34EF
100
AcDbEntity
  8
0
100
AcDbVertex
100
AcDbPolygonMeshVertex
 10
-2.39
 20
-9.88
 30
1.0
 70
    64
  0
VERTEX
  5
34F0
100
AcDbEntity
  8
0
100
AcDbVertex
100
AcDbPolygonMeshVertex
 10
-2.39
 20
-9.88
 30
0.19
 70
    64
  0
VERTEX
  5
34F1
100
AcDbEntity
  8
0
100
AcDbVertex
100
AcDbPolygonMeshVertex
 10
-2.39
 20
-9.88
 30
0.19
 70
    64
  0
VERTEX
  5
34F2
100
AcDbEntity
  8
0
100
AcDbVertex
100
AcDbPolygonMeshVertex
 10
-2.39
 20
-9.25
 30
1.0
 70
    64
  0
VERTEX
  5
34F3
100
AcDbEntity
  8
0
100
AcDbVertex
100
AcDbPolygonMeshVertex
 10
-2.39
 20
-9.25
 30
0.19
 70
    64
  0
VERTEX
  5
34F4
100
AcDbEntity
  8
0
100
AcDbVertex
100
AcDbPolygonMeshVertex
 10
-2.39
 20
-9.88
 30
0.19
 70
    64
  0
VERTEX
  5
34F5
100
AcDbEntity
  8
0
100
AcDbVertex
100
AcDbPolygonMeshVertex
 10
2.49
 20
-9.25
 30
1.0
 70
    64
  0
VERTEX
  5
34F6
100
AcDbEntity
  8
0
100
AcDbVertex
100
AcDbPolygonMeshVertex
 10
2.49
 20
-9.25
 30
0.19
 70
    64
  0
VERTEX
  5
34F7
100
AcDbEntity
  8
0
100
AcDbVertex
100
AcDbPolygonMeshVertex
 10
2.49
 20
-9.88
 30
0.19
 70
    64
  0
VERTEX
  5
34F8
100
AcDbEntity
  8
0
100
AcDbVertex
100
AcDbPolygonMeshVertex
 10
2.49
 20
-9.25
 30
1.0
 70
    64
  0
VERTEX
  5
34F9
100
AcDbEntity
  8
0
100
AcDbVertex
100
AcDbPolygonMeshVertex
 10
2.49
 20
-9.25
 30
1.0
 70
    64
  0
VERTEX
  5
34FA
100
AcDbEntity
  8
0
100
AcDbVertex
100
AcDbPolygonMeshVertex
 10
2.49
 20
-9.88
 30
1.0
 70
    64
  0
VERTEX
  5
34FB
100
AcDbEntity
  8
0
100
AcDbVertex
100
AcDbPolygonMeshVertex
 10
-2.39
 20
-9.25
 30
1.0
 70
    64
  0
VERTEX
  5
34FC
100
AcDbEntity
  8
0
100
AcDbVertex
100
AcDbPolygonMeshVertex
 10
-2.39
 20
-9.25
 30
1.0
 70
    64
  0
VERTEX
  5
34FD
100
AcDbEntity
  8
0
100
AcDbVertex
100
AcDbPolygonMeshVertex
 10
-2.39
 20
-9.88
 30
1.0
 70
    64
  0
SEQEND
  5
34FE
100
AcDbEntity
  8
0
  0
LINE
  5
34FF
100
AcDbEntity
  8
0
100
AcDbLine
 10
-2.39
 20
-8.94
 30
1.56
 11
-2.39
 21
-8.94
 31
0.19
  0
POLYLINE
  5
3500
100
AcDbEntity
  8
0
100
AcDbPolygonMesh
 66
     1
 10
0.0
 20
0.0
 30
0.0
 70
    16
 71
     6
 72
     3
  0
VERTEX
  5
3501
100
AcDbEntity
  8
0
100
AcDbVertex
100
AcDbPolygonMeshVertex
 10
2.49
 20
-9.25
 30
1.56
 70
    64
  0
VERTEX
  5
3502
100
AcDbEntity
  8
0
100
AcDbVertex
100
AcDbPolygonMeshVertex
 10
2.49
 20
-9.25
 30
0.19
 70
    64
  0
VERTEX
  5
3503
100
AcDbEntity
  8
0
100
AcDbVertex
100
AcDbPolygonMeshVertex
 10
2.49
 20
-9.25
 30
0.19
 70
    64
  0
VERTEX
  5
3504
100
AcDbEntity
  8
0
100
AcDbVertex
100
AcDbPolygonMeshVertex
 10
-2.39
 20
-9.25
 30
1.56
 70
    64
  0
VERTEX
  5
3505
100
AcDbEntity
  8
0
100
AcDbVertex
100
AcDbPolygonMeshVertex
 10
-2.39
 20
-9.25
 30
0.19
 70
    64
  0
VERTEX
  5
3506
100
AcDbEntity
  8
0
100
AcDbVertex
100
AcDbPolygonMeshVertex
 10
-2.39
 20
-9.25
 30
0.19
 70
    64
  0
VERTEX
  5
3507
100
AcDbEntity
  8
0
100
AcDbVertex
100
AcDbPolygonMeshVertex
 10
-2.39
 20
-8.94
 30
1.56
 70
    64
  0
VERTEX
  5
3508
100
AcDbEntity
  8
0
100
AcDbVertex
100
AcDbPolygonMeshVertex
 10
-2.39
 20
-8.94
 30
0.19
 70
    64
  0
VERTEX
  5
3509
100
AcDbEntity
  8
0
100
AcDbVertex
100
AcDbPolygonMeshVertex
 10
-2.39
 20
-9.25
 30
0.19
 70
    64
  0
VERTEX
  5
350A
100
AcDbEntity
  8
0
100
AcDbVertex
100
AcDbPolygonMeshVertex
 10
2.49
 20
-8.94
 30
1.56
 70
    64
  0
VERTEX
  5
350B
100
AcDbEntity
  8
0
100
AcDbVertex
100
AcDbPolygonMeshVertex
 10
2.49
 20
-8.94
 30
0.19
 70
    64
  0
VERTEX
  5
350C
100
AcDbEntity
  8
0
100
AcDbVertex
100
AcDbPolygonMeshVertex
 10
2.49
 20
-9.25
 30
0.19
 70
    64
  0
VERTEX
  5
350D
100
AcDbEntity
  8
0
100
AcDbVertex
100
AcDbPolygonMeshVertex
 10
2.49
 20
-8.94
 30
1.56
 70
    64
  0
VERTEX
  5
350E
100
AcDbEntity
  8
0
100
AcDbVertex
100
AcDbPolygonMeshVertex
 10
2.49
 20
-8.94
 30
1.56
 70
    64
  0
VERTEX
  5
350F
100
AcDbEntity
  8
0
100
AcDbVertex
100
AcDbPolygonMeshVertex
 10
2.49
 20
-9.25
 30
1.56
 70
    64
  0
VERTEX
  5
3510
100
AcDbEntity
  8
0
100
AcDbVertex
100
AcDbPolygonMeshVertex
 10
-2.39
 20
-8.94
 30
1.56
 70
    64
  0
VERTEX
  5
3511
100
AcDbEntity
  8
0
100
AcDbVertex
100
AcDbPolygonMeshVertex
 10
-2.39
 20
-8.94
 30
1.56
 70
    64
  0
VERTEX
  5
3512
100
AcDbEntity
  8
0
100
AcDbVertex
100
AcDbPolygonMeshVertex
 10
-2.39
 20
-9.25
 30
1.56
 70
    64
  0
SEQEND
  5
3513
100
AcDbEntity
  8
0
  0
POLYLINE
  5
3514
100
AcDbEntity
  8
0
100
AcDbPolygonMesh
 66
     1
 10
0.0
 20
0.0
 30
0.0
 70
    16
 71
     6
 72
     3
  0
VERTEX
  5
3515
100
AcDbEntity
  8
0
100
AcDbVertex
100
AcDbPolygonMeshVertex
 10
2.49
 20
-8.94
 30
2.0
 70
    64
  0
VERTEX
  5
3516
100
AcDbEntity
  8
0
100
AcDbVertex
100
AcDbPolygonMeshVertex
 10
2.49
 20
-8.94
 30
0.19
 70
    64
  0
VERTEX
  5
3517
100
AcDbEntity
  8
0
100
AcDbVertex
100
AcDbPolygonMeshVertex
 10
2.49
 20
-8.94
 30
0.19
 70
    64
  0
VERTEX
  5
3518
100
AcDbEntity
  8
0
100
AcDbVertex
100
AcDbPolygonMeshVertex
 10
-2.39
 20
-8.94
 30
2.0
 70
    64
  0
VERTEX
  5
3519
100
AcDbEntity
  8
0
100
AcDbVertex
100
AcDbPolygonMeshVertex
 10
-2.39
 20
-8.94
 30
0.19
 70
    64
  0
VERTEX
  5
351A
100
AcDbEntity
  8
0
100
AcDbVertex
100
AcDbPolygonMeshVertex
 10
-2.39
 20
-8.94
 30
0.19
 70
    64
  0
VERTEX
  5
351B
100
AcDbEntity
  8
0
100
AcDbVertex
100
AcDbPolygonMeshVertex
 10
-2.39
 20
-4.5
 30
2.0
 70
    64
  0
VERTEX
  5
351C
100
AcDbEntity
  8
0
100
AcDbVertex
100
AcDbPolygonMeshVertex
 10
-2.39
 20
-4.5
 30
0.19
 70
    64
  0
VERTEX
  5
351D
100
AcDbEntity
  8
0
100
AcDbVertex
100
AcDbPolygonMeshVertex
 10
-2.39
 20
-8.94
 30
0.19
 70
    64
  0
VERTEX
  5
351E
100
AcDbEntity
  8
0
100
AcDbVertex
100
AcDbPolygonMeshVertex
 10
2.49
 20
-4.5
 30
2.0
 70
    64
  0
VERTEX
  5
351F
100
AcDbEntity
  8
0
100
AcDbVertex
100
AcDbPolygonMeshVertex
 10
2.49
 20
-4.5
 30
0.19
 70
    64
  0
VERTEX
  5
3520
100
AcDbEntity
  8
0
100
AcDbVertex
100
AcDbPolygonMeshVertex
 10
2.49
 20
-8.94
 30
0.19
 70
    64
  0
VERTEX
  5
3521
100
AcDbEntity
  8
0
100
AcDbVertex
100
AcDbPolygonMeshVertex
 10
2.49
 20
-4.5
 30
2.0
 70
    64
  0
VERTEX
  5
3522
100
AcDbEntity
  8
0
100
AcDbVertex
100
AcDbPolygonMeshVertex
 10
2.49
 20
-4.5
 30
2.0
 70
    64
  0
VERTEX
  5
3523
100
AcDbEntity
  8
0
100
AcDbVertex
100
AcDbPolygonMeshVertex
 10
2.49
 20
-8.94
 30
2.0
 70
    64
  0
VERTEX
  5
3524
100
AcDbEntity
  8
0
100
AcDbVertex
100
AcDbPolygonMeshVertex
 10
-2.39
 20
-4.5
 30
2.0
 70
    64
  0
VERTEX
  5
3525
100
AcDbEntity
  8
0
100
AcDbVertex
100
AcDbPolygonMeshVertex
 10
-2.39
 20
-4.5
 30
2.0
 70
    64
  0
VERTEX
  5
3526
100
AcDbEntity
  8
0
100
AcDbVertex
100
AcDbPolygonMeshVertex
 10
-2.39
 20
-8.94
 30
2.0
 70
    64
  0
SEQEND
  5
3527
100
AcDbEntity
  8
0
  0
POLYLINE
  5
3528
100
AcDbEntity
  8
0
100
AcDbPolygonMesh
 66
     1
 10
0.0
 20
0.0
 30
0.0
 70
    16
 71
     6
 72
     3
  0
VERTEX
  5
3529
100
AcDbEntity
  8
0
100
AcDbVertex
100
AcDbPolygonMeshVertex
 10
2.49
 20
-4.5
 30
4.88
 70
    64
  0
VERTEX
  5
352A
100
AcDbEntity
  8
0
100
AcDbVertex
100
AcDbPolygonMeshVertex
 10
2.49
 20
-4.5
 30
0.19
 70
    64
  0
VERTEX
  5
352B
100
AcDbEntity
  8
0
100
AcDbVertex
100
AcDbPolygonMeshVertex
 10
2.49
 20
-4.5
 30
0.19
 70
    64
  0
VERTEX
  5
352C
100
AcDbEntity
  8
0
100
AcDbVertex
100
AcDbPolygonMeshVertex
 10
-2.39
 20
-4.5
 30
4.88
 70
    64
  0
VERTEX
  5
352D
100
AcDbEntity
  8
0
100
AcDbVertex
100
AcDbPolygonMeshVertex
 10
-2.39
 20
-4.5
 30
0.19
 70
    64
  0
VERTEX
  5
352E
100
AcDbEntity
  8
0
100
AcDbVertex
100
AcDbPolygonMeshVertex
 10
-2.39
 20
-4.5
 30
0.19
 70
    64
  0
VERTEX
  5
352F
100
AcDbEntity
  8
0
100
AcDbVertex
100
AcDbPolygonMeshVertex
 10
-2.39
 20
-2.32
 30
4.88
 70
    64
  0
VERTEX
  5
3530
100
AcDbEntity
  8
0
100
AcDbVertex
100
AcDbPolygonMeshVertex
 10
-2.39
 20
-2.32
 30
0.19
 70
    64
  0
VERTEX
  5
3531
100
AcDbEntity
  8
0
100
AcDbVertex
100
AcDbPolygonMeshVertex
 10
-2.39
 20
-4.5
 30
0.19
 70
    64
  0
VERTEX
  5
3532
100
AcDbEntity
  8
0
100
AcDbVertex
100
AcDbPolygonMeshVertex
 10
2.49
 20
-2.32
 30
4.88
 70
    64
  0
VERTEX
  5
3533
100
AcDbEntity
  8
0
100
AcDbVertex
100
AcDbPolygonMeshVertex
 10
2.49
 20
-2.32
 30
0.19
 70
    64
  0
VERTEX
  5
3534
100
AcDbEntity
  8
0
100
AcDbVertex
100
AcDbPolygonMeshVertex
 10
2.49
 20
-4.5
 30
0.19
 70
    64
  0
VERTEX
  5
3535
100
AcDbEntity
  8
0
100
AcDbVertex
100
AcDbPolygonMeshVertex
 10
2.49
 20
-2.32
 30
4.88
 70
    64
  0
VERTEX
  5
3536
100
AcDbEntity
  8
0
100
AcDbVertex
100
AcDbPolygonMeshVertex
 10
2.49
 20
-2.32
 30
4.88
 70
    64
  0
VERTEX
  5
3537
100
AcDbEntity
  8
0
100
AcDbVertex
100
AcDbPolygonMeshVertex
 10
2.49
 20
-4.5
 30
4.88
 70
    64
  0
VERTEX
  5
3538
100
AcDbEntity
  8
0
100
AcDbVertex
100
AcDbPolygonMeshVertex
 10
-2.39
 20
-2.32
 30
4.88
 70
    64
  0
VERTEX
  5
3539
100
AcDbEntity
  8
0
100
AcDbVertex
100
AcDbPolygonMeshVertex
 10
-2.39
 20
-2.32
 30
4.88
 70
    64
  0
VERTEX
  5
353A
100
AcDbEntity
  8
0
100
AcDbVertex
100
AcDbPolygonMeshVertex
 10
-2.39
 20
-4.5
 30
4.88
 70
    64
  0
SEQEND
  5
353B
100
AcDbEntity
  8
0
  0
POLYLINE
  5
353C
100
AcDbEntity
  8
0
100
AcDbPolygonMesh
 66
     1
 10
0.0
 20
0.0
 30
0.0
 70
    16
 71
     6
 72
     3
  0
VERTEX
  5
353D
100
AcDbEntity
  8
0
100
AcDbVertex
100
AcDbPolygonMeshVertex
 10
2.55
 20
-2.32
 30
5.5
 70
    64
  0
VERTEX
  5
353E
100
AcDbEntity
  8
0
100
AcDbVertex
100
AcDbPolygonMeshVertex
 10
2.55
 20
-2.32
 30
0.19
 70
    64
  0
VERTEX
  5
353F
100
AcDbEntity
  8
0
100
AcDbVertex
100
AcDbPolygonMeshVertex
 10
2.55
 20
-2.32
 30
0.19
 70
    64
  0
VERTEX
  5
3540
100
AcDbEntity
  8
0
100
AcDbVertex
100
AcDbPolygonMeshVertex
 10
-2.45
 20
-2.32
 30
5.5
 70
    64
  0
VERTEX
  5
3541
100
AcDbEntity
  8
0
100
AcDbVertex
100
AcDbPolygonMeshVertex
 10
-2.45
 20
-2.32
 30
0.19
 70
    64
  0
VERTEX
  5
3542
100
AcDbEntity
  8
0
100
AcDbVertex
100
AcDbPolygonMeshVertex
 10
-2.45
 20
-2.32
 30
0.19
 70
    64
  0
VERTEX
  5
3543
100
AcDbEntity
  8
0
100
AcDbVertex
100
AcDbPolygonMeshVertex
 10
-2.45
 20
-1.32
 30
5.5
 70
    64
  0
VERTEX
  5
3544
100
AcDbEntity
  8
0
100
AcDbVertex
100
AcDbPolygonMeshVertex
 10
-2.45
 20
-1.32
 30
0.19
 70
    64
  0
VERTEX
  5
3545
100
AcDbEntity
  8
0
100
AcDbVertex
100
AcDbPolygonMeshVertex
 10
-2.45
 20
-2.32
 30
0.19
 70
    64
  0
VERTEX
  5
3546
100
AcDbEntity
  8
0
100
AcDbVertex
100
AcDbPolygonMeshVertex
 10
2.55
 20
-1.32
 30
5.5
 70
    64
  0
VERTEX
  5
3547
100
AcDbEntity
  8
0
100
AcDbVertex
100
AcDbPolygonMeshVertex
 10
2.55
 20
-1.32
 30
0.19
 70
    64
  0
VERTEX
  5
3548
100
AcDbEntity
  8
0
100
AcDbVertex
100
AcDbPolygonMeshVertex
 10
2.55
 20
-2.32
 30
0.19
 70
    64
  0
VERTEX
  5
3549
100
AcDbEntity
  8
0
100
AcDbVertex
100
AcDbPolygonMeshVertex
 10
2.55
 20
-1.32
 30
5.5
 70
    64
  0
VERTEX
  5
354A
100
AcDbEntity
  8
0
100
AcDbVertex
100
AcDbPolygonMeshVertex
 10
2.55
 20
-1.32
 30
5.5
 70
    64
  0
VERTEX
  5
354B
100
AcDbEntity
  8
0
100
AcDbVertex
100
AcDbPolygonMeshVertex
 10
2.55
 20
-2.32
 30
5.5
 70
    64
  0
VERTEX
  5
354C
100
AcDbEntity
  8
0
100
AcDbVertex
100
AcDbPolygonMeshVertex
 10
-2.45
 20
-1.32
 30
5.5
 70
    64
  0
VERTEX
  5
354D
100
AcDbEntity
  8
0
100
AcDbVertex
100
AcDbPolygonMeshVertex
 10
-2.45
 20
-1.32
 30
5.5
 70
    64
  0
VERTEX
  5
354E
100
AcDbEntity
  8
0
100
AcDbVertex
100
AcDbPolygonMeshVertex
 10
-2.45
 20
-2.32
 30
5.5
 70
    64
  0
SEQEND
  5
354F
100
AcDbEntity
  8
0
  0
POLYLINE
  5
3550
100
AcDbEntity
  8
0
100
AcDbPolygonMesh
 66
     1
 10
0.0
 20
0.0
 30
0.0
 70
    16
 71
     6
 72
     3
  0
VERTEX
  5
3551
100
AcDbEntity
  8
0
100
AcDbVertex
100
AcDbPolygonMeshVertex
 10
2.55
 20
-1.32
 30
0.84
 70
    64
  0
VERTEX
  5
3552
100
AcDbEntity
  8
0
100
AcDbVertex
100
AcDbPolygonMeshVertex
 10
2.55
 20
-1.32
 30
0.19
 70
    64
  0
VERTEX
  5
3553
100
AcDbEntity
  8
0
100
AcDbVertex
100
AcDbPolygonMeshVertex
 10
2.55
 20
-1.32
 30
0.19
 70
    64
  0
VERTEX
  5
3554
100
AcDbEntity
  8
0
100
AcDbVertex
100
AcDbPolygonMeshVertex
 10
-2.45
 20
-1.32
 30
0.84
 70
    64
  0
VERTEX
  5
3555
100
AcDbEntity
  8
0
100
AcDbVertex
100
AcDbPolygonMeshVertex
 10
-2.45
 20
-1.32
 30
0.19
 70
    64
  0
VERTEX
  5
3556
100
AcDbEntity
  8
0
100
AcDbVertex
100
AcDbPolygonMeshVertex
 10
-2.45
 20
-1.32
 30
0.19
 70
    64
  0
VERTEX
  5
3557
100
AcDbEntity
  8
0
100
AcDbVertex
100
AcDbPolygonMeshVertex
 10
-2.45
 20
-0.94
 30
0.84
 70
    64
  0
VERTEX
  5
3558
100
AcDbEntity
  8
0
100
AcDbVertex
100
AcDbPolygonMeshVertex
 10
-2.45
 20
-0.94
 30
0.19
 70
    64
  0
VERTEX
  5
3559
100
AcDbEntity
  8
0
100
AcDbVertex
100
AcDbPolygonMeshVertex
 10
-2.45
 20
-1.32
 30
0.19
 70
    64
  0
VERTEX
  5
355A
100
AcDbEntity
  8
0
100
AcDbVertex
100
AcDbPolygonMeshVertex
 10
2.55
 20
-0.94
 30
0.84
 70
    64
  0
VERTEX
  5
355B
100
AcDbEntity
  8
0
100
AcDbVertex
100
AcDbPolygonMeshVertex
 10
2.55
 20
-0.94
 30
0.19
 70
    64
  0
VERTEX
  5
355C
100
AcDbEntity
  8
0
100
AcDbVertex
100
AcDbPolygonMeshVertex
 10
2.55
 20
-1.32
 30
0.19
 70
    64
  0
VERTEX
  5
355D
100
AcDbEntity
  8
0
100
AcDbVertex
100
AcDbPolygonMeshVertex
 10
2.55
 20
-0.94
 30
0.84
 70
    64
  0
VERTEX
  5
355E
100
AcDbEntity
  8
0
100
AcDbVertex
100
AcDbPolygonMeshVertex
 10
2.55
 20
-0.94
 30
0.84
 70
    64
  0
VERTEX
  5
355F
100
AcDbEntity
  8
0
100
AcDbVertex
100
AcDbPolygonMeshVertex
 10
2.55
 20
-1.32
 30
0.84
 70
    64
  0
VERTEX
  5
3560
100
AcDbEntity
  8
0
100
AcDbVertex
100
AcDbPolygonMeshVertex
 10
-2.45
 20
-0.94
 30
0.84
 70
    64
  0
VERTEX
  5
3561
100
AcDbEntity
  8
0
100
AcDbVertex
100
AcDbPolygonMeshVertex
 10
-2.45
 20
-0.94
 30
0.84
 70
    64
  0
VERTEX
  5
3562
100
AcDbEntity
  8
0
100
AcDbVertex
100
AcDbPolygonMeshVertex
 10
-2.45
 20
-1.32
 30
0.84
 70
    64
  0
SEQEND
  5
3563
100
AcDbEntity
  8
0
  0
POLYLINE
  5
3564
100
AcDbEntity
  8
0
100
AcDbPolygonMesh
 66
     1
 10
0.0
 20
0.0
 30
0.0
 70
    16
 71
     6
 72
     3
  0
VERTEX
  5
3565
100
AcDbEntity
  8
0
100
AcDbVertex
100
AcDbPolygonMeshVertex
 10
1.05
 20
-6.5
 30
5.25
 70
    64
  0
VERTEX
  5
3566
100
AcDbEntity
  8
0
100
AcDbVertex
100
AcDbPolygonMeshVertex
 10
1.05
 20
-6.5
 30
4.88
 70
    64
  0
VERTEX
  5
3567
100
AcDbEntity
  8
0
100
AcDbVertex
100
AcDbPolygonMeshVertex
 10
1.05
 20
-6.5
 30
4.88
 70
    64
  0
VERTEX
  5
3568
100
AcDbEntity
  8
0
100
AcDbVertex
100
AcDbPolygonMeshVertex
 10
-0.95
 20
-6.5
 30
5.25
 70
    64
  0
VERTEX
  5
3569
100
AcDbEntity
  8
0
100
AcDbVertex
100
AcDbPolygonMeshVertex
 10
-0.95
 20
-6.5
 30
4.88
 70
    64
  0
VERTEX
  5
356A
100
AcDbEntity
  8
0
100
AcDbVertex
100
AcDbPolygonMeshVertex
 10
-0.95
 20
-6.5
 30
4.88
 70
    64
  0
VERTEX
  5
356B
100
AcDbEntity
  8
0
100
AcDbVertex
100
AcDbPolygonMeshVertex
 10
-0.95
 20
-5.5
 30
5.25
 70
    64
  0
VERTEX
  5
356C
100
AcDbEntity
  8
0
100
AcDbVertex
100
AcDbPolygonMeshVertex
 10
-0.95
 20
-5.5
 30
4.88
 70
    64
  0
VERTEX
  5
356D
100
AcDbEntity
  8
0
100
AcDbVertex
100
AcDbPolygonMeshVertex
 10
-0.95
 20
-6.5
 30
4.88
 70
    64
  0
VERTEX
  5
356E
100
AcDbEntity
  8
0
100
AcDbVertex
100
AcDbPolygonMeshVertex
 10
1.05
 20
-5.5
 30
5.25
 70
    64
  0
VERTEX
  5
356F
100
AcDbEntity
  8
0
100
AcDbVertex
100
AcDbPolygonMeshVertex
 10
1.05
 20
-5.5
 30
4.88
 70
    64
  0
VERTEX
  5
3570
100
AcDbEntity
  8
0
100
AcDbVertex
100
AcDbPolygonMeshVertex
 10
1.05
 20
-6.5
 30
4.88
 70
    64
  0
VERTEX
  5
3571
100
AcDbEntity
  8
0
100
AcDbVertex
100
AcDbPolygonMeshVertex
 10
1.05
 20
-5.5
 30
5.25
 70
    64
  0
VERTEX
  5
3572
100
AcDbEntity
  8
0
100
AcDbVertex
100
AcDbPolygonMeshVertex
 10
1.05
 20
-5.5
 30
5.25
 70
    64
  0
VERTEX
  5
3573
100
AcDbEntity
  8
0
100
AcDbVertex
100
AcDbPolygonMeshVertex
 10
1.05
 20
-6.5
 30
5.25
 70
    64
  0
VERTEX
  5
3574
100
AcDbEntity
  8
0
100
AcDbVertex
100
AcDbPolygonMeshVertex
 10
-0.95
 20
-5.5
 30
5.25
 70
    64
  0
VERTEX
  5
3575
100
AcDbEntity
  8
0
100
AcDbVertex
100
AcDbPolygonMeshVertex
 10
-0.95
 20
-5.5
 30
5.25
 70
    64
  0
VERTEX
  5
3576
100
AcDbEntity
  8
0
100
AcDbVertex
100
AcDbPolygonMeshVertex
 10
-0.95
 20
-6.5
 30
5.25
 70
    64
  0
SEQEND
  5
3577
100
AcDbEntity
  8
0
  0
POLYLINE
  5
3578
100
AcDbEntity
  8
0
100
AcDbPolygonMesh
 66
     1
 10
0.0
 20
0.0
 30
0.0
 70
    16
 71
     6
 72
     3
  0
VERTEX
  5
3579
100
AcDbEntity
  8
0
100
AcDbVertex
100
AcDbPolygonMeshVertex
 10
-0.26
 20
-6.1
 30
5.69
 70
    64
  0
VERTEX
  5
357A
100
AcDbEntity
  8
0
100
AcDbVertex
100
AcDbPolygonMeshVertex
 10
-0.26
 20
-6.1
 30
5.25
 70
    64
  0
VERTEX
  5
357B
100
AcDbEntity
  8
0
100
AcDbVertex
100
AcDbPolygonMeshVertex
 10
-0.26
 20
-6.1
 30
5.25
 70
    64
  0
VERTEX
  5
357C
100
AcDbEntity
  8
0
100
AcDbVertex
100
AcDbPolygonMeshVertex
 10
-0.64
 20
-6.1
 30
5.69
 70
    64
  0
VERTEX
  5
357D
100
AcDbEntity
  8
0
100
AcDbVertex
100
AcDbPolygonMeshVertex
 10
-0.64
 20
-6.1
 30
5.25
 70
    64
  0
VERTEX
  5
357E
100
AcDbEntity
  8
0
100
AcDbVertex
100
AcDbPolygonMeshVertex
 10
-0.64
 20
-6.1
 30
5.25
 70
    64
  0
VERTEX
  5
357F
100
AcDbEntity
  8
0
100
AcDbVertex
100
AcDbPolygonMeshVertex
 10
-0.64
 20
-5.6
 30
5.69
 70
    64
  0
VERTEX
  5
3580
100
AcDbEntity
  8
0
100
AcDbVertex
100
AcDbPolygonMeshVertex
 10
-0.64
 20
-5.6
 30
5.25
 70
    64
  0
VERTEX
  5
3581
100
AcDbEntity
  8
0
100
AcDbVertex
100
AcDbPolygonMeshVertex
 10
-0.64
 20
-6.1
 30
5.25
 70
    64
  0
VERTEX
  5
3582
100
AcDbEntity
  8
0
100
AcDbVertex
100
AcDbPolygonMeshVertex
 10
-0.26
 20
-5.6
 30
5.69
 70
    64
  0
VERTEX
  5
3583
100
AcDbEntity
  8
0
100
AcDbVertex
100
AcDbPolygonMeshVertex
 10
-0.26
 20
-5.6
 30
5.25
 70
    64
  0
VERTEX
  5
3584
100
AcDbEntity
  8
0
100
AcDbVertex
100
AcDbPolygonMeshVertex
 10
-0.26
 20
-6.1
 30
5.25
 70
    64
  0
VERTEX
  5
3585
100
AcDbEntity
  8
0
100
AcDbVertex
100
AcDbPolygonMeshVertex
 10
-0.26
 20
-5.6
 30
5.69
 70
    64
  0
VERTEX
  5
3586
100
AcDbEntity
  8
0
100
AcDbVertex
100
AcDbPolygonMeshVertex
 10
-0.26
 20
-5.6
 30
5.69
 70
    64
  0
VERTEX
  5
3587
100
AcDbEntity
  8
0
100
AcDbVertex
100
AcDbPolygonMeshVertex
 10
-0.26
 20
-6.1
 30
5.69
 70
    64
  0
VERTEX
  5
3588
100
AcDbEntity
  8
0
100
AcDbVertex
100
AcDbPolygonMeshVertex
 10
-0.64
 20
-5.6
 30
5.69
 70
    64
  0
VERTEX
  5
3589
100
AcDbEntity
  8
0
100
AcDbVertex
100
AcDbPolygonMeshVertex
 10
-0.64
 20
-5.6
 30
5.69
 70
    64
  0
VERTEX
  5
358A
100
AcDbEntity
  8
0
100
AcDbVertex
100
AcDbPolygonMeshVertex
 10
-0.64
 20
-6.1
 30
5.69
 70
    64
  0
SEQEND
  5
358B
100
AcDbEntity
  8
0
  0
POLYLINE
  5
358C
100
AcDbEntity
  8
0
100
AcDbPolygonMesh
 66
     1
 10
0.0
 20
0.0
 30
0.0
 70
    16
 71
     6
 72
     3
  0
VERTEX
  5
358D
100
AcDbEntity
  8
0
100
AcDbVertex
100
AcDbPolygonMeshVertex
 10
0.74
 20
-6.1
 30
5.69
 70
    64
  0
VERTEX
  5
358E
100
AcDbEntity
  8
0
100
AcDbVertex
100
AcDbPolygonMeshVertex
 10
0.74
 20
-6.1
 30
5.25
 70
    64
  0
VERTEX
  5
358F
100
AcDbEntity
  8
0
100
AcDbVertex
100
AcDbPolygonMeshVertex
 10
0.74
 20
-6.1
 30
5.25
 70
    64
  0
VERTEX
  5
3590
100
AcDbEntity
  8
0
100
AcDbVertex
100
AcDbPolygonMeshVertex
 10
0.36
 20
-6.1
 30
5.69
 70
    64
  0
VERTEX
  5
3591
100
AcDbEntity
  8
0
100
AcDbVertex
100
AcDbPolygonMeshVertex
 10
0.36
 20
-6.1
 30
5.25
 70
    64
  0
VERTEX
  5
3592
100
AcDbEntity
  8
0
100
AcDbVertex
100
AcDbPolygonMeshVertex
 10
0.36
 20
-6.1
 30
5.25
 70
    64
  0
VERTEX
  5
3593
100
AcDbEntity
  8
0
100
AcDbVertex
100
AcDbPolygonMeshVertex
 10
0.36
 20
-5.6
 30
5.69
 70
    64
  0
VERTEX
  5
3594
100
AcDbEntity
  8
0
100
AcDbVertex
100
AcDbPolygonMeshVertex
 10
0.36
 20
-5.6
 30
5.25
 70
    64
  0
VERTEX
  5
3595
100
AcDbEntity
  8
0
100
AcDbVertex
100
AcDbPolygonMeshVertex
 10
0.36
 20
-6.1
 30
5.25
 70
    64
  0
VERTEX
  5
3596
100
AcDbEntity
  8
0
100
AcDbVertex
100
AcDbPolygonMeshVertex
 10
0.74
 20
-5.6
 30
5.69
 70
    64
  0
VERTEX
  5
3597
100
AcDbEntity
  8
0
100
AcDbVertex
100
AcDbPolygonMeshVertex
 10
0.74
 20
-5.6
 30
5.25
 70
    64
  0
VERTEX
  5
3598
100
AcDbEntity
  8
0
100
AcDbVertex
100
AcDbPolygonMeshVertex
 10
0.74
 20
-6.1
 30
5.25
 70
    64
  0
VERTEX
  5
3599
100
AcDbEntity
  8
0
100
AcDbVertex
100
AcDbPolygonMeshVertex
 10
0.74
 20
-5.6
 30
5.69
 70
    64
  0
VERTEX
  5
359A
100
AcDbEntity
  8
0
100
AcDbVertex
100
AcDbPolygonMeshVertex
 10
0.74
 20
-5.6
 30
5.69
 70
    64
  0
VERTEX
  5
359B
100
AcDbEntity
  8
0
100
AcDbVertex
100
AcDbPolygonMeshVertex
 10
0.74
 20
-6.1
 30
5.69
 70
    64
  0
VERTEX
  5
359C
100
AcDbEntity
  8
0
100
AcDbVertex
100
AcDbPolygonMeshVertex
 10
0.36
 20
-5.6
 30
5.69
 70
    64
  0
VERTEX
  5
359D
100
AcDbEntity
  8
0
100
AcDbVertex
100
AcDbPolygonMeshVertex
 10
0.36
 20
-5.6
 30
5.69
 70
    64
  0
VERTEX
  5
359E
100
AcDbEntity
  8
0
100
AcDbVertex
100
AcDbPolygonMeshVertex
 10
0.36
 20
-6.1
 30
5.69
 70
    64
  0
SEQEND
  5
359F
100
AcDbEntity
  8
0
  0
POLYLINE
  5
35A0
100
AcDbEntity
  8
0
100
AcDbPolygonMesh
 66
     1
 10
0.0
 20
0.0
 30
0.0
 70
    16
 71
     6
 72
     3
  0
VERTEX
  5
35A1
100
AcDbEntity
  8
0
100
AcDbVertex
100
AcDbPolygonMeshVertex
 10
-1.165
 20
-2.32
 30
6.0
 70
    64
  0
VERTEX
  5
35A2
100
AcDbEntity
  8
0
100
AcDbVertex
100
AcDbPolygonMeshVertex
 10
-1.165
 20
-2.32
 30
5.5
 70
    64
  0
VERTEX
  5
35A3
100
AcDbEntity
  8
0
100
AcDbVertex
100
AcDbPolygonMeshVertex
 10
-1.165
 20
-2.32
 30
5.5
 70
    64
  0
VERTEX
  5
35A4
100
AcDbEntity
  8
0
100
AcDbVertex
100
AcDbPolygonMeshVertex
 10
-1.915
 20
-2.32
 30
6.0
 70
    64
  0
VERTEX
  5
35A5
100
AcDbEntity
  8
0
100
AcDbVertex
100
AcDbPolygonMeshVertex
 10
-1.915
 20
-2.32
 30
5.5
 70
    64
  0
VERTEX
  5
35A6
100
AcDbEntity
  8
0
100
AcDbVertex
100
AcDbPolygonMeshVertex
 10
-1.915
 20
-2.32
 30
5.5
 70
    64
  0
VERTEX
  5
35A7
100
AcDbEntity
  8
0
100
AcDbVertex
100
AcDbPolygonMeshVertex
 10
-1.915
 20
-0.69
 30
6.0
 70
    64
  0
VERTEX
  5
35A8
100
AcDbEntity
  8
0
100
AcDbVertex
100
AcDbPolygonMeshVertex
 10
-1.915
 20
-0.69
 30
5.5
 70
    64
  0
VERTEX
  5
35A9
100
AcDbEntity
  8
0
100
AcDbVertex
100
AcDbPolygonMeshVertex
 10
-1.915
 20
-2.32
 30
5.5
 70
    64
  0
VERTEX
  5
35AA
100
AcDbEntity
  8
0
100
AcDbVertex
100
AcDbPolygonMeshVertex
 10
-1.165
 20
-0.69
 30
6.0
 70
    64
  0
VERTEX
  5
35AB
100
AcDbEntity
  8
0
100
AcDbVertex
100
AcDbPolygonMeshVertex
 10
-1.165
 20
-0.69
 30
5.5
 70
    64
  0
VERTEX
  5
35AC
100
AcDbEntity
  8
0
100
AcDbVertex
100
AcDbPolygonMeshVertex
 10
-1.165
 20
-2.32
 30
5.5
 70
    64
  0
VERTEX
  5
35AD
100
AcDbEntity
  8
0
100
AcDbVertex
100
AcDbPolygonMeshVertex
 10
-1.165
 20
-0.69
 30
6.0
 70
    64
  0
VERTEX
  5
35AE
100
AcDbEntity
  8
0
100
AcDbVertex
100
AcDbPolygonMeshVertex
 10
-1.165
 20
-0.69
 30
6.0
 70
    64
  0
VERTEX
  5
35AF
100
AcDbEntity
  8
0
100
AcDbVertex
100
AcDbPolygonMeshVertex
 10
-1.165
 20
-2.32
 30
6.0
 70
    64
  0
VERTEX
  5
35B0
100
AcDbEntity
  8
0
100
AcDbVertex
100
AcDbPolygonMeshVertex
 10
-1.915
 20
-0.69
 30
6.0
 70
    64
  0
VERTEX
  5
35B1
100
AcDbEntity
  8
0
100
AcDbVertex
100
AcDbPolygonMeshVertex
 10
-1.915
 20
-0.69
 30
6.0
 70
    64
  0
VERTEX
  5
35B2
100
AcDbEntity
  8
0
100
AcDbVertex
100
AcDbPolygonMeshVertex
 10
-1.915
 20
-2.32
 30
6.0
 70
    64
  0
SEQEND
  5
35B3
100
AcDbEntity
  8
0
  0
POLYLINE
  5
35B4
100
AcDbEntity
  8
0
100
AcDbPolygonMesh
 66
     1
 10
0.0
 20
0.0
 30
0.0
 70
    16
 71
     6
 72
     3
  0
VERTEX
  5
35B5
100
AcDbEntity
  8
0
100
AcDbVertex
100
AcDbPolygonMeshVertex
 10
-1.165
 20
-1.44
 30
6.5
 70
    64
  0
VERTEX
  5
35B6
100
AcDbEntity
  8
0
100
AcDbVertex
100
AcDbPolygonMeshVertex
 10
-1.165
 20
-1.44
 30
6.0
 70
    64
  0
VERTEX
  5
35B7
100
AcDbEntity
  8
0
100
AcDbVertex
100
AcDbPolygonMeshVertex
 10
-1.165
 20
-1.44
 30
6.0
 70
    64
  0
VERTEX
  5
35B8
100
AcDbEntity
  8
0
100
AcDbVertex
100
AcDbPolygonMeshVertex
 10
-1.915
 20
-1.44
 30
6.5
 70
    64
  0
VERTEX
  5
35B9
100
AcDbEntity
  8
0
100
AcDbVertex
100
AcDbPolygonMeshVertex
 10
-1.915
 20
-1.44
 30
6.0
 70
    64
  0
VERTEX
  5
35BA
100
AcDbEntity
  8
0
100
AcDbVertex
100
AcDbPolygonMeshVertex
 10
-1.915
 20
-1.44
 30
6.0
 70
    64
  0
VERTEX
  5
35BB
100
AcDbEntity
  8
0
100
AcDbVertex
100
AcDbPolygonMeshVertex
 10
-1.915
 20
-0.69
 30
6.5
 70
    64
  0
VERTEX
  5
35BC
100
AcDbEntity
  8
0
100
AcDbVertex
100
AcDbPolygonMeshVertex
 10
-1.915
 20
-0.69
 30
6.0
 70
    64
  0
VERTEX
  5
35BD
100
AcDbEntity
  8
0
100
AcDbVertex
100
AcDbPolygonMeshVertex
 10
-1.915
 20
-1.44
 30
6.0
 70
    64
  0
VERTEX
  5
35BE
100
AcDbEntity
  8
0
100
AcDbVertex
100
AcDbPolygonMeshVertex
 10
-1.165
 20
-0.69
 30
6.5
 70
    64
  0
VERTEX
  5
35BF
100
AcDbEntity
  8
0
100
AcDbVertex
100
AcDbPolygonMeshVertex
 10
-1.165
 20
-0.69
 30
6.0
 70
    64
  0
VERTEX
  5
35C0
100
AcDbEntity
  8
0
100
AcDbVertex
100
AcDbPolygonMeshVertex
 10
-1.165
 20
-1.44
 30
6.0
 70
    64
  0
VERTEX
  5
35C1
100
AcDbEntity
  8
0
100
AcDbVertex
100
AcDbPolygonMeshVertex
 10
-1.165
 20
-0.69
 30
6.5
 70
    64
  0
VERTEX
  5
35C2
100
AcDbEntity
  8
0
100
AcDbVertex
100
AcDbPolygonMeshVertex
 10
-1.165
 20
-0.69
 30
6.5
 70
    64
  0
VERTEX
  5
35C3
100
AcDbEntity
  8
0
100
AcDbVertex
100
AcDbPolygonMeshVertex
 10
-1.165
 20
-1.44
 30
6.5
 70
    64
  0
VERTEX
  5
35C4
100
AcDbEntity
  8
0
100
AcDbVertex
100
AcDbPolygonMeshVertex
 10
-1.915
 20
-0.69
 30
6.5
 70
    64
  0
VERTEX
  5
35C5
100
AcDbEntity
  8
0
100
AcDbVertex
100
AcDbPolygonMeshVertex
 10
-1.915
 20
-0.69
 30
6.5
 70
    64
  0
VERTEX
  5
35C6
100
AcDbEntity
  8
0
100
AcDbVertex
100
AcDbPolygonMeshVertex
 10
-1.915
 20
-1.44
 30
6.5
 70
    64
  0
SEQEND
  5
35C7
100
AcDbEntity
  8
0
  0
POLYLINE
  5
35C8
100
AcDbEntity
  8
0
100
AcDbPolygonMesh
 66
     1
 10
0.0
 20
0.0
 30
0.0
 70
    16
 71
     6
 72
     3
  0
VERTEX
  5
35C9
100
AcDbEntity
  8
0
100
AcDbVertex
100
AcDbPolygonMeshVertex
 10
0.425
 20
-1.44
 30
6.5
 70
    64
  0
VERTEX
  5
35CA
100
AcDbEntity
  8
0
100
AcDbVertex
100
AcDbPolygonMeshVertex
 10
0.425
 20
-1.44
 30
6.0
 70
    64
  0
VERTEX
  5
35CB
100
AcDbEntity
  8
0
100
AcDbVertex
100
AcDbPolygonMeshVertex
 10
0.425
 20
-1.44
 30
6.0
 70
    64
  0
VERTEX
  5
35CC
100
AcDbEntity
  8
0
100
AcDbVertex
100
AcDbPolygonMeshVertex
 10
-0.325
 20
-1.44
 30
6.5
 70
    64
  0
VERTEX
  5
35CD
100
AcDbEntity
  8
0
100
AcDbVertex
100
AcDbPolygonMeshVertex
 10
-0.325
 20
-1.44
 30
6.0
 70
    64
  0
VERTEX
  5
35CE
100
AcDbEntity
  8
0
100
AcDbVertex
100
AcDbPolygonMeshVertex
 10
-0.325
 20
-1.44
 30
6.0
 70
    64
  0
VERTEX
  5
35CF
100
AcDbEntity
  8
0
100
AcDbVertex
100
AcDbPolygonMeshVertex
 10
-0.325
 20
-0.69
 30
6.5
 70
    64
  0
VERTEX
  5
35D0
100
AcDbEntity
  8
0
100
AcDbVertex
100
AcDbPolygonMeshVertex
 10
-0.325
 20
-0.69
 30
6.0
 70
    64
  0
VERTEX
  5
35D1
100
AcDbEntity
  8
0
100
AcDbVertex
100
AcDbPolygonMeshVertex
 10
-0.325
 20
-1.44
 30
6.0
 70
    64
  0
VERTEX
  5
35D2
100
AcDbEntity
  8
0
100
AcDbVertex
100
AcDbPolygonMeshVertex
 10
0.425
 20
-0.69
 30
6.5
 70
    64
  0
VERTEX
  5
35D3
100
AcDbEntity
  8
0
100
AcDbVertex
100
AcDbPolygonMeshVertex
 10
0.425
 20
-0.69
 30
6.0
 70
    64
  0
VERTEX
  5
35D4
100
AcDbEntity
  8
0
100
AcDbVertex
100
AcDbPolygonMeshVertex
 10
0.425
 20
-1.44
 30
6.0
 70
    64
  0
VERTEX
  5
35D5
100
AcDbEntity
  8
0
100
AcDbVertex
100
AcDbPolygonMeshVertex
 10
0.425
 20
-0.69
 30
6.5
 70
    64
  0
VERTEX
  5
35D6
100
AcDbEntity
  8
0
100
AcDbVertex
100
AcDbPolygonMeshVertex
 10
0.425
 20
-0.69
 30
6.5
 70
    64
  0
VERTEX
  5
35D7
100
AcDbEntity
  8
0
100
AcDbVertex
100
AcDbPolygonMeshVertex
 10
0.425
 20
-1.44
 30
6.5
 70
    64
  0
VERTEX
  5
35D8
100
AcDbEntity
  8
0
100
AcDbVertex
100
AcDbPolygonMeshVertex
 10
-0.325
 20
-0.69
 30
6.5
 70
    64
  0
VERTEX
  5
35D9
100
AcDbEntity
  8
0
100
AcDbVertex
100
AcDbPolygonMeshVertex
 10
-0.325
 20
-0.69
 30
6.5
 70
    64
  0
VERTEX
  5
35DA
100
AcDbEntity
  8
0
100
AcDbVertex
100
AcDbPolygonMeshVertex
 10
-0.325
 20
-1.44
 30
6.5
 70
    64
  0
SEQEND
  5
35DB
100
AcDbEntity
  8
0
  0
CIRCLE
  5
35DC
100
AcDbEntity
  8
0
100
AcDbCircle
 10
0.05
 20
-1.065
 30
6.5
 40
0.22
  0
POLYLINE
  5
35DD
100
AcDbEntity
  8
0
100
AcDbPolygonMesh
 66
     1
 10
0.0
 20
0.0
 30
0.0
 70
    16
 71
     6
 72
     3
  0
VERTEX
  5
35DE
100
AcDbEntity
  8
0
100
AcDbVertex
100
AcDbPolygonMeshVertex
 10
0.425
 20
-2.32
 30
6.0
 70
    64
  0
VERTEX
  5
35DF
100
AcDbEntity
  8
0
100
AcDbVertex
100
AcDbPolygonMeshVertex
 10
0.425
 20
-2.32
 30
5.5
 70
    64
  0
VERTEX
  5
35E0
100
AcDbEntity
  8
0
100
AcDbVertex
100
AcDbPolygonMeshVertex
 10
0.425
 20
-2.32
 30
5.5
 70
    64
  0
VERTEX
  5
35E1
100
AcDbEntity
  8
0
100
AcDbVertex
100
AcDbPolygonMeshVertex
 10
-0.325
 20
-2.32
 30
6.0
 70
    64
  0
VERTEX
  5
35E2
100
AcDbEntity
  8
0
100
AcDbVertex
100
AcDbPolygonMeshVertex
 10
-0.325
 20
-2.32
 30
5.5
 70
    64
  0
VERTEX
  5
35E3
100
AcDbEntity
  8
0
100
AcDbVertex
100
AcDbPolygonMeshVertex
 10
-0.325
 20
-2.32
 30
5.5
 70
    64
  0
VERTEX
  5
35E4
100
AcDbEntity
  8
0
100
AcDbVertex
100
AcDbPolygonMeshVertex
 10
-0.325
 20
-0.69
 30
6.0
 70
    64
  0
VERTEX
  5
35E5
100
AcDbEntity
  8
0
100
AcDbVertex
100
AcDbPolygonMeshVertex
 10
-0.325
 20
-0.69
 30
5.5
 70
    64
  0
VERTEX
  5
35E6
100
AcDbEntity
  8
0
100
AcDbVertex
100
AcDbPolygonMeshVertex
 10
-0.325
 20
-2.32
 30
5.5
 70
    64
  0
VERTEX
  5
35E7
100
AcDbEntity
  8
0
100
AcDbVertex
100
AcDbPolygonMeshVertex
 10
0.425
 20
-0.69
 30
6.0
 70
    64
  0
VERTEX
  5
35E8
100
AcDbEntity
  8
0
100
AcDbVertex
100
AcDbPolygonMeshVertex
 10
0.425
 20
-0.69
 30
5.5
 70
    64
  0
VERTEX
  5
35E9
100
AcDbEntity
  8
0
100
AcDbVertex
100
AcDbPolygonMeshVertex
 10
0.425
 20
-2.32
 30
5.5
 70
    64
  0
VERTEX
  5
35EA
100
AcDbEntity
  8
0
100
AcDbVertex
100
AcDbPolygonMeshVertex
 10
0.425
 20
-0.69
 30
6.0
 70
    64
  0
VERTEX
  5
35EB
100
AcDbEntity
  8
0
100
AcDbVertex
100
AcDbPolygonMeshVertex
 10
0.425
 20
-0.69
 30
6.0
 70
    64
  0
VERTEX
  5
35EC
100
AcDbEntity
  8
0
100
AcDbVertex
100
AcDbPolygonMeshVertex
 10
0.425
 20
-2.32
 30
6.0
 70
    64
  0
VERTEX
  5
35ED
100
AcDbEntity
  8
0
100
AcDbVertex
100
AcDbPolygonMeshVertex
 10
-0.325
 20
-0.69
 30
6.0
 70
    64
  0
VERTEX
  5
35EE
100
AcDbEntity
  8
0
100
AcDbVertex
100
AcDbPolygonMeshVertex
 10
-0.325
 20
-0.69
 30
6.0
 70
    64
  0
VERTEX
  5
35EF
100
AcDbEntity
  8
0
100
AcDbVertex
100
AcDbPolygonMeshVertex
 10
-0.325
 20
-2.32
 30
6.0
 70
    64
  0
SEQEND
  5
35F0
100
AcDbEntity
  8
0
  0
POLYLINE
  5
35F1
100
AcDbEntity
  8
0
100
AcDbPolygonMesh
 66
     1
 10
0.0
 20
0.0
 30
0.0
 70
    16
 71
     6
 72
     3
  0
VERTEX
  5
35F2
100
AcDbEntity
  8
0
100
AcDbVertex
100
AcDbPolygonMeshVertex
 10
2.015
 20
-1.44
 30
6.5
 70
    64
  0
VERTEX
  5
35F3
100
AcDbEntity
  8
0
100
AcDbVertex
100
AcDbPolygonMeshVertex
 10
2.015
 20
-1.44
 30
6.0
 70
    64
  0
VERTEX
  5
35F4
100
AcDbEntity
  8
0
100
AcDbVertex
100
AcDbPolygonMeshVertex
 10
2.015
 20
-1.44
 30
6.0
 70
    64
  0
VERTEX
  5
35F5
100
AcDbEntity
  8
0
100
AcDbVertex
100
AcDbPolygonMeshVertex
 10
1.265
 20
-1.44
 30
6.5
 70
    64
  0
VERTEX
  5
35F6
100
AcDbEntity
  8
0
100
AcDbVertex
100
AcDbPolygonMeshVertex
 10
1.265
 20
-1.44
 30
6.0
 70
    64
  0
VERTEX
  5
35F7
100
AcDbEntity
  8
0
100
AcDbVertex
100
AcDbPolygonMeshVertex
 10
1.265
 20
-1.44
 30
6.0
 70
    64
  0
VERTEX
  5
35F8
100
AcDbEntity
  8
0
100
AcDbVertex
100
AcDbPolygonMeshVertex
 10
1.265
 20
-0.69
 30
6.5
 70
    64
  0
VERTEX
  5
35F9
100
AcDbEntity
  8
0
100
AcDbVertex
100
AcDbPolygonMeshVertex
 10
1.265
 20
-0.69
 30
6.0
 70
    64
  0
VERTEX
  5
35FA
100
AcDbEntity
  8
0
100
AcDbVertex
100
AcDbPolygonMeshVertex
 10
1.265
 20
-1.44
 30
6.0
 70
    64
  0
VERTEX
  5
35FB
100
AcDbEntity
  8
0
100
AcDbVertex
100
AcDbPolygonMeshVertex
 10
2.015
 20
-0.69
 30
6.5
 70
    64
  0
VERTEX
  5
35FC
100
AcDbEntity
  8
0
100
AcDbVertex
100
AcDbPolygonMeshVertex
 10
2.015
 20
-0.69
 30
6.0
 70
    64
  0
VERTEX
  5
35FD
100
AcDbEntity
  8
0
100
AcDbVertex
100
AcDbPolygonMeshVertex
 10
2.015
 20
-1.44
 30
6.0
 70
    64
  0
VERTEX
  5
35FE
100
AcDbEntity
  8
0
100
AcDbVertex
100
AcDbPolygonMeshVertex
 10
2.015
 20
-0.69
 30
6.5
 70
    64
  0
VERTEX
  5
35FF
100
AcDbEntity
  8
0
100
AcDbVertex
100
AcDbPolygonMeshVertex
 10
2.015
 20
-0.69
 30
6.5
 70
    64
  0
VERTEX
  5
3600
100
AcDbEntity
  8
0
100
AcDbVertex
100
AcDbPolygonMeshVertex
 10
2.015
 20
-1.44
 30
6.5
 70
    64
  0
VERTEX
  5
3601
100
AcDbEntity
  8
0
100
AcDbVertex
100
AcDbPolygonMeshVertex
 10
1.265
 20
-0.69
 30
6.5
 70
    64
  0
VERTEX
  5
3602
100
AcDbEntity
  8
0
100
AcDbVertex
100
AcDbPolygonMeshVertex
 10
1.265
 20
-0.69
 30
6.5
 70
    64
  0
VERTEX
  5
3603
100
AcDbEntity
  8
0
100
AcDbVertex
100
AcDbPolygonMeshVertex
 10
1.265
 20
-1.44
 30
6.5
 70
    64
  0
SEQEND
  5
3604
100
AcDbEntity
  8
0
  0
CIRCLE
  5
3605
100
AcDbEntity
  8
0
100
AcDbCircle
 10
1.64
 20
-1.065
 30
6.5
 40
0.22
  0
POLYLINE
  5
3606
100
AcDbEntity
  8
0
100
AcDbPolygonMesh
 66
     1
 10
0.0
 20
0.0
 30
0.0
 70
    16
 71
     6
 72
     3
  0
VERTEX
  5
3607
100
AcDbEntity
  8
0
100
AcDbVertex
100
AcDbPolygonMeshVertex
 10
2.015
 20
-2.32
 30
6.0
 70
    64
  0
VERTEX
  5
3608
100
AcDbEntity
  8
0
100
AcDbVertex
100
AcDbPolygonMeshVertex
 10
2.015
 20
-2.32
 30
5.5
 70
    64
  0
VERTEX
  5
3609
100
AcDbEntity
  8
0
100
AcDbVertex
100
AcDbPolygonMeshVertex
 10
2.015
 20
-2.32
 30
5.5
 70
    64
  0
VERTEX
  5
360A
100
AcDbEntity
  8
0
100
AcDbVertex
100
AcDbPolygonMeshVertex
 10
1.265
 20
-2.32
 30
6.0
 70
    64
  0
VERTEX
  5
360B
100
AcDbEntity
  8
0
100
AcDbVertex
100
AcDbPolygonMeshVertex
 10
1.265
 20
-2.32
 30
5.5
 70
    64
  0
VERTEX
  5
360C
100
AcDbEntity
  8
0
100
AcDbVertex
100
AcDbPolygonMeshVertex
 10
1.265
 20
-2.32
 30
5.5
 70
    64
  0
VERTEX
  5
360D
100
AcDbEntity
  8
0
100
AcDbVertex
100
AcDbPolygonMeshVertex
 10
1.265
 20
-0.69
 30
6.0
 70
    64
  0
VERTEX
  5
360E
100
AcDbEntity
  8
0
100
AcDbVertex
100
AcDbPolygonMeshVertex
 10
1.265
 20
-0.69
 30
5.5
 70
    64
  0
VERTEX
  5
360F
100
AcDbEntity
  8
0
100
AcDbVertex
100
AcDbPolygonMeshVertex
 10
1.265
 20
-2.32
 30
5.5
 70
    64
  0
VERTEX
  5
3610
100
AcDbEntity
  8
0
100
AcDbVertex
100
AcDbPolygonMeshVertex
 10
2.015
 20
-0.69
 30
6.0
 70
    64
  0
VERTEX
  5
3611
100
AcDbEntity
  8
0
100
AcDbVertex
100
AcDbPolygonMeshVertex
 10
2.015
 20
-0.69
 30
5.5
 70
    64
  0
VERTEX
  5
3612
100
AcDbEntity
  8
0
100
AcDbVertex
100
AcDbPolygonMeshVertex
 10
2.015
 20
-2.32
 30
5.5
 70
    64
  0
VERTEX
  5
3613
100
AcDbEntity
  8
0
100
AcDbVertex
100
AcDbPolygonMeshVertex
 10
2.015
 20
-0.69
 30
6.0
 70
    64
  0
VERTEX
  5
3614
100
AcDbEntity
  8
0
100
AcDbVertex
100
AcDbPolygonMeshVertex
 10
2.015
 20
-0.69
 30
6.0
 70
    64
  0
VERTEX
  5
3615
100
AcDbEntity
  8
0
100
AcDbVertex
100
AcDbPolygonMeshVertex
 10
2.015
 20
-2.32
 30
6.0
 70
    64
  0
VERTEX
  5
3616
100
AcDbEntity
  8
0
100
AcDbVertex
100
AcDbPolygonMeshVertex
 10
1.265
 20
-0.69
 30
6.0
 70
    64
  0
VERTEX
  5
3617
100
AcDbEntity
  8
0
100
AcDbVertex
100
AcDbPolygonMeshVertex
 10
1.265
 20
-0.69
 30
6.0
 70
    64
  0
VERTEX
  5
3618
100
AcDbEntity
  8
0
100
AcDbVertex
100
AcDbPolygonMeshVertex
 10
1.265
 20
-2.32
 30
6.0
 70
    64
  0
SEQEND
  5
3619
100
AcDbEntity
  8
0
  0
POLYLINE
  5
361A
100
AcDbEntity
  8
0
100
AcDbPolygonMesh
 66
     1
 10
0.0
 20
0.0
 30
0.0
 70
    16
 71
     6
 72
     3
  0
VERTEX
  5
361B
100
AcDbEntity
  8
0
100
AcDbVertex
100
AcDbPolygonMeshVertex
 10
-0.84
 20
-1.32
 30
6.31
 70
    64
  0
VERTEX
  5
361C
100
AcDbEntity
  8
0
100
AcDbVertex
100
AcDbPolygonMeshVertex
 10
-0.84
 20
-1.32
 30
5.5
 70
    64
  0
VERTEX
  5
361D
100
AcDbEntity
  8
0
100
AcDbVertex
100
AcDbPolygonMeshVertex
 10
-0.84
 20
-1.32
 30
5.5
 70
    64
  0
VERTEX
  5
361E
100
AcDbEntity
  8
0
100
AcDbVertex
100
AcDbPolygonMeshVertex
 10
-0.65
 20
-1.32
 30
6.31
 70
    64
  0
VERTEX
  5
361F
100
AcDbEntity
  8
0
100
AcDbVertex
100
AcDbPolygonMeshVertex
 10
-0.65
 20
-1.32
 30
5.5
 70
    64
  0
VERTEX
  5
3620
100
AcDbEntity
  8
0
100
AcDbVertex
100
AcDbPolygonMeshVertex
 10
-0.65
 20
-1.32
 30
5.5
 70
    64
  0
VERTEX
  5
3621
100
AcDbEntity
  8
0
100
AcDbVertex
100
AcDbPolygonMeshVertex
 10
-0.65
 20
-2.32
 30
6.31
 70
    64
  0
VERTEX
  5
3622
100
AcDbEntity
  8
0
100
AcDbVertex
100
AcDbPolygonMeshVertex
 10
-0.65
 20
-2.32
 30
5.5
 70
    64
  0
VERTEX
  5
3623
100
AcDbEntity
  8
0
100
AcDbVertex
100
AcDbPolygonMeshVertex
 10
-0.65
 20
-1.32
 30
5.5
 70
    64
  0
VERTEX
  5
3624
100
AcDbEntity
  8
0
100
AcDbVertex
100
AcDbPolygonMeshVertex
 10
-0.84
 20
-2.32
 30
6.31
 70
    64
  0
VERTEX
  5
3625
100
AcDbEntity
  8
0
100
AcDbVertex
100
AcDbPolygonMeshVertex
 10
-0.84
 20
-2.32
 30
5.5
 70
    64
  0
VERTEX
  5
3626
100
AcDbEntity
  8
0
100
AcDbVertex
100
AcDbPolygonMeshVertex
 10
-0.84
 20
-1.32
 30
5.5
 70
    64
  0
VERTEX
  5
3627
100
AcDbEntity
  8
0
100
AcDbVertex
100
AcDbPolygonMeshVertex
 10
-0.84
 20
-2.32
 30
6.31
 70
    64
  0
VERTEX
  5
3628
100
AcDbEntity
  8
0
100
AcDbVertex
100
AcDbPolygonMeshVertex
 10
-0.84
 20
-2.32
 30
6.31
 70
    64
  0
VERTEX
  5
3629
100
AcDbEntity
  8
0
100
AcDbVertex
100
AcDbPolygonMeshVertex
 10
-0.84
 20
-1.32
 30
6.31
 70
    64
  0
VERTEX
  5
362A
100
AcDbEntity
  8
0
100
AcDbVertex
100
AcDbPolygonMeshVertex
 10
-0.65
 20
-2.32
 30
6.31
 70
    64
  0
VERTEX
  5
362B
100
AcDbEntity
  8
0
100
AcDbVertex
100
AcDbPolygonMeshVertex
 10
-0.65
 20
-2.32
 30
6.31
 70
    64
  0
VERTEX
  5
362C
100
AcDbEntity
  8
0
100
AcDbVertex
100
AcDbPolygonMeshVertex
 10
-0.65
 20
-1.32
 30
6.31
 70
    64
  0
SEQEND
  5
362D
100
AcDbEntity
  8
0
  0
POLYLINE
  5
362E
100
AcDbEntity
  8
0
100
AcDbPolygonMesh
 66
     1
 10
0.0
 20
0.0
 30
0.0
 70
    16
 71
     6
 72
     3
  0
VERTEX
  5
362F
100
AcDbEntity
  8
0
100
AcDbVertex
100
AcDbPolygonMeshVertex
 10
0.75
 20
-1.32
 30
6.31
 70
    64
  0
VERTEX
  5
3630
100
AcDbEntity
  8
0
100
AcDbVertex
100
AcDbPolygonMeshVertex
 10
0.75
 20
-1.32
 30
5.5
 70
    64
  0
VERTEX
  5
3631
100
AcDbEntity
  8
0
100
AcDbVertex
100
AcDbPolygonMeshVertex
 10
0.75
 20
-1.32
 30
5.5
 70
    64
  0
VERTEX
  5
3632
100
AcDbEntity
  8
0
100
AcDbVertex
100
AcDbPolygonMeshVertex
 10
0.94
 20
-1.32
 30
6.31
 70
    64
  0
VERTEX
  5
3633
100
AcDbEntity
  8
0
100
AcDbVertex
100
AcDbPolygonMeshVertex
 10
0.94
 20
-1.32
 30
5.5
 70
    64
  0
VERTEX
  5
3634
100
AcDbEntity
  8
0
100
AcDbVertex
100
AcDbPolygonMeshVertex
 10
0.94
 20
-1.32
 30
5.5
 70
    64
  0
VERTEX
  5
3635
100
AcDbEntity
  8
0
100
AcDbVertex
100
AcDbPolygonMeshVertex
 10
0.94
 20
-2.32
 30
6.31
 70
    64
  0
VERTEX
  5
3636
100
AcDbEntity
  8
0
100
AcDbVertex
100
AcDbPolygonMeshVertex
 10
0.94
 20
-2.32
 30
5.5
 70
    64
  0
VERTEX
  5
3637
100
AcDbEntity
  8
0
100
AcDbVertex
100
AcDbPolygonMeshVertex
 10
0.94
 20
-1.32
 30
5.5
 70
    64
  0
VERTEX
  5
3638
100
AcDbEntity
  8
0
100
AcDbVertex
100
AcDbPolygonMeshVertex
 10
0.75
 20
-2.32
 30
6.31
 70
    64
  0
VERTEX
  5
3639
100
AcDbEntity
  8
0
100
AcDbVertex
100
AcDbPolygonMeshVertex
 10
0.75
 20
-2.32
 30
5.5
 70
    64
  0
VERTEX
  5
363A
100
AcDbEntity
  8
0
100
AcDbVertex
100
AcDbPolygonMeshVertex
 10
0.75
 20
-1.32
 30
5.5
 70
    64
  0
VERTEX
  5
363B
100
AcDbEntity
  8
0
100
AcDbVertex
100
AcDbPolygonMeshVertex
 10
0.75
 20
-2.32
 30
6.31
 70
    64
  0
VERTEX
  5
363C
100
AcDbEntity
  8
0
100
AcDbVertex
100
AcDbPolygonMeshVertex
 10
0.75
 20
-2.32
 30
6.31
 70
    64
  0
VERTEX
  5
363D
100
AcDbEntity
  8
0
100
AcDbVertex
100
AcDbPolygonMeshVertex
 10
0.75
 20
-1.32
 30
6.31
 70
    64
  0
VERTEX
  5
363E
100
AcDbEntity
  8
0
100
AcDbVertex
100
AcDbPolygonMeshVertex
 10
0.94
 20
-2.32
 30
6.31
 70
    64
  0
VERTEX
  5
363F
100
AcDbEntity
  8
0
100
AcDbVertex
100
AcDbPolygonMeshVertex
 10
0.94
 20
-2.32
 30
6.31
 70
    64
  0
VERTEX
  5
3640
100
AcDbEntity
  8
0
100
AcDbVertex
100
AcDbPolygonMeshVertex
 10
0.94
 20
-1.32
 30
6.31
 70
    64
  0
SEQEND
  5
3641
100
AcDbEntity
  8
0
  0
POLYLINE
  5
3642
100
AcDbEntity
  8
0
100
AcDbPolygonMesh
 66
     1
 10
0.0
 20
0.0
 30
0.0
 70
    16
 71
     6
 72
     3
  0
VERTEX
  5
3643
100
AcDbEntity
  8
0
100
AcDbVertex
100
AcDbPolygonMeshVertex
 10
-0.919014
 20
-0.468165
 30
2.81
 70
    64
  0
VERTEX
  5
3644
100
AcDbEntity
  8
0
100
AcDbVertex
100
AcDbPolygonMeshVertex
 10
-0.919014
 20
-0.468165
 30
2.31
 70
    64
  0
VERTEX
  5
3645
100
AcDbEntity
  8
0
100
AcDbVertex
100
AcDbPolygonMeshVertex
 10
-0.919014
 20
-0.468165
 30
2.31
 70
    64
  0
VERTEX
  5
3646
100
AcDbEntity
  8
0
100
AcDbVertex
100
AcDbPolygonMeshVertex
 10
-1.669014
 20
-0.468165
 30
2.81
 70
    64
  0
VERTEX
  5
3647
100
AcDbEntity
  8
0
100
AcDbVertex
100
AcDbPolygonMeshVertex
 10
-1.669014
 20
-0.468165
 30
2.31
 70
    64
  0
VERTEX
  5
3648
100
AcDbEntity
  8
0
100
AcDbVertex
100
AcDbPolygonMeshVertex
 10
-1.669014
 20
-0.468165
 30
2.31
 70
    64
  0
VERTEX
  5
3649
100
AcDbEntity
  8
0
100
AcDbVertex
100
AcDbPolygonMeshVertex
 10
-1.669014
 20
0.281835
 30
2.81
 70
    64
  0
VERTEX
  5
364A
100
AcDbEntity
  8
0
100
AcDbVertex
100
AcDbPolygonMeshVertex
 10
-1.669014
 20
0.281835
 30
2.31
 70
    64
  0
VERTEX
  5
364B
100
AcDbEntity
  8
0
100
AcDbVertex
100
AcDbPolygonMeshVertex
 10
-1.669014
 20
-0.468165
 30
2.31
 70
    64
  0
VERTEX
  5
364C
100
AcDbEntity
  8
0
100
AcDbVertex
100
AcDbPolygonMeshVertex
 10
-0.919014
 20
0.281835
 30
2.81
 70
    64
  0
VERTEX
  5
364D
100
AcDbEntity
  8
0
100
AcDbVertex
100
AcDbPolygonMeshVertex
 10
-0.919014
 20
0.281835
 30
2.31
 70
    64
  0
VERTEX
  5
364E
100
AcDbEntity
  8
0
100
AcDbVertex
100
AcDbPolygonMeshVertex
 10
-0.919014
 20
-0.468165
 30
2.31
 70
    64
  0
VERTEX
  5
364F
100
AcDbEntity
  8
0
100
AcDbVertex
100
AcDbPolygonMeshVertex
 10
-0.919014
 20
0.281835
 30
2.81
 70
    64
  0
VERTEX
  5
3650
100
AcDbEntity
  8
0
100
AcDbVertex
100
AcDbPolygonMeshVertex
 10
-0.919014
 20
0.281835
 30
2.81
 70
    64
  0
VERTEX
  5
3651
100
AcDbEntity
  8
0
100
AcDbVertex
100
AcDbPolygonMeshVertex
 10
-0.919014
 20
-0.468165
 30
2.81
 70
    64
  0
VERTEX
  5
3652
100
AcDbEntity
  8
0
100
AcDbVertex
100
AcDbPolygonMeshVertex
 10
-1.669014
 20
0.281835
 30
2.81
 70
    64
  0
VERTEX
  5
3653
100
AcDbEntity
  8
0
100
AcDbVertex
100
AcDbPolygonMeshVertex
 10
-1.669014
 20
0.281835
 30
2.81
 70
    64
  0
VERTEX
  5
3654
100
AcDbEntity
  8
0
100
AcDbVertex
100
AcDbPolygonMeshVertex
 10
-1.669014
 20
-0.468165
 30
2.81
 70
    64
  0
SEQEND
  5
3655
100
AcDbEntity
  8
0
  0
CIRCLE
  5
3656
100
AcDbEntity
  8
0
100
AcDbCircle
 10
-1.294014
 20
-0.093165
 30
2.81
 40
0.22
  0
POLYLINE
  5
3657
100
AcDbEntity
  8
0
100
AcDbPolygonMesh
 66
     1
 10
0.0
 20
0.0
 30
0.0
 70
    16
 71
     6
 72
     3
  0
VERTEX
  5
3658
100
AcDbEntity
  8
0
100
AcDbVertex
100
AcDbPolygonMeshVertex
 10
0.670986
 20
-0.468165
 30
2.81
 70
    64
  0
VERTEX
  5
3659
100
AcDbEntity
  8
0
100
AcDbVertex
100
AcDbPolygonMeshVertex
 10
0.670986
 20
-0.468165
 30
2.31
 70
    64
  0
VERTEX
  5
365A
100
AcDbEntity
  8
0
100
AcDbVertex
100
AcDbPolygonMeshVertex
 10
0.670986
 20
-0.468165
 30
2.31
 70
    64
  0
VERTEX
  5
365B
100
AcDbEntity
  8
0
100
AcDbVertex
100
AcDbPolygonMeshVertex
 10
-0.079014
 20
-0.468165
 30
2.81
 70
    64
  0
VERTEX
  5
365C
100
AcDbEntity
  8
0
100
AcDbVertex
100
AcDbPolygonMeshVertex
 10
-0.079014
 20
-0.468165
 30
2.31
 70
    64
  0
VERTEX
  5
365D
100
AcDbEntity
  8
0
100
AcDbVertex
100
AcDbPolygonMeshVertex
 10
-0.079014
 20
-0.468165
 30
2.31
 70
    64
  0
VERTEX
  5
365E
100
AcDbEntity
  8
0
100
AcDbVertex
100
AcDbPolygonMeshVertex
 10
-0.079014
 20
0.281835
 30
2.81
 70
    64
  0
VERTEX
  5
365F
100
AcDbEntity
  8
0
100
AcDbVertex
100
AcDbPolygonMeshVertex
 10
-0.079014
 20
0.281835
 30
2.31
 70
    64
  0
VERTEX
  5
3660
100
AcDbEntity
  8
0
100
AcDbVertex
100
AcDbPolygonMeshVertex
 10
-0.079014
 20
-0.468165
 30
2.31
 70
    64
  0
VERTEX
  5
3661
100
AcDbEntity
  8
0
100
AcDbVertex
100
AcDbPolygonMeshVertex
 10
0.670986
 20
0.281835
 30
2.81
 70
    64
  0
VERTEX
  5
3662
100
AcDbEntity
  8
0
100
AcDbVertex
100
AcDbPolygonMeshVertex
 10
0.670986
 20
0.281835
 30
2.31
 70
    64
  0
VERTEX
  5
3663
100
AcDbEntity
  8
0
100
AcDbVertex
100
AcDbPolygonMeshVertex
 10
0.670986
 20
-0.468165
 30
2.31
 70
    64
  0
VERTEX
  5
3664
100
AcDbEntity
  8
0
100
AcDbVertex
100
AcDbPolygonMeshVertex
 10
0.670986
 20
0.281835
 30
2.81
 70
    64
  0
VERTEX
  5
3665
100
AcDbEntity
  8
0
100
AcDbVertex
100
AcDbPolygonMeshVertex
 10
0.670986
 20
0.281835
 30
2.81
 70
    64
  0
VERTEX
  5
3666
100
AcDbEntity
  8
0
100
AcDbVertex
100
AcDbPolygonMeshVertex
 10
0.670986
 20
-0.468165
 30
2.81
 70
    64
  0
VERTEX
  5
3667
100
AcDbEntity
  8
0
100
AcDbVertex
100
AcDbPolygonMeshVertex
 10
-0.079014
 20
0.281835
 30
2.81
 70
    64
  0
VERTEX
  5
3668
100
AcDbEntity
  8
0
100
AcDbVertex
100
AcDbPolygonMeshVertex
 10
-0.079014
 20
0.281835
 30
2.81
 70
    64
  0
VERTEX
  5
3669
100
AcDbEntity
  8
0
100
AcDbVertex
100
AcDbPolygonMeshVertex
 10
-0.079014
 20
-0.468165
 30
2.81
 70
    64
  0
SEQEND
  5
366A
100
AcDbEntity
  8
0
  0
CIRCLE
  5
366B
100
AcDbEntity
  8
0
100
AcDbCircle
 10
0.295986
 20
-0.093165
 30
2.81
 40
0.22
  0
POLYLINE
  5
366C
100
AcDbEntity
  8
0
100
AcDbPolygonMesh
 66
     1
 10
0.0
 20
0.0
 30
0.0
 70
    16
 71
     6
 72
     3
  0
VERTEX
  5
366D
100
AcDbEntity
  8
0
100
AcDbVertex
100
AcDbPolygonMeshVertex
 10
2.260986
 20
-0.468165
 30
2.81
 70
    64
  0
VERTEX
  5
366E
100
AcDbEntity
  8
0
100
AcDbVertex
100
AcDbPolygonMeshVertex
 10
2.260986
 20
-0.468165
 30
2.31
 70
    64
  0
VERTEX
  5
366F
100
AcDbEntity
  8
0
100
AcDbVertex
100
AcDbPolygonMeshVertex
 10
2.260986
 20
-0.468165
 30
2.31
 70
    64
  0
VERTEX
  5
3670
100
AcDbEntity
  8
0
100
AcDbVertex
100
AcDbPolygonMeshVertex
 10
1.510986
 20
-0.468165
 30
2.81
 70
    64
  0
VERTEX
  5
3671
100
AcDbEntity
  8
0
100
AcDbVertex
100
AcDbPolygonMeshVertex
 10
1.510986
 20
-0.468165
 30
2.31
 70
    64
  0
VERTEX
  5
3672
100
AcDbEntity
  8
0
100
AcDbVertex
100
AcDbPolygonMeshVertex
 10
1.510986
 20
-0.468165
 30
2.31
 70
    64
  0
VERTEX
  5
3673
100
AcDbEntity
  8
0
100
AcDbVertex
100
AcDbPolygonMeshVertex
 10
1.510986
 20
0.281835
 30
2.81
 70
    64
  0
VERTEX
  5
3674
100
AcDbEntity
  8
0
100
AcDbVertex
100
AcDbPolygonMeshVertex
 10
1.510986
 20
0.281835
 30
2.31
 70
    64
  0
VERTEX
  5
3675
100
AcDbEntity
  8
0
100
AcDbVertex
100
AcDbPolygonMeshVertex
 10
1.510986
 20
-0.468165
 30
2.31
 70
    64
  0
VERTEX
  5
3676
100
AcDbEntity
  8
0
100
AcDbVertex
100
AcDbPolygonMeshVertex
 10
2.260986
 20
0.281835
 30
2.81
 70
    64
  0
VERTEX
  5
3677
100
AcDbEntity
  8
0
100
AcDbVertex
100
AcDbPolygonMeshVertex
 10
2.260986
 20
0.281835
 30
2.31
 70
    64
  0
VERTEX
  5
3678
100
AcDbEntity
  8
0
100
AcDbVertex
100
AcDbPolygonMeshVertex
 10
2.260986
 20
-0.468165
 30
2.31
 70
    64
  0
VERTEX
  5
3679
100
AcDbEntity
  8
0
100
AcDbVertex
100
AcDbPolygonMeshVertex
 10
2.260986
 20
0.281835
 30
2.81
 70
    64
  0
VERTEX
  5
367A
100
AcDbEntity
  8
0
100
AcDbVertex
100
AcDbPolygonMeshVertex
 10
2.260986
 20
0.281835
 30
2.81
 70
    64
  0
VERTEX
  5
367B
100
AcDbEntity
  8
0
100
AcDbVertex
100
AcDbPolygonMeshVertex
 10
2.260986
 20
-0.468165
 30
2.81
 70
    64
  0
VERTEX
  5
367C
100
AcDbEntity
  8
0
100
AcDbVertex
100
AcDbPolygonMeshVertex
 10
1.510986
 20
0.281835
 30
2.81
 70
    64
  0
VERTEX
  5
367D
100
AcDbEntity
  8
0
100
AcDbVertex
100
AcDbPolygonMeshVertex
 10
1.510986
 20
0.281835
 30
2.81
 70
    64
  0
VERTEX
  5
367E
100
AcDbEntity
  8
0
100
AcDbVertex
100
AcDbPolygonMeshVertex
 10
1.510986
 20
-0.468165
 30
2.81
 70
    64
  0
SEQEND
  5
367F
100
AcDbEntity
  8
0
  0
CIRCLE
  5
3680
100
AcDbEntity
  8
0
100
AcDbCircle
 10
1.885986
 20
-0.093165
 30
2.81
 40
0.22
  0
LINE
  5
3681
100
AcDbEntity
  8
0
100
AcDbLine
 10
-0.919014
 20
-1.308165
 30
2.31
 11
-0.919014
 21
-1.308165
 31
1.81
  0
POLYLINE
  5
3682
100
AcDbEntity
  8
0
100
AcDbPolygonMesh
 66
     1
 10
0.0
 20
0.0
 30
0.0
 70
    16
 71
     6
 72
     3
  0
VERTEX
  5
3683
100
AcDbEntity
  8
0
100
AcDbVertex
100
AcDbPolygonMeshVertex
 10
-1.669014
 20
0.281835
 30
2.31
 70
    64
  0
VERTEX
  5
3684
100
AcDbEntity
  8
0
100
AcDbVertex
100
AcDbPolygonMeshVertex
 10
-1.669014
 20
0.281835
 30
1.81
 70
    64
  0
VERTEX
  5
3685
100
AcDbEntity
  8
0
100
AcDbVertex
100
AcDbPolygonMeshVertex
 10
-1.669014
 20
0.281835
 30
1.81
 70
    64
  0
VERTEX
  5
3686
100
AcDbEntity
  8
0
100
AcDbVertex
100
AcDbPolygonMeshVertex
 10
-0.919014
 20
0.281835
 30
2.31
 70
    64
  0
VERTEX
  5
3687
100
AcDbEntity
  8
0
100
AcDbVertex
100
AcDbPolygonMeshVertex
 10
-0.919014
 20
0.281835
 30
1.81
 70
    64
  0
VERTEX
  5
3688
100
AcDbEntity
  8
0
100
AcDbVertex
100
AcDbPolygonMeshVertex
 10
-0.919014
 20
0.281835
 30
1.81
 70
    64
  0
VERTEX
  5
3689
100
AcDbEntity
  8
0
100
AcDbVertex
100
AcDbPolygonMeshVertex
 10
-0.919014
 20
-1.308165
 30
2.31
 70
    64
  0
VERTEX
  5
368A
100
AcDbEntity
  8
0
100
AcDbVertex
100
AcDbPolygonMeshVertex
 10
-0.919014
 20
-1.308165
 30
1.81
 70
    64
  0
VERTEX
  5
368B
100
AcDbEntity
  8
0
100
AcDbVertex
100
AcDbPolygonMeshVertex
 10
-0.919014
 20
0.281835
 30
1.81
 70
    64
  0
VERTEX
  5
368C
100
AcDbEntity
  8
0
100
AcDbVertex
100
AcDbPolygonMeshVertex
 10
-1.669014
 20
-1.308165
 30
2.31
 70
    64
  0
VERTEX
  5
368D
100
AcDbEntity
  8
0
100
AcDbVertex
100
AcDbPolygonMeshVertex
 10
-1.669014
 20
-1.308165
 30
1.81
 70
    64
  0
VERTEX
  5
368E
100
AcDbEntity
  8
0
100
AcDbVertex
100
AcDbPolygonMeshVertex
 10
-1.669014
 20
0.281835
 30
1.81
 70
    64
  0
VERTEX
  5
368F
100
AcDbEntity
  8
0
100
AcDbVertex
100
AcDbPolygonMeshVertex
 10
-1.669014
 20
-1.308165
 30
2.31
 70
    64
  0
VERTEX
  5
3690
100
AcDbEntity
  8
0
100
AcDbVertex
100
AcDbPolygonMeshVertex
 10
-1.669014
 20
-1.308165
 30
2.31
 70
    64
  0
VERTEX
  5
3691
100
AcDbEntity
  8
0
100
AcDbVertex
100
AcDbPolygonMeshVertex
 10
-1.669014
 20
0.281835
 30
2.31
 70
    64
  0
VERTEX
  5
3692
100
AcDbEntity
  8
0
100
AcDbVertex
100
AcDbPolygonMeshVertex
 10
-0.919014
 20
-1.308165
 30
2.31
 70
    64
  0
VERTEX
  5
3693
100
AcDbEntity
  8
0
100
AcDbVertex
100
AcDbPolygonMeshVertex
 10
-0.919014
 20
-1.308165
 30
2.31
 70
    64
  0
VERTEX
  5
3694
100
AcDbEntity
  8
0
100
AcDbVertex
100
AcDbPolygonMeshVertex
 10
-0.919014
 20
0.281835
 30
2.31
 70
    64
  0
SEQEND
  5
3695
100
AcDbEntity
  8
0
  0
POLYLINE
  5
3696
100
AcDbEntity
  8
0
100
AcDbPolygonMesh
 66
     1
 10
0.0
 20
0.0
 30
0.0
 70
    16
 71
     6
 72
     3
  0
VERTEX
  5
3697
100
AcDbEntity
  8
0
100
AcDbVertex
100
AcDbPolygonMeshVertex
 10
-0.079014
 20
0.281835
 30
2.31
 70
    64
  0
VERTEX
  5
3698
100
AcDbEntity
  8
0
100
AcDbVertex
100
AcDbPolygonMeshVertex
 10
-0.079014
 20
0.281835
 30
1.81
 70
    64
  0
VERTEX
  5
3699
100
AcDbEntity
  8
0
100
AcDbVertex
100
AcDbPolygonMeshVertex
 10
-0.079014
 20
0.281835
 30
1.81
 70
    64
  0
VERTEX
  5
369A
100
AcDbEntity
  8
0
100
AcDbVertex
100
AcDbPolygonMeshVertex
 10
0.670986
 20
0.281835
 30
2.31
 70
    64
  0
VERTEX
  5
369B
100
AcDbEntity
  8
0
100
AcDbVertex
100
AcDbPolygonMeshVertex
 10
0.670986
 20
0.281835
 30
1.81
 70
    64
  0
VERTEX
  5
369C
100
AcDbEntity
  8
0
100
AcDbVertex
100
AcDbPolygonMeshVertex
 10
0.670986
 20
0.281835
 30
1.81
 70
    64
  0
VERTEX
  5
369D
100
AcDbEntity
  8
0
100
AcDbVertex
100
AcDbPolygonMeshVertex
 10
0.670986
 20
-1.308165
 30
2.31
 70
    64
  0
VERTEX
  5
369E
100
AcDbEntity
  8
0
100
AcDbVertex
100
AcDbPolygonMeshVertex
 10
0.670986
 20
-1.308165
 30
1.81
 70
    64
  0
VERTEX
  5
369F
100
AcDbEntity
  8
0
100
AcDbVertex
100
AcDbPolygonMeshVertex
 10
0.670986
 20
0.281835
 30
1.81
 70
    64
  0
VERTEX
  5
36A0
100
AcDbEntity
  8
0
100
AcDbVertex
100
AcDbPolygonMeshVertex
 10
-0.079014
 20
-1.308165
 30
2.31
 70
    64
  0
VERTEX
  5
36A1
100
AcDbEntity
  8
0
100
AcDbVertex
100
AcDbPolygonMeshVertex
 10
-0.079014
 20
-1.308165
 30
1.81
 70
    64
  0
VERTEX
  5
36A2
100
AcDbEntity
  8
0
100
AcDbVertex
100
AcDbPolygonMeshVertex
 10
-0.079014
 20
0.281835
 30
1.81
 70
    64
  0
VERTEX
  5
36A3
100
AcDbEntity
  8
0
100
AcDbVertex
100
AcDbPolygonMeshVertex
 10
-0.079014
 20
-1.308165
 30
2.31
 70
    64
  0
VERTEX
  5
36A4
100
AcDbEntity
  8
0
100
AcDbVertex
100
AcDbPolygonMeshVertex
 10
-0.079014
 20
-1.308165
 30
2.31
 70
    64
  0
VERTEX
  5
36A5
100
AcDbEntity
  8
0
100
AcDbVertex
100
AcDbPolygonMeshVertex
 10
-0.079014
 20
0.281835
 30
2.31
 70
    64
  0
VERTEX
  5
36A6
100
AcDbEntity
  8
0
100
AcDbVertex
100
AcDbPolygonMeshVertex
 10
0.670986
 20
-1.308165
 30
2.31
 70
    64
  0
VERTEX
  5
36A7
100
AcDbEntity
  8
0
100
AcDbVertex
100
AcDbPolygonMeshVertex
 10
0.670986
 20
-1.308165
 30
2.31
 70
    64
  0
VERTEX
  5
36A8
100
AcDbEntity
  8
0
100
AcDbVertex
100
AcDbPolygonMeshVertex
 10
0.670986
 20
0.281835
 30
2.31
 70
    64
  0
SEQEND
  5
36A9
100
AcDbEntity
  8
0
  0
POLYLINE
  5
36AA
100
AcDbEntity
  8
0
100
AcDbPolygonMesh
 66
     1
 10
0.0
 20
0.0
 30
0.0
 70
    16
 71
     6
 72
     3
  0
VERTEX
  5
36AB
100
AcDbEntity
  8
0
100
AcDbVertex
100
AcDbPolygonMeshVertex
 10
1.510986
 20
0.281835
 30
2.31
 70
    64
  0
VERTEX
  5
36AC
100
AcDbEntity
  8
0
100
AcDbVertex
100
AcDbPolygonMeshVertex
 10
1.510986
 20
0.281835
 30
1.81
 70
    64
  0
VERTEX
  5
36AD
100
AcDbEntity
  8
0
100
AcDbVertex
100
AcDbPolygonMeshVertex
 10
1.510986
 20
0.281835
 30
1.81
 70
    64
  0
VERTEX
  5
36AE
100
AcDbEntity
  8
0
100
AcDbVertex
100
AcDbPolygonMeshVertex
 10
2.260986
 20
0.281835
 30
2.31
 70
    64
  0
VERTEX
  5
36AF
100
AcDbEntity
  8
0
100
AcDbVertex
100
AcDbPolygonMeshVertex
 10
2.260986
 20
0.281835
 30
1.81
 70
    64
  0
VERTEX
  5
36B0
100
AcDbEntity
  8
0
100
AcDbVertex
100
AcDbPolygonMeshVertex
 10
2.260986
 20
0.281835
 30
1.81
 70
    64
  0
VERTEX
  5
36B1
100
AcDbEntity
  8
0
100
AcDbVertex
100
AcDbPolygonMeshVertex
 10
2.260986
 20
-1.308165
 30
2.31
 70
    64
  0
VERTEX
  5
36B2
100
AcDbEntity
  8
0
100
AcDbVertex
100
AcDbPolygonMeshVertex
 10
2.260986
 20
-1.308165
 30
1.81
 70
    64
  0
VERTEX
  5
36B3
100
AcDbEntity
  8
0
100
AcDbVertex
100
AcDbPolygonMeshVertex
 10
2.260986
 20
0.281835
 30
1.81
 70
    64
  0
VERTEX
  5
36B4
100
AcDbEntity
  8
0
100
AcDbVertex
100
AcDbPolygonMeshVertex
 10
1.510986
 20
-1.308165
 30
2.31
 70
    64
  0
VERTEX
  5
36B5
100
AcDbEntity
  8
0
100
AcDbVertex
100
AcDbPolygonMeshVertex
 10
1.510986
 20
-1.308165
 30
1.81
 70
    64
  0
VERTEX
  5
36B6
100
AcDbEntity
  8
0
100
AcDbVertex
100
AcDbPolygonMeshVertex
 10
1.510986
 20
0.281835
 30
1.81
 70
    64
  0
VERTEX
  5
36B7
100
AcDbEntity
  8
0
100
AcDbVertex
100
AcDbPolygonMeshVertex
 10
1.510986
 20
-1.308165
 30
2.31
 70
    64
  0
VERTEX
  5
36B8
100
AcDbEntity
  8
0
100
AcDbVertex
100
AcDbPolygonMeshVertex
 10
1.510986
 20
-1.308165
 30
2.31
 70
    64
  0
VERTEX
  5
36B9
100
AcDbEntity
  8
0
100
AcDbVertex
100
AcDbPolygonMeshVertex
 10
1.510986
 20
0.281835
 30
2.31
 70
    64
  0
VERTEX
  5
36BA
100
AcDbEntity
  8
0
100
AcDbVertex
100
AcDbPolygonMeshVertex
 10
2.260986
 20
-1.308165
 30
2.31
 70
    64
  0
VERTEX
  5
36BB
100
AcDbEntity
  8
0
100
AcDbVertex
100
AcDbPolygonMeshVertex
 10
2.260986
 20
-1.308165
 30
2.31
 70
    64
  0
VERTEX
  5
36BC
100
AcDbEntity
  8
0
100
AcDbVertex
100
AcDbPolygonMeshVertex
 10
2.260986
 20
0.281835
 30
2.31
 70
    64
  0
SEQEND
  5
36BD
100
AcDbEntity
  8
0
  0
LINE
  5
36BE
100
AcDbEntity
  8
0
100
AcDbLine
 10
-2.67
 20
-7.15
 30
0.0
 11
-2.67
 21
-9.74
 31
0.0
  0
LINE
  5
36BF
100
AcDbEntity
  8
0
100
AcDbLine
 10
-2.67
 20
-7.15
 30
0.19
 11
-2.67
 21
-9.74
 31
0.19
  0
LINE
  5
36C0
100
AcDbEntity
  8
0
100
AcDbLine
 10
2.77
 20
-7.15
 30
0.0
 11
2.77
 21
-9.74
 31
0.0
  0
POLYLINE
  5
36C1
100
AcDbEntity
  8
0
100
AcDbPolygonMesh
 66
     1
 10
0.0
 20
0.0
 30
0.0
 70
    16
 71
     6
 72
     3
  0
VERTEX
  5
36C2
100
AcDbEntity
  8
0
100
AcDbVertex
100
AcDbPolygonMeshVertex
 10
2.77
 20
-9.74
 30
0.19
 70
    64
  0
VERTEX
  5
36C3
100
AcDbEntity
  8
0
100
AcDbVertex
100
AcDbPolygonMeshVertex
 10
2.77
 20
-9.74
 30
0.0
 70
    64
  0
VERTEX
  5
36C4
100
AcDbEntity
  8
0
100
AcDbVertex
100
AcDbPolygonMeshVertex
 10
2.77
 20
-9.74
 30
0.0
 70
    64
  0
VERTEX
  5
36C5
100
AcDbEntity
  8
0
100
AcDbVertex
100
AcDbPolygonMeshVertex
 10
-2.67
 20
-9.74
 30
0.19
 70
    64
  0
VERTEX
  5
36C6
100
AcDbEntity
  8
0
100
AcDbVertex
100
AcDbPolygonMeshVertex
 10
-2.67
 20
-9.74
 30
0.0
 70
    64
  0
VERTEX
  5
36C7
100
AcDbEntity
  8
0
100
AcDbVertex
100
AcDbPolygonMeshVertex
 10
-2.67
 20
-9.74
 30
0.0
 70
    64
  0
VERTEX
  5
36C8
100
AcDbEntity
  8
0
100
AcDbVertex
100
AcDbPolygonMeshVertex
 10
-2.67
 20
-1.16
 30
0.19
 70
    64
  0
VERTEX
  5
36C9
100
AcDbEntity
  8
0
100
AcDbVertex
100
AcDbPolygonMeshVertex
 10
-2.67
 20
-1.16
 30
0.0
 70
    64
  0
VERTEX
  5
36CA
100
AcDbEntity
  8
0
100
AcDbVertex
100
AcDbPolygonMeshVertex
 10
-2.67
 20
-9.74
 30
0.0
 70
    64
  0
VERTEX
  5
36CB
100
AcDbEntity
  8
0
100
AcDbVertex
100
AcDbPolygonMeshVertex
 10
2.77
 20
-1.16
 30
0.19
 70
    64
  0
VERTEX
  5
36CC
100
AcDbEntity
  8
0
100
AcDbVertex
100
AcDbPolygonMeshVertex
 10
2.77
 20
-1.16
 30
0.0
 70
    64
  0
VERTEX
  5
36CD
100
AcDbEntity
  8
0
100
AcDbVertex
100
AcDbPolygonMeshVertex
 10
2.77
 20
-9.74
 30
0.0
 70
    64
  0
VERTEX
  5
36CE
100
AcDbEntity
  8
0
100
AcDbVertex
100
AcDbPolygonMeshVertex
 10
2.77
 20
-1.16
 30
0.19
 70
    64
  0
VERTEX
  5
36CF
100
AcDbEntity
  8
0
100
AcDbVertex
100
AcDbPolygonMeshVertex
 10
2.77
 20
-1.16
 30
0.19
 70
    64
  0
VERTEX
  5
36D0
100
AcDbEntity
  8
0
100
AcDbVertex
100
AcDbPolygonMeshVertex
 10
2.77
 20
-9.74
 30
0.19
 70
    64
  0
VERTEX
  5
36D1
100
AcDbEntity
  8
0
100
AcDbVertex
100
AcDbPolygonMeshVertex
 10
-2.67
 20
-1.16
 30
0.19
 70
    64
  0
VERTEX
  5
36D2
100
AcDbEntity
  8
0
100
AcDbVertex
100
AcDbPolygonMeshVertex
 10
-2.67
 20
-1.16
 30
0.19
 70
    64
  0
VERTEX
  5
36D3
100
AcDbEntity
  8
0
100
AcDbVertex
100
AcDbPolygonMeshVertex
 10
-2.67
 20
-9.74
 30
0.19
 70
    64
  0
SEQEND
  5
36D4
100
AcDbEntity
  8
0
  0
3DFACE
  5
36D5
100
AcDbEntity
  8
0
100
AcDbFace
 10
-2.67
 20
-9.74
 30
0.0
 11
-3.01
 21
-8.98
 31
0.0
 12
-3.01
 22
-8.98
 32
0.19
 13
-2.67
 23
-9.74
 33
0.19
  0
3DFACE
  5
36D6
100
AcDbEntity
  8
0
100
AcDbFace
 10
-3.01
 20
-8.98
 30
0.0
 11
-3.01
 21
-8.98
 31
0.19
 12
-3.01
 22
-7.74
 32
0.19
 13
-3.01
 23
-7.74
 33
0.0
  0
3DFACE
  5
36D7
100
AcDbEntity
  8
0
100
AcDbFace
 10
-3.01
 20
-7.74
 30
0.19
 11
-2.67
 21
-7.15
 31
0.19
 12
-2.67
 22
-7.15
 32
0.0
 13
-3.01
 23
-7.74
 33
0.0
  0
3DFACE
  5
36D8
100
AcDbEntity
  8
0
100
AcDbFace
 10
3.11
 20
-7.74
 30
0.19
 11
2.77
 21
-7.15
 31
0.19
 12
2.77
 22
-7.15
 32
0.0
 13
3.11
 23
-7.74
 33
0.0
  0
3DFACE
  5
36D9
100
AcDbEntity
  8
0
100
AcDbFace
 10
3.11
 20
-8.98
 30
0.0
 11
3.11
 21
-8.98
 31
0.19
 12
3.11
 22
-7.74
 32
0.19
 13
3.11
 23
-7.74
 33
0.0
  0
3DFACE
  5
36DA
100
AcDbEntity
  8
0
100
AcDbFace
 10
2.77
 20
-9.74
 30
0.0
 11
3.11
 21
-8.98
 31
0.0
 12
3.11
 22
-8.98
 32
0.19
 13
2.77
 23
-9.74
 33
0.19
  0
3DFACE
  5
36DB
100
AcDbEntity
  8
0
100
AcDbFace
 10
2.77
 20
-1.16
 30
0.19
 11
1.74
 21
0.31
 31
0.19
 12
-1.64
 22
0.31
 32
0.19
 13
-2.67
 23
-1.16
 33
0.19
  0
3DFACE
  5
36DC
100
AcDbEntity
  8
0
100
AcDbFace
 10
2.77
 20
-1.16
 30
0.0
 11
1.74
 21
0.31
 31
0.0
 12
-1.64
 22
0.31
 32
0.0
 13
-2.67
 23
-1.16
 33
0.0
  0
3DFACE
  5
36DD
100
AcDbEntity
  8
0
100
AcDbFace
 10
2.77
 20
-1.16
 30
0.0
 11
2.77
 21
-1.16
 31
0.19
 12
1.74
 22
0.31
 32
0.19
 13
1.74
 23
0.31
 33
0.0
  0
3DFACE
  5
36DE
100
AcDbEntity
  8
0
100
AcDbFace
 10
1.74
 20
0.31
 30
0.19
 11
-1.64
 21
0.31
 31
0.19
 12
-1.64
 22
0.31
 32
0.0
 13
1.74
 23
0.31
 33
0.0
  0
3DFACE
  5
36DF
100
AcDbEntity
  8
0
100
AcDbFace
 10
-1.64
 20
0.31
 30
0.0
 11
-1.64
 21
0.31
 31
0.19
 12
-2.67
 22
-1.16
 32
0.19
 13
-2.67
 23
-1.16
 33
0.0
  0
3DFACE
  5
36E0
100
AcDbEntity
  8
0
100
AcDbFace
 10
-2.67
 20
-7.15
 30
0.19
 11
-3.01
 21
-7.74
 31
0.19
 12
-3.01
 22
-8.98
 32
0.19
 13
-2.67
 23
-9.74
 33
0.19
  0
3DFACE
  5
36E1
100
AcDbEntity
  8
0
100
AcDbFace
 10
-2.67
 20
-7.15
 30
0.0
 11
-3.01
 21
-7.74
 31
0.0
 12
-3.01
 22
-8.98
 32
0.0
 13
-2.67
 23
-9.74
 33
0.0
  0
3DFACE
  5
36E2
100
AcDbEntity
  8
0
100
AcDbFace
 10
2.77
 20
-9.74
 30
0.19
 11
2.77
 21
-7.15
 31
0.19
 12
3.11
 22
-7.74
 32
0.19
 13
3.11
 23
-8.98
 33
0.19
  0
3DFACE
  5
36E3
100
AcDbEntity
  8
0
100
AcDbFace
 10
2.77
 20
-9.74
 30
0.0
 11
2.77
 21
-7.15
 31
0.0
 12
3.11
 22
-7.74
 32
0.0
 13
3.11
 23
-8.98
 33
0.0
  0
TEXT
  5
36E4
100
AcDbEntity
  8
0
100
AcDbText
 10
-1.379486
 20
-0.148748
 30
2.81
 40
0.12
  1
T1
100
AcDbText
  0
TEXT
  5
36E5
100
AcDbEntity
  8
0
100
AcDbText
 10
0.208958
 20
-0.143068
 30
2.81
 40
0.12
  1
T2
100
AcDbText
  0
TEXT
  5
36E6
100
AcDbEntity
  8
0
100
AcDbText
 10
1.804573
 20
-0.157807
 30
2.81
 40
0.12
  1
T3
100
AcDbText
  0
TEXT
  5
36E7
100
AcDbEntity
  8
0
100
AcDbText
 10
-1.614784
 20
-1.140798
 30
6.5
 40
0.12
  1
L1
100
AcDbText
  0
TEXT
  5
36E8
100
AcDbEntity
  8
0
100
AcDbText
 10
-0.051842
 20
-1.118282
 30
6.5
 40
0.12
  1
L2
100
AcDbText
  0
TEXT
  5
36E9
100
AcDbEntity
  8
0
100
AcDbText
 10
1.548372
 20
-1.130452
 30
6.5
 40
0.12
  1
L3
100
AcDbText
  0
ARC
  5
36EA
100
AcDbEntity
  8
0
100
AcDbCircle
 10
0.05
 20
0.0
 30
0.0
 40
0.14
100
AcDbArc
 50
0.0
 51
180.0
  0
LINE
  5
36EB
100
AcDbEntity
  8
0
100
AcDbLine
 10
0.19
 20
0.0
 30
0.0
 11
0.19
 21
-0.197513
 31
0.0
  0
ARC
  5
36EC
100
AcDbEntity
  8
0
100
AcDbCircle
 10
0.05
 20
0.0
 30
0.19
 40
0.14
100
AcDbArc
 50
0.0
 51
180.0
  0
ATTDEF
  5
36ED
100
AcDbEntity
  8
ATTRIBUTES
100
AcDbText
 10
-2.526818
 20
-7.516209
 30
0.0
 40
0.12
  1
ALLEN-BRADLEY
100
AcDbAttributeDefinition
  3
MANUFACTURER NAME?
  2
AC_VND_LABEL
 70
     1
  0
ATTDEF
  5
36EE
100
AcDbEntity
  8
ATTRIBUTES
100
AcDbText
 10
-2.526818
 20
-7.766209
 30
0.0
 40
0.12
  1
500-D
100
AcDbAttributeDefinition
  3
CATALOG NUMBER?
  2
AC_PART_NO
 70
     1
  0
ATTDEF
  5
36EF
100
AcDbEntity
  8
ATTRIBUTES
100
AcDbText
 10
-2.526818
 20
-8.016209
 30
0.0
 40
0.12
  1
NEMA AC TOP WIRING CONTACTOR;  SIZE 3; 3P
100
AcDbAttributeDefinition
  3
PART DESCRIPTION?
  2
AC_DESCRIPTION
 70
     1
  0
ATTDEF
  5
36F0
100
AcDbEntity
  8
ATTRIBUTES
100
AcDbText
 10
-2.526818
 20
-8.266209
 30
0.0
 40
0.12
  1

100
AcDbAttributeDefinition
  3
DEVICE ID?
  2
DEVICE_ID
 70
     1
  0
ATTDEF
  5
36F1
100
AcDbEntity
  8
ATTRIBUTES
100
AcDbText
 10
-2.526818
 20
-8.516209
 30
0.0
 40
0.12
  1

100
AcDbAttributeDefinition
  3
CUSTOMER PART NUMBER?
  2
AC_CPART_NO
 70
     1
  0
ATTDEF
  5
36F2
100
AcDbEntity
  8
ATTRIBUTES
100
AcDbText
 10
-2.526818
 20
-8.766209
 30
0.0
 40
0.12
  1

100
AcDbAttributeDefinition
  3
CUSTOMER NOTE?
  2
AC_NOTE
 70
     1
  0
ATTDEF
  5
36F3
100
AcDbEntity
  8
ATTRIBUTES
100
AcDbText
 10
-2.526818
 20
-9.016209
 30
0.0
 40
0.12
  1

100
AcDbAttributeDefinition
  3
FASTENER DATA?
  2
FASTENER
 70
     1
  0
ATTDEF
  5
36F4
100
AcDbEntity
  8
ATTRIBUTES
100
AcDbText
 10
-2.526818
 20
-9.266209
 30
0.0
 40
0.12
  1
INCH
100
AcDbAttributeDefinition
  3
UNIT OF SCALE?
  2
AC_SCALE_UNIT
 70
     1
  0
ATTDEF
  5
36F5
100
AcDbEntity
  8
ATTRIBUTES
100
AcDbText
 10
-2.526818
 20
-9.516209
 30
0.0
 40
0.12
  1
0
100
AcDbAttributeDefinition
  3
VIEW CODE?
  2
AC_VIEW_CODE
 70
     1
  0
POINT
  5
36F6
100
AcDbEntity
  8
DIMS-MTG-HOLES
100
AcDbPoint
 10
-2.71
 20
-8.66
 30
0.0
  0
POINT
  5
36F7
100
AcDbEntity
  8
DIMS-MTG-HOLES
100
AcDbPoint
 10
2.81
 20
-8.66
 30
0.0
  0
POINT
  5
36F8
100
AcDbEntity
  8
DIMS-MTG-HOLES
100
AcDbPoint
 10
0.05
 20
0.0
 30
0.0
  0
POINT
  5
36F9
100
AcDbEntity
  8
DIMS-MTG-HOLES
100
AcDbPoint
 10
0.83
 20
0.0
 30
0.0
  0
DIMENSION
  5
36FA
100
AcDbEntity
  8
AREA1
100
AcDbDimension
  2
*D0
 10
-4.851758
 20
-9.88
 30
0.0
 11
-4.851758
 21
-4.850892
 31
0.0
 70
   160
  3
ABECAD_3V
100
AcDbAlignedDimension
 13
-1.669014
 23
0.281835
 33
1.81
 14
-2.39
 24
-9.88
 34
0.19
 50
90.0
100
AcDbRotatedDimension
1001
ACAD
1000
DSTYLE
1002
{
1070
    40
1040
3.079613
1002
}
  0
DIMENSION
  5
36FB
100
AcDbEntity
  8
AREA1
100
AcDbDimension
  2
*D1
 10
3.11
 20
1.198437
 30
0.0
 11
0.167107
 21
1.198437
 31
0.0
 70
   160
  3
ABECAD_3V
100
AcDbAlignedDimension
 13
-3.01
 23
-7.74
 33
0.0
 14
3.11
 24
-7.74
 34
0.0
100
AcDbRotatedDimension
1001
ACAD
1000
DSTYLE
1002
{
1070
    40
1040
3.079613
1002
}
  0
DIMENSION
  5
372A
100
AcDbEntity
  8
AREA2
100
AcDbDimension
  2
*D2
 10
-4.121224
 20
0.0
 30
0.0
 11
-4.121224
 21
3.299882
 31
0.0
 70
   160
210
0.0
220
-1.0
230
0.0
  3
ABECAD_3V
100
AcDbAlignedDimension
 13
-1.915
 23
-0.69
 33
6.5
 14
-3.01
 24
0.281835
 34
0.0
 50
90.0
100
AcDbRotatedDimension
1001
ACAD
1000
DSTYLE
1002
{
1070
    40
1040
3.079613
1002
}
  0
VIEWPORT
  5
2C
102
{ACAD_XDICTIONARY
360
3865
102
}
100
AcDbEntity
 67
     1
  8
0
100
AcDbViewport
 10
4.999849
 20
3.750155
 30
0.0
 40
13.389022
 41
7.577951
 68
     1
 69
     1
1001
ACAD
1000
MVIEW
1002
{
1070
    16
1010
0.0
1020
0.0
1030
0.0
1010
0.0
1020
0.0
1030
1.0
1040
0.0
1040
7.577951
1040
4.999849
1040
3.750155
1040
50.0
1040
0.0
1040
0.0
1070
     0
1070
   100
1070
     1
1070
     1
1070
     0
1070
     0
1070
     0
1070
     0
1040
0.0
1040
0.0
1040
0.0
1040
1.0
1040
1.0
1040
0.0
1040
0.0
1070
     0
1002
{
1002
}
1002
}
  0
VIEWPORT
  5
2D
102
{ACAD_XDICTIONARY
360
3867
102
}
100
AcDbEntity
 67
     1
  8
0
100
AcDbViewport
 10
2.5
 20
5.625
 30
0.0
 40
5.0
 41
3.75
 68
     3
 69
     2
1001
ACAD
1000
MVIEW
1002
{
1070
    16
1010
0.0
1020
0.0
1030
0.0
1010
0.0
1020
0.0
1030
1.0
1040
0.0
1040
12.707604
1040
-0.960879
1040
-4.801289
1040
50.0
1040
0.0
1040
0.0
1070
     0
1070
   100
1070
     1
1070
     0
1070
     0
1070
     0
1070
     0
1070
     0
1040
0.0
1040
0.0
1040
0.0
1040
1.0
1040
1.0
1040
0.0
1040
0.0
1070
     0
1002
{
1003
AREA2
1002
}
1002
}
  0
VIEWPORT
  5
2E
102
{ACAD_XDICTIONARY
360
3869
102
}
100
AcDbEntity
 67
     1
  8
0
100
AcDbViewport
 10
2.5
 20
1.875
 30
0.0
 40
5.0
 41
3.75
 68
     2
 69
     3
1001
ACAD
1000
MVIEW
1002
{
1070
    16
1010
0.0
1020
0.0
1030
0.0
1010
0.0
1020
-1.0
1030
0.0
1040
0.0
1040
11.54855
1040
-0.960879
1040
3.25
1040
50.0
1040
0.0
1040
0.0
1070
     0
1070
   100
1070
     1
1070
     0
1070
     0
1070
     0
1070
     0
1070
     0
1040
0.0
1040
0.0
1040
0.0
1040
1.0
1040
1.0
1040
0.0
1040
0.0
1070
     0
1002
{
1003
AREA1
1002
}
1002
}
  0
VIEWPORT
  5
2F
102
{ACAD_XDICTIONARY
360
386B
102
}
100
AcDbEntity
 67
     1
  8
0
100
AcDbViewport
 10
7.5
 20
3.75
 30
0.0
 40
5.0
 41
7.5
 68
     4
 69
     4
1001
ACAD
1000
MVIEW
1002
{
1070
    16
1010
0.0
1020
0.0
1030
0.0
1010
-1.0
1020
-1.0
1030
1.0
1040
0.0
1040
22.204213
1040
2.71558
1040
0.301219
1040
50.0
1040
0.0
1040
0.0
1070
     0
1070
   100
1070
     1
1070
     0
1070
     0
1070
     0
1070
     0
1070
     0
1040
0.0
1040
0.0
1040
0.0
1040
1.0
1040
1.0
1040
0.0
1040
0.0
1070
     0
1002
{
1003
AREA1
1003
AREA2
1002
}
1002
}
  0
TEXT
  5
42D
100
AcDbEntity
 67
     1
  8
0
100
AcDbText
 10
5.253785
 20
7.092701
 30
0.0
 40
0.2
  1
500-D
100
AcDbText
  0
TEXT
  5
431
100
AcDbEntity
 67
     1
  8
0
100
AcDbText
 10
5.253785
 20
6.759368
 30
0.0
 40
0.2
  1
NEMA AC TOP WIRING 
100
AcDbText
1001
ACAD
1000
R13OBJECT
1002
{
1005
42D
1002
}
  0
TEXT
  5
9FD
100
AcDbEntity
 67
     1
  8
0
100
AcDbText
 10
5.253785
 20
6.426973
 30
0.0
 40
0.2
  1
CONTACTOR;  SIZE 3; 3P
100
AcDbText
1001
ACAD
1000
R13OBJECT
1002
{
1005
42D
1002
}
  0
ENDSEC
  0
SECTION
  2
OBJECTS
  0
DICTIONARY
  5
46D
100
AcDbDictionary
  3
ACAD_GROUP
350
46E
  3
ACAD_LAYOUT
350
49E
  3
ACAD_MLINESTYLE
350
47B
  3
ACAD_PLOTSETTINGS
350
49F
  3
ACAD_PLOTSTYLENAME
350
49C
  3
ACDBHEADERROUNDTRIPXREC
350
3844
  3
ACDBVARIABLEDICTIONARY
350
48D
  0
DICTIONARY
  5
3842
100
AcDbDictionary
280
     1
  3
ACAD_XREC_ROUNDTRIP
360
3843
  0
DICTIONARY
  5
386F
100
AcDbDictionary
280
     1
  3
ACAD_XREC_ROUNDTRIP
360
3870
  0
DICTIONARY
  5
3871
100
AcDbDictionary
280
     1
  3
ACAD_XREC_ROUNDTRIP
360
3872
  0
DICTIONARY
  5
3875
100
AcDbDictionary
280
     1
  3
ACAD_XREC_ROUNDTRIP
360
3876
  0
DICTIONARY
  5
4D2
100
AcDbDictionary
280
     1
  3
ACAD_LAYOUTSELFREF
360
386E
  0
DICTIONARY
  5
4D0
100
AcDbDictionary
280
     1
  3
ACAD_LAYOUTSELFREF
360
386D
  0
DICTIONARY
  5
3865
100
AcDbDictionary
280
     1
  3
ACAD_XREC_ROUNDTRIP
360
3866
  0
DICTIONARY
  5
3867
100
AcDbDictionary
280
     1
  3
ACAD_XREC_ROUNDTRIP
360
3868
  0
DICTIONARY
  5
3869
100
AcDbDictionary
280
     1
  3
ACAD_XREC_ROUNDTRIP
360
386A
  0
DICTIONARY
  5
386B
100
AcDbDictionary
280
     1
  3
ACAD_XREC_ROUNDTRIP
360
386C
  0
DICTIONARY
  5
46E
102
{ACAD_REACTORS
330
46D
102
}
100
AcDbDictionary
  0
DICTIONARY
  5
49E
102
{ACAD_XDICTIONARY
360
3873
102
}
102
{ACAD_REACTORS
330
46D
102
}
100
AcDbDictionary
  3
LAYOUT1
350
4A1
  3
MODEL
350
4A0
  0
DICTIONARY
  5
47B
102
{ACAD_REACTORS
330
46D
102
}
100
AcDbDictionary
  3
STANDARD
350
47C
  0
DICTIONARY
  5
49F
102
{ACAD_REACTORS
330
46D
102
}
100
AcDbDictionary
  0
ACAD_PROXY_OBJECT
  5
49C
102
{ACAD_REACTORS
330
46D
102
}
100
AcDbProxyObject
 90
      499
 91
      501
 93
       86
310
405010041939BDC9B585B1
350
49D
340
49D
 94
        0
  0
DICTIONARY
  5
3844
102
{ACAD_REACTORS
330
46D
102
}
100
AcDbDictionary
  3
CEPSNTYPE
350
384E
  3
DIMSTYLEDATA
350
3852
  3
FINGERPRINTGUID
350
384F
  3
HYPERLINKBASE
350
3847
  3
INSUNITS
350
384D
  3
LAYOUTDICT
350
3849
  3
LWETCUNION
350
384C
  3
PLOTSETDICT
350
384A
  3
PLOTSTYLNAMDICT
350
384B
  3
PSVPSCALE
350
3851
  3
PUCSBASE
350
3855
  3
PUCSORGBACK
350
385B
  3
PUCSORGBOTTOM
350
3857
  3
PUCSORGFRONT
350
385A
  3
PUCSORGLEFT
350
3858
  3
PUCSORGRIGHT
350
3859
  3
PUCSORGTOP
350
3856
  3
PUCSORTHOREF
350
3853
  3
PUCSORTHOVIEW
350
3854
  3
STYLESHEET
350
3848
  3
TSTACKALIGN
350
3845
  3
TSTACKSIZE
350
3846
  3
UCSBASE
350
385E
  3
UCSORGBACK
350
3864
  3
UCSORGBOTTOM
350
3860
  3
UCSORGFRONT
350
3863
  3
UCSORGLEFT
350
3861
  3
UCSORGRIGHT
350
3862
  3
UCSORGTOP
350
385F
  3
UCSORTHOREF
350
385C
  3
UCSORTHOVIEW
350
385D
  3
VERSIONGUID
350
3850
  0
DICTIONARY
  5
48D
102
{ACAD_REACTORS
330
46D
102
}
100
AcDbDictionary
  3
DIMADEC
350
48E
  0
XRECORD
  5
3843
102
{ACAD_REACTORS
330
3842
102
}
100
AcDbXrecord
102
EXTNAMES
  1
*ACTIVE
  2
*Active
102
UCS
 74
     0
 71
     1
 10
0.0
 20
0.0
 30
0.0
 10
1.0
 20
0.0
 30
0.0
 10
0.0
 20
1.0
 30
0.0
146
0.0
 79
     1
102
VIEW
281
     0
  0
XRECORD
  5
3870
102
{ACAD_REACTORS
330
386F
102
}
100
AcDbXrecord
102
PLOTBIT
280
     0
  0
XRECORD
  5
3872
102
{ACAD_REACTORS
330
3871
102
}
100
AcDbXrecord
102
ACADR14ROUNDTRIP
1000
DSTYLE
1002
{
1070
   276
 70
     2
1070
   277
 70
     5
1070
   279
 70
     2
1002
}
  0
XRECORD
  5
3876
102
{ACAD_REACTORS
330
3875
102
}
100
AcDbXrecord
102
ACADR14ROUNDTRIP
1000
DSTYLE
1002
{
1070
   276
 70
     2
1070
   277
 70
     5
1070
   279
 70
     2
1070
   289
 70
     2
1002
}
  0
XRECORD
  5
386E
102
{ACAD_REACTORS
330
4D2
102
}
100
AcDbXrecord
340
478
  0
XRECORD
  5
386D
102
{ACAD_REACTORS
330
4D0
102
}
100
AcDbXrecord
340
475
  0
XRECORD
  5
3866
102
{ACAD_REACTORS
330
3865
102
}
100
AcDbXrecord
102
UCS
 74
     0
 71
     1
 10
0.0
 20
0.0
 30
0.0
 10
1.0
 20
0.0
 30
0.0
 10
0.0
 20
1.0
 30
0.0
146
0.0
 79
     0
102
VIEW
281
     0
102
NEWVIEWCONTROL
280
     4
  0
XRECORD
  5
3868
102
{ACAD_REACTORS
330
3867
102
}
100
AcDbXrecord
102
UCS
 74
     0
 71
     1
 10
0.0
 20
0.0
 30
0.0
 10
1.0
 20
0.0
 30
0.0
 10
0.0
 20
1.0
 30
0.0
146
0.0
 79
     1
102
VIEW
281
     0
102
NEWVIEWCONTROL
280
     4
  0
XRECORD
  5
386A
102
{ACAD_REACTORS
330
3869
102
}
100
AcDbXrecord
102
UCS
 74
     0
 71
     1
 10
0.0
 20
0.0
 30
0.0
 10
1.0
 20
0.0
 30
0.0
 10
0.0
 20
0.0
 30
1.0
146
0.0
 79
     3
102
VIEW
281
     0
102
NEWVIEWCONTROL
280
     4
  0
XRECORD
  5
386C
102
{ACAD_REACTORS
330
386B
102
}
100
AcDbXrecord
102
UCS
 74
     0
 71
     1
 10
0.0
 20
0.0
 30
0.0
 10
1.0
 20
0.0
 30
0.0
 10
0.0
 20
1.0
 30
0.0
146
0.0
 79
     0
102
VIEW
281
     0
102
NEWVIEWCONTROL
280
     4
  0
DICTIONARY
  5
3873
100
AcDbDictionary
280
     1
  3
ACAD_XREC_ROUNDTRIP
360
3874
  0
ACAD_PROXY_OBJECT
  5
4A1
102
{ACAD_REACTORS
330
49E
102
}
100
AcDbProxyObject
 90
      499
 91
      503
 93
     2044
310
91D4850204C617365724A65742035303030205365726965732050434C20362C008000000C0BB1B1440000000102F06C510000000000BC1B1440000000002E06C5100000000C0CCFC6A4000000018199D9C501064C6574746572A901406AA427D84144352EEE3F47D11959985D5B1D08148C4D081C195B88185CDCDA59DB9B5
310
95B9D1CCB98DD18A30EDE3B1BBFDBC0FC1D572C8D6D0C833F1A2B3054E9249F0FD074C61796F75743140501A97D7DB4AA43C31EFF91E46EBA53B71EFD1B32A15809809100B2537F8EAD447D02A6A6A00200C0093BD106FC0000F06EE366FABE00201F20307FD62FC4424FF2920002440160B7F435600079000000004000C06
310
23E0
330
475
330
2C
340
0
340
0
 94
        0
  0
ACAD_PROXY_OBJECT
  5
4A0
102
{ACAD_REACTORS
330
49E
102
}
100
AcDbProxyObject
 90
      499
 91
      503
 93
      924
310
91D4850204C617365724A65742035303030205365726965732050434C20362C01AAAAAAAAA547D11959985D5B1D08148C4D081C195B88185CDCDA59DB9B595B9D1CCB98DD18A69054D6F64656C901A800000000000000000000000000000000000000000000A1000000000000008902A6A6AAAAF
330
478
330
0
340
0
340
0
 94
        0
  0
MLINESTYLE
  5
47C
102
{ACAD_REACTORS
330
47B
102
}
100
AcDbMlineStyle
  2
STANDARD
 70
     0
  3

 62
   256
 51
90.0
 52
90.0
 71
     2
 49
0.5
 62
   256
  6
BYLAYER
 49
-0.5
 62
   256
  6
BYLAYER
  0
ACAD_PROXY_OBJECT
  5
49D
102
{ACAD_REACTORS
330
49C
102
}
100
AcDbProxyObject
 90
      499
 91
      502
 93
        0
 94
        0
  0
XRECORD
  5
384E
102
{ACAD_REACTORS
330
3844
102
}
100
AcDbXrecord
 90
        0
  0
XRECORD
  5
3852
102
{ACAD_REACTORS
330
3844
102
}
100
AcDbXrecord
1000
DSTYLE
1002
{
1070
   276
 70
     2
1070
   277
 70
     5
1070
   279
 70
     2
1002
}
  0
XRECORD
  5
384F
102
{ACAD_REACTORS
330
3844
102
}
100
AcDbXrecord
  1
{6E0CF4B5-225E-11D4-A150-00A0CC3303EC}
  0
XRECORD
  5
3847
102
{ACAD_REACTORS
330
3844
102
}
100
AcDbXrecord
  1

  0
XRECORD
  5
384D
102
{ACAD_REACTORS
330
3844
102
}
100
AcDbXrecord
 90
        0
  0
XRECORD
  5
3849
102
{ACAD_REACTORS
330
3844
102
}
100
AcDbXrecord
340
49E
  0
XRECORD
  5
384C
102
{ACAD_REACTORS
330
3844
102
}
100
AcDbXrecord
 90
    14877
  0
XRECORD
  5
384A
102
{ACAD_REACTORS
330
3844
102
}
100
AcDbXrecord
340
49F
  0
XRECORD
  5
384B
102
{ACAD_REACTORS
330
3844
102
}
100
AcDbXrecord
340
49C
  0
XRECORD
  5
3851
102
{ACAD_REACTORS
330
3844
102
}
100
AcDbXrecord
 40
0.0
  0
XRECORD
  5
3855
102
{ACAD_REACTORS
330
3844
102
}
100
AcDbXrecord
340
0
  0
XRECORD
  5
385B
102
{ACAD_REACTORS
330
3844
102
}
100
AcDbXrecord
 10
0.0
 20
0.0
 30
0.0
  0
XRECORD
  5
3857
102
{ACAD_REACTORS
330
3844
102
}
100
AcDbXrecord
 10
0.0
 20
0.0
 30
0.0
  0
XRECORD
  5
385A
102
{ACAD_REACTORS
330
3844
102
}
100
AcDbXrecord
 10
0.0
 20
0.0
 30
0.0
  0
XRECORD
  5
3858
102
{ACAD_REACTORS
330
3844
102
}
100
AcDbXrecord
 10
0.0
 20
0.0
 30
0.0
  0
XRECORD
  5
3859
102
{ACAD_REACTORS
330
3844
102
}
100
AcDbXrecord
 10
0.0
 20
0.0
 30
0.0
  0
XRECORD
  5
3856
102
{ACAD_REACTORS
330
3844
102
}
100
AcDbXrecord
 10
0.0
 20
0.0
 30
0.0
  0
XRECORD
  5
3853
102
{ACAD_REACTORS
330
3844
102
}
100
AcDbXrecord
340
0
  0
XRECORD
  5
3854
102
{ACAD_REACTORS
330
3844
102
}
100
AcDbXrecord
 70
     0
  0
XRECORD
  5
3848
102
{ACAD_REACTORS
330
3844
102
}
100
AcDbXrecord
  1

  0
XRECORD
  5
3845
102
{ACAD_REACTORS
330
3844
102
}
100
AcDbXrecord
 90
        1
  0
XRECORD
  5
3846
102
{ACAD_REACTORS
330
3844
102
}
100
AcDbXrecord
 90
       70
  0
XRECORD
  5
385E
102
{ACAD_REACTORS
330
3844
102
}
100
AcDbXrecord
340
0
  0
XRECORD
  5
3864
102
{ACAD_REACTORS
330
3844
102
}
100
AcDbXrecord
 10
0.0
 20
0.0
 30
0.0
  0
XRECORD
  5
3860
102
{ACAD_REACTORS
330
3844
102
}
100
AcDbXrecord
 10
0.0
 20
0.0
 30
0.0
  0
XRECORD
  5
3863
102
{ACAD_REACTORS
330
3844
102
}
100
AcDbXrecord
 10
0.0
 20
0.0
 30
0.0
  0
XRECORD
  5
3861
102
{ACAD_REACTORS
330
3844
102
}
100
AcDbXrecord
 10
0.0
 20
0.0
 30
0.0
  0
XRECORD
  5
3862
102
{ACAD_REACTORS
330
3844
102
}
100
AcDbXrecord
 10
0.0
 20
0.0
 30
0.0
  0
XRECORD
  5
385F
102
{ACAD_REACTORS
330
3844
102
}
100
AcDbXrecord
 10
0.0
 20
0.0
 30
0.0
  0
XRECORD
  5
385C
102
{ACAD_REACTORS
330
3844
102
}
100
AcDbXrecord
340
0
  0
XRECORD
  5
385D
102
{ACAD_REACTORS
330
3844
102
}
100
AcDbXrecord
 70
     1
  0
XRECORD
  5
3850
102
{ACAD_REACTORS
330
3844
102
}
100
AcDbXrecord
  1
{261A4EA6-81CF-475B-A24B-C907EE30693B}
  0
DICTIONARYVAR
  5
48E
102
{ACAD_REACTORS
330
48D
102
}
100
DictionaryVariables
280
     0
  1
0
  0
XRECORD
  5
3874
102
{ACAD_REACTORS
330
3873
102
}
100
AcDbXrecord
102
EXTNAMES
  1
LAYOUT1
  2
Layout1
  1
MODEL
  2
Model
  0
ENDSEC
  0
EOF
