  0
SECTION
  2
HEADER
  9
$ACADVER
  1
AC1014
  9
$ACADMAINTVER
 70
     8
  9
$DWGCODEPAGE
  3
ANSI_1252
  9
$INSBASE
 10
0.0
 20
0.0
 30
0.0
  9
$EXTMIN
 10
-1.636074
 20
-7.494866
 30
0.0
  9
$EXTMAX
 10
2.7
 20
1.334613
 30
6.061
  9
$LIMMIN
 10
0.0
 20
0.0
  9
$LIMMAX
 10
12.0
 20
9.0
  9
$ORTHOMODE
 70
     0
  9
$REGENMODE
 70
     1
  9
$FILLMODE
 70
     1
  9
$QTEXTMODE
 70
     0
  9
$MIRRTEXT
 70
     1
  9
$DRAGMODE
 70
     2
  9
$LTSCALE
 40
1.0
  9
$OSMODE
 70
    37
  9
$ATTMODE
 70
     0
  9
$TEXTSIZE
 40
0.2
  9
$TRACEWID
 40
0.05
  9
$TEXTSTYLE
  7
STANDARD
  9
$CLAYER
  8
0
  9
$CELTYPE
  6
BYLAYER
  9
$CECOLOR
 62
   256
  9
$CELTSCALE
 40
1.0
  9
$DELOBJ
 70
     1
  9
$DISPSILH
 70
     0
  9
$DIMSCALE
 40
0.0
  9
$DIMASZ
 40
0.179688
  9
$DIMEXO
 40
0.0625
  9
$DIMDLI
 40
0.375
  9
$DIMRND
 40
0.0
  9
$DIMDLE
 40
0.0
  9
$DIMEXE
 40
0.179688
  9
$DIMTP
 40
0.0
  9
$DIMTM
 40
0.0
  9
$DIMTXT
 40
0.125
  9
$DIMCEN
 40
0.089844
  9
$DIMTSZ
 40
0.0
  9
$DIMTOL
 70
     0
  9
$DIMLIM
 70
     0
  9
$DIMTIH
 70
     0
  9
$DIMTOH
 70
     0
  9
$DIMSE1
 70
     0
  9
$DIMSE2
 70
     0
  9
$DIMTAD
 70
     0
  9
$DIMZIN
 70
     4
  9
$DIMBLK
  1

  9
$DIMASO
 70
     1
  9
$DIMSHO
 70
     1
  9
$DIMPOST
  1

  9
$DIMAPOST
  1

  9
$DIMALT
 70
     1
  9
$DIMALTD
 70
     1
  9
$DIMALTF
 40
25.4
  9
$DIMLFAC
 40
1.0
  9
$DIMTOFL
 70
     0
  9
$DIMTVP
 40
0.0
  9
$DIMTIX
 70
     1
  9
$DIMSOXD
 70
     0
  9
$DIMSAH
 70
     0
  9
$DIMBLK1
  1

  9
$DIMBLK2
  1

  9
$DIMSTYLE
  2
ABECAD_3V
  9
$DIMCLRD
 70
     0
  9
$DIMCLRE
 70
     0
  9
$DIMCLRT
 70
     0
  9
$DIMTFAC
 40
1.5
  9
$DIMGAP
 40
0.09375
  9
$DIMJUST
 70
     0
  9
$DIMSD1
 70
     0
  9
$DIMSD2
 70
     0
  9
$DIMTOLJ
 70
     1
  9
$DIMTZIN
 70
     4
  9
$DIMALTZ
 70
     4
  9
$DIMALTTZ
 70
     4
  9
$DIMFIT
 70
     5
  9
$DIMUPT
 70
     0
  9
$DIMUNIT
 70
     7
  9
$DIMDEC
 70
     6
  9
$DIMTDEC
 70
     6
  9
$DIMALTU
 70
     2
  9
$DIMALTTD
 70
     1
  9
$DIMTXSTY
  7
STANDARD
  9
$DIMAUNIT
 70
     0
  9
$LUNITS
 70
     5
  9
$LUPREC
 70
     6
  9
$SKETCHINC
 40
0.1
  9
$FILLETRAD
 40
0.0
  9
$AUNITS
 70
     0
  9
$AUPREC
 70
     0
  9
$MENU
  1
acad
  9
$ELEVATION
 40
0.0
  9
$PELEVATION
 40
0.0
  9
$THICKNESS
 40
0.0
  9
$LIMCHECK
 70
     0
  9
$BLIPMODE
 70
     0
  9
$CHAMFERA
 40
0.0
  9
$CHAMFERB
 40
0.0
  9
$CHAMFERC
 40
0.0
  9
$CHAMFERD
 40
0.0
  9
$SKPOLY
 70
     0
  9
$TDCREATE
 40
2451670.441490278
  9
$TDUPDATE
 40
2452010.732036574
  9
$TDINDWG
 40
0.0078545139
  9
$TDUSRTIMER
 40
0.0078545139
  9
$USRTIMER
 70
     1
  9
$ANGBASE
 50
0.0
  9
$ANGDIR
 70
     0
  9
$PDMODE
 70
     2
  9
$PDSIZE
 40
0.0
  9
$PLINEWID
 40
0.0
  9
$COORDS
 70
     1
  9
$SPLFRAME
 70
     0
  9
$SPLINETYPE
 70
     6
  9
$SPLINESEGS
 70
     8
  9
$ATTDIA
 70
     0
  9
$ATTREQ
 70
     1
  9
$HANDLING
 70
     1
  9
$HANDSEED
  5
73D
  9
$SURFTAB1
 70
     6
  9
$SURFTAB2
 70
     6
  9
$SURFTYPE
 70
     6
  9
$SURFU
 70
     6
  9
$SURFV
 70
     6
  9
$UCSNAME
  2

  9
$UCSORG
 10
0.0
 20
0.0
 30
0.0
  9
$UCSXDIR
 10
1.0
 20
0.0
 30
0.0
  9
$UCSYDIR
 10
0.0
 20
0.0
 30
1.0
  9
$PUCSNAME
  2

  9
$PUCSORG
 10
0.0
 20
0.0
 30
0.0
  9
$PUCSXDIR
 10
1.0
 20
0.0
 30
0.0
  9
$PUCSYDIR
 10
0.0
 20
1.0
 30
0.0
  9
$USERI1
 70
     0
  9
$USERI2
 70
     0
  9
$USERI3
 70
     0
  9
$USERI4
 70
     0
  9
$USERI5
 70
     0
  9
$USERR1
 40
0.0
  9
$USERR2
 40
0.0
  9
$USERR3
 40
0.0
  9
$USERR4
 40
0.0
  9
$USERR5
 40
0.0
  9
$WORLDVIEW
 70
     1
  9
$SHADEDGE
 70
     3
  9
$SHADEDIF
 70
    70
  9
$TILEMODE
 70
     0
  9
$MAXACTVP
 70
    16
  9
$PINSBASE
 10
0.0
 20
0.0
 30
0.0
  9
$PLIMCHECK
 70
     0
  9
$PEXTMIN
 10
0.0
 20
0.0
 30
0.0
  9
$PEXTMAX
 10
10.0
 20
7.5
 30
0.0
  9
$PLIMMIN
 10
-0.187029
 20
-0.186938
  9
$PLIMMAX
 10
10.187518
 20
7.829757
  9
$UNITMODE
 70
     0
  9
$VISRETAIN
 70
     0
  9
$PLINEGEN
 70
     0
  9
$PSLTSCALE
 70
     1
  9
$TREEDEPTH
 70
  3020
  9
$PICKSTYLE
 70
     1
  9
$CMLSTYLE
  2
STANDARD
  9
$CMLJUST
 70
     0
  9
$CMLSCALE
 40
1.0
  9
$PROXYGRAPHICS
 70
     1
  9
$MEASUREMENT
 70
     0
  0
ENDSEC
  0
SECTION
  2
CLASSES
  0
CLASS
  1
DICTIONARYVAR
  2
AcDbDictionaryVar
  3
"AutoCAD"
 90
        0
280
     0
281
     0
  0
CLASS
  1
ACDBDICTIONARYWDFLT
  2
AcDbDictionaryWithDefault
  3
AutoCAD 2000
 90
        0
280
     0
281
     0
  0
CLASS
  1
ACDBPLACEHOLDER
  2
AcDbPlaceHolder
  3
AutoCAD 2000
 90
        0
280
     0
281
     0
  0
CLASS
  1
LAYOUT
  2
AcDbLayout
  3
AutoCAD 2000
 90
        0
280
     0
281
     0
  0
CLASS
  1
LONG_TRANSACTION
  2
AcDbLongTransaction
  3
AutoCAD 2000
 90
        0
280
     0
281
     0
  0
CLASS
  1
LWPOLYLINE
  2
AcDbPolyline
  3
"AutoCAD"
 90
        0
280
     0
281
     1
  0
CLASS
  1
HATCH
  2
AcDbHatch
  3
"ACAD_SEDONA"
 90
        0
280
     0
281
     1
  0
CLASS
  1
XRECORD
  2
AcDbXrecord
  3
"<Built In>"
 90
        0
280
     0
281
     0
  0
CLASS
  1
LONG_TRANSACTION
  2
AcDbLongTransaction
  3
AutoCAD 2000
 90
        0
280
     0
281
     0
  0
CLASS
  1
LWPOLYLINE
  2
AcDbPolyline
  3
"AutoCAD"
 90
        0
280
     0
281
     1
  0
CLASS
  1
HATCH
  2
AcDbHatch
  3
"ACAD_SEDONA"
 90
        0
280
     0
281
     1
  0
CLASS
  1
XRECORD
  2
AcDbXrecord
  3
"<Built In>"
 90
        0
280
     0
281
     0
  0
CLASS
  1
LONG_TRANSACTION
  2
AcDbLongTransaction
  3
AutoCAD 2000
 90
        0
280
     0
281
     0
  0
CLASS
  1
LWPOLYLINE
  2
AcDbPolyline
  3
"AutoCAD"
 90
        0
280
     0
281
     1
  0
CLASS
  1
HATCH
  2
AcDbHatch
  3
"ACAD_SEDONA"
 90
        0
280
     0
281
     1
  0
CLASS
  1
XRECORD
  2
AcDbXrecord
  3
"<Built In>"
 90
        0
280
     0
281
     0
  0
CLASS
  1
LONG_TRANSACTION
  2
AcDbLongTransaction
  3
AutoCAD 2000
 90
        0
280
     0
281
     0
  0
CLASS
  1
LWPOLYLINE
  2
AcDbPolyline
  3
"AutoCAD"
 90
        0
280
     0
281
     1
  0
CLASS
  1
HATCH
  2
AcDbHatch
  3
"ACAD_SEDONA"
 90
        0
280
     0
281
     1
  0
CLASS
  1
XRECORD
  2
AcDbXrecord
  3
"<Built In>"
 90
        0
280
     0
281
     0
  0
CLASS
  1
LONG_TRANSACTION
  2
AcDbLongTransaction
  3
AutoCAD 2000
 90
        0
280
     0
281
     0
  0
CLASS
  1
LWPOLYLINE
  2
AcDbPolyline
  3
"AutoCAD"
 90
        0
280
     0
281
     1
  0
CLASS
  1
HATCH
  2
AcDbHatch
  3
"ACAD_SEDONA"
 90
        0
280
     0
281
     1
  0
CLASS
  1
XRECORD
  2
AcDbXrecord
  3
"<Built In>"
 90
        0
280
     0
281
     0
  0
ENDSEC
  0
SECTION
  2
TABLES
  0
TABLE
  2
VPORT
  5
469
100
AcDbSymbolTable
 70
     1
  0
VPORT
  5
682
102
{ACAD_XDICTIONARY
360
703
102
}
100
AcDbSymbolTableRecord
100
AcDbViewportTableRecord
  2
*ACTIVE
 70
     0
 10
0.0
 20
0.0
 11
1.0
 21
1.0
 12
0.531963
 22
-3.080127
 13
0.0
 23
0.0
 14
1.0
 24
1.0
 15
0.0
 25
0.0
 16
0.0
 26
0.0
 36
1.0
 17
0.0
 27
0.0
 37
0.0
 40
9.020731
 41
2.608696
 42
50.0
 43
0.0
 44
0.0
 50
0.0
 51
0.0
 71
     0
 72
   100
 73
     1
 74
     1
 75
     0
 76
     0
 77
     0
 78
     0
  0
ENDTAB
  0
TABLE
  2
LTYPE
  5
466
100
AcDbSymbolTable
 70
     1
  0
LTYPE
  5
472
100
AcDbSymbolTableRecord
100
AcDbLinetypeTableRecord
  2
BYBLOCK
 70
     0
  3

 72
    65
 73
     0
 40
0.0
  0
LTYPE
  5
473
100
AcDbSymbolTableRecord
100
AcDbLinetypeTableRecord
  2
BYLAYER
 70
     0
  3

 72
    65
 73
     0
 40
0.0
  0
LTYPE
  5
474
100
AcDbSymbolTableRecord
100
AcDbLinetypeTableRecord
  2
CONTINUOUS
 70
     0
  3
Solid line
 72
    65
 73
     0
 40
0.0
  0
ENDTAB
  0
TABLE
  2
LAYER
  5
463
100
AcDbSymbolTable
 70
     8
  0
LAYER
  5
46F
100
AcDbSymbolTableRecord
100
AcDbLayerTableRecord
  2
0
 70
     0
 62
     7
  6
CONTINUOUS
  0
LAYER
  5
485
100
AcDbSymbolTableRecord
100
AcDbLayerTableRecord
  2
AREA1
 70
     0
 62
     7
  6
CONTINUOUS
  0
LAYER
  5
486
100
AcDbSymbolTableRecord
100
AcDbLayerTableRecord
  2
AREA2
 70
     0
 62
     7
  6
CONTINUOUS
  0
LAYER
  5
494
102
{ACAD_XDICTIONARY
360
730
102
}
100
AcDbSymbolTableRecord
100
AcDbLayerTableRecord
  2
DEFPOINTS
 70
     0
 62
    -7
  6
CONTINUOUS
  0
LAYER
  5
495
100
AcDbSymbolTableRecord
100
AcDbLayerTableRecord
  2
DIMS-MTG-HOLES
 70
     0
 62
    -1
  6
CONTINUOUS
  0
LAYER
  5
4E9
100
AcDbSymbolTableRecord
100
AcDbLayerTableRecord
  2
SCALE
 70
     0
 62
    -7
  6
CONTINUOUS
  0
LAYER
  5
4EA
100
AcDbSymbolTableRecord
100
AcDbLayerTableRecord
  2
SNAP_POINTS
 70
     0
 62
    -1
  6
CONTINUOUS
  0
LAYER
  5
56D
100
AcDbSymbolTableRecord
100
AcDbLayerTableRecord
  2
ATTRIBUTES
 70
     0
 62
    -7
  6
CONTINUOUS
  0
ENDTAB
  0
TABLE
  2
STYLE
  5
464
100
AcDbSymbolTable
 70
     1
  0
STYLE
  5
470
100
AcDbSymbolTableRecord
100
AcDbTextStyleTableRecord
  2
STANDARD
 70
     0
 40
0.0
 41
1.0
 50
0.0
 71
     0
 42
0.2
  3
txt
  4

  0
ENDTAB
  0
TABLE
  2
VIEW
  5
467
100
AcDbSymbolTable
 70
     0
  0
ENDTAB
  0
TABLE
  2
UCS
  5
468
100
AcDbSymbolTable
 70
     0
  0
ENDTAB
  0
TABLE
  2
APPID
  5
46A
100
AcDbSymbolTable
 70
     2
  0
APPID
  5
471
100
AcDbSymbolTableRecord
100
AcDbRegAppTableRecord
  2
ACAD
 70
     0
  0
APPID
  5
47E
100
AcDbSymbolTableRecord
100
AcDbRegAppTableRecord
  2
AVE_RENDER
 70
     0
  0
ENDTAB
  0
TABLE
  2
DIMSTYLE
  5
46B
100
AcDbSymbolTable
 70
     3
  0
DIMSTYLE
105
496
102
{ACAD_XDICTIONARY
360
732
102
}
100
AcDbSymbolTableRecord
100
AcDbDimStyleTableRecord
  2
ABECAD
 70
     0
  3

  4

  5

  6

  7

 40
0.0
 41
0.179688
 42
0.0625
 43
0.375
 44
0.179688
 45
0.0
 46
0.0
 47
0.0
 48
0.0
140
0.125
141
0.089844
142
0.0
143
25.4
144
1.0
145
0.0
146
1.5
147
0.09375
 71
     0
 72
     0
 73
     0
 74
     0
 75
     0
 76
     0
 77
     0
 78
     4
170
     1
171
     1
172
     0
173
     0
174
     1
175
     0
176
     0
177
     0
178
     0
270
     7
271
     6
272
     6
273
     2
274
     1
340
470
275
     0
280
     0
281
     0
282
     0
283
     1
284
     4
285
     4
286
     4
287
     5
288
     0
  0
DIMSTYLE
105
49A
102
{ACAD_XDICTIONARY
360
734
102
}
102
{ACAD_REACTORS
330
674
102
}
100
AcDbSymbolTableRecord
100
AcDbDimStyleTableRecord
  2
ABECAD_3V
 70
     0
  3

  4

  5

  6

  7

 40
0.0
 41
0.179688
 42
0.0625
 43
0.375
 44
0.179688
 45
0.0
 46
0.0
 47
0.0
 48
0.0
140
0.125
141
0.089844
142
0.0
143
25.4
144
1.0
145
0.0
146
1.5
147
0.09375
 71
     0
 72
     0
 73
     0
 74
     0
 75
     0
 76
     0
 77
     0
 78
     4
170
     1
171
     1
172
     0
173
     0
174
     1
175
     0
176
     0
177
     0
178
     0
270
     7
271
     6
272
     6
273
     2
274
     1
340
470
275
     0
280
     0
281
     0
282
     0
283
     1
284
     4
285
     4
286
     4
287
     5
288
     0
  0
DIMSTYLE
105
56E
102
{ACAD_XDICTIONARY
360
738
102
}
102
{ACAD_REACTORS
330
665
330
666
102
}
100
AcDbSymbolTableRecord
100
AcDbDimStyleTableRecord
  2
ABECAD_3D
 70
     0
  3

  4

  5

  6

  7

 40
1.0
 41
0.18
 42
0.0625
 43
0.375
 44
0.18
 45
0.0
 46
0.0
 47
0.0
 48
0.0
140
0.18
141
0.09
142
0.0
143
25.4
144
1.0
145
0.0
146
1.5
147
0.09
 71
     0
 72
     0
 73
     0
 74
     1
 75
     0
 76
     0
 77
     0
 78
     4
170
     1
171
     1
172
     0
173
     0
174
     0
175
     0
176
     0
177
     0
178
     0
270
     7
271
     6
272
     6
273
     2
274
     1
340
470
275
     0
280
     0
281
     0
282
     0
283
     1
284
     4
285
     4
286
     4
287
     3
288
     0
  0
ENDTAB
  0
TABLE
  2
BLOCK_RECORD
  5
462
100
AcDbSymbolTable
 70
     5
  0
BLOCK_RECORD
  5
478
102
{ACAD_XDICTIONARY
360
4D2
102
}
100
AcDbSymbolTableRecord
100
AcDbBlockTableRecord
  2
*MODEL_SPACE
  0
BLOCK_RECORD
  5
475
102
{ACAD_XDICTIONARY
360
4D0
102
}
100
AcDbSymbolTableRecord
100
AcDbBlockTableRecord
  2
*PAPER_SPACE
  0
BLOCK_RECORD
  5
545
102
{ACAD_XDICTIONARY
360
6FF
102
}
100
AcDbSymbolTableRecord
100
AcDbBlockTableRecord
  2
SCALE
1001
ACAD
1000
DesignCenter Data
1002
{
1070
     1
1070
     1
1002
}
  0
BLOCK_RECORD
  5
553
100
AcDbSymbolTableRecord
100
AcDbBlockTableRecord
  2
*D1
  0
BLOCK_RECORD
  5
560
100
AcDbSymbolTableRecord
100
AcDbBlockTableRecord
  2
*D2
  0
BLOCK_RECORD
  5
56F
102
{ACAD_XDICTIONARY
360
701
102
}
100
AcDbSymbolTableRecord
100
AcDbBlockTableRecord
  2
ABCMA060
  0
BLOCK_RECORD
  5
675
100
AcDbSymbolTableRecord
100
AcDbBlockTableRecord
  2
*D4
  0
ENDTAB
  0
ENDSEC
  0
SECTION
  2
BLOCKS
  0
BLOCK
  5
48B
100
AcDbEntity
  8
0
100
AcDbBlockBegin
  2
*MODEL_SPACE
 70
     0
 10
0.0
 20
0.0
 30
0.0
  3
*MODEL_SPACE
  1

  0
ENDBLK
  5
48C
100
AcDbEntity
  8
0
100
AcDbBlockEnd
  0
BLOCK
  5
489
100
AcDbEntity
 67
     1
  8
0
100
AcDbBlockBegin
  2
*PAPER_SPACE
 70
     0
 10
0.0
 20
0.0
 30
0.0
  3
*PAPER_SPACE
  1

  0
ENDBLK
  5
48A
100
AcDbEntity
 67
     1
  8
0
100
AcDbBlockEnd
  0
BLOCK
  5
551
100
AcDbEntity
  8
0
100
AcDbBlockBegin
  2
SCALE
 70
     0
 10
0.0
 20
0.0
 30
0.0
  3
SCALE
  1

  0
LINE
  5
546
100
AcDbEntity
  8
SCALE
100
AcDbLine
 10
0.057999
 20
-0.380078
 30
0.0
 11
1.057999
 21
-0.380078
 31
0.0
  0
LWPOLYLINE
  5
547
100
AcDbEntity
  8
SCALE
100
AcDbPolyline
 90
        4
 70
     1
 43
0.0
 10
0.0
 20
0.0
 10
1.135629
 20
0.0
 10
1.135629
 20
-0.84161
 10
0.0
 20
-0.84161
  0
LINE
  5
548
100
AcDbEntity
  8
SCALE
100
AcDbLine
 10
0.057999
 20
-0.480078
 30
0.0
 11
0.057999
 21
-0.280078
 31
0.0
  0
TEXT
  5
549
100
AcDbEntity
  8
SCALE
100
AcDbText
 10
0.117421
 20
-0.634339
 30
0.0
 40
0.0625
  1
[10mm]
100
AcDbText
  0
LINE
  5
54A
100
AcDbEntity
  8
SCALE
100
AcDbLine
 10
0.057999
 20
-0.680078
 30
0.0
 11
0.451699
 21
-0.680078
 31
0.0
  0
LINE
  5
54B
100
AcDbEntity
  8
SCALE
100
AcDbLine
 10
0.057999
 20
-0.780078
 30
0.0
 11
0.057999
 21
-0.580078
 31
0.0
  0
LINE
  5
54C
100
AcDbEntity
  8
SCALE
100
AcDbLine
 10
0.451699
 20
-0.780078
 30
0.0
 11
0.451699
 21
-0.580078
 31
0.0
  0
TEXT
  5
54D
100
AcDbEntity
  8
SCALE
100
AcDbText
 10
0.059529
 20
-0.105201
 30
0.0
 40
0.0625
  1
SCALE:
100
AcDbText
  0
TEXT
  5
54E
100
AcDbEntity
  8
SCALE
100
AcDbText
 10
0.421282
 20
-0.31103
 30
0.0
 40
0.0625
  1
1 Inch
100
AcDbText
  0
LINE
  5
54F
100
AcDbEntity
  8
SCALE
100
AcDbLine
 10
1.057999
 20
-0.380078
 30
0.0
 11
1.057999
 21
-0.480078
 31
0.0
  0
LINE
  5
550
100
AcDbEntity
  8
SCALE
100
AcDbLine
 10
1.057999
 20
-0.480078
 30
0.0
 11
1.057999
 21
-0.280078
 31
0.0
  0
ENDBLK
  5
552
100
AcDbEntity
  8
0
100
AcDbBlockEnd
  0
BLOCK
  5
55E
100
AcDbEntity
  8
0
100
AcDbBlockBegin
  2
*D1
 70
     1
 10
0.0
 20
0.0
 30
0.0
  3
*D1
  1

  0
LINE
  5
554
100
AcDbEntity
  8
AREA1
 62
     0
100
AcDbLine
 10
0.3795
 20
0.26
 30
0.0
 11
1.853331
 21
0.26
 31
0.0
1001
ACAD
1000
RTLwPs
1070
   158
  0
LINE
  5
555
100
AcDbEntity
  8
AREA1
 62
     0
100
AcDbLine
 10
0.2795
 20
-6.47
 30
0.0
 11
1.853331
 21
-6.47
 31
0.0
1001
ACAD
1000
RTLwPs
1070
   158
  0
LINE
  5
556
100
AcDbEntity
  8
AREA1
 62
     0
100
AcDbLine
 10
1.673331
 20
0.08
 30
0.0
 11
1.673331
 21
-1.86
 31
0.0
1001
ACAD
1000
RTLwPs
1070
   158
  0
LINE
  5
557
100
AcDbEntity
  8
AREA1
 62
     0
100
AcDbLine
 10
1.673331
 20
-6.29
 30
0.0
 11
1.673331
 21
-4.35
 31
0.0
1001
ACAD
1000
RTLwPs
1070
   158
  0
SOLID
  5
558
100
AcDbEntity
  8
AREA1
 62
     0
100
AcDbTrace
 10
1.643331
 20
0.08
 30
0.0
 11
1.703331
 21
0.08
 31
0.0
 12
1.673331
 22
0.26
 32
0.0
 13
1.673331
 23
0.26
 33
0.0
  0
SOLID
  5
559
100
AcDbEntity
  8
AREA1
 62
     0
100
AcDbTrace
 10
1.643331
 20
-6.29
 30
0.0
 11
1.703331
 21
-6.29
 31
0.0
 12
1.673331
 22
-6.47
 32
0.0
 13
1.673331
 23
-6.47
 33
0.0
  0
MTEXT
  5
55A
100
AcDbEntity
  8
AREA1
 62
     0
100
AcDbMText
 10
1.673331
 20
-3.105
 30
0.0
 40
0.18
 41
0.0
 71
     5
 72
     1
  1
\A1;6 47/64 [170.9]
 11
0.0
 21
1.0
 31
0.0
1001
ACAD
1000
MTEXTBEGIN
1070
    73
1070
     1
1070
    44
1040
1.0
1070
    74
1070
     0
1000
MTEXTEND
1000
MTEXTBEGIN
1070
    73
1070
     1
1070
    44
1040
1.0
1070
    74
1070
     0
1000
MTEXTEND
1000
MTEXTBEGIN
1070
    73
1070
     1
1070
    44
1040
1.0
1070
    74
1070
     0
1000
MTEXTEND
1000
MTEXTBEGIN
1070
    73
1070
     1
1070
    44
1040
1.0
1070
    74
1070
     0
1000
MTEXTEND
  0
POINT
  5
55B
100
AcDbEntity
  8
DEFPOINTS
 62
     0
100
AcDbPoint
 10
0.317
 20
0.26
 30
0.0
  0
POINT
  5
55C
100
AcDbEntity
  8
DEFPOINTS
 62
     0
100
AcDbPoint
 10
0.217
 20
-6.47
 30
0.0
  0
POINT
  5
55D
100
AcDbEntity
  8
DEFPOINTS
 62
     0
100
AcDbPoint
 10
1.673331
 20
-6.47
 30
0.0
  0
ENDBLK
  5
55F
100
AcDbEntity
  8
0
100
AcDbBlockEnd
  0
BLOCK
  5
56B
100
AcDbEntity
  8
0
100
AcDbBlockBegin
  2
*D2
 70
     1
 10
0.0
 20
0.0
 30
0.0
  3
*D2
  1

  0
LINE
  5
561
100
AcDbEntity
  8
AREA1
 62
     0
100
AcDbLine
 10
-0.75
 20
-0.5075
 30
0.0
 11
-0.75
 21
1.334613
 31
0.0
1001
ACAD
1000
RTLwPs
1070
   158
  0
LINE
  5
562
100
AcDbEntity
  8
AREA1
 62
     0
100
AcDbLine
 10
0.75
 20
-0.5075
 30
0.0
 11
0.75
 21
1.334613
 31
0.0
1001
ACAD
1000
RTLwPs
1070
   158
  0
LINE
  5
563
100
AcDbEntity
  8
AREA1
 62
     0
100
AcDbLine
 10
-0.57
 20
1.154613
 30
0.0
 11
0.57
 21
1.154613
 31
0.0
1001
ACAD
1000
RTLwPs
1070
   158
  0
LINE
  5
564
100
AcDbEntity
  8
AREA1
 62
     0
100
AcDbLine
 10
0.75
 20
1.154613
 30
0.0
 11
0.93
 21
1.154613
 31
0.0
1001
ACAD
1000
RTLwPs
1070
   158
  0
SOLID
  5
565
100
AcDbEntity
  8
AREA1
 62
     0
100
AcDbTrace
 10
-0.57
 20
1.184613
 30
0.0
 11
-0.57
 21
1.124613
 31
0.0
 12
-0.75
 22
1.154613
 32
0.0
 13
-0.75
 23
1.154613
 33
0.0
  0
SOLID
  5
566
100
AcDbEntity
  8
AREA1
 62
     0
100
AcDbTrace
 10
0.57
 20
1.184613
 30
0.0
 11
0.57
 21
1.124613
 31
0.0
 12
0.75
 22
1.154613
 32
0.0
 13
0.75
 23
1.154613
 33
0.0
  0
MTEXT
  5
567
100
AcDbEntity
  8
AREA1
 62
     0
100
AcDbMText
 10
1.86
 20
1.154613
 30
0.0
 40
0.18
 41
0.0
 71
     5
 72
     1
  1
\A1;1 1/2 [38.1]
1001
ACAD
1000
MTEXTBEGIN
1070
    73
1070
     1
1070
    44
1040
1.0
1070
    74
1070
     0
1000
MTEXTEND
1000
MTEXTBEGIN
1070
    73
1070
     1
1070
    44
1040
1.0
1070
    74
1070
     0
1000
MTEXTEND
1000
MTEXTBEGIN
1070
    73
1070
     1
1070
    44
1040
1.0
1070
    74
1070
     0
1000
MTEXTEND
1000
MTEXTBEGIN
1070
    73
1070
     1
1070
    44
1040
1.0
1070
    74
1070
     0
1000
MTEXTEND
  0
POINT
  5
568
100
AcDbEntity
  8
DEFPOINTS
 62
     0
100
AcDbPoint
 10
-0.75
 20
-0.57
 30
0.0
  0
POINT
  5
569
100
AcDbEntity
  8
DEFPOINTS
 62
     0
100
AcDbPoint
 10
0.75
 20
-0.57
 30
0.0
  0
POINT
  5
56A
100
AcDbEntity
  8
DEFPOINTS
 62
     0
100
AcDbPoint
 10
0.75
 20
1.154613
 30
0.0
  0
ENDBLK
  5
56C
100
AcDbEntity
  8
0
100
AcDbBlockEnd
  0
BLOCK
  5
667
100
AcDbEntity
  8
0
100
AcDbBlockBegin
  2
ABCMA060
 70
     2
 10
0.0
 20
0.0
 30
0.0
  3
ABCMA060
  1

  0
ATTDEF
  5
570
100
AcDbEntity
  8
ATTRIBUTES
100
AcDbText
 10
-0.664609
 20
-4.365203
 30
0.0
 40
0.084375
  1
ALLEN-BRADLEY
100
AcDbAttributeDefinition
  3
MANUFACTURER NAME?
  2
AC_VND_LABEL
 70
     1
  0
ATTDEF
  5
571
100
AcDbEntity
  8
ATTRIBUTES
100
AcDbText
 10
-0.664609
 20
-4.540984
 30
0.0
 40
0.084375
  1
1747-AIC
100
AcDbAttributeDefinition
  3
CATALOG NUMBER?
  2
AC_PART_NO
 70
     1
  0
ATTDEF
  5
572
100
AcDbEntity
  8
ATTRIBUTES
100
AcDbText
 10
-0.664609
 20
-4.716765
 30
0.0
 40
0.084375
  1
1747-AIC:ISOLATED LINK COUPLER
100
AcDbAttributeDefinition
  3
PART DESCRIPTION?
  2
AC_DESCRIPTION
 70
     1
  0
ATTDEF
  5
573
100
AcDbEntity
  8
ATTRIBUTES
100
AcDbText
 10
-0.664609
 20
-4.892546
 30
0.0
 40
0.084375
  1

100
AcDbAttributeDefinition
  3
DEVICE ID?
  2
DEVICE_ID
 70
     1
  0
ATTDEF
  5
574
100
AcDbEntity
  8
ATTRIBUTES
100
AcDbText
 10
-0.664609
 20
-5.068328
 30
0.0
 40
0.084375
  1

100
AcDbAttributeDefinition
  3
CUSTOMER PART NUMBER?
  2
AC_CPART_NO
 70
     1
  0
ATTDEF
  5
575
100
AcDbEntity
  8
ATTRIBUTES
100
AcDbText
 10
-0.664609
 20
-5.244109
 30
0.0
 40
0.084375
  1

100
AcDbAttributeDefinition
  3
CUSTOMER NOTE?
  2
AC_NOTE
 70
     1
  0
ATTDEF
  5
576
100
AcDbEntity
  8
ATTRIBUTES
100
AcDbText
 10
-0.664609
 20
-5.41989
 30
0.0
 40
0.084375
  1

100
AcDbAttributeDefinition
  3
FASTENER DATA?
  2
FASTENER
 70
     1
  0
ATTDEF
  5
577
100
AcDbEntity
  8
ATTRIBUTES
100
AcDbText
 10
-0.664609
 20
-5.595671
 30
0.0
 40
0.084375
  1
INCH
100
AcDbAttributeDefinition
  3
UNIT OF SCALE?
  2
AC_SCALE_UNIT
 70
     1
  0
ATTDEF
  5
578
100
AcDbEntity
  8
ATTRIBUTES
100
AcDbText
 10
-0.664609
 20
-5.771453
 30
0.0
 40
0.084375
  1
0
100
AcDbAttributeDefinition
  3
VIEW CODE?
  2
AC_VIEW_CODE
 70
     1
  0
INSERT
  5
579
100
AcDbEntity
  8
SCALE
100
AcDbBlockReference
  2
SCALE
 10
-0.782551
 20
-6.653256
 30
0.0
  0
POLYLINE
  5
57A
100
AcDbEntity
  8
0
100
AcDbPolygonMesh
 66
     1
 10
0.0
 20
0.0
 30
0.0
 70
    16
 71
     6
 72
     3
  0
VERTEX
  5
57B
100
AcDbEntity
  8
0
100
AcDbVertex
100
AcDbPolygonMeshVertex
 10
-0.317
 20
-0.53
 30
0.17
 70
    64
  0
VERTEX
  5
57C
100
AcDbEntity
  8
0
100
AcDbVertex
100
AcDbPolygonMeshVertex
 10
-0.317
 20
-0.53
 30
0.0
 70
    64
  0
VERTEX
  5
57D
100
AcDbEntity
  8
0
100
AcDbVertex
100
AcDbPolygonMeshVertex
 10
-0.317
 20
-0.53
 30
0.0
 70
    64
  0
VERTEX
  5
57E
100
AcDbEntity
  8
0
100
AcDbVertex
100
AcDbPolygonMeshVertex
 10
-0.317
 20
0.26
 30
0.17
 70
    64
  0
VERTEX
  5
57F
100
AcDbEntity
  8
0
100
AcDbVertex
100
AcDbPolygonMeshVertex
 10
-0.317
 20
0.26
 30
0.0
 70
    64
  0
VERTEX
  5
580
100
AcDbEntity
  8
0
100
AcDbVertex
100
AcDbPolygonMeshVertex
 10
-0.317
 20
0.26
 30
0.0
 70
    64
  0
VERTEX
  5
581
100
AcDbEntity
  8
0
100
AcDbVertex
100
AcDbPolygonMeshVertex
 10
0.317
 20
0.26
 30
0.17
 70
    64
  0
VERTEX
  5
582
100
AcDbEntity
  8
0
100
AcDbVertex
100
AcDbPolygonMeshVertex
 10
0.317
 20
0.26
 30
0.0
 70
    64
  0
VERTEX
  5
583
100
AcDbEntity
  8
0
100
AcDbVertex
100
AcDbPolygonMeshVertex
 10
-0.317
 20
0.26
 30
0.0
 70
    64
  0
VERTEX
  5
584
100
AcDbEntity
  8
0
100
AcDbVertex
100
AcDbPolygonMeshVertex
 10
0.317
 20
-0.53
 30
0.17
 70
    64
  0
VERTEX
  5
585
100
AcDbEntity
  8
0
100
AcDbVertex
100
AcDbPolygonMeshVertex
 10
0.317
 20
-0.53
 30
0.0
 70
    64
  0
VERTEX
  5
586
100
AcDbEntity
  8
0
100
AcDbVertex
100
AcDbPolygonMeshVertex
 10
-0.317
 20
-0.53
 30
0.0
 70
    64
  0
VERTEX
  5
587
100
AcDbEntity
  8
0
100
AcDbVertex
100
AcDbPolygonMeshVertex
 10
0.317
 20
-0.53
 30
0.17
 70
    64
  0
VERTEX
  5
588
100
AcDbEntity
  8
0
100
AcDbVertex
100
AcDbPolygonMeshVertex
 10
0.317
 20
-0.53
 30
0.17
 70
    64
  0
VERTEX
  5
589
100
AcDbEntity
  8
0
100
AcDbVertex
100
AcDbPolygonMeshVertex
 10
-0.317
 20
-0.53
 30
0.17
 70
    64
  0
VERTEX
  5
58A
100
AcDbEntity
  8
0
100
AcDbVertex
100
AcDbPolygonMeshVertex
 10
0.317
 20
0.26
 30
0.17
 70
    64
  0
VERTEX
  5
58B
100
AcDbEntity
  8
0
100
AcDbVertex
100
AcDbPolygonMeshVertex
 10
0.317
 20
0.26
 30
0.17
 70
    64
  0
VERTEX
  5
58C
100
AcDbEntity
  8
0
100
AcDbVertex
100
AcDbPolygonMeshVertex
 10
-0.317
 20
0.26
 30
0.17
 70
    64
  0
SEQEND
  5
58D
100
AcDbEntity
  8
0
  0
POLYLINE
  5
58E
100
AcDbEntity
  8
0
100
AcDbPolygonMesh
 66
     1
 10
0.0
 20
0.0
 30
0.0
 70
    16
 71
     6
 72
     3
  0
VERTEX
  5
58F
100
AcDbEntity
  8
0
100
AcDbVertex
100
AcDbPolygonMeshVertex
 10
0.75
 20
-5.92
 30
5.71
 70
    64
  0
VERTEX
  5
590
100
AcDbEntity
  8
0
100
AcDbVertex
100
AcDbPolygonMeshVertex
 10
0.75
 20
-5.92
 30
0.0
 70
    64
  0
VERTEX
  5
591
100
AcDbEntity
  8
0
100
AcDbVertex
100
AcDbPolygonMeshVertex
 10
0.75
 20
-5.92
 30
0.0
 70
    64
  0
VERTEX
  5
592
100
AcDbEntity
  8
0
100
AcDbVertex
100
AcDbPolygonMeshVertex
 10
-0.75
 20
-5.92
 30
5.71
 70
    64
  0
VERTEX
  5
593
100
AcDbEntity
  8
0
100
AcDbVertex
100
AcDbPolygonMeshVertex
 10
-0.75
 20
-5.92
 30
0.0
 70
    64
  0
VERTEX
  5
594
100
AcDbEntity
  8
0
100
AcDbVertex
100
AcDbPolygonMeshVertex
 10
-0.75
 20
-5.92
 30
0.0
 70
    64
  0
VERTEX
  5
595
100
AcDbEntity
  8
0
100
AcDbVertex
100
AcDbPolygonMeshVertex
 10
-0.75
 20
-0.53
 30
5.71
 70
    64
  0
VERTEX
  5
596
100
AcDbEntity
  8
0
100
AcDbVertex
100
AcDbPolygonMeshVertex
 10
-0.75
 20
-0.53
 30
0.0
 70
    64
  0
VERTEX
  5
597
100
AcDbEntity
  8
0
100
AcDbVertex
100
AcDbPolygonMeshVertex
 10
-0.75
 20
-5.92
 30
0.0
 70
    64
  0
VERTEX
  5
598
100
AcDbEntity
  8
0
100
AcDbVertex
100
AcDbPolygonMeshVertex
 10
0.75
 20
-0.53
 30
5.71
 70
    64
  0
VERTEX
  5
599
100
AcDbEntity
  8
0
100
AcDbVertex
100
AcDbPolygonMeshVertex
 10
0.75
 20
-0.53
 30
0.0
 70
    64
  0
VERTEX
  5
59A
100
AcDbEntity
  8
0
100
AcDbVertex
100
AcDbPolygonMeshVertex
 10
0.75
 20
-5.92
 30
0.0
 70
    64
  0
VERTEX
  5
59B
100
AcDbEntity
  8
0
100
AcDbVertex
100
AcDbPolygonMeshVertex
 10
0.75
 20
-0.53
 30
5.71
 70
    64
  0
VERTEX
  5
59C
100
AcDbEntity
  8
0
100
AcDbVertex
100
AcDbPolygonMeshVertex
 10
0.75
 20
-0.53
 30
5.71
 70
    64
  0
VERTEX
  5
59D
100
AcDbEntity
  8
0
100
AcDbVertex
100
AcDbPolygonMeshVertex
 10
0.75
 20
-5.92
 30
5.71
 70
    64
  0
VERTEX
  5
59E
100
AcDbEntity
  8
0
100
AcDbVertex
100
AcDbPolygonMeshVertex
 10
-0.75
 20
-0.53
 30
5.71
 70
    64
  0
VERTEX
  5
59F
100
AcDbEntity
  8
0
100
AcDbVertex
100
AcDbPolygonMeshVertex
 10
-0.75
 20
-0.53
 30
5.71
 70
    64
  0
VERTEX
  5
5A0
100
AcDbEntity
  8
0
100
AcDbVertex
100
AcDbPolygonMeshVertex
 10
-0.75
 20
-5.92
 30
5.71
 70
    64
  0
SEQEND
  5
5A1
100
AcDbEntity
  8
0
  0
POLYLINE
  5
5A2
100
AcDbEntity
  8
0
100
AcDbPolygonMesh
 66
     1
 10
0.0
 20
0.0
 30
0.0
 70
    16
 71
     6
 72
     3
  0
VERTEX
  5
5A3
100
AcDbEntity
  8
0
100
AcDbVertex
100
AcDbPolygonMeshVertex
 10
0.75
 20
-5.879709
 30
0.040001
 70
    64
  0
VERTEX
  5
5A4
100
AcDbEntity
  8
0
100
AcDbVertex
100
AcDbPolygonMeshVertex
 10
0.75
 20
-5.879709
 30
0.0
 70
    64
  0
VERTEX
  5
5A5
100
AcDbEntity
  8
0
100
AcDbVertex
100
AcDbPolygonMeshVertex
 10
0.75
 20
-5.879709
 30
0.0
 70
    64
  0
VERTEX
  5
5A6
100
AcDbEntity
  8
0
100
AcDbVertex
100
AcDbPolygonMeshVertex
 10
-0.75
 20
-5.879709
 30
0.040001
 70
    64
  0
VERTEX
  5
5A7
100
AcDbEntity
  8
0
100
AcDbVertex
100
AcDbPolygonMeshVertex
 10
-0.75
 20
-5.879709
 30
0.0
 70
    64
  0
VERTEX
  5
5A8
100
AcDbEntity
  8
0
100
AcDbVertex
100
AcDbPolygonMeshVertex
 10
-0.75
 20
-5.879709
 30
0.0
 70
    64
  0
VERTEX
  5
5A9
100
AcDbEntity
  8
0
100
AcDbVertex
100
AcDbPolygonMeshVertex
 10
-0.75
 20
-0.57
 30
0.040001
 70
    64
  0
VERTEX
  5
5AA
100
AcDbEntity
  8
0
100
AcDbVertex
100
AcDbPolygonMeshVertex
 10
-0.75
 20
-0.57
 30
0.0
 70
    64
  0
VERTEX
  5
5AB
100
AcDbEntity
  8
0
100
AcDbVertex
100
AcDbPolygonMeshVertex
 10
-0.75
 20
-5.879709
 30
0.0
 70
    64
  0
VERTEX
  5
5AC
100
AcDbEntity
  8
0
100
AcDbVertex
100
AcDbPolygonMeshVertex
 10
0.75
 20
-0.57
 30
0.040001
 70
    64
  0
VERTEX
  5
5AD
100
AcDbEntity
  8
0
100
AcDbVertex
100
AcDbPolygonMeshVertex
 10
0.75
 20
-0.57
 30
0.0
 70
    64
  0
VERTEX
  5
5AE
100
AcDbEntity
  8
0
100
AcDbVertex
100
AcDbPolygonMeshVertex
 10
0.75
 20
-5.879709
 30
0.0
 70
    64
  0
VERTEX
  5
5AF
100
AcDbEntity
  8
0
100
AcDbVertex
100
AcDbPolygonMeshVertex
 10
0.75
 20
-0.57
 30
0.040001
 70
    64
  0
VERTEX
  5
5B0
100
AcDbEntity
  8
0
100
AcDbVertex
100
AcDbPolygonMeshVertex
 10
0.75
 20
-0.57
 30
0.040001
 70
    64
  0
VERTEX
  5
5B1
100
AcDbEntity
  8
0
100
AcDbVertex
100
AcDbPolygonMeshVertex
 10
0.75
 20
-5.879709
 30
0.040001
 70
    64
  0
VERTEX
  5
5B2
100
AcDbEntity
  8
0
100
AcDbVertex
100
AcDbPolygonMeshVertex
 10
-0.75
 20
-0.57
 30
0.040001
 70
    64
  0
VERTEX
  5
5B3
100
AcDbEntity
  8
0
100
AcDbVertex
100
AcDbPolygonMeshVertex
 10
-0.75
 20
-0.57
 30
0.040001
 70
    64
  0
VERTEX
  5
5B4
100
AcDbEntity
  8
0
100
AcDbVertex
100
AcDbPolygonMeshVertex
 10
-0.75
 20
-5.879709
 30
0.040001
 70
    64
  0
SEQEND
  5
5B5
100
AcDbEntity
  8
0
  0
LINE
  5
5B6
100
AcDbEntity
  8
0
100
AcDbLine
 10
-0.75
 20
-5.88
 30
0.04
 11
-0.75
 21
-5.87971
 31
0.000295
  0
LINE
  5
5B7
100
AcDbEntity
  8
0
100
AcDbLine
 10
-0.75
 20
-0.57
 30
0.04
 11
-0.75
 21
-0.57
 31
0.0
  0
POLYLINE
  5
5B8
100
AcDbEntity
  8
0
100
AcDbPolygonMesh
 66
     1
 10
0.0
 20
0.0
 30
0.0
 70
    16
 71
     6
 72
     3
  0
VERTEX
  5
5B9
100
AcDbEntity
  8
0
100
AcDbVertex
100
AcDbPolygonMeshVertex
 10
0.217
 20
-6.47
 30
0.17
 70
    64
  0
VERTEX
  5
5BA
100
AcDbEntity
  8
0
100
AcDbVertex
100
AcDbPolygonMeshVertex
 10
0.217
 20
-6.47
 30
0.0
 70
    64
  0
VERTEX
  5
5BB
100
AcDbEntity
  8
0
100
AcDbVertex
100
AcDbPolygonMeshVertex
 10
0.217
 20
-6.47
 30
0.0
 70
    64
  0
VERTEX
  5
5BC
100
AcDbEntity
  8
0
100
AcDbVertex
100
AcDbPolygonMeshVertex
 10
-0.217
 20
-6.47
 30
0.17
 70
    64
  0
VERTEX
  5
5BD
100
AcDbEntity
  8
0
100
AcDbVertex
100
AcDbPolygonMeshVertex
 10
-0.217
 20
-6.47
 30
0.0
 70
    64
  0
VERTEX
  5
5BE
100
AcDbEntity
  8
0
100
AcDbVertex
100
AcDbPolygonMeshVertex
 10
-0.217
 20
-6.47
 30
0.0
 70
    64
  0
VERTEX
  5
5BF
100
AcDbEntity
  8
0
100
AcDbVertex
100
AcDbPolygonMeshVertex
 10
-0.217
 20
-5.92
 30
0.17
 70
    64
  0
VERTEX
  5
5C0
100
AcDbEntity
  8
0
100
AcDbVertex
100
AcDbPolygonMeshVertex
 10
-0.217
 20
-5.92
 30
0.0
 70
    64
  0
VERTEX
  5
5C1
100
AcDbEntity
  8
0
100
AcDbVertex
100
AcDbPolygonMeshVertex
 10
-0.217
 20
-6.47
 30
0.0
 70
    64
  0
VERTEX
  5
5C2
100
AcDbEntity
  8
0
100
AcDbVertex
100
AcDbPolygonMeshVertex
 10
0.217
 20
-5.92
 30
0.17
 70
    64
  0
VERTEX
  5
5C3
100
AcDbEntity
  8
0
100
AcDbVertex
100
AcDbPolygonMeshVertex
 10
0.217
 20
-5.92
 30
0.0
 70
    64
  0
VERTEX
  5
5C4
100
AcDbEntity
  8
0
100
AcDbVertex
100
AcDbPolygonMeshVertex
 10
0.217
 20
-6.47
 30
0.0
 70
    64
  0
VERTEX
  5
5C5
100
AcDbEntity
  8
0
100
AcDbVertex
100
AcDbPolygonMeshVertex
 10
0.217
 20
-5.92
 30
0.17
 70
    64
  0
VERTEX
  5
5C6
100
AcDbEntity
  8
0
100
AcDbVertex
100
AcDbPolygonMeshVertex
 10
0.217
 20
-5.92
 30
0.17
 70
    64
  0
VERTEX
  5
5C7
100
AcDbEntity
  8
0
100
AcDbVertex
100
AcDbPolygonMeshVertex
 10
0.217
 20
-6.47
 30
0.17
 70
    64
  0
VERTEX
  5
5C8
100
AcDbEntity
  8
0
100
AcDbVertex
100
AcDbPolygonMeshVertex
 10
-0.217
 20
-5.92
 30
0.17
 70
    64
  0
VERTEX
  5
5C9
100
AcDbEntity
  8
0
100
AcDbVertex
100
AcDbPolygonMeshVertex
 10
-0.217
 20
-5.92
 30
0.17
 70
    64
  0
VERTEX
  5
5CA
100
AcDbEntity
  8
0
100
AcDbVertex
100
AcDbPolygonMeshVertex
 10
-0.217
 20
-6.47
 30
0.17
 70
    64
  0
SEQEND
  5
5CB
100
AcDbEntity
  8
0
  0
CIRCLE
  5
5CC
100
AcDbEntity
  8
0
100
AcDbCircle
 39
0.17
 10
0.0
 20
-6.22
 30
0.0
 40
0.1085
  0
POINT
  5
5CD
100
AcDbEntity
  8
SNAP_POINTS
100
AcDbPoint
 10
0.0
 20
-6.22
 30
0.0
  0
POINT
  5
5CE
100
AcDbEntity
  8
SNAP_POINTS
100
AcDbPoint
 10
0.0
 20
0.0
 30
0.0
  0
ARC
  5
5CF
100
AcDbEntity
  8
0
100
AcDbCircle
 39
0.17
 10
0.0
 20
0.0
 30
0.0
 40
0.1085
100
AcDbArc
 50
356.782733
 51
183.217267
  0
ARC
  5
5D0
100
AcDbEntity
  8
0
100
AcDbCircle
 39
0.17
 10
0.0
 20
-0.193538
 30
0.0
 40
0.2165
100
AcDbArc
 50
120.024142
 51
59.975858
  0
TEXT
  5
5D1
100
AcDbEntity
  8
0
100
AcDbText
 39
0.001
 10
-0.404984
 20
-1.209981
 30
6.06
 40
0.05
  1
INTFC
100
AcDbText
  0
TEXT
  5
5D2
100
AcDbEntity
  8
0
100
AcDbText
 39
0.001
 10
-0.404984
 20
-1.109981
 30
6.06
 40
0.05
  1
DH-485
100
AcDbText
  0
LINE
  5
5D3
100
AcDbEntity
  8
0
100
AcDbLine
 10
0.75
 20
-5.594976
 30
5.71
 11
-0.75
 21
-5.594976
 31
5.710001
  0
LINE
  5
5D4
100
AcDbEntity
  8
0
100
AcDbLine
 10
0.75
 20
-5.469976
 30
5.71
 11
-0.75
 21
-5.469976
 31
5.710001
  0
LINE
  5
5D5
100
AcDbEntity
  8
0
100
AcDbLine
 10
-0.354984
 20
-5.109981
 30
5.71
 11
-0.204984
 21
-5.109981
 31
5.71
  0
LINE
  5
5D6
100
AcDbEntity
  8
0
100
AcDbLine
 10
-0.354984
 20
-5.009981
 30
5.71
 11
-0.204984
 21
-5.009981
 31
5.71
  0
LINE
  5
5D7
100
AcDbEntity
  8
0
100
AcDbLine
 10
-0.39244
 20
-3.982149
 30
5.71
 11
-0.31744
 21
-3.982149
 31
5.71
  0
LINE
  5
5D8
100
AcDbEntity
  8
0
100
AcDbLine
 10
-0.31744
 20
-4.437803
 30
5.71
 11
-0.39244
 21
-4.437803
 31
5.71
  0
LINE
  5
5D9
100
AcDbEntity
  8
0
100
AcDbLine
 10
0.11756
 20
-3.759976
 30
5.71
 11
-0.43244
 21
-3.759976
 31
5.71
  0
LINE
  5
5DA
100
AcDbEntity
  8
0
100
AcDbLine
 10
0.11756
 20
-4.659976
 30
5.71
 11
-0.43244
 21
-4.659976
 31
5.71
  0
TEXT
  5
5DB
100
AcDbEntity
  8
0
100
AcDbText
 39
0.001
 10
-0.437294
 20
-3.710765
 30
5.71
 40
0.05
  1
CPU
 72
     1
 11
-0.370627
 21
-3.710765
 31
5.71
100
AcDbText
  0
TEXT
  5
5DC
100
AcDbEntity
  8
0
100
AcDbText
 39
0.001
 10
-0.403961
 20
-2.660765
 30
5.71
 40
0.05
  1
PERIPHERAL
 72
     1
 11
-0.170627
 21
-2.660765
 31
5.71
100
AcDbText
  0
LINE
  5
5DD
100
AcDbEntity
  8
0
100
AcDbLine
 10
-0.31744
 20
-3.137803
 30
5.71
 11
-0.39244
 21
-3.137803
 31
5.71
  0
LINE
  5
5DE
100
AcDbEntity
  8
0
100
AcDbLine
 10
-0.39244
 20
-2.932149
 30
5.71
 11
-0.31744
 21
-2.932149
 31
5.71
  0
LINE
  5
5DF
100
AcDbEntity
  8
0
100
AcDbLine
 10
0.11756
 20
-3.359976
 30
5.71
 11
-0.43244
 21
-3.359976
 31
5.71
  0
LINE
  5
5E0
100
AcDbEntity
  8
0
100
AcDbLine
 10
0.11756
 20
-2.709976
 30
5.71
 11
-0.43244
 21
-2.709976
 31
5.71
  0
LINE
  5
5E1
100
AcDbEntity
  8
0
100
AcDbLine
 10
-0.354984
 20
-2.409981
 30
6.06
 11
-0.254984
 21
-2.409981
 31
6.06
  0
LINE
  5
5E2
100
AcDbEntity
  8
0
100
AcDbLine
 10
-0.354984
 20
-2.309981
 30
6.06
 11
-0.254984
 21
-2.309981
 31
6.06
  0
LINE
  5
5E3
100
AcDbEntity
  8
0
100
AcDbLine
 10
-0.354984
 20
-1.909981
 30
6.06
 11
-0.254984
 21
-1.909981
 31
6.06
  0
LINE
  5
5E4
100
AcDbEntity
  8
0
100
AcDbLine
 10
-0.354984
 20
-2.009981
 30
6.06
 11
-0.254984
 21
-2.009981
 31
6.06
  0
LINE
  5
5E5
100
AcDbEntity
  8
0
100
AcDbLine
 10
-0.354984
 20
-2.109981
 30
6.06
 11
-0.254984
 21
-2.109981
 31
6.06
  0
LINE
  5
5E6
100
AcDbEntity
  8
0
100
AcDbLine
 10
-0.354984
 20
-2.209981
 30
6.06
 11
-0.254984
 21
-2.209981
 31
6.06
  0
LINE
  5
5E7
100
AcDbEntity
  8
0
100
AcDbLine
 10
-0.354984
 20
-1.309981
 30
6.06
 11
-0.254984
 21
-1.309981
 31
6.06
  0
LINE
  5
5E8
100
AcDbEntity
  8
0
100
AcDbLine
 10
-0.354984
 20
-1.409981
 30
6.06
 11
-0.254984
 21
-1.409981
 31
6.06
  0
LINE
  5
5E9
100
AcDbEntity
  8
0
100
AcDbLine
 10
-0.354984
 20
-1.609981
 30
6.06
 11
-0.254984
 21
-1.609981
 31
6.06
  0
LINE
  5
5EA
100
AcDbEntity
  8
0
100
AcDbLine
 10
-0.354984
 20
-1.509981
 30
6.06
 11
-0.254984
 21
-1.509981
 31
6.06
  0
LINE
  5
5EB
100
AcDbEntity
  8
0
100
AcDbLine
 10
-0.354984
 20
-1.809981
 30
6.06
 11
-0.254984
 21
-1.809981
 31
6.06
  0
LINE
  5
5EC
100
AcDbEntity
  8
0
100
AcDbLine
 10
-0.354984
 20
-1.709981
 30
6.06
 11
-0.254984
 21
-1.709981
 31
6.06
  0
POLYLINE
  5
5ED
100
AcDbEntity
  8
0
100
AcDbPolygonMesh
 66
     1
 10
0.0
 20
0.0
 30
0.0
 70
    16
 71
     6
 72
     3
  0
VERTEX
  5
5EE
100
AcDbEntity
  8
0
100
AcDbVertex
100
AcDbPolygonMeshVertex
 10
0.070016
 20
-2.459981
 30
6.06
 70
    64
  0
VERTEX
  5
5EF
100
AcDbEntity
  8
0
100
AcDbVertex
100
AcDbPolygonMeshVertex
 10
0.070016
 20
-2.459981
 30
5.71
 70
    64
  0
VERTEX
  5
5F0
100
AcDbEntity
  8
0
100
AcDbVertex
100
AcDbPolygonMeshVertex
 10
0.070016
 20
-2.459981
 30
5.71
 70
    64
  0
VERTEX
  5
5F1
100
AcDbEntity
  8
0
100
AcDbVertex
100
AcDbPolygonMeshVertex
 10
-0.429984
 20
-2.459981
 30
6.06
 70
    64
  0
VERTEX
  5
5F2
100
AcDbEntity
  8
0
100
AcDbVertex
100
AcDbPolygonMeshVertex
 10
-0.429984
 20
-2.459981
 30
5.71
 70
    64
  0
VERTEX
  5
5F3
100
AcDbEntity
  8
0
100
AcDbVertex
100
AcDbPolygonMeshVertex
 10
-0.429984
 20
-2.459981
 30
5.71
 70
    64
  0
VERTEX
  5
5F4
100
AcDbEntity
  8
0
100
AcDbVertex
100
AcDbPolygonMeshVertex
 10
-0.429984
 20
-1.259981
 30
6.06
 70
    64
  0
VERTEX
  5
5F5
100
AcDbEntity
  8
0
100
AcDbVertex
100
AcDbPolygonMeshVertex
 10
-0.429984
 20
-1.259981
 30
5.71
 70
    64
  0
VERTEX
  5
5F6
100
AcDbEntity
  8
0
100
AcDbVertex
100
AcDbPolygonMeshVertex
 10
-0.429984
 20
-2.459981
 30
5.71
 70
    64
  0
VERTEX
  5
5F7
100
AcDbEntity
  8
0
100
AcDbVertex
100
AcDbPolygonMeshVertex
 10
0.070016
 20
-1.259981
 30
6.06
 70
    64
  0
VERTEX
  5
5F8
100
AcDbEntity
  8
0
100
AcDbVertex
100
AcDbPolygonMeshVertex
 10
0.070016
 20
-1.259981
 30
5.71
 70
    64
  0
VERTEX
  5
5F9
100
AcDbEntity
  8
0
100
AcDbVertex
100
AcDbPolygonMeshVertex
 10
0.070016
 20
-2.459981
 30
5.71
 70
    64
  0
VERTEX
  5
5FA
100
AcDbEntity
  8
0
100
AcDbVertex
100
AcDbPolygonMeshVertex
 10
0.070016
 20
-1.259981
 30
6.06
 70
    64
  0
VERTEX
  5
5FB
100
AcDbEntity
  8
0
100
AcDbVertex
100
AcDbPolygonMeshVertex
 10
0.070016
 20
-1.259981
 30
6.06
 70
    64
  0
VERTEX
  5
5FC
100
AcDbEntity
  8
0
100
AcDbVertex
100
AcDbPolygonMeshVertex
 10
0.070016
 20
-2.459981
 30
6.06
 70
    64
  0
VERTEX
  5
5FD
100
AcDbEntity
  8
0
100
AcDbVertex
100
AcDbPolygonMeshVertex
 10
-0.429984
 20
-1.259981
 30
6.06
 70
    64
  0
VERTEX
  5
5FE
100
AcDbEntity
  8
0
100
AcDbVertex
100
AcDbPolygonMeshVertex
 10
-0.429984
 20
-1.259981
 30
6.06
 70
    64
  0
VERTEX
  5
5FF
100
AcDbEntity
  8
0
100
AcDbVertex
100
AcDbPolygonMeshVertex
 10
-0.429984
 20
-2.459981
 30
6.06
 70
    64
  0
SEQEND
  5
600
100
AcDbEntity
  8
0
  0
3DFACE
  5
601
100
AcDbEntity
  8
0
100
AcDbFace
 10
0.049982
 20
-5.920037
 30
4.259952
 11
0.049982
 21
-6.220037
 31
4.259952
 12
-0.400018
 22
-6.220037
 32
4.259952
 13
-0.400018
 23
-5.920037
 33
4.259952
  0
3DFACE
  5
602
100
AcDbEntity
  8
0
100
AcDbFace
 10
0.049982
 20
-5.920037
 30
4.259952
 11
0.049982
 21
-5.920037
 31
4.259952
 12
-0.400018
 22
-5.920037
 32
4.259952
 13
-0.400018
 23
-5.920037
 33
4.259952
  0
3DFACE
  5
603
100
AcDbEntity
  8
0
100
AcDbFace
 10
-0.400018
 20
-5.920037
 30
3.259952
 11
-0.400018
 21
-6.220037
 31
3.259952
 12
0.049982
 22
-6.220037
 32
3.259952
 13
0.049982
 23
-5.920037
 33
3.259952
  0
3DFACE
  5
604
100
AcDbEntity
  8
0
100
AcDbFace
 10
-0.400018
 20
-5.920037
 30
4.259952
 11
-0.400018
 21
-5.920037
 31
3.259952
 12
0.049982
 22
-5.920037
 32
3.259952
 13
0.049982
 23
-5.920037
 33
4.259952
  0
3DFACE
  5
605
100
AcDbEntity
  8
0
100
AcDbFace
 10
0.049982
 20
-6.220037
 30
3.259952
 11
0.049982
 21
-6.220037
 31
3.259952
 12
-0.400018
 22
-6.220037
 32
3.259952
 13
-0.400018
 23
-6.220037
 33
3.259952
  0
3DFACE
  5
606
100
AcDbEntity
  8
0
100
AcDbFace
 10
0.049982
 20
-6.220037
 30
4.259952
 11
0.049982
 21
-6.220037
 31
3.259952
 12
-0.400018
 22
-6.220037
 32
3.259952
 13
-0.400018
 23
-6.220037
 33
4.259952
  0
LINE
  5
607
100
AcDbEntity
  8
0
100
AcDbLine
 10
0.049982
 20
-6.220037
 30
3.925952
 11
-0.400018
 21
-6.220037
 31
3.925952
  0
LINE
  5
608
100
AcDbEntity
  8
0
100
AcDbLine
 10
0.049982
 20
-6.220037
 30
3.592952
 11
-0.400018
 21
-6.220037
 31
3.592952
  0
LINE
  5
609
100
AcDbEntity
  8
0
100
AcDbLine
 10
-0.43244
 20
-3.759976
 30
5.71
 11
-0.43244
 21
-4.659976
 31
5.71
  0
3DFACE
  5
60A
100
AcDbEntity
  8
0
100
AcDbFace
 10
-0.400018
 20
-6.220037
 30
3.259952
 11
-0.400018
 21
-6.220037
 31
3.259952
 12
-0.400018
 22
-6.220037
 32
3.259952
 13
-0.400018
 23
-5.920037
 33
3.259952
  0
3DFACE
  5
60B
100
AcDbEntity
  8
0
100
AcDbFace
 10
-0.400018
 20
-6.220037
 30
4.259952
 11
-0.400018
 21
-6.220037
 31
3.259952
 12
-0.400018
 22
-5.920037
 32
3.259952
 13
-0.400018
 23
-5.920037
 33
4.259952
  0
TEXT
  5
60C
100
AcDbEntity
  8
0
100
AcDbText
 39
0.001
 10
-0.616685
 20
3.331952
 30
5.920037
 40
0.05
  1
GND
 72
     1
 11
-0.550018
 21
3.331952
 31
5.920037
210
0.0
220
-1.0
230
0.0
100
AcDbText
  0
TEXT
  5
60D
100
AcDbEntity
  8
0
100
AcDbText
 39
0.001
 10
-0.616685
 20
3.431952
 30
5.920037
 40
0.05
  1
CHS
 72
     1
 11
-0.550018
 21
3.431952
 31
5.920037
210
0.0
220
-1.0
230
0.0
100
AcDbText
  0
TEXT
  5
60E
100
AcDbEntity
  8
0
100
AcDbText
 39
0.001
 10
-0.641685
 20
3.661952
 30
5.920037
 40
0.05
  1
NEUT
 72
     1
 11
-0.550018
 21
3.661952
 31
5.920037
210
0.0
220
-1.0
230
0.0
100
AcDbText
  0
TEXT
  5
60F
100
AcDbEntity
  8
0
100
AcDbText
 39
0.001
 10
-0.591685
 20
3.761952
 30
5.920037
 40
0.05
  1
DC
 72
     1
 11
-0.550018
 21
3.761952
 31
5.920037
210
0.0
220
-1.0
230
0.0
100
AcDbText
  0
TEXT
  5
610
100
AcDbEntity
  8
0
100
AcDbText
 39
0.001
 10
-0.675018
 20
4.094952
 30
5.920037
 40
0.05
  1
24VDC
 72
     1
 11
-0.550018
 21
4.094952
 31
5.920037
210
0.0
220
-1.0
230
0.0
100
AcDbText
  0
LINE
  5
611
100
AcDbEntity
  8
0
100
AcDbLine
 10
-0.354984
 20
-5.109981
 30
5.71
 11
-0.354984
 21
-5.009981
 31
5.71
  0
LINE
  5
612
100
AcDbEntity
  8
0
100
AcDbLine
 10
-0.39244
 20
-4.437803
 30
5.71
 11
-0.39244
 21
-3.982149
 31
5.71
  0
LINE
  5
613
100
AcDbEntity
  8
0
100
AcDbLine
 10
-0.43244
 20
-2.709976
 30
5.71
 11
-0.43244
 21
-3.359976
 31
5.71
  0
LINE
  5
614
100
AcDbEntity
  8
0
100
AcDbLine
 10
-0.39244
 20
-3.137803
 30
5.71
 11
-0.39244
 21
-2.932149
 31
5.71
  0
LINE
  5
615
100
AcDbEntity
  8
0
100
AcDbLine
 10
-0.354984
 20
-2.409981
 30
6.06
 11
-0.354984
 21
-2.309981
 31
6.06
  0
LINE
  5
616
100
AcDbEntity
  8
0
100
AcDbLine
 10
-0.354984
 20
-2.209981
 30
6.06
 11
-0.354984
 21
-2.109981
 31
6.06
  0
LINE
  5
617
100
AcDbEntity
  8
0
100
AcDbLine
 10
-0.354984
 20
-2.009981
 30
6.06
 11
-0.354984
 21
-1.909981
 31
6.06
  0
LINE
  5
618
100
AcDbEntity
  8
0
100
AcDbLine
 10
-0.354984
 20
-1.409981
 30
6.06
 11
-0.354984
 21
-1.309981
 31
6.06
  0
LINE
  5
619
100
AcDbEntity
  8
0
100
AcDbLine
 10
-0.354984
 20
-1.809981
 30
6.06
 11
-0.354984
 21
-1.709981
 31
6.06
  0
LINE
  5
61A
100
AcDbEntity
  8
0
100
AcDbLine
 10
-0.354984
 20
-1.609981
 30
6.06
 11
-0.354984
 21
-1.509981
 31
6.06
  0
LINE
  5
61B
100
AcDbEntity
  8
0
100
AcDbLine
 10
0.11756
 20
-3.759976
 30
5.71
 11
0.11756
 21
-4.659976
 31
5.71
  0
LINE
  5
61C
100
AcDbEntity
  8
0
100
AcDbLine
 10
0.03256
 20
-3.822476
 30
5.71
 11
0.03256
 21
-4.597476
 31
5.71
  0
LINE
  5
61D
100
AcDbEntity
  8
0
100
AcDbLine
 10
-0.31744
 20
-3.932149
 30
5.71
 11
-0.31744
 21
-3.982149
 31
5.71
  0
3DFACE
  5
61E
100
AcDbEntity
  8
0
100
AcDbFace
 10
0.049982
 20
-5.920037
 30
3.259952
 11
0.049982
 21
-6.220037
 31
3.259952
 12
0.049982
 22
-6.220037
 32
4.259952
 13
0.049982
 23
-5.920037
 33
4.259952
  0
CIRCLE
  5
61F
100
AcDbEntity
  8
0
100
AcDbCircle
 10
-0.175018
 20
4.092452
 30
6.220037
 40
0.125
210
0.0
220
-1.0
230
0.0
  0
LINE
  5
620
100
AcDbEntity
  8
0
100
AcDbLine
 10
-0.080205
 20
-6.220037
 30
3.506161
 11
-0.271816
 21
-6.220037
 31
3.344996
  0
LINE
  5
621
100
AcDbEntity
  8
0
100
AcDbLine
 10
-0.09536
 20
-6.220037
 30
3.522926
 11
-0.283182
 21
-6.220037
 31
3.365006
  0
CIRCLE
  5
622
100
AcDbEntity
  8
0
100
AcDbCircle
 10
-0.175018
 20
3.426452
 30
6.220037
 40
0.125
210
0.0
220
-1.0
230
0.0
  0
LINE
  5
623
100
AcDbEntity
  8
0
100
AcDbLine
 10
-0.080205
 20
-6.220037
 30
3.839161
 11
-0.271816
 21
-6.220037
 31
3.677996
  0
LINE
  5
624
100
AcDbEntity
  8
0
100
AcDbLine
 10
-0.09536
 20
-6.220037
 30
3.855926
 11
-0.283182
 21
-6.220037
 31
3.698006
  0
CIRCLE
  5
625
100
AcDbEntity
  8
0
100
AcDbCircle
 10
-0.175018
 20
3.759452
 30
6.220037
 40
0.125
210
0.0
220
-1.0
230
0.0
  0
LINE
  5
626
100
AcDbEntity
  8
0
100
AcDbLine
 10
-0.080205
 20
-6.220037
 30
4.172161
 11
-0.271816
 21
-6.220037
 31
4.010996
  0
LINE
  5
627
100
AcDbEntity
  8
0
100
AcDbLine
 10
-0.09536
 20
-6.220037
 30
4.188926
 11
-0.283182
 21
-6.220037
 31
4.031006
  0
3DFACE
  5
628
100
AcDbEntity
  8
0
100
AcDbFace
 10
0.049982
 20
-5.920037
 30
4.259952
 11
0.049982
 21
-5.920037
 31
3.259952
 12
0.049982
 22
-5.920037
 32
4.259952
 13
0.049982
 23
-5.920037
 33
4.259952
  0
TEXT
  5
629
100
AcDbEntity
  8
0
100
AcDbText
 39
0.001
 10
0.195016
 20
-5.084981
 30
5.71
 40
0.05
  1
POWER
 72
     2
 11
0.445016
 21
-5.084981
 31
5.71
100
AcDbText
  0
LINE
  5
62A
100
AcDbEntity
  8
0
100
AcDbLine
 10
-0.204984
 20
-5.109981
 30
5.71
 11
-0.204984
 21
-5.009981
 31
5.71
  0
LINE
  5
62B
100
AcDbEntity
  8
0
100
AcDbLine
 10
0.03256
 20
-4.597476
 30
5.71
 11
-0.26744
 21
-4.597476
 31
5.71
  0
LINE
  5
62C
100
AcDbEntity
  8
0
100
AcDbLine
 10
-0.31744
 20
-4.437803
 30
5.71
 11
-0.31744
 21
-4.487803
 31
5.71
  0
LINE
  5
62D
100
AcDbEntity
  8
0
100
AcDbLine
 10
-0.26744
 20
-4.487803
 30
5.71
 11
-0.31744
 21
-4.487803
 31
5.71
  0
LINE
  5
62E
100
AcDbEntity
  8
0
100
AcDbLine
 10
-0.26744
 20
-4.597476
 30
5.71
 11
-0.26744
 21
-4.487803
 31
5.71
  0
TEXT
  5
62F
100
AcDbEntity
  8
0
100
AcDbText
 39
0.001
 10
0.378349
 20
-4.184981
 30
5.71
 40
0.05
  1
J1
 72
     2
 11
0.445016
 21
-4.184981
 31
5.71
100
AcDbText
  0
TEXT
  5
630
100
AcDbEntity
  8
0
100
AcDbText
 39
0.001
 10
0.211683
 20
-2.384981
 30
5.71
 40
0.05
  1
CHS GND
 72
     2
 11
0.545016
 21
-2.384981
 31
5.71
100
AcDbText
  0
TEXT
  5
631
100
AcDbEntity
  8
0
100
AcDbText
 39
0.001
 10
0.261683
 20
-1.984981
 30
5.71
 40
0.05
  1
COMMON
 72
     2
 11
0.545016
 21
-1.984981
 31
5.71
100
AcDbText
  0
LINE
  5
632
100
AcDbEntity
  8
0
100
AcDbLine
 10
-0.31744
 20
-2.882149
 30
5.71
 11
-0.31744
 21
-2.932149
 31
5.71
  0
LINE
  5
633
100
AcDbEntity
  8
0
100
AcDbLine
 10
0.03256
 20
-2.829467
 30
5.71
 11
0.03256
 21
-3.244685
 31
5.71
  0
LINE
  5
634
100
AcDbEntity
  8
0
100
AcDbLine
 10
0.11756
 20
-2.709976
 30
5.71
 11
0.11756
 21
-3.359976
 31
5.71
  0
LINE
  5
635
100
AcDbEntity
  8
0
100
AcDbLine
 10
0.03256
 20
-3.244685
 30
5.71
 11
-0.033397
 21
-3.244685
 31
5.71
  0
LINE
  5
636
100
AcDbEntity
  8
0
100
AcDbLine
 10
0.03256
 20
-3.822476
 30
5.71
 11
-0.26744
 21
-3.822476
 31
5.71
  0
LINE
  5
637
100
AcDbEntity
  8
0
100
AcDbLine
 10
-0.31744
 20
-3.932149
 30
5.71
 11
-0.26744
 21
-3.932149
 31
5.71
  0
LINE
  5
638
100
AcDbEntity
  8
0
100
AcDbLine
 10
-0.26744
 20
-3.932149
 30
5.71
 11
-0.26744
 21
-3.822476
 31
5.71
  0
LINE
  5
639
100
AcDbEntity
  8
0
100
AcDbLine
 10
-0.033397
 20
-3.273705
 30
5.71
 11
-0.176496
 21
-3.273705
 31
5.71
  0
LINE
  5
63A
100
AcDbEntity
  8
0
100
AcDbLine
 10
-0.31744
 20
-3.137803
 30
5.71
 11
-0.31744
 21
-3.187803
 31
5.71
  0
LINE
  5
63B
100
AcDbEntity
  8
0
100
AcDbLine
 10
-0.176496
 20
-3.297476
 30
5.71
 11
-0.26744
 21
-3.297476
 31
5.71
  0
LINE
  5
63C
100
AcDbEntity
  8
0
100
AcDbLine
 10
-0.26744
 20
-3.187803
 30
5.71
 11
-0.31744
 21
-3.187803
 31
5.71
  0
LINE
  5
63D
100
AcDbEntity
  8
0
100
AcDbLine
 10
-0.26744
 20
-3.297476
 30
5.71
 11
-0.26744
 21
-3.187803
 31
5.71
  0
LINE
  5
63E
100
AcDbEntity
  8
0
100
AcDbLine
 10
-0.176496
 20
-3.273705
 30
5.71
 11
-0.176496
 21
-3.297476
 31
5.71
  0
LINE
  5
63F
100
AcDbEntity
  8
0
100
AcDbLine
 10
-0.033397
 20
-3.244685
 30
5.71
 11
-0.033397
 21
-3.273705
 31
5.71
  0
LINE
  5
640
100
AcDbEntity
  8
0
100
AcDbLine
 10
0.03256
 20
-2.829467
 30
5.71
 11
-0.033397
 21
-2.829467
 31
5.71
  0
LINE
  5
641
100
AcDbEntity
  8
0
100
AcDbLine
 10
-0.033397
 20
-2.772476
 30
5.71
 11
-0.26744
 21
-2.772476
 31
5.71
  0
LINE
  5
642
100
AcDbEntity
  8
0
100
AcDbLine
 10
-0.26744
 20
-2.882149
 30
5.71
 11
-0.26744
 21
-2.772476
 31
5.71
  0
LINE
  5
643
100
AcDbEntity
  8
0
100
AcDbLine
 10
-0.31744
 20
-2.882149
 30
5.71
 11
-0.26744
 21
-2.882149
 31
5.71
  0
LINE
  5
644
100
AcDbEntity
  8
0
100
AcDbLine
 10
-0.033397
 20
-2.829467
 30
5.71
 11
-0.033397
 21
-2.772476
 31
5.71
  0
TEXT
  5
645
100
AcDbEntity
  8
0
100
AcDbText
 39
0.001
 10
0.361683
 20
-2.984981
 30
5.71
 40
0.05
  1
J2
 72
     2
 11
0.445016
 21
-2.984981
 31
5.71
100
AcDbText
  0
TEXT
  5
646
100
AcDbEntity
  8
0
100
AcDbText
 39
0.001
 10
0.361683
 20
-2.184981
 30
5.71
 40
0.05
  1
SHLD
 72
     2
 11
0.545016
 21
-2.184981
 31
5.71
100
AcDbText
  0
LINE
  5
647
100
AcDbEntity
  8
0
100
AcDbLine
 10
-0.254984
 20
-2.409981
 30
6.06
 11
-0.254984
 21
-2.309981
 31
6.06
  0
LINE
  5
648
100
AcDbEntity
  8
0
100
AcDbLine
 10
-0.254984
 20
-2.209981
 30
6.06
 11
-0.254984
 21
-2.109981
 31
6.06
  0
LINE
  5
649
100
AcDbEntity
  8
0
100
AcDbLine
 10
-0.254984
 20
-2.009981
 30
6.06
 11
-0.254984
 21
-1.909981
 31
6.06
  0
LINE
  5
64A
100
AcDbEntity
  8
0
100
AcDbLine
 10
0.070016
 20
-2.338555
 30
6.031456
 11
0.070016
 21
-2.404685
 31
5.898765
210
1.0
220
0.0
230
0.0
  0
CIRCLE
  5
64B
100
AcDbEntity
  8
0
100
AcDbCircle
 10
-2.359981
 20
5.96
 30
0.070016
 40
0.075
210
1.0
220
0.0
230
0.0
  0
LINE
  5
64C
100
AcDbEntity
  8
0
100
AcDbLine
 10
0.070016
 20
-2.112632
 30
6.017711
 11
0.070016
 21
-2.178233
 31
5.887135
210
1.0
220
0.0
230
0.0
  0
CIRCLE
  5
64D
100
AcDbEntity
  8
0
100
AcDbCircle
 10
-2.159981
 20
5.96
 30
0.070016
 40
0.075
210
1.0
220
0.0
230
0.0
  0
LINE
  5
64E
100
AcDbEntity
  8
0
100
AcDbLine
 10
0.070016
 20
-2.312632
 30
6.017711
 11
0.070016
 21
-2.378233
 31
5.887135
210
1.0
220
0.0
230
0.0
  0
LINE
  5
64F
100
AcDbEntity
  8
0
100
AcDbLine
 10
0.070016
 20
-2.138555
 30
6.031456
 11
0.070016
 21
-2.204685
 31
5.898765
210
1.0
220
0.0
230
0.0
  0
LINE
  5
650
100
AcDbEntity
  8
0
100
AcDbLine
 10
0.070016
 20
-1.912632
 30
6.017711
 11
0.070016
 21
-1.978233
 31
5.887135
210
1.0
220
0.0
230
0.0
  0
LINE
  5
651
100
AcDbEntity
  8
0
100
AcDbLine
 10
0.070016
 20
-1.938555
 30
6.031456
 11
0.070016
 21
-2.004685
 31
5.898765
210
1.0
220
0.0
230
0.0
  0
CIRCLE
  5
652
100
AcDbEntity
  8
0
100
AcDbCircle
 10
-1.959981
 20
5.96
 30
0.070016
 40
0.075
210
1.0
220
0.0
230
0.0
  0
TEXT
  5
653
100
AcDbEntity
  8
0
100
AcDbText
 39
0.001
 10
0.361683
 20
-1.384981
 30
5.71
 40
0.05
  1
TERM
 72
     2
 11
0.545016
 21
-1.384981
 31
5.71
100
AcDbText
  0
TEXT
  5
654
100
AcDbEntity
  8
0
100
AcDbText
 39
0.001
 10
0.511683
 20
-1.784981
 30
5.71
 40
0.05
  1
B
 72
     2
 11
0.545016
 21
-1.784981
 31
5.71
100
AcDbText
  0
TEXT
  5
655
100
AcDbEntity
  8
0
100
AcDbText
 39
0.001
 10
0.511683
 20
-1.584981
 30
5.71
 40
0.05
  1
A
 72
     2
 11
0.545016
 21
-1.584981
 31
5.71
100
AcDbText
  0
LINE
  5
656
100
AcDbEntity
  8
0
100
AcDbLine
 10
-0.254984
 20
-1.409981
 30
6.06
 11
-0.254984
 21
-1.309981
 31
6.06
  0
LINE
  5
657
100
AcDbEntity
  8
0
100
AcDbLine
 10
-0.254984
 20
-1.809981
 30
6.06
 11
-0.254984
 21
-1.709981
 31
6.06
  0
LINE
  5
658
100
AcDbEntity
  8
0
100
AcDbLine
 10
-0.254984
 20
-1.609981
 30
6.06
 11
-0.254984
 21
-1.509981
 31
6.06
  0
LINE
  5
659
100
AcDbEntity
  8
0
100
AcDbLine
 10
0.070016
 20
-1.312632
 30
6.017711
 11
0.070016
 21
-1.378233
 31
5.887135
210
1.0
220
0.0
230
0.0
  0
LINE
  5
65A
100
AcDbEntity
  8
0
100
AcDbLine
 10
0.070016
 20
-1.338555
 30
6.031456
 11
0.070016
 21
-1.404685
 31
5.898765
210
1.0
220
0.0
230
0.0
  0
CIRCLE
  5
65B
100
AcDbEntity
  8
0
100
AcDbCircle
 10
-1.359981
 20
5.96
 30
0.070016
 40
0.075
210
1.0
220
0.0
230
0.0
  0
CIRCLE
  5
65C
100
AcDbEntity
  8
0
100
AcDbCircle
 10
-1.559981
 20
5.96
 30
0.070016
 40
0.075
210
1.0
220
0.0
230
0.0
  0
LINE
  5
65D
100
AcDbEntity
  8
0
100
AcDbLine
 10
0.070016
 20
-1.712632
 30
6.017711
 11
0.070016
 21
-1.778233
 31
5.887135
210
1.0
220
0.0
230
0.0
  0
LINE
  5
65E
100
AcDbEntity
  8
0
100
AcDbLine
 10
0.070016
 20
-1.738555
 30
6.031456
 11
0.070016
 21
-1.804685
 31
5.898765
210
1.0
220
0.0
230
0.0
  0
CIRCLE
  5
65F
100
AcDbEntity
  8
0
100
AcDbCircle
 10
-1.759981
 20
5.96
 30
0.070016
 40
0.075
210
1.0
220
0.0
230
0.0
  0
LINE
  5
660
100
AcDbEntity
  8
0
100
AcDbLine
 10
0.070016
 20
-1.512632
 30
6.017711
 11
0.070016
 21
-1.578233
 31
5.887135
210
1.0
220
0.0
230
0.0
  0
LINE
  5
661
100
AcDbEntity
  8
0
100
AcDbLine
 10
0.070016
 20
-1.538555
 30
6.031456
 11
0.070016
 21
-1.604685
 31
5.898765
210
1.0
220
0.0
230
0.0
  0
LINE
  5
662
100
AcDbEntity
  8
0
100
AcDbLine
 10
-0.217
 20
0.26
 30
0.0
 11
-0.317
 21
0.26
 31
0.0
  0
LINE
  5
663
100
AcDbEntity
  8
0
100
AcDbLine
 10
-0.217
 20
0.26
 30
0.17
 11
-0.317
 21
0.26
 31
0.17
  0
LINE
  5
664
100
AcDbEntity
  8
0
100
AcDbLine
 10
0.317
 20
0.26
 30
0.0
 11
0.217
 21
0.26
 31
0.0
  0
DIMENSION
  5
665
100
AcDbEntity
  8
AREA1
100
AcDbDimension
  2
*D1
 10
1.673331
 20
-6.47
 30
0.0
 11
1.673331
 21
-3.105
 31
0.0
 70
    32
  3
ABECAD_3D
100
AcDbAlignedDimension
 13
0.317
 23
0.26
 33
0.0
 14
0.217
 24
-6.47
 34
0.0
 50
90.0
100
AcDbRotatedDimension
  0
DIMENSION
  5
666
100
AcDbEntity
  8
AREA1
100
AcDbDimension
  2
*D2
 10
0.75
 20
1.154613
 30
0.0
 11
1.86
 21
1.154613
 31
0.0
 70
    32
  3
ABECAD_3D
100
AcDbAlignedDimension
 13
-0.75
 23
-0.57
 33
0.0
 14
0.75
 24
-0.57
 34
0.0
100
AcDbRotatedDimension
  0
ENDBLK
  5
668
100
AcDbEntity
  8
0
100
AcDbBlockEnd
  0
BLOCK
  5
680
100
AcDbEntity
  8
0
100
AcDbBlockBegin
  2
*D4
 70
     1
 10
0.0
 20
0.0
 30
0.0
  3
*D4
  1

  0
LINE
  5
676
100
AcDbEntity
  8
AREA2
 62
     0
100
AcDbLine
 10
-0.492484
 20
6.06
 30
0.0
 11
-1.636074
 21
6.06
 31
0.0
1001
ACAD
1000
RTLwPs
1070
   158
  0
LINE
  5
677
100
AcDbEntity
  8
AREA2
 62
     0
100
AcDbLine
 10
-0.8125
 20
0.0
 30
0.0
 11
-1.636074
 21
0.0
 31
0.0
1001
ACAD
1000
RTLwPs
1070
   158
  0
LINE
  5
678
100
AcDbEntity
  8
AREA2
 62
     0
100
AcDbLine
 10
-1.456386
 20
5.880313
 30
0.0
 11
-1.456386
 21
3.832083
 31
0.0
1001
ACAD
1000
RTLwPs
1070
   158
  0
LINE
  5
679
100
AcDbEntity
  8
AREA2
 62
     0
100
AcDbLine
 10
-1.456386
 20
0.179688
 30
0.0
 11
-1.456386
 21
2.227917
 31
0.0
1001
ACAD
1000
RTLwPs
1070
   158
  0
SOLID
  5
67A
100
AcDbEntity
  8
AREA2
 62
     0
100
AcDbTrace
 10
-1.486334
 20
5.880313
 30
0.0
 11
-1.426438
 21
5.880313
 31
0.0
 12
-1.456386
 22
6.06
 32
0.0
 13
-1.456386
 23
6.06
 33
0.0
  0
SOLID
  5
67B
100
AcDbEntity
  8
AREA2
 62
     0
100
AcDbTrace
 10
-1.486334
 20
0.179688
 30
0.0
 11
-1.426438
 21
0.179688
 31
0.0
 12
-1.456386
 22
0.0
 32
0.0
 13
-1.456386
 23
0.0
 33
0.0
  0
MTEXT
  5
67C
100
AcDbEntity
  8
AREA2
 62
     0
100
AcDbMText
 10
-1.456386
 20
3.03
 30
0.0
 40
0.125
 41
0.0
 71
     5
 72
     1
  1
\A1;6 1/16 [153.9]
 11
0.0
 21
1.0
 31
0.0
1001
ACAD
1000
MTEXTBEGIN
1070
    73
1070
     1
1070
    44
1040
1.0
1070
    74
1070
     0
1000
MTEXTEND
1000
MTEXTBEGIN
1070
    73
1070
     1
1070
    44
1040
1.0
1070
    74
1070
     0
1000
MTEXTEND
1000
MTEXTBEGIN
1070
    73
1070
     1
1070
    44
1040
1.0
1070
    74
1070
     0
1000
MTEXTEND
  0
POINT
  5
67D
100
AcDbEntity
  8
DEFPOINTS
 62
     0
100
AcDbPoint
 10
-0.429984
 20
6.06
 30
0.0
  0
POINT
  5
67E
100
AcDbEntity
  8
DEFPOINTS
 62
     0
100
AcDbPoint
 10
-0.75
 20
0.0
 30
0.53
  0
POINT
  5
67F
100
AcDbEntity
  8
DEFPOINTS
 62
     0
100
AcDbPoint
 10
-1.456386
 20
0.0
 30
0.0
  0
ENDBLK
  5
681
100
AcDbEntity
  8
0
100
AcDbBlockEnd
  0
ENDSEC
  0
SECTION
  2
ENTITIES
  0
INSERT
  5
669
100
AcDbEntity
  8
0
100
AcDbBlockReference
 66
     1
  2
ABCMA060
 10
0.0
 20
0.0
 30
0.0
  0
ATTRIB
  5
66A
100
AcDbEntity
  8
ATTRIBUTES
100
AcDbText
 10
-0.664609
 20
-4.365203
 30
0.0
 40
0.084375
  1
ALLEN-BRADLEY
100
AcDbAttribute
  2
AC_VND_LABEL
 70
     1
  0
ATTRIB
  5
66B
100
AcDbEntity
  8
ATTRIBUTES
100
AcDbText
 10
-0.664609
 20
-4.540984
 30
0.0
 40
0.084375
  1
1747-AIC
100
AcDbAttribute
  2
AC_PART_NO
 70
     1
  0
ATTRIB
  5
66C
100
AcDbEntity
  8
ATTRIBUTES
100
AcDbText
 10
-0.664609
 20
-4.716765
 30
0.0
 40
0.084375
  1
1747-AIC:ISOLATED LINK COUPLER
100
AcDbAttribute
  2
AC_DESCRIPTION
 70
     1
  0
ATTRIB
  5
66D
100
AcDbEntity
  8
ATTRIBUTES
100
AcDbText
 10
-0.664609
 20
-4.892546
 30
0.0
 40
0.084375
  1

100
AcDbAttribute
  2
DEVICE_ID
 70
     1
  0
ATTRIB
  5
66E
100
AcDbEntity
  8
ATTRIBUTES
100
AcDbText
 10
-0.664609
 20
-5.068328
 30
0.0
 40
0.084375
  1

100
AcDbAttribute
  2
AC_CPART_NO
 70
     1
  0
ATTRIB
  5
66F
100
AcDbEntity
  8
ATTRIBUTES
100
AcDbText
 10
-0.664609
 20
-5.244109
 30
0.0
 40
0.084375
  1

100
AcDbAttribute
  2
AC_NOTE
 70
     1
  0
ATTRIB
  5
670
100
AcDbEntity
  8
ATTRIBUTES
100
AcDbText
 10
-0.664609
 20
-5.41989
 30
0.0
 40
0.084375
  1

100
AcDbAttribute
  2
FASTENER
 70
     1
  0
ATTRIB
  5
671
100
AcDbEntity
  8
ATTRIBUTES
100
AcDbText
 10
-0.664609
 20
-5.595671
 30
0.0
 40
0.084375
  1
INCH
100
AcDbAttribute
  2
AC_SCALE_UNIT
 70
     1
  0
ATTRIB
  5
672
100
AcDbEntity
  8
ATTRIBUTES
100
AcDbText
 10
-0.664609
 20
-5.771453
 30
0.0
 40
0.084375
  1
0
100
AcDbAttribute
  2
AC_VIEW_CODE
 70
     1
  0
SEQEND
  5
673
100
AcDbEntity
  8
0
  0
DIMENSION
  5
674
100
AcDbEntity
  8
AREA2
100
AcDbDimension
  2
*D4
 10
-1.456386
 20
0.0
 30
0.0
 11
-1.456386
 21
3.03
 31
0.0
 70
    32
210
0.0
220
-1.0
230
0.0
  3
ABECAD_3V
100
AcDbAlignedDimension
 13
-0.429984
 23
0.0
 33
6.06
 14
-0.75
 24
-0.53
 34
0.0
 50
90.0
100
AcDbRotatedDimension
1001
ACAD
1000
DSTYLE
1002
{
1070
    40
1040
1.0
1002
}
  0
VIEWPORT
  5
2C
102
{ACAD_XDICTIONARY
360
726
102
}
100
AcDbEntity
 67
     1
  8
0
100
AcDbViewport
 10
4.999849
 20
3.750155
 30
0.0
 40
16.481272
 41
7.63272
 68
     1
 69
     1
1001
ACAD
1000
MVIEW
1002
{
1070
    16
1010
0.0
1020
0.0
1030
0.0
1010
0.0
1020
0.0
1030
1.0
1040
0.0
1040
7.63272
1040
4.999849
1040
3.750155
1040
50.0
1040
0.0
1040
0.0
1070
     0
1070
   100
1070
     1
1070
     1
1070
     0
1070
     0
1070
     0
1070
     0
1040
0.0
1040
0.0
1040
0.0
1040
1.0
1040
1.0
1040
0.0
1040
0.0
1070
     0
1002
{
1002
}
1002
}
  0
VIEWPORT
  5
2D
102
{ACAD_XDICTIONARY
360
728
102
}
100
AcDbEntity
 67
     1
  8
0
100
AcDbViewport
 10
2.5
 20
5.625
 30
0.0
 40
5.0
 41
3.75
 68
     4
 69
     2
1001
ACAD
1000
MVIEW
1002
{
1070
    16
1010
0.0
1020
0.0
1030
0.0
1010
0.0
1020
0.0
1030
1.0
1040
0.0
1040
9.24662
1040
0.531963
1040
-3.080127
1040
50.0
1040
0.0
1040
0.0
1070
     0
1070
   100
1070
     1
1070
     0
1070
     0
1070
     0
1070
     0
1070
     0
1040
0.0
1040
0.0
1040
0.0
1040
1.0
1040
1.0
1040
0.0
1040
0.0
1070
     0
1002
{
1003
AREA2
1002
}
1002
}
  0
VIEWPORT
  5
2E
102
{ACAD_XDICTIONARY
360
72A
102
}
100
AcDbEntity
 67
     1
  8
0
100
AcDbViewport
 10
2.5
 20
1.875
 30
0.0
 40
5.0
 41
3.75
 68
     3
 69
     3
1001
ACAD
1000
MVIEW
1002
{
1070
    16
1010
0.0
1020
0.0
1030
0.0
1010
0.0
1020
-1.0
1030
0.0
1040
0.0
1040
8.346969
1040
0.531963
1040
3.0305
1040
50.0
1040
0.0
1040
0.0
1070
     0
1070
   100
1070
     1
1070
     0
1070
     0
1070
     0
1070
     0
1070
     0
1040
0.0
1040
0.0
1040
0.0
1040
1.0
1040
1.0
1040
0.0
1040
0.0
1070
     0
1002
{
1003
AREA1
1002
}
1002
}
  0
VIEWPORT
  5
2F
102
{ACAD_XDICTIONARY
360
72C
102
}
100
AcDbEntity
 67
     1
  8
0
100
AcDbViewport
 10
7.5
 20
3.75
 30
0.0
 40
5.0
 41
7.5
 68
     2
 69
     4
1001
ACAD
1000
MVIEW
1002
{
1070
    16
1010
0.0
1020
0.0
1030
0.0
1010
-1.0
1020
-1.0
1030
1.0
1040
0.0
1040
13.218141
1040
2.20901
1040
2.195456
1040
50.0
1040
0.0
1040
0.0
1070
     0
1070
   100
1070
     1
1070
     0
1070
     0
1070
     0
1070
     0
1070
     0
1040
0.0
1040
0.0
1040
0.0
1040
1.0
1040
1.0
1040
0.0
1040
0.0
1070
     0
1002
{
1003
AREA1
1003
AREA2
1002
}
1002
}
  0
TEXT
  5
42D
100
AcDbEntity
 67
     1
  8
0
100
AcDbText
 10
5.253785
 20
7.092701
 30
0.0
 40
0.2
  1
1747-AIC
100
AcDbText
  0
TEXT
  5
431
100
AcDbEntity
 67
     1
  8
0
100
AcDbText
 10
5.253785
 20
6.759368
 30
0.0
 40
0.2
  1
1747-AIC:ISOLATED LINK
100
AcDbText
1001
ACAD
1000
R13OBJECT
1002
{
1005
42D
1002
}
  0
TEXT
  5
52E
100
AcDbEntity
 67
     1
  8
0
100
AcDbText
 10
5.240015
 20
6.436423
 30
0.0
 40
0.2
  1
COUPLER
100
AcDbText
  0
TEXT
  5
52F
100
AcDbEntity
 67
     1
  8
0
100
AcDbText
 10
5.240015
 20
6.10309
 30
0.0
 40
0.2
  1

100
AcDbText
  0
TEXT
  5
530
100
AcDbEntity
 67
     1
  8
0
100
AcDbText
 10
5.240015
 20
5.769757
 30
0.0
 40
0.2
  1

100
AcDbText
  0
ENDSEC
  0
SECTION
  2
OBJECTS
  0
DICTIONARY
  5
46D
100
AcDbDictionary
  3
ACAD_GROUP
350
46E
  3
ACAD_LAYOUT
350
49E
  3
ACAD_MLINESTYLE
350
47B
  3
ACAD_PLOTSETTINGS
350
49F
  3
ACAD_PLOTSTYLENAME
350
49C
  3
ACDBHEADERROUNDTRIPXREC
350
705
  3
ACDBVARIABLEDICTIONARY
350
48D
  0
DICTIONARY
  5
703
100
AcDbDictionary
280
     1
  3
ACAD_XREC_ROUNDTRIP
360
704
  0
DICTIONARY
  5
730
100
AcDbDictionary
280
     1
  3
ACAD_XREC_ROUNDTRIP
360
731
  0
DICTIONARY
  5
732
100
AcDbDictionary
280
     1
  3
ACAD_XREC_ROUNDTRIP
360
733
  0
DICTIONARY
  5
734
100
AcDbDictionary
280
     1
  3
ACAD_XREC_ROUNDTRIP
360
735
  0
DICTIONARY
  5
738
100
AcDbDictionary
280
     1
  3
ACAD_XREC_ROUNDTRIP
360
739
  0
DICTIONARY
  5
4D2
100
AcDbDictionary
280
     1
  3
ACAD_LAYOUTSELFREF
360
72F
  0
DICTIONARY
  5
4D0
100
AcDbDictionary
280
     1
  3
ACAD_LAYOUTSELFREF
360
72E
  0
DICTIONARY
  5
6FF
100
AcDbDictionary
280
     1
  3
ACAD_XREC_ROUNDTRIP
360
700
  0
DICTIONARY
  5
701
100
AcDbDictionary
280
     1
  3
ACAD_XREC_ROUNDTRIP
360
702
  0
DICTIONARY
  5
726
100
AcDbDictionary
280
     1
  3
ACAD_XREC_ROUNDTRIP
360
727
  0
DICTIONARY
  5
728
100
AcDbDictionary
280
     1
  3
ACAD_XREC_ROUNDTRIP
360
729
  0
DICTIONARY
  5
72A
100
AcDbDictionary
280
     1
  3
ACAD_XREC_ROUNDTRIP
360
72B
  0
DICTIONARY
  5
72C
100
AcDbDictionary
280
     1
  3
ACAD_XREC_ROUNDTRIP
360
72D
  0
DICTIONARY
  5
46E
102
{ACAD_REACTORS
330
46D
102
}
100
AcDbDictionary
  0
DICTIONARY
  5
49E
102
{ACAD_XDICTIONARY
360
736
102
}
102
{ACAD_REACTORS
330
46D
102
}
100
AcDbDictionary
  3
LAYOUT1
350
4A1
  3
MODEL
350
4A0
  0
DICTIONARY
  5
47B
102
{ACAD_REACTORS
330
46D
102
}
100
AcDbDictionary
  3
STANDARD
350
47C
  0
DICTIONARY
  5
49F
102
{ACAD_REACTORS
330
46D
102
}
100
AcDbDictionary
  0
ACAD_PROXY_OBJECT
  5
49C
102
{ACAD_REACTORS
330
46D
102
}
100
AcDbProxyObject
 90
      499
 91
      501
 93
       86
310
405010041939BDC9B585B0
350
49D
340
49D
 94
        0
  0
DICTIONARY
  5
705
102
{ACAD_REACTORS
330
46D
102
}
100
AcDbDictionary
  3
CEPSNTYPE
350
70F
  3
DIMSTYLEDATA
350
713
  3
FINGERPRINTGUID
350
710
  3
HYPERLINKBASE
350
708
  3
INSUNITS
350
70E
  3
LAYOUTDICT
350
70A
  3
LWETCUNION
350
70D
  3
PLOTSETDICT
350
70B
  3
PLOTSTYLNAMDICT
350
70C
  3
PSVPSCALE
350
712
  3
PUCSBASE
350
716
  3
PUCSORGBACK
350
71C
  3
PUCSORGBOTTOM
350
718
  3
PUCSORGFRONT
350
71B
  3
PUCSORGLEFT
350
719
  3
PUCSORGRIGHT
350
71A
  3
PUCSORGTOP
350
717
  3
PUCSORTHOREF
350
714
  3
PUCSORTHOVIEW
350
715
  3
STYLESHEET
350
709
  3
TSTACKALIGN
350
706
  3
TSTACKSIZE
350
707
  3
UCSBASE
350
71F
  3
UCSORGBACK
350
725
  3
UCSORGBOTTOM
350
721
  3
UCSORGFRONT
350
724
  3
UCSORGLEFT
350
722
  3
UCSORGRIGHT
350
723
  3
UCSORGTOP
350
720
  3
UCSORTHOREF
350
71D
  3
UCSORTHOVIEW
350
71E
  3
VERSIONGUID
350
711
  0
DICTIONARY
  5
48D
102
{ACAD_REACTORS
330
46D
102
}
100
AcDbDictionary
  3
DIMADEC
350
48E
  0
XRECORD
  5
704
102
{ACAD_REACTORS
330
703
102
}
100
AcDbXrecord
102
EXTNAMES
  1
*ACTIVE
  2
*Active
102
UCS
 74
     0
 71
     1
 10
0.0
 20
0.0
 30
0.0
 10
1.0
 20
0.0
 30
0.0
 10
0.0
 20
1.0
 30
0.0
146
0.0
 79
     1
102
VIEW
281
     0
  0
XRECORD
  5
731
102
{ACAD_REACTORS
330
730
102
}
100
AcDbXrecord
102
PLOTBIT
280
     0
  0
XRECORD
  5
733
102
{ACAD_REACTORS
330
732
102
}
100
AcDbXrecord
102
ACADR14ROUNDTRIP
1000
DSTYLE
1002
{
1070
   276
 70
     2
1070
   277
 70
     5
1070
   279
 70
     2
1002
}
  0
XRECORD
  5
735
102
{ACAD_REACTORS
330
734
102
}
100
AcDbXrecord
102
ACADR14ROUNDTRIP
1000
DSTYLE
1002
{
1070
   276
 70
     2
1070
   277
 70
     5
1070
   279
 70
     2
1002
}
  0
XRECORD
  5
739
102
{ACAD_REACTORS
330
738
102
}
100
AcDbXrecord
102
ACADR14ROUNDTRIP
1000
DSTYLE
1002
{
1070
   276
 70
     2
1070
   277
 70
     5
1002
}
  0
XRECORD
  5
72F
102
{ACAD_REACTORS
330
4D2
102
}
100
AcDbXrecord
340
478
  0
XRECORD
  5
72E
102
{ACAD_REACTORS
330
4D0
102
}
100
AcDbXrecord
340
475
  0
XRECORD
  5
700
102
{ACAD_REACTORS
330
6FF
102
}
100
AcDbXrecord
102
EXTNAMES
  1
SCALE
  2
scale
  0
XRECORD
  5
702
102
{ACAD_REACTORS
330
701
102
}
100
AcDbXrecord
102
EXTNAMES
  1
ABCMA060
  2
Abcma060
  0
XRECORD
  5
727
102
{ACAD_REACTORS
330
726
102
}
100
AcDbXrecord
102
UCS
 74
     0
 71
     1
 10
0.0
 20
0.0
 30
0.0
 10
1.0
 20
0.0
 30
0.0
 10
0.0
 20
1.0
 30
0.0
146
0.0
 79
     0
102
VIEW
281
     0
102
NEWVIEWCONTROL
280
     4
  0
XRECORD
  5
729
102
{ACAD_REACTORS
330
728
102
}
100
AcDbXrecord
102
UCS
 74
     0
 71
     1
 10
0.0
 20
0.0
 30
0.0
 10
1.0
 20
0.0
 30
0.0
 10
0.0
 20
1.0
 30
0.0
146
0.0
 79
     1
102
VIEW
281
     0
102
NEWVIEWCONTROL
280
     4
  0
XRECORD
  5
72B
102
{ACAD_REACTORS
330
72A
102
}
100
AcDbXrecord
102
UCS
 74
     0
 71
     1
 10
0.0
 20
0.0
 30
0.0
 10
1.0
 20
0.0
 30
0.0
 10
0.0
 20
0.0
 30
1.0
146
0.0
 79
     3
102
VIEW
281
     0
102
NEWVIEWCONTROL
280
     4
  0
XRECORD
  5
72D
102
{ACAD_REACTORS
330
72C
102
}
100
AcDbXrecord
102
UCS
 74
     0
 71
     1
 10
0.0
 20
0.0
 30
0.0
 10
1.0
 20
0.0
 30
0.0
 10
0.0
 20
1.0
 30
0.0
146
0.0
 79
     0
102
VIEW
281
     0
102
NEWVIEWCONTROL
280
     4
  0
DICTIONARY
  5
736
100
AcDbDictionary
280
     1
  3
ACAD_XREC_ROUNDTRIP
360
737
  0
ACAD_PROXY_OBJECT
  5
4A1
102
{ACAD_REACTORS
330
49E
102
}
100
AcDbProxyObject
 90
      499
 91
      503
 93
     2044
310
91D4850204C617365724A65742035303030205365726965732050434C20362C008000000C0BB1B1440000000102F06C510000000000BC1B1440000000002E06C5100000000C0CCFC6A4000000018199D9C501064C6574746572A901406AA427D84144352EEE3F47D11959985D5B1D08148C4D081C195B88185CDCDA59DB9B5
310
95B9D1CCB98DD18A30EDE3B1BBFDBC0FC1D572C8D6D0C833F1A2B3054E9249F0FD074C61796F75743140501A97D7DB4AA43C31EFF91E46EBA53B71EFD1B32A15809809100B2537F8EAD447D02A6A6A00200C0093BD106FC0000F06EE366FABE00000CB087AFD8AF84424FF2920002440160B7F4356000790000003E2032E07
310
53E0
330
475
330
2C
340
0
340
0
 94
        0
  0
ACAD_PROXY_OBJECT
  5
4A0
102
{ACAD_REACTORS
330
49E
102
}
100
AcDbProxyObject
 90
      499
 91
      503
 93
      924
310
91D4850204C617365724A65742035303030205365726965732050434C20362C01AAAAAAAAA547D11959985D5B1D08148C4D081C195B88185CDCDA59DB9B595B9D1CCB98DD18A69054D6F64656C901A800000000000000000000000000000000000000000000A1000000000000008902A6A6AAAA0
330
478
330
0
340
0
340
0
 94
        0
  0
MLINESTYLE
  5
47C
102
{ACAD_REACTORS
330
47B
102
}
100
AcDbMlineStyle
  2
STANDARD
 70
     0
  3

 62
   256
 51
90.0
 52
90.0
 71
     2
 49
0.5
 62
   256
  6
BYLAYER
 49
-0.5
 62
   256
  6
BYLAYER
  0
ACAD_PROXY_OBJECT
  5
49D
102
{ACAD_REACTORS
330
49C
102
}
100
AcDbProxyObject
 90
      499
 91
      502
 93
        0
 94
        0
  0
XRECORD
  5
70F
102
{ACAD_REACTORS
330
705
102
}
100
AcDbXrecord
 90
        0
  0
XRECORD
  5
713
102
{ACAD_REACTORS
330
705
102
}
100
AcDbXrecord
1000
DSTYLE
1002
{
1070
   276
 70
     2
1070
   277
 70
     5
1070
   279
 70
     2
1002
}
  0
XRECORD
  5
710
102
{ACAD_REACTORS
330
705
102
}
100
AcDbXrecord
  1
{6E0CF4B5-225E-11D4-A150-00A0CC3303EC}
  0
XRECORD
  5
708
102
{ACAD_REACTORS
330
705
102
}
100
AcDbXrecord
  1

  0
XRECORD
  5
70E
102
{ACAD_REACTORS
330
705
102
}
100
AcDbXrecord
 90
        0
  0
XRECORD
  5
70A
102
{ACAD_REACTORS
330
705
102
}
100
AcDbXrecord
340
49E
  0
XRECORD
  5
70D
102
{ACAD_REACTORS
330
705
102
}
100
AcDbXrecord
 90
    14877
  0
XRECORD
  5
70B
102
{ACAD_REACTORS
330
705
102
}
100
AcDbXrecord
340
49F
  0
XRECORD
  5
70C
102
{ACAD_REACTORS
330
705
102
}
100
AcDbXrecord
340
49C
  0
XRECORD
  5
712
102
{ACAD_REACTORS
330
705
102
}
100
AcDbXrecord
 40
0.0
  0
XRECORD
  5
716
102
{ACAD_REACTORS
330
705
102
}
100
AcDbXrecord
340
0
  0
XRECORD
  5
71C
102
{ACAD_REACTORS
330
705
102
}
100
AcDbXrecord
 10
0.0
 20
0.0
 30
0.0
  0
XRECORD
  5
718
102
{ACAD_REACTORS
330
705
102
}
100
AcDbXrecord
 10
0.0
 20
0.0
 30
0.0
  0
XRECORD
  5
71B
102
{ACAD_REACTORS
330
705
102
}
100
AcDbXrecord
 10
0.0
 20
0.0
 30
0.0
  0
XRECORD
  5
719
102
{ACAD_REACTORS
330
705
102
}
100
AcDbXrecord
 10
0.0
 20
0.0
 30
0.0
  0
XRECORD
  5
71A
102
{ACAD_REACTORS
330
705
102
}
100
AcDbXrecord
 10
0.0
 20
0.0
 30
0.0
  0
XRECORD
  5
717
102
{ACAD_REACTORS
330
705
102
}
100
AcDbXrecord
 10
0.0
 20
0.0
 30
0.0
  0
XRECORD
  5
714
102
{ACAD_REACTORS
330
705
102
}
100
AcDbXrecord
340
0
  0
XRECORD
  5
715
102
{ACAD_REACTORS
330
705
102
}
100
AcDbXrecord
 70
     0
  0
XRECORD
  5
709
102
{ACAD_REACTORS
330
705
102
}
100
AcDbXrecord
  1

  0
XRECORD
  5
706
102
{ACAD_REACTORS
330
705
102
}
100
AcDbXrecord
 90
        1
  0
XRECORD
  5
707
102
{ACAD_REACTORS
330
705
102
}
100
AcDbXrecord
 90
       70
  0
XRECORD
  5
71F
102
{ACAD_REACTORS
330
705
102
}
100
AcDbXrecord
340
0
  0
XRECORD
  5
725
102
{ACAD_REACTORS
330
705
102
}
100
AcDbXrecord
 10
0.0
 20
0.0
 30
0.0
  0
XRECORD
  5
721
102
{ACAD_REACTORS
330
705
102
}
100
AcDbXrecord
 10
0.0
 20
0.0
 30
0.0
  0
XRECORD
  5
724
102
{ACAD_REACTORS
330
705
102
}
100
AcDbXrecord
 10
0.0
 20
0.0
 30
0.0
  0
XRECORD
  5
722
102
{ACAD_REACTORS
330
705
102
}
100
AcDbXrecord
 10
0.0
 20
0.0
 30
0.0
  0
XRECORD
  5
723
102
{ACAD_REACTORS
330
705
102
}
100
AcDbXrecord
 10
0.0
 20
0.0
 30
0.0
  0
XRECORD
  5
720
102
{ACAD_REACTORS
330
705
102
}
100
AcDbXrecord
 10
0.0
 20
0.0
 30
0.0
  0
XRECORD
  5
71D
102
{ACAD_REACTORS
330
705
102
}
100
AcDbXrecord
340
0
  0
XRECORD
  5
71E
102
{ACAD_REACTORS
330
705
102
}
100
AcDbXrecord
 70
     3
  0
XRECORD
  5
711
102
{ACAD_REACTORS
330
705
102
}
100
AcDbXrecord
  1
{2F80D8D6-C4A1-4173-977E-891A60FB5C21}
  0
DICTIONARYVAR
  5
48E
102
{ACAD_REACTORS
330
48D
102
}
100
DictionaryVariables
280
     0
  1
0
  0
XRECORD
  5
737
102
{ACAD_REACTORS
330
736
102
}
100
AcDbXrecord
102
EXTNAMES
  1
LAYOUT1
  2
Layout1
  1
MODEL
  2
Model
  0
ENDSEC
  0
EOF
