  0
SECTION
  2
HEADER
  9
$ACADVER
  1
AC1014
  9
$ACADMAINTVER
 70
     8
  9
$DWGCODEPAGE
  3
ANSI_1252
  9
$INSBASE
 10
0.0
 20
0.0
 30
0.0
  9
$EXTMIN
 10
-0.782551
 20
-7.494866
 30
0.0
  9
$EXTMAX
 10
2.7
 20
1.334613
 30
6.061
  9
$LIMMIN
 10
0.0
 20
0.0
  9
$LIMMAX
 10
12.0
 20
9.0
  9
$ORTHOMODE
 70
     0
  9
$REGENMODE
 70
     1
  9
$FILLMODE
 70
     1
  9
$QTEXTMODE
 70
     0
  9
$MIRRTEXT
 70
     1
  9
$DRAGMODE
 70
     2
  9
$LTSCALE
 40
1.0
  9
$OSMODE
 70
    37
  9
$ATTMODE
 70
     1
  9
$TEXTSIZE
 40
0.12
  9
$TRACEWID
 40
0.05
  9
$TEXTSTYLE
  7
STANDARD
  9
$CLAYER
  8
0
  9
$CELTYPE
  6
BYLAYER
  9
$CECOLOR
 62
   256
  9
$CELTSCALE
 40
1.0
  9
$DELOBJ
 70
     1
  9
$DISPSILH
 70
     0
  9
$DIMSCALE
 40
1.0
  9
$DIMASZ
 40
0.18
  9
$DIMEXO
 40
0.0625
  9
$DIMDLI
 40
0.375
  9
$DIMRND
 40
0.0
  9
$DIMDLE
 40
0.0
  9
$DIMEXE
 40
0.18
  9
$DIMTP
 40
0.0
  9
$DIMTM
 40
0.0
  9
$DIMTXT
 40
0.18
  9
$DIMCEN
 40
0.09
  9
$DIMTSZ
 40
0.0
  9
$DIMTOL
 70
     0
  9
$DIMLIM
 70
     0
  9
$DIMTIH
 70
     0
  9
$DIMTOH
 70
     1
  9
$DIMSE1
 70
     0
  9
$DIMSE2
 70
     0
  9
$DIMTAD
 70
     0
  9
$DIMZIN
 70
     4
  9
$DIMBLK
  1

  9
$DIMASO
 70
     1
  9
$DIMSHO
 70
     1
  9
$DIMPOST
  1

  9
$DIMAPOST
  1

  9
$DIMALT
 70
     1
  9
$DIMALTD
 70
     1
  9
$DIMALTF
 40
25.4
  9
$DIMLFAC
 40
1.0
  9
$DIMTOFL
 70
     0
  9
$DIMTVP
 40
0.0
  9
$DIMTIX
 70
     0
  9
$DIMSOXD
 70
     0
  9
$DIMSAH
 70
     0
  9
$DIMBLK1
  1

  9
$DIMBLK2
  1

  9
$DIMSTYLE
  2
ABECAD_3D
  9
$DIMCLRD
 70
     0
  9
$DIMCLRE
 70
     0
  9
$DIMCLRT
 70
     0
  9
$DIMTFAC
 40
1.5
  9
$DIMGAP
 40
0.09
  9
$DIMJUST
 70
     0
  9
$DIMSD1
 70
     0
  9
$DIMSD2
 70
     0
  9
$DIMTOLJ
 70
     1
  9
$DIMTZIN
 70
     4
  9
$DIMALTZ
 70
     4
  9
$DIMALTTZ
 70
     4
  9
$DIMFIT
 70
     3
  9
$DIMUPT
 70
     0
  9
$DIMUNIT
 70
     7
  9
$DIMDEC
 70
     6
  9
$DIMTDEC
 70
     6
  9
$DIMALTU
 70
     2
  9
$DIMALTTD
 70
     1
  9
$DIMTXSTY
  7
STANDARD
  9
$DIMAUNIT
 70
     0
  9
$LUNITS
 70
     2
  9
$LUPREC
 70
     4
  9
$SKETCHINC
 40
0.1
  9
$FILLETRAD
 40
0.0
  9
$AUNITS
 70
     0
  9
$AUPREC
 70
     0
  9
$MENU
  1
ACAD
  9
$ELEVATION
 40
0.0
  9
$PELEVATION
 40
0.0
  9
$THICKNESS
 40
0.0
  9
$LIMCHECK
 70
     0
  9
$BLIPMODE
 70
     0
  9
$CHAMFERA
 40
0.0
  9
$CHAMFERB
 40
0.0
  9
$CHAMFERC
 40
0.0
  9
$CHAMFERD
 40
0.0
  9
$SKPOLY
 70
     0
  9
$TDCREATE
 40
2451737.737590162
  9
$TDUPDATE
 40
2452010.484021296
  9
$TDINDWG
 40
0.0084377315
  9
$TDUSRTIMER
 40
0.0084326389
  9
$USRTIMER
 70
     1
  9
$ANGBASE
 50
0.0
  9
$ANGDIR
 70
     0
  9
$PDMODE
 70
     3
  9
$PDSIZE
 40
0.09
  9
$PLINEWID
 40
0.0
  9
$COORDS
 70
     1
  9
$SPLFRAME
 70
     1
  9
$SPLINETYPE
 70
     6
  9
$SPLINESEGS
 70
     8
  9
$ATTDIA
 70
     0
  9
$ATTREQ
 70
     1
  9
$HANDLING
 70
     1
  9
$HANDSEED
  5
45C6C
  9
$SURFTAB1
 70
     6
  9
$SURFTAB2
 70
     6
  9
$SURFTYPE
 70
     6
  9
$SURFU
 70
     6
  9
$SURFV
 70
     6
  9
$UCSNAME
  2

  9
$UCSORG
 10
0.0
 20
0.0
 30
0.0
  9
$UCSXDIR
 10
1.0
 20
0.0
 30
0.0
  9
$UCSYDIR
 10
0.0
 20
1.0
 30
0.0
  9
$PUCSNAME
  2

  9
$PUCSORG
 10
0.0
 20
0.0
 30
0.0
  9
$PUCSXDIR
 10
1.0
 20
0.0
 30
0.0
  9
$PUCSYDIR
 10
0.0
 20
1.0
 30
0.0
  9
$USERI1
 70
     0
  9
$USERI2
 70
     0
  9
$USERI3
 70
     0
  9
$USERI4
 70
     0
  9
$USERI5
 70
     0
  9
$USERR1
 40
0.0
  9
$USERR2
 40
0.0
  9
$USERR3
 40
0.0
  9
$USERR4
 40
0.0
  9
$USERR5
 40
0.0
  9
$WORLDVIEW
 70
     1
  9
$SHADEDGE
 70
     3
  9
$SHADEDIF
 70
    70
  9
$TILEMODE
 70
     1
  9
$MAXACTVP
 70
    16
  9
$PINSBASE
 10
0.0
 20
0.0
 30
0.0
  9
$PLIMCHECK
 70
     0
  9
$PEXTMIN
 10
1.000000E+20
 20
1.000000E+20
 30
1.000000E+20
  9
$PEXTMAX
 10
-1.000000E+20
 20
-1.000000E+20
 30
-1.000000E+20
  9
$PLIMMIN
 10
0.0
 20
0.0
  9
$PLIMMAX
 10
12.0
 20
9.0
  9
$UNITMODE
 70
     0
  9
$VISRETAIN
 70
     0
  9
$PLINEGEN
 70
     0
  9
$PSLTSCALE
 70
     1
  9
$TREEDEPTH
 70
  3020
  9
$PICKSTYLE
 70
     1
  9
$CMLSTYLE
  2
STANDARD
  9
$CMLJUST
 70
     0
  9
$CMLSCALE
 40
1.0
  9
$PROXYGRAPHICS
 70
     1
  9
$MEASUREMENT
 70
     0
  0
ENDSEC
  0
SECTION
  2
CLASSES
  0
CLASS
  1
DICTIONARYVAR
  2
AcDbDictionaryVar
  3
"AutoCAD"
 90
        0
280
     0
281
     0
  0
CLASS
  1
ACDBDICTIONARYWDFLT
  2
AcDbDictionaryWithDefault
  3
AutoCAD 2000
 90
        0
280
     0
281
     0
  0
CLASS
  1
ACDBPLACEHOLDER
  2
AcDbPlaceHolder
  3
AutoCAD 2000
 90
        0
280
     0
281
     0
  0
CLASS
  1
LAYOUT
  2
AcDbLayout
  3
AutoCAD 2000
 90
        0
280
     0
281
     0
  0
CLASS
  1
LONG_TRANSACTION
  2
AcDbLongTransaction
  3
AutoCAD 2000
 90
        0
280
     0
281
     0
  0
CLASS
  1
LWPOLYLINE
  2
AcDbPolyline
  3
"AutoCAD"
 90
        0
280
     0
281
     1
  0
CLASS
  1
HATCH
  2
AcDbHatch
  3
"ACAD_SEDONA"
 90
        0
280
     0
281
     1
  0
CLASS
  1
XRECORD
  2
AcDbXrecord
  3
"<Built In>"
 90
        0
280
     0
281
     0
  0
CLASS
  1
LONG_TRANSACTION
  2
AcDbLongTransaction
  3
AutoCAD 2000
 90
        0
280
     0
281
     0
  0
CLASS
  1
LWPOLYLINE
  2
AcDbPolyline
  3
"AutoCAD"
 90
        0
280
     0
281
     1
  0
CLASS
  1
HATCH
  2
AcDbHatch
  3
"ACAD_SEDONA"
 90
        0
280
     0
281
     1
  0
CLASS
  1
XRECORD
  2
AcDbXrecord
  3
"<Built In>"
 90
        0
280
     0
281
     0
  0
CLASS
  1
LONG_TRANSACTION
  2
AcDbLongTransaction
  3
AutoCAD 2000
 90
        0
280
     0
281
     0
  0
CLASS
  1
LWPOLYLINE
  2
AcDbPolyline
  3
"AutoCAD"
 90
        0
280
     0
281
     1
  0
CLASS
  1
HATCH
  2
AcDbHatch
  3
"ACAD_SEDONA"
 90
        0
280
     0
281
     1
  0
CLASS
  1
XRECORD
  2
AcDbXrecord
  3
"<Built In>"
 90
        0
280
     0
281
     0
  0
CLASS
  1
LONG_TRANSACTION
  2
AcDbLongTransaction
  3
AutoCAD 2000
 90
        0
280
     0
281
     0
  0
CLASS
  1
LWPOLYLINE
  2
AcDbPolyline
  3
"AutoCAD"
 90
        0
280
     0
281
     1
  0
CLASS
  1
HATCH
  2
AcDbHatch
  3
"ACAD_SEDONA"
 90
        0
280
     0
281
     1
  0
CLASS
  1
XRECORD
  2
AcDbXrecord
  3
"<Built In>"
 90
        0
280
     0
281
     0
  0
ENDSEC
  0
SECTION
  2
TABLES
  0
TABLE
  2
VPORT
  5
458C7
100
AcDbSymbolTable
 70
     1
  0
VPORT
  5
45C37
102
{ACAD_XDICTIONARY
360
45C3C
102
}
100
AcDbSymbolTableRecord
100
AcDbViewportTableRecord
  2
*ACTIVE
 70
     0
 10
0.0
 20
0.0
 11
1.0
 21
1.0
 12
0.958822
 22
-3.080068
 13
0.0
 23
0.0
 14
0.25
 24
0.25
 15
0.25
 25
0.25
 16
0.0
 26
0.0
 36
1.0
 17
0.0
 27
0.0
 37
0.0
 40
8.979016
 41
1.960674
 42
50.0
 43
0.0
 44
0.0
 50
0.0
 51
0.0
 71
     0
 72
 20000
 73
     1
 74
     1
 75
     0
 76
     0
 77
     0
 78
     0
  0
ENDTAB
  0
TABLE
  2
LTYPE
  5
458C4
100
AcDbSymbolTable
 70
     1
  0
LTYPE
  5
458D0
100
AcDbSymbolTableRecord
100
AcDbLinetypeTableRecord
  2
BYBLOCK
 70
     0
  3

 72
    65
 73
     0
 40
0.0
  0
LTYPE
  5
458D1
100
AcDbSymbolTableRecord
100
AcDbLinetypeTableRecord
  2
BYLAYER
 70
     0
  3

 72
    65
 73
     0
 40
0.0
  0
LTYPE
  5
458D2
100
AcDbSymbolTableRecord
100
AcDbLinetypeTableRecord
  2
CONTINUOUS
 70
     0
  3
Solid line
 72
    65
 73
     0
 40
0.0
  0
ENDTAB
  0
TABLE
  2
LAYER
  5
458C1
100
AcDbSymbolTable
 70
     7
  0
LAYER
  5
458CD
100
AcDbSymbolTableRecord
100
AcDbLayerTableRecord
  2
0
 70
     0
 62
     7
  6
CONTINUOUS
  0
LAYER
  5
458EA
100
AcDbSymbolTableRecord
100
AcDbLayerTableRecord
  2
DIMS-MTG-HOLES
 70
     0
 62
     1
  6
CONTINUOUS
  0
LAYER
  5
458EB
100
AcDbSymbolTableRecord
100
AcDbLayerTableRecord
  2
ATTRIBUTES
 70
     0
 62
     7
  6
CONTINUOUS
  0
LAYER
  5
4593B
102
{ACAD_XDICTIONARY
360
45C67
102
}
100
AcDbSymbolTableRecord
100
AcDbLayerTableRecord
  2
AREA1
 70
     0
 62
    -7
  6
CONTINUOUS
  0
LAYER
  5
45940
102
{ACAD_XDICTIONARY
360
45C3A
102
}
100
AcDbSymbolTableRecord
100
AcDbLayerTableRecord
  2
DEFPOINTS
 70
     0
 62
    -7
  6
CONTINUOUS
  0
LAYER
  5
45954
100
AcDbSymbolTableRecord
100
AcDbLayerTableRecord
  2
SCALE
 70
     0
 62
    -7
  6
CONTINUOUS
  0
LAYER
  5
4597B
100
AcDbSymbolTableRecord
100
AcDbLayerTableRecord
  2
SNAP_POINTS
 70
     0
 62
    -1
  6
CONTINUOUS
  0
ENDTAB
  0
TABLE
  2
STYLE
  5
458C2
100
AcDbSymbolTable
 70
     1
  0
STYLE
  5
458CE
100
AcDbSymbolTableRecord
100
AcDbTextStyleTableRecord
  2
STANDARD
 70
     0
 40
0.0
 41
1.0
 50
0.0
 71
     0
 42
0.12
  3
txt
  4

  0
ENDTAB
  0
TABLE
  2
VIEW
  5
458C5
100
AcDbSymbolTable
 70
     0
  0
ENDTAB
  0
TABLE
  2
UCS
  5
458C6
100
AcDbSymbolTable
 70
     0
  0
ENDTAB
  0
TABLE
  2
APPID
  5
458C8
100
AcDbSymbolTable
 70
     1
  0
APPID
  5
458CF
100
AcDbSymbolTableRecord
100
AcDbRegAppTableRecord
  2
ACAD
 70
     0
  0
ENDTAB
  0
TABLE
  2
DIMSTYLE
  5
458C9
100
AcDbSymbolTable
 70
     2
  0
DIMSTYLE
105
458F1
102
{ACAD_XDICTIONARY
360
45C61
102
}
100
AcDbSymbolTableRecord
100
AcDbDimStyleTableRecord
  2
ABECAD
 70
     0
  3

  4

  5

  6

  7

 40
1.0
 41
0.18
 42
0.0625
 43
0.375
 44
0.18
 45
0.0
 46
0.0
 47
0.0
 48
0.0
140
0.18
141
0.09
142
0.0
143
25.4
144
1.0
145
0.0
146
1.5
147
0.09
 71
     0
 72
     0
 73
     0
 74
     1
 75
     0
 76
     0
 77
     0
 78
     4
170
     1
171
     1
172
     0
173
     0
174
     0
175
     0
176
     0
177
     0
178
     0
270
     7
271
     6
272
     6
273
     2
274
     1
340
458CE
275
     0
280
     0
281
     0
282
     0
283
     1
284
     4
285
     4
286
     4
287
     3
288
     0
  0
DIMSTYLE
105
458F6
102
{ACAD_XDICTIONARY
360
45C63
102
}
102
{ACAD_REACTORS
330
45B7B
330
45B89
102
}
100
AcDbSymbolTableRecord
100
AcDbDimStyleTableRecord
  2
ABECAD_3D
 70
     0
  3

  4

  5

  6

  7

 40
1.0
 41
0.18
 42
0.0625
 43
0.375
 44
0.18
 45
0.0
 46
0.0
 47
0.0
 48
0.0
140
0.18
141
0.09
142
0.0
143
25.4
144
1.0
145
0.0
146
1.5
147
0.09
 71
     0
 72
     0
 73
     0
 74
     1
 75
     0
 76
     0
 77
     0
 78
     4
170
     1
171
     1
172
     0
173
     0
174
     0
175
     0
176
     0
177
     0
178
     0
270
     7
271
     6
272
     6
273
     2
274
     1
340
458CE
275
     0
280
     0
281
     0
282
     0
283
     1
284
     4
285
     4
286
     4
287
     3
288
     0
  0
ENDTAB
  0
TABLE
  2
BLOCK_RECORD
  5
458C0
100
AcDbSymbolTable
 70
     3
  0
BLOCK_RECORD
  5
458D6
102
{ACAD_XDICTIONARY
360
4592C
102
}
100
AcDbSymbolTableRecord
100
AcDbBlockTableRecord
  2
*MODEL_SPACE
  0
BLOCK_RECORD
  5
458D3
102
{ACAD_XDICTIONARY
360
4592A
102
}
100
AcDbSymbolTableRecord
100
AcDbBlockTableRecord
  2
*PAPER_SPACE
  0
BLOCK_RECORD
  5
45941
102
{ACAD_XDICTIONARY
360
45C38
102
}
100
AcDbSymbolTableRecord
100
AcDbBlockTableRecord
  2
SCALE
1001
ACAD
1000
DesignCenter Data
1002
{
1070
     1
1070
     1
1002
}
  0
BLOCK_RECORD
  5
45B7C
100
AcDbSymbolTableRecord
100
AcDbBlockTableRecord
  2
*D1
  0
BLOCK_RECORD
  5
45B8A
100
AcDbSymbolTableRecord
100
AcDbBlockTableRecord
  2
*D2
  0
ENDTAB
  0
ENDSEC
  0
SECTION
  2
BLOCKS
  0
BLOCK
  5
458DF
100
AcDbEntity
  8
0
100
AcDbBlockBegin
  2
*MODEL_SPACE
 70
     0
 10
0.0
 20
0.0
 30
0.0
  3
*MODEL_SPACE
  1

  0
ENDBLK
  5
458E0
100
AcDbEntity
  8
0
100
AcDbBlockEnd
  0
BLOCK
  5
458DD
100
AcDbEntity
 67
     1
  8
0
100
AcDbBlockBegin
  2
*PAPER_SPACE
 70
     0
 10
0.0
 20
0.0
 30
0.0
  3
*PAPER_SPACE
  1

  0
ENDBLK
  5
458DE
100
AcDbEntity
 67
     1
  8
0
100
AcDbBlockEnd
  0
BLOCK
  5
4594D
100
AcDbEntity
  8
0
100
AcDbBlockBegin
  2
SCALE
 70
     0
 10
0.0
 20
0.0
 30
0.0
  3
SCALE
  1

  0
LINE
  5
4596A
100
AcDbEntity
  8
SCALE
100
AcDbLine
 10
0.057999
 20
-0.380078
 30
0.0
 11
1.057999
 21
-0.380078
 31
0.0
  0
LWPOLYLINE
  5
4596B
100
AcDbEntity
  8
SCALE
100
AcDbPolyline
 90
        4
 70
     1
 43
0.0
 10
0.0
 20
0.0
 10
1.135629
 20
0.0
 10
1.135629
 20
-0.84161
 10
0.0
 20
-0.84161
  0
LINE
  5
4596C
100
AcDbEntity
  8
SCALE
100
AcDbLine
 10
0.057999
 20
-0.480078
 30
0.0
 11
0.057999
 21
-0.280078
 31
0.0
  0
TEXT
  5
4596D
100
AcDbEntity
  8
SCALE
100
AcDbText
 10
0.117421
 20
-0.634339
 30
0.0
 40
0.0625
  1
[10mm]
100
AcDbText
  0
LINE
  5
4596E
100
AcDbEntity
  8
SCALE
100
AcDbLine
 10
0.057999
 20
-0.680078
 30
0.0
 11
0.451699
 21
-0.680078
 31
0.0
  0
LINE
  5
4596F
100
AcDbEntity
  8
SCALE
100
AcDbLine
 10
0.057999
 20
-0.780078
 30
0.0
 11
0.057999
 21
-0.580078
 31
0.0
  0
LINE
  5
45970
100
AcDbEntity
  8
SCALE
100
AcDbLine
 10
0.451699
 20
-0.780078
 30
0.0
 11
0.451699
 21
-0.580078
 31
0.0
  0
TEXT
  5
45971
100
AcDbEntity
  8
SCALE
100
AcDbText
 10
0.059529
 20
-0.105201
 30
0.0
 40
0.0625
  1
SCALE:
100
AcDbText
  0
TEXT
  5
45972
100
AcDbEntity
  8
SCALE
100
AcDbText
 10
0.421282
 20
-0.31103
 30
0.0
 40
0.0625
  1
1 Inch
100
AcDbText
  0
LINE
  5
45973
100
AcDbEntity
  8
SCALE
100
AcDbLine
 10
1.057999
 20
-0.380078
 30
0.0
 11
1.057999
 21
-0.480078
 31
0.0
  0
LINE
  5
45974
100
AcDbEntity
  8
SCALE
100
AcDbLine
 10
1.057999
 20
-0.480078
 30
0.0
 11
1.057999
 21
-0.280078
 31
0.0
  0
ENDBLK
  5
4594E
100
AcDbEntity
  8
0
100
AcDbBlockEnd
  0
BLOCK
  5
45B87
100
AcDbEntity
  8
0
100
AcDbBlockBegin
  2
*D1
 70
     1
 10
0.0
 20
0.0
 30
0.0
  3
*D1
  1

  0
LINE
  5
45B7D
100
AcDbEntity
  8
AREA1
 62
     0
100
AcDbLine
 10
0.3795
 20
0.26
 30
0.0
 11
1.853331
 21
0.26
 31
0.0
1001
ACAD
1000
RTLwPs
1070
   158
  0
LINE
  5
45B7E
100
AcDbEntity
  8
AREA1
 62
     0
100
AcDbLine
 10
0.2795
 20
-6.47
 30
0.0
 11
1.853331
 21
-6.47
 31
0.0
1001
ACAD
1000
RTLwPs
1070
   158
  0
LINE
  5
45B7F
100
AcDbEntity
  8
AREA1
 62
     0
100
AcDbLine
 10
1.673331
 20
0.08
 30
0.0
 11
1.673331
 21
-1.86
 31
0.0
1001
ACAD
1000
RTLwPs
1070
   158
  0
LINE
  5
45B80
100
AcDbEntity
  8
AREA1
 62
     0
100
AcDbLine
 10
1.673331
 20
-6.29
 30
0.0
 11
1.673331
 21
-4.35
 31
0.0
1001
ACAD
1000
RTLwPs
1070
   158
  0
SOLID
  5
45B81
100
AcDbEntity
  8
AREA1
 62
     0
100
AcDbTrace
 10
1.643331
 20
0.08
 30
0.0
 11
1.703331
 21
0.08
 31
0.0
 12
1.673331
 22
0.26
 32
0.0
 13
1.673331
 23
0.26
 33
0.0
  0
SOLID
  5
45B82
100
AcDbEntity
  8
AREA1
 62
     0
100
AcDbTrace
 10
1.643331
 20
-6.29
 30
0.0
 11
1.703331
 21
-6.29
 31
0.0
 12
1.673331
 22
-6.47
 32
0.0
 13
1.673331
 23
-6.47
 33
0.0
  0
MTEXT
  5
45B83
100
AcDbEntity
  8
AREA1
 62
     0
100
AcDbMText
 10
1.673331
 20
-3.105
 30
0.0
 40
0.18
 41
0.0
 71
     5
 72
     1
  1
\A1;6 47/64 [170.9]
 11
0.0
 21
1.0
 31
0.0
1001
ACAD
1000
MTEXTBEGIN
1070
    73
1070
     1
1070
    44
1040
1.0
1070
    74
1070
     0
1000
MTEXTEND
1000
MTEXTBEGIN
1070
    73
1070
     1
1070
    44
1040
1.0
1070
    74
1070
     0
1000
MTEXTEND
1000
MTEXTBEGIN
1070
    73
1070
     1
1070
    44
1040
1.0
1070
    74
1070
     0
1000
MTEXTEND
  0
POINT
  5
45B84
100
AcDbEntity
  8
DEFPOINTS
 62
     0
100
AcDbPoint
 10
0.317
 20
0.26
 30
0.0
  0
POINT
  5
45B85
100
AcDbEntity
  8
DEFPOINTS
 62
     0
100
AcDbPoint
 10
0.217
 20
-6.47
 30
0.0
  0
POINT
  5
45B86
100
AcDbEntity
  8
DEFPOINTS
 62
     0
100
AcDbPoint
 10
1.673331
 20
-6.47
 30
0.0
  0
ENDBLK
  5
45B88
100
AcDbEntity
  8
0
100
AcDbBlockEnd
  0
BLOCK
  5
45B95
100
AcDbEntity
  8
0
100
AcDbBlockBegin
  2
*D2
 70
     1
 10
0.0
 20
0.0
 30
0.0
  3
*D2
  1

  0
LINE
  5
45B8B
100
AcDbEntity
  8
AREA1
 62
     0
100
AcDbLine
 10
-0.75
 20
-0.5075
 30
0.0
 11
-0.75
 21
1.334613
 31
0.0
1001
ACAD
1000
RTLwPs
1070
   158
  0
LINE
  5
45B8C
100
AcDbEntity
  8
AREA1
 62
     0
100
AcDbLine
 10
0.75
 20
-0.5075
 30
0.0
 11
0.75
 21
1.334613
 31
0.0
1001
ACAD
1000
RTLwPs
1070
   158
  0
LINE
  5
45B8D
100
AcDbEntity
  8
AREA1
 62
     0
100
AcDbLine
 10
-0.57
 20
1.154613
 30
0.0
 11
0.57
 21
1.154613
 31
0.0
1001
ACAD
1000
RTLwPs
1070
   158
  0
LINE
  5
45B8E
100
AcDbEntity
  8
AREA1
 62
     0
100
AcDbLine
 10
0.75
 20
1.154613
 30
0.0
 11
0.93
 21
1.154613
 31
0.0
1001
ACAD
1000
RTLwPs
1070
   158
  0
SOLID
  5
45B8F
100
AcDbEntity
  8
AREA1
 62
     0
100
AcDbTrace
 10
-0.57
 20
1.184613
 30
0.0
 11
-0.57
 21
1.124613
 31
0.0
 12
-0.75
 22
1.154613
 32
0.0
 13
-0.75
 23
1.154613
 33
0.0
  0
SOLID
  5
45B90
100
AcDbEntity
  8
AREA1
 62
     0
100
AcDbTrace
 10
0.57
 20
1.184613
 30
0.0
 11
0.57
 21
1.124613
 31
0.0
 12
0.75
 22
1.154613
 32
0.0
 13
0.75
 23
1.154613
 33
0.0
  0
MTEXT
  5
45B91
100
AcDbEntity
  8
AREA1
 62
     0
100
AcDbMText
 10
1.86
 20
1.154613
 30
0.0
 40
0.18
 41
0.0
 71
     5
 72
     1
  1
\A1;1 1/2 [38.1]
1001
ACAD
1000
MTEXTBEGIN
1070
    73
1070
     1
1070
    44
1040
1.0
1070
    74
1070
     0
1000
MTEXTEND
1000
MTEXTBEGIN
1070
    73
1070
     1
1070
    44
1040
1.0
1070
    74
1070
     0
1000
MTEXTEND
1000
MTEXTBEGIN
1070
    73
1070
     1
1070
    44
1040
1.0
1070
    74
1070
     0
1000
MTEXTEND
  0
POINT
  5
45B92
100
AcDbEntity
  8
DEFPOINTS
 62
     0
100
AcDbPoint
 10
-0.75
 20
-0.57
 30
0.0
  0
POINT
  5
45B93
100
AcDbEntity
  8
DEFPOINTS
 62
     0
100
AcDbPoint
 10
0.75
 20
-0.57
 30
0.0
  0
POINT
  5
45B94
100
AcDbEntity
  8
DEFPOINTS
 62
     0
100
AcDbPoint
 10
0.75
 20
1.154613
 30
0.0
  0
ENDBLK
  5
45B96
100
AcDbEntity
  8
0
100
AcDbBlockEnd
  0
ENDSEC
  0
SECTION
  2
ENTITIES
  0
ATTDEF
  5
1
100
AcDbEntity
  8
ATTRIBUTES
100
AcDbText
 10
-0.664609
 20
-4.365203
 30
0.0
 40
0.084375
  1
ALLEN-BRADLEY
100
AcDbAttributeDefinition
  3
MANUFACTURER NAME?
  2
AC_VND_LABEL
 70
     1
  0
ATTDEF
  5
2
100
AcDbEntity
  8
ATTRIBUTES
100
AcDbText
 10
-0.664609
 20
-4.540984
 30
0.0
 40
0.084375
  1
1747-AIC
100
AcDbAttributeDefinition
  3
CATALOG NUMBER?
  2
AC_PART_NO
 70
     1
  0
ATTDEF
  5
3
100
AcDbEntity
  8
ATTRIBUTES
100
AcDbText
 10
-0.664609
 20
-4.716765
 30
0.0
 40
0.084375
  1
1747-AIC:ISOLATED LINK COUPLER
100
AcDbAttributeDefinition
  3
PART DESCRIPTION?
  2
AC_DESCRIPTION
 70
     1
  0
ATTDEF
  5
4
100
AcDbEntity
  8
ATTRIBUTES
100
AcDbText
 10
-0.664609
 20
-4.892546
 30
0.0
 40
0.084375
  1

100
AcDbAttributeDefinition
  3
DEVICE ID?
  2
DEVICE_ID
 70
     1
  0
ATTDEF
  5
5
100
AcDbEntity
  8
ATTRIBUTES
100
AcDbText
 10
-0.664609
 20
-5.068328
 30
0.0
 40
0.084375
  1

100
AcDbAttributeDefinition
  3
CUSTOMER PART NUMBER?
  2
AC_CPART_NO
 70
     1
  0
ATTDEF
  5
6
100
AcDbEntity
  8
ATTRIBUTES
100
AcDbText
 10
-0.664609
 20
-5.244109
 30
0.0
 40
0.084375
  1

100
AcDbAttributeDefinition
  3
CUSTOMER NOTE?
  2
AC_NOTE
 70
     1
  0
ATTDEF
  5
7
100
AcDbEntity
  8
ATTRIBUTES
100
AcDbText
 10
-0.664609
 20
-5.41989
 30
0.0
 40
0.084375
  1

100
AcDbAttributeDefinition
  3
FASTENER DATA?
  2
FASTENER
 70
     1
  0
ATTDEF
  5
8
100
AcDbEntity
  8
ATTRIBUTES
100
AcDbText
 10
-0.664609
 20
-5.595671
 30
0.0
 40
0.084375
  1
INCH
100
AcDbAttributeDefinition
  3
UNIT OF SCALE?
  2
AC_SCALE_UNIT
 70
     1
  0
ATTDEF
  5
9
100
AcDbEntity
  8
ATTRIBUTES
100
AcDbText
 10
-0.664609
 20
-5.771453
 30
0.0
 40
0.084375
  1
0
100
AcDbAttributeDefinition
  3
VIEW CODE?
  2
AC_VIEW_CODE
 70
     1
  0
INSERT
  5
45975
100
AcDbEntity
  8
SCALE
100
AcDbBlockReference
  2
SCALE
 10
-0.782551
 20
-6.653256
 30
0.0
  0
POLYLINE
  5
45A8A
100
AcDbEntity
  8
0
100
AcDbPolygonMesh
 66
     1
 10
0.0
 20
0.0
 30
0.0
 70
    16
 71
     6
 72
     3
  0
VERTEX
  5
45A8B
100
AcDbEntity
  8
0
100
AcDbVertex
100
AcDbPolygonMeshVertex
 10
-0.317
 20
-0.53
 30
0.17
 70
    64
  0
VERTEX
  5
45A8C
100
AcDbEntity
  8
0
100
AcDbVertex
100
AcDbPolygonMeshVertex
 10
-0.317
 20
-0.53
 30
0.0
 70
    64
  0
VERTEX
  5
45A8D
100
AcDbEntity
  8
0
100
AcDbVertex
100
AcDbPolygonMeshVertex
 10
-0.317
 20
-0.53
 30
0.0
 70
    64
  0
VERTEX
  5
45A8E
100
AcDbEntity
  8
0
100
AcDbVertex
100
AcDbPolygonMeshVertex
 10
-0.317
 20
0.26
 30
0.17
 70
    64
  0
VERTEX
  5
45A8F
100
AcDbEntity
  8
0
100
AcDbVertex
100
AcDbPolygonMeshVertex
 10
-0.317
 20
0.26
 30
0.0
 70
    64
  0
VERTEX
  5
45A90
100
AcDbEntity
  8
0
100
AcDbVertex
100
AcDbPolygonMeshVertex
 10
-0.317
 20
0.26
 30
0.0
 70
    64
  0
VERTEX
  5
45A91
100
AcDbEntity
  8
0
100
AcDbVertex
100
AcDbPolygonMeshVertex
 10
0.317
 20
0.26
 30
0.17
 70
    64
  0
VERTEX
  5
45A92
100
AcDbEntity
  8
0
100
AcDbVertex
100
AcDbPolygonMeshVertex
 10
0.317
 20
0.26
 30
0.0
 70
    64
  0
VERTEX
  5
45A93
100
AcDbEntity
  8
0
100
AcDbVertex
100
AcDbPolygonMeshVertex
 10
-0.317
 20
0.26
 30
0.0
 70
    64
  0
VERTEX
  5
45A94
100
AcDbEntity
  8
0
100
AcDbVertex
100
AcDbPolygonMeshVertex
 10
0.317
 20
-0.53
 30
0.17
 70
    64
  0
VERTEX
  5
45A95
100
AcDbEntity
  8
0
100
AcDbVertex
100
AcDbPolygonMeshVertex
 10
0.317
 20
-0.53
 30
0.0
 70
    64
  0
VERTEX
  5
45A96
100
AcDbEntity
  8
0
100
AcDbVertex
100
AcDbPolygonMeshVertex
 10
-0.317
 20
-0.53
 30
0.0
 70
    64
  0
VERTEX
  5
45A97
100
AcDbEntity
  8
0
100
AcDbVertex
100
AcDbPolygonMeshVertex
 10
0.317
 20
-0.53
 30
0.17
 70
    64
  0
VERTEX
  5
45A98
100
AcDbEntity
  8
0
100
AcDbVertex
100
AcDbPolygonMeshVertex
 10
0.317
 20
-0.53
 30
0.17
 70
    64
  0
VERTEX
  5
45A99
100
AcDbEntity
  8
0
100
AcDbVertex
100
AcDbPolygonMeshVertex
 10
-0.317
 20
-0.53
 30
0.17
 70
    64
  0
VERTEX
  5
45A9A
100
AcDbEntity
  8
0
100
AcDbVertex
100
AcDbPolygonMeshVertex
 10
0.317
 20
0.26
 30
0.17
 70
    64
  0
VERTEX
  5
45A9B
100
AcDbEntity
  8
0
100
AcDbVertex
100
AcDbPolygonMeshVertex
 10
0.317
 20
0.26
 30
0.17
 70
    64
  0
VERTEX
  5
45A9C
100
AcDbEntity
  8
0
100
AcDbVertex
100
AcDbPolygonMeshVertex
 10
-0.317
 20
0.26
 30
0.17
 70
    64
  0
SEQEND
  5
45A9D
100
AcDbEntity
  8
0
  0
POLYLINE
  5
45A9E
100
AcDbEntity
  8
0
100
AcDbPolygonMesh
 66
     1
 10
0.0
 20
0.0
 30
0.0
 70
    16
 71
     6
 72
     3
  0
VERTEX
  5
45A9F
100
AcDbEntity
  8
0
100
AcDbVertex
100
AcDbPolygonMeshVertex
 10
0.75
 20
-5.92
 30
5.71
 70
    64
  0
VERTEX
  5
45AA0
100
AcDbEntity
  8
0
100
AcDbVertex
100
AcDbPolygonMeshVertex
 10
0.75
 20
-5.92
 30
0.0
 70
    64
  0
VERTEX
  5
45AA1
100
AcDbEntity
  8
0
100
AcDbVertex
100
AcDbPolygonMeshVertex
 10
0.75
 20
-5.92
 30
0.0
 70
    64
  0
VERTEX
  5
45AA2
100
AcDbEntity
  8
0
100
AcDbVertex
100
AcDbPolygonMeshVertex
 10
-0.75
 20
-5.92
 30
5.71
 70
    64
  0
VERTEX
  5
45AA3
100
AcDbEntity
  8
0
100
AcDbVertex
100
AcDbPolygonMeshVertex
 10
-0.75
 20
-5.92
 30
0.0
 70
    64
  0
VERTEX
  5
45AA4
100
AcDbEntity
  8
0
100
AcDbVertex
100
AcDbPolygonMeshVertex
 10
-0.75
 20
-5.92
 30
0.0
 70
    64
  0
VERTEX
  5
45AA5
100
AcDbEntity
  8
0
100
AcDbVertex
100
AcDbPolygonMeshVertex
 10
-0.75
 20
-0.53
 30
5.71
 70
    64
  0
VERTEX
  5
45AA6
100
AcDbEntity
  8
0
100
AcDbVertex
100
AcDbPolygonMeshVertex
 10
-0.75
 20
-0.53
 30
0.0
 70
    64
  0
VERTEX
  5
45AA7
100
AcDbEntity
  8
0
100
AcDbVertex
100
AcDbPolygonMeshVertex
 10
-0.75
 20
-5.92
 30
0.0
 70
    64
  0
VERTEX
  5
45AA8
100
AcDbEntity
  8
0
100
AcDbVertex
100
AcDbPolygonMeshVertex
 10
0.75
 20
-0.53
 30
5.71
 70
    64
  0
VERTEX
  5
45AA9
100
AcDbEntity
  8
0
100
AcDbVertex
100
AcDbPolygonMeshVertex
 10
0.75
 20
-0.53
 30
0.0
 70
    64
  0
VERTEX
  5
45AAA
100
AcDbEntity
  8
0
100
AcDbVertex
100
AcDbPolygonMeshVertex
 10
0.75
 20
-5.92
 30
0.0
 70
    64
  0
VERTEX
  5
45AAB
100
AcDbEntity
  8
0
100
AcDbVertex
100
AcDbPolygonMeshVertex
 10
0.75
 20
-0.53
 30
5.71
 70
    64
  0
VERTEX
  5
45AAC
100
AcDbEntity
  8
0
100
AcDbVertex
100
AcDbPolygonMeshVertex
 10
0.75
 20
-0.53
 30
5.71
 70
    64
  0
VERTEX
  5
45AAD
100
AcDbEntity
  8
0
100
AcDbVertex
100
AcDbPolygonMeshVertex
 10
0.75
 20
-5.92
 30
5.71
 70
    64
  0
VERTEX
  5
45AAE
100
AcDbEntity
  8
0
100
AcDbVertex
100
AcDbPolygonMeshVertex
 10
-0.75
 20
-0.53
 30
5.71
 70
    64
  0
VERTEX
  5
45AAF
100
AcDbEntity
  8
0
100
AcDbVertex
100
AcDbPolygonMeshVertex
 10
-0.75
 20
-0.53
 30
5.71
 70
    64
  0
VERTEX
  5
45AB0
100
AcDbEntity
  8
0
100
AcDbVertex
100
AcDbPolygonMeshVertex
 10
-0.75
 20
-5.92
 30
5.71
 70
    64
  0
SEQEND
  5
45AB1
100
AcDbEntity
  8
0
  0
POLYLINE
  5
45AB2
100
AcDbEntity
  8
0
100
AcDbPolygonMesh
 66
     1
 10
0.0
 20
0.0
 30
0.0
 70
    16
 71
     6
 72
     3
  0
VERTEX
  5
45AB3
100
AcDbEntity
  8
0
100
AcDbVertex
100
AcDbPolygonMeshVertex
 10
0.75
 20
-5.879709
 30
0.040001
 70
    64
  0
VERTEX
  5
45AB4
100
AcDbEntity
  8
0
100
AcDbVertex
100
AcDbPolygonMeshVertex
 10
0.75
 20
-5.879709
 30
0.0
 70
    64
  0
VERTEX
  5
45AB5
100
AcDbEntity
  8
0
100
AcDbVertex
100
AcDbPolygonMeshVertex
 10
0.75
 20
-5.879709
 30
0.0
 70
    64
  0
VERTEX
  5
45AB6
100
AcDbEntity
  8
0
100
AcDbVertex
100
AcDbPolygonMeshVertex
 10
-0.75
 20
-5.879709
 30
0.040001
 70
    64
  0
VERTEX
  5
45AB7
100
AcDbEntity
  8
0
100
AcDbVertex
100
AcDbPolygonMeshVertex
 10
-0.75
 20
-5.879709
 30
0.0
 70
    64
  0
VERTEX
  5
45AB8
100
AcDbEntity
  8
0
100
AcDbVertex
100
AcDbPolygonMeshVertex
 10
-0.75
 20
-5.879709
 30
0.0
 70
    64
  0
VERTEX
  5
45AB9
100
AcDbEntity
  8
0
100
AcDbVertex
100
AcDbPolygonMeshVertex
 10
-0.75
 20
-0.57
 30
0.040001
 70
    64
  0
VERTEX
  5
45ABA
100
AcDbEntity
  8
0
100
AcDbVertex
100
AcDbPolygonMeshVertex
 10
-0.75
 20
-0.57
 30
0.0
 70
    64
  0
VERTEX
  5
45ABB
100
AcDbEntity
  8
0
100
AcDbVertex
100
AcDbPolygonMeshVertex
 10
-0.75
 20
-5.879709
 30
0.0
 70
    64
  0
VERTEX
  5
45ABC
100
AcDbEntity
  8
0
100
AcDbVertex
100
AcDbPolygonMeshVertex
 10
0.75
 20
-0.57
 30
0.040001
 70
    64
  0
VERTEX
  5
45ABD
100
AcDbEntity
  8
0
100
AcDbVertex
100
AcDbPolygonMeshVertex
 10
0.75
 20
-0.57
 30
0.0
 70
    64
  0
VERTEX
  5
45ABE
100
AcDbEntity
  8
0
100
AcDbVertex
100
AcDbPolygonMeshVertex
 10
0.75
 20
-5.879709
 30
0.0
 70
    64
  0
VERTEX
  5
45ABF
100
AcDbEntity
  8
0
100
AcDbVertex
100
AcDbPolygonMeshVertex
 10
0.75
 20
-0.57
 30
0.040001
 70
    64
  0
VERTEX
  5
45AC0
100
AcDbEntity
  8
0
100
AcDbVertex
100
AcDbPolygonMeshVertex
 10
0.75
 20
-0.57
 30
0.040001
 70
    64
  0
VERTEX
  5
45AC1
100
AcDbEntity
  8
0
100
AcDbVertex
100
AcDbPolygonMeshVertex
 10
0.75
 20
-5.879709
 30
0.040001
 70
    64
  0
VERTEX
  5
45AC2
100
AcDbEntity
  8
0
100
AcDbVertex
100
AcDbPolygonMeshVertex
 10
-0.75
 20
-0.57
 30
0.040001
 70
    64
  0
VERTEX
  5
45AC3
100
AcDbEntity
  8
0
100
AcDbVertex
100
AcDbPolygonMeshVertex
 10
-0.75
 20
-0.57
 30
0.040001
 70
    64
  0
VERTEX
  5
45AC4
100
AcDbEntity
  8
0
100
AcDbVertex
100
AcDbPolygonMeshVertex
 10
-0.75
 20
-5.879709
 30
0.040001
 70
    64
  0
SEQEND
  5
45AC5
100
AcDbEntity
  8
0
  0
LINE
  5
45AC6
100
AcDbEntity
  8
0
100
AcDbLine
 10
-0.75
 20
-5.88
 30
0.04
 11
-0.75
 21
-5.87971
 31
0.000295
  0
LINE
  5
45AC7
100
AcDbEntity
  8
0
100
AcDbLine
 10
-0.75
 20
-0.57
 30
0.04
 11
-0.75
 21
-0.57
 31
0.0
  0
POLYLINE
  5
45AC8
100
AcDbEntity
  8
0
100
AcDbPolygonMesh
 66
     1
 10
0.0
 20
0.0
 30
0.0
 70
    16
 71
     6
 72
     3
  0
VERTEX
  5
45AC9
100
AcDbEntity
  8
0
100
AcDbVertex
100
AcDbPolygonMeshVertex
 10
0.217
 20
-6.47
 30
0.17
 70
    64
  0
VERTEX
  5
45ACA
100
AcDbEntity
  8
0
100
AcDbVertex
100
AcDbPolygonMeshVertex
 10
0.217
 20
-6.47
 30
0.0
 70
    64
  0
VERTEX
  5
45ACB
100
AcDbEntity
  8
0
100
AcDbVertex
100
AcDbPolygonMeshVertex
 10
0.217
 20
-6.47
 30
0.0
 70
    64
  0
VERTEX
  5
45ACC
100
AcDbEntity
  8
0
100
AcDbVertex
100
AcDbPolygonMeshVertex
 10
-0.217
 20
-6.47
 30
0.17
 70
    64
  0
VERTEX
  5
45ACD
100
AcDbEntity
  8
0
100
AcDbVertex
100
AcDbPolygonMeshVertex
 10
-0.217
 20
-6.47
 30
0.0
 70
    64
  0
VERTEX
  5
45ACE
100
AcDbEntity
  8
0
100
AcDbVertex
100
AcDbPolygonMeshVertex
 10
-0.217
 20
-6.47
 30
0.0
 70
    64
  0
VERTEX
  5
45ACF
100
AcDbEntity
  8
0
100
AcDbVertex
100
AcDbPolygonMeshVertex
 10
-0.217
 20
-5.92
 30
0.17
 70
    64
  0
VERTEX
  5
45AD0
100
AcDbEntity
  8
0
100
AcDbVertex
100
AcDbPolygonMeshVertex
 10
-0.217
 20
-5.92
 30
0.0
 70
    64
  0
VERTEX
  5
45AD1
100
AcDbEntity
  8
0
100
AcDbVertex
100
AcDbPolygonMeshVertex
 10
-0.217
 20
-6.47
 30
0.0
 70
    64
  0
VERTEX
  5
45AD2
100
AcDbEntity
  8
0
100
AcDbVertex
100
AcDbPolygonMeshVertex
 10
0.217
 20
-5.92
 30
0.17
 70
    64
  0
VERTEX
  5
45AD3
100
AcDbEntity
  8
0
100
AcDbVertex
100
AcDbPolygonMeshVertex
 10
0.217
 20
-5.92
 30
0.0
 70
    64
  0
VERTEX
  5
45AD4
100
AcDbEntity
  8
0
100
AcDbVertex
100
AcDbPolygonMeshVertex
 10
0.217
 20
-6.47
 30
0.0
 70
    64
  0
VERTEX
  5
45AD5
100
AcDbEntity
  8
0
100
AcDbVertex
100
AcDbPolygonMeshVertex
 10
0.217
 20
-5.92
 30
0.17
 70
    64
  0
VERTEX
  5
45AD6
100
AcDbEntity
  8
0
100
AcDbVertex
100
AcDbPolygonMeshVertex
 10
0.217
 20
-5.92
 30
0.17
 70
    64
  0
VERTEX
  5
45AD7
100
AcDbEntity
  8
0
100
AcDbVertex
100
AcDbPolygonMeshVertex
 10
0.217
 20
-6.47
 30
0.17
 70
    64
  0
VERTEX
  5
45AD8
100
AcDbEntity
  8
0
100
AcDbVertex
100
AcDbPolygonMeshVertex
 10
-0.217
 20
-5.92
 30
0.17
 70
    64
  0
VERTEX
  5
45AD9
100
AcDbEntity
  8
0
100
AcDbVertex
100
AcDbPolygonMeshVertex
 10
-0.217
 20
-5.92
 30
0.17
 70
    64
  0
VERTEX
  5
45ADA
100
AcDbEntity
  8
0
100
AcDbVertex
100
AcDbPolygonMeshVertex
 10
-0.217
 20
-6.47
 30
0.17
 70
    64
  0
SEQEND
  5
45ADB
100
AcDbEntity
  8
0
  0
CIRCLE
  5
45ADC
100
AcDbEntity
  8
0
100
AcDbCircle
 39
0.17
 10
0.0
 20
-6.22
 30
0.0
 40
0.1085
  0
POINT
  5
45ADD
100
AcDbEntity
  8
DIMS-MTG-HOLES
100
AcDbPoint
 10
0.0
 20
-6.22
 30
0.0
  0
POINT
  5
45AE1
100
AcDbEntity
  8
DIMS-MTG-HOLES
100
AcDbPoint
 10
0.0
 20
0.0
 30
0.0
  0
ARC
  5
45AE2
100
AcDbEntity
  8
0
100
AcDbCircle
 39
0.17
 10
0.0
 20
0.0
 30
0.0
 40
0.1085
100
AcDbArc
 50
356.782733
 51
183.217267
  0
ARC
  5
45AE3
100
AcDbEntity
  8
0
100
AcDbCircle
 39
0.17
 10
0.0
 20
-0.193538
 30
0.0
 40
0.2165
100
AcDbArc
 50
120.024142
 51
59.975858
  0
TEXT
  5
45AE5
100
AcDbEntity
  8
0
100
AcDbText
 39
0.001
 10
-0.404984
 20
-1.209981
 30
6.06
 40
0.05
  1
INTFC
100
AcDbText
  0
TEXT
  5
45AE6
100
AcDbEntity
  8
0
100
AcDbText
 39
0.001
 10
-0.404984
 20
-1.109981
 30
6.06
 40
0.05
  1
DH-485
100
AcDbText
  0
LINE
  5
45AE7
100
AcDbEntity
  8
0
100
AcDbLine
 10
0.75
 20
-5.594976
 30
5.71
 11
-0.75
 21
-5.594976
 31
5.710001
  0
LINE
  5
45AE8
100
AcDbEntity
  8
0
100
AcDbLine
 10
0.75
 20
-5.469976
 30
5.71
 11
-0.75
 21
-5.469976
 31
5.710001
  0
LINE
  5
45AE9
100
AcDbEntity
  8
0
100
AcDbLine
 10
-0.354984
 20
-5.109981
 30
5.71
 11
-0.204984
 21
-5.109981
 31
5.71
  0
LINE
  5
45AEA
100
AcDbEntity
  8
0
100
AcDbLine
 10
-0.354984
 20
-5.009981
 30
5.71
 11
-0.204984
 21
-5.009981
 31
5.71
  0
LINE
  5
45AEB
100
AcDbEntity
  8
0
100
AcDbLine
 10
-0.39244
 20
-3.982149
 30
5.71
 11
-0.31744
 21
-3.982149
 31
5.71
  0
LINE
  5
45AEC
100
AcDbEntity
  8
0
100
AcDbLine
 10
-0.31744
 20
-4.437803
 30
5.71
 11
-0.39244
 21
-4.437803
 31
5.71
  0
LINE
  5
45AED
100
AcDbEntity
  8
0
100
AcDbLine
 10
0.11756
 20
-3.759976
 30
5.71
 11
-0.43244
 21
-3.759976
 31
5.71
  0
LINE
  5
45AEE
100
AcDbEntity
  8
0
100
AcDbLine
 10
0.11756
 20
-4.659976
 30
5.71
 11
-0.43244
 21
-4.659976
 31
5.71
  0
TEXT
  5
45AEF
100
AcDbEntity
  8
0
100
AcDbText
 39
0.001
 10
-0.437294
 20
-3.710765
 30
5.71
 40
0.05
  1
CPU
 72
     1
 11
-0.370627
 21
-3.710765
 31
5.71
100
AcDbText
  0
TEXT
  5
45AF0
100
AcDbEntity
  8
0
100
AcDbText
 39
0.001
 10
-0.403961
 20
-2.660765
 30
5.71
 40
0.05
  1
PERIPHERAL
 72
     1
 11
-0.170627
 21
-2.660765
 31
5.71
100
AcDbText
  0
LINE
  5
45AF1
100
AcDbEntity
  8
0
100
AcDbLine
 10
-0.31744
 20
-3.137803
 30
5.71
 11
-0.39244
 21
-3.137803
 31
5.71
  0
LINE
  5
45AF2
100
AcDbEntity
  8
0
100
AcDbLine
 10
-0.39244
 20
-2.932149
 30
5.71
 11
-0.31744
 21
-2.932149
 31
5.71
  0
LINE
  5
45AF3
100
AcDbEntity
  8
0
100
AcDbLine
 10
0.11756
 20
-3.359976
 30
5.71
 11
-0.43244
 21
-3.359976
 31
5.71
  0
LINE
  5
45AF4
100
AcDbEntity
  8
0
100
AcDbLine
 10
0.11756
 20
-2.709976
 30
5.71
 11
-0.43244
 21
-2.709976
 31
5.71
  0
LINE
  5
45AF5
100
AcDbEntity
  8
0
100
AcDbLine
 10
-0.354984
 20
-2.409981
 30
6.06
 11
-0.254984
 21
-2.409981
 31
6.06
  0
LINE
  5
45AF6
100
AcDbEntity
  8
0
100
AcDbLine
 10
-0.354984
 20
-2.309981
 30
6.06
 11
-0.254984
 21
-2.309981
 31
6.06
  0
LINE
  5
45AF7
100
AcDbEntity
  8
0
100
AcDbLine
 10
-0.354984
 20
-1.909981
 30
6.06
 11
-0.254984
 21
-1.909981
 31
6.06
  0
LINE
  5
45AF8
100
AcDbEntity
  8
0
100
AcDbLine
 10
-0.354984
 20
-2.009981
 30
6.06
 11
-0.254984
 21
-2.009981
 31
6.06
  0
LINE
  5
45AF9
100
AcDbEntity
  8
0
100
AcDbLine
 10
-0.354984
 20
-2.109981
 30
6.06
 11
-0.254984
 21
-2.109981
 31
6.06
  0
LINE
  5
45AFA
100
AcDbEntity
  8
0
100
AcDbLine
 10
-0.354984
 20
-2.209981
 30
6.06
 11
-0.254984
 21
-2.209981
 31
6.06
  0
LINE
  5
45AFB
100
AcDbEntity
  8
0
100
AcDbLine
 10
-0.354984
 20
-1.309981
 30
6.06
 11
-0.254984
 21
-1.309981
 31
6.06
  0
LINE
  5
45AFC
100
AcDbEntity
  8
0
100
AcDbLine
 10
-0.354984
 20
-1.409981
 30
6.06
 11
-0.254984
 21
-1.409981
 31
6.06
  0
LINE
  5
45AFD
100
AcDbEntity
  8
0
100
AcDbLine
 10
-0.354984
 20
-1.609981
 30
6.06
 11
-0.254984
 21
-1.609981
 31
6.06
  0
LINE
  5
45AFE
100
AcDbEntity
  8
0
100
AcDbLine
 10
-0.354984
 20
-1.509981
 30
6.06
 11
-0.254984
 21
-1.509981
 31
6.06
  0
LINE
  5
45AFF
100
AcDbEntity
  8
0
100
AcDbLine
 10
-0.354984
 20
-1.809981
 30
6.06
 11
-0.254984
 21
-1.809981
 31
6.06
  0
LINE
  5
45B00
100
AcDbEntity
  8
0
100
AcDbLine
 10
-0.354984
 20
-1.709981
 30
6.06
 11
-0.254984
 21
-1.709981
 31
6.06
  0
POLYLINE
  5
45B01
100
AcDbEntity
  8
0
100
AcDbPolygonMesh
 66
     1
 10
0.0
 20
0.0
 30
0.0
 70
    16
 71
     6
 72
     3
  0
VERTEX
  5
45B02
100
AcDbEntity
  8
0
100
AcDbVertex
100
AcDbPolygonMeshVertex
 10
0.070016
 20
-2.459981
 30
6.06
 70
    64
  0
VERTEX
  5
45B03
100
AcDbEntity
  8
0
100
AcDbVertex
100
AcDbPolygonMeshVertex
 10
0.070016
 20
-2.459981
 30
5.71
 70
    64
  0
VERTEX
  5
45B04
100
AcDbEntity
  8
0
100
AcDbVertex
100
AcDbPolygonMeshVertex
 10
0.070016
 20
-2.459981
 30
5.71
 70
    64
  0
VERTEX
  5
45B05
100
AcDbEntity
  8
0
100
AcDbVertex
100
AcDbPolygonMeshVertex
 10
-0.429984
 20
-2.459981
 30
6.06
 70
    64
  0
VERTEX
  5
45B06
100
AcDbEntity
  8
0
100
AcDbVertex
100
AcDbPolygonMeshVertex
 10
-0.429984
 20
-2.459981
 30
5.71
 70
    64
  0
VERTEX
  5
45B07
100
AcDbEntity
  8
0
100
AcDbVertex
100
AcDbPolygonMeshVertex
 10
-0.429984
 20
-2.459981
 30
5.71
 70
    64
  0
VERTEX
  5
45B08
100
AcDbEntity
  8
0
100
AcDbVertex
100
AcDbPolygonMeshVertex
 10
-0.429984
 20
-1.259981
 30
6.06
 70
    64
  0
VERTEX
  5
45B09
100
AcDbEntity
  8
0
100
AcDbVertex
100
AcDbPolygonMeshVertex
 10
-0.429984
 20
-1.259981
 30
5.71
 70
    64
  0
VERTEX
  5
45B0A
100
AcDbEntity
  8
0
100
AcDbVertex
100
AcDbPolygonMeshVertex
 10
-0.429984
 20
-2.459981
 30
5.71
 70
    64
  0
VERTEX
  5
45B0B
100
AcDbEntity
  8
0
100
AcDbVertex
100
AcDbPolygonMeshVertex
 10
0.070016
 20
-1.259981
 30
6.06
 70
    64
  0
VERTEX
  5
45B0C
100
AcDbEntity
  8
0
100
AcDbVertex
100
AcDbPolygonMeshVertex
 10
0.070016
 20
-1.259981
 30
5.71
 70
    64
  0
VERTEX
  5
45B0D
100
AcDbEntity
  8
0
100
AcDbVertex
100
AcDbPolygonMeshVertex
 10
0.070016
 20
-2.459981
 30
5.71
 70
    64
  0
VERTEX
  5
45B0E
100
AcDbEntity
  8
0
100
AcDbVertex
100
AcDbPolygonMeshVertex
 10
0.070016
 20
-1.259981
 30
6.06
 70
    64
  0
VERTEX
  5
45B0F
100
AcDbEntity
  8
0
100
AcDbVertex
100
AcDbPolygonMeshVertex
 10
0.070016
 20
-1.259981
 30
6.06
 70
    64
  0
VERTEX
  5
45B10
100
AcDbEntity
  8
0
100
AcDbVertex
100
AcDbPolygonMeshVertex
 10
0.070016
 20
-2.459981
 30
6.06
 70
    64
  0
VERTEX
  5
45B11
100
AcDbEntity
  8
0
100
AcDbVertex
100
AcDbPolygonMeshVertex
 10
-0.429984
 20
-1.259981
 30
6.06
 70
    64
  0
VERTEX
  5
45B12
100
AcDbEntity
  8
0
100
AcDbVertex
100
AcDbPolygonMeshVertex
 10
-0.429984
 20
-1.259981
 30
6.06
 70
    64
  0
VERTEX
  5
45B13
100
AcDbEntity
  8
0
100
AcDbVertex
100
AcDbPolygonMeshVertex
 10
-0.429984
 20
-2.459981
 30
6.06
 70
    64
  0
SEQEND
  5
45B14
100
AcDbEntity
  8
0
  0
3DFACE
  5
45B15
100
AcDbEntity
  8
0
100
AcDbFace
 10
0.049982
 20
-5.920037
 30
4.259952
 11
0.049982
 21
-6.220037
 31
4.259952
 12
-0.400018
 22
-6.220037
 32
4.259952
 13
-0.400018
 23
-5.920037
 33
4.259952
  0
3DFACE
  5
45B16
100
AcDbEntity
  8
0
100
AcDbFace
 10
0.049982
 20
-5.920037
 30
4.259952
 11
0.049982
 21
-5.920037
 31
4.259952
 12
-0.400018
 22
-5.920037
 32
4.259952
 13
-0.400018
 23
-5.920037
 33
4.259952
  0
3DFACE
  5
45B17
100
AcDbEntity
  8
0
100
AcDbFace
 10
-0.400018
 20
-5.920037
 30
3.259952
 11
-0.400018
 21
-6.220037
 31
3.259952
 12
0.049982
 22
-6.220037
 32
3.259952
 13
0.049982
 23
-5.920037
 33
3.259952
  0
3DFACE
  5
45B18
100
AcDbEntity
  8
0
100
AcDbFace
 10
-0.400018
 20
-5.920037
 30
4.259952
 11
-0.400018
 21
-5.920037
 31
3.259952
 12
0.049982
 22
-5.920037
 32
3.259952
 13
0.049982
 23
-5.920037
 33
4.259952
  0
3DFACE
  5
45B19
100
AcDbEntity
  8
0
100
AcDbFace
 10
0.049982
 20
-6.220037
 30
3.259952
 11
0.049982
 21
-6.220037
 31
3.259952
 12
-0.400018
 22
-6.220037
 32
3.259952
 13
-0.400018
 23
-6.220037
 33
3.259952
  0
3DFACE
  5
45B1A
100
AcDbEntity
  8
0
100
AcDbFace
 10
0.049982
 20
-6.220037
 30
4.259952
 11
0.049982
 21
-6.220037
 31
3.259952
 12
-0.400018
 22
-6.220037
 32
3.259952
 13
-0.400018
 23
-6.220037
 33
4.259952
  0
LINE
  5
45B1B
100
AcDbEntity
  8
0
100
AcDbLine
 10
0.049982
 20
-6.220037
 30
3.925952
 11
-0.400018
 21
-6.220037
 31
3.925952
  0
LINE
  5
45B1C
100
AcDbEntity
  8
0
100
AcDbLine
 10
0.049982
 20
-6.220037
 30
3.592952
 11
-0.400018
 21
-6.220037
 31
3.592952
  0
LINE
  5
45B1D
100
AcDbEntity
  8
0
100
AcDbLine
 10
-0.43244
 20
-3.759976
 30
5.71
 11
-0.43244
 21
-4.659976
 31
5.71
  0
3DFACE
  5
45B1E
100
AcDbEntity
  8
0
100
AcDbFace
 10
-0.400018
 20
-6.220037
 30
3.259952
 11
-0.400018
 21
-6.220037
 31
3.259952
 12
-0.400018
 22
-6.220037
 32
3.259952
 13
-0.400018
 23
-5.920037
 33
3.259952
  0
3DFACE
  5
45B1F
100
AcDbEntity
  8
0
100
AcDbFace
 10
-0.400018
 20
-6.220037
 30
4.259952
 11
-0.400018
 21
-6.220037
 31
3.259952
 12
-0.400018
 22
-5.920037
 32
3.259952
 13
-0.400018
 23
-5.920037
 33
4.259952
  0
TEXT
  5
45B20
100
AcDbEntity
  8
0
100
AcDbText
 39
0.001
 10
-0.616685
 20
3.331952
 30
5.920037
 40
0.05
  1
GND
 72
     1
 11
-0.550018
 21
3.331952
 31
5.920037
210
0.0
220
-1.0
230
0.0
100
AcDbText
  0
TEXT
  5
45B21
100
AcDbEntity
  8
0
100
AcDbText
 39
0.001
 10
-0.616685
 20
3.431952
 30
5.920037
 40
0.05
  1
CHS
 72
     1
 11
-0.550018
 21
3.431952
 31
5.920037
210
0.0
220
-1.0
230
0.0
100
AcDbText
  0
TEXT
  5
45B22
100
AcDbEntity
  8
0
100
AcDbText
 39
0.001
 10
-0.641685
 20
3.661952
 30
5.920037
 40
0.05
  1
NEUT
 72
     1
 11
-0.550018
 21
3.661952
 31
5.920037
210
0.0
220
-1.0
230
0.0
100
AcDbText
  0
TEXT
  5
45B23
100
AcDbEntity
  8
0
100
AcDbText
 39
0.001
 10
-0.591685
 20
3.761952
 30
5.920037
 40
0.05
  1
DC
 72
     1
 11
-0.550018
 21
3.761952
 31
5.920037
210
0.0
220
-1.0
230
0.0
100
AcDbText
  0
TEXT
  5
45B24
100
AcDbEntity
  8
0
100
AcDbText
 39
0.001
 10
-0.675018
 20
4.094952
 30
5.920037
 40
0.05
  1
24VDC
 72
     1
 11
-0.550018
 21
4.094952
 31
5.920037
210
0.0
220
-1.0
230
0.0
100
AcDbText
  0
LINE
  5
45B25
100
AcDbEntity
  8
0
100
AcDbLine
 10
-0.354984
 20
-5.109981
 30
5.71
 11
-0.354984
 21
-5.009981
 31
5.71
  0
LINE
  5
45B26
100
AcDbEntity
  8
0
100
AcDbLine
 10
-0.39244
 20
-4.437803
 30
5.71
 11
-0.39244
 21
-3.982149
 31
5.71
  0
LINE
  5
45B27
100
AcDbEntity
  8
0
100
AcDbLine
 10
-0.43244
 20
-2.709976
 30
5.71
 11
-0.43244
 21
-3.359976
 31
5.71
  0
LINE
  5
45B28
100
AcDbEntity
  8
0
100
AcDbLine
 10
-0.39244
 20
-3.137803
 30
5.71
 11
-0.39244
 21
-2.932149
 31
5.71
  0
LINE
  5
45B29
100
AcDbEntity
  8
0
100
AcDbLine
 10
-0.354984
 20
-2.409981
 30
6.06
 11
-0.354984
 21
-2.309981
 31
6.06
  0
LINE
  5
45B2A
100
AcDbEntity
  8
0
100
AcDbLine
 10
-0.354984
 20
-2.209981
 30
6.06
 11
-0.354984
 21
-2.109981
 31
6.06
  0
LINE
  5
45B2B
100
AcDbEntity
  8
0
100
AcDbLine
 10
-0.354984
 20
-2.009981
 30
6.06
 11
-0.354984
 21
-1.909981
 31
6.06
  0
LINE
  5
45B2C
100
AcDbEntity
  8
0
100
AcDbLine
 10
-0.354984
 20
-1.409981
 30
6.06
 11
-0.354984
 21
-1.309981
 31
6.06
  0
LINE
  5
45B2D
100
AcDbEntity
  8
0
100
AcDbLine
 10
-0.354984
 20
-1.809981
 30
6.06
 11
-0.354984
 21
-1.709981
 31
6.06
  0
LINE
  5
45B2E
100
AcDbEntity
  8
0
100
AcDbLine
 10
-0.354984
 20
-1.609981
 30
6.06
 11
-0.354984
 21
-1.509981
 31
6.06
  0
LINE
  5
45B2F
100
AcDbEntity
  8
0
100
AcDbLine
 10
0.11756
 20
-3.759976
 30
5.71
 11
0.11756
 21
-4.659976
 31
5.71
  0
LINE
  5
45B30
100
AcDbEntity
  8
0
100
AcDbLine
 10
0.03256
 20
-3.822476
 30
5.71
 11
0.03256
 21
-4.597476
 31
5.71
  0
LINE
  5
45B31
100
AcDbEntity
  8
0
100
AcDbLine
 10
-0.31744
 20
-3.932149
 30
5.71
 11
-0.31744
 21
-3.982149
 31
5.71
  0
3DFACE
  5
45B32
100
AcDbEntity
  8
0
100
AcDbFace
 10
0.049982
 20
-5.920037
 30
3.259952
 11
0.049982
 21
-6.220037
 31
3.259952
 12
0.049982
 22
-6.220037
 32
4.259952
 13
0.049982
 23
-5.920037
 33
4.259952
  0
CIRCLE
  5
45B33
100
AcDbEntity
  8
0
100
AcDbCircle
 10
-0.175018
 20
4.092452
 30
6.220037
 40
0.125
210
0.0
220
-1.0
230
0.0
  0
LINE
  5
45B34
100
AcDbEntity
  8
0
100
AcDbLine
 10
-0.080205
 20
-6.220037
 30
3.506161
 11
-0.271816
 21
-6.220037
 31
3.344996
  0
LINE
  5
45B35
100
AcDbEntity
  8
0
100
AcDbLine
 10
-0.09536
 20
-6.220037
 30
3.522926
 11
-0.283182
 21
-6.220037
 31
3.365006
  0
CIRCLE
  5
45B36
100
AcDbEntity
  8
0
100
AcDbCircle
 10
-0.175018
 20
3.426452
 30
6.220037
 40
0.125
210
0.0
220
-1.0
230
0.0
  0
LINE
  5
45B37
100
AcDbEntity
  8
0
100
AcDbLine
 10
-0.080205
 20
-6.220037
 30
3.839161
 11
-0.271816
 21
-6.220037
 31
3.677996
  0
LINE
  5
45B38
100
AcDbEntity
  8
0
100
AcDbLine
 10
-0.09536
 20
-6.220037
 30
3.855926
 11
-0.283182
 21
-6.220037
 31
3.698006
  0
CIRCLE
  5
45B39
100
AcDbEntity
  8
0
100
AcDbCircle
 10
-0.175018
 20
3.759452
 30
6.220037
 40
0.125
210
0.0
220
-1.0
230
0.0
  0
LINE
  5
45B3A
100
AcDbEntity
  8
0
100
AcDbLine
 10
-0.080205
 20
-6.220037
 30
4.172161
 11
-0.271816
 21
-6.220037
 31
4.010996
  0
LINE
  5
45B3B
100
AcDbEntity
  8
0
100
AcDbLine
 10
-0.09536
 20
-6.220037
 30
4.188926
 11
-0.283182
 21
-6.220037
 31
4.031006
  0
3DFACE
  5
45B3C
100
AcDbEntity
  8
0
100
AcDbFace
 10
0.049982
 20
-5.920037
 30
4.259952
 11
0.049982
 21
-5.920037
 31
3.259952
 12
0.049982
 22
-5.920037
 32
4.259952
 13
0.049982
 23
-5.920037
 33
4.259952
  0
TEXT
  5
45B3D
100
AcDbEntity
  8
0
100
AcDbText
 39
0.001
 10
0.195016
 20
-5.084981
 30
5.71
 40
0.05
  1
POWER
 72
     2
 11
0.445016
 21
-5.084981
 31
5.71
100
AcDbText
  0
LINE
  5
45B3E
100
AcDbEntity
  8
0
100
AcDbLine
 10
-0.204984
 20
-5.109981
 30
5.71
 11
-0.204984
 21
-5.009981
 31
5.71
  0
LINE
  5
45B3F
100
AcDbEntity
  8
0
100
AcDbLine
 10
0.03256
 20
-4.597476
 30
5.71
 11
-0.26744
 21
-4.597476
 31
5.71
  0
LINE
  5
45B40
100
AcDbEntity
  8
0
100
AcDbLine
 10
-0.31744
 20
-4.437803
 30
5.71
 11
-0.31744
 21
-4.487803
 31
5.71
  0
LINE
  5
45B41
100
AcDbEntity
  8
0
100
AcDbLine
 10
-0.26744
 20
-4.487803
 30
5.71
 11
-0.31744
 21
-4.487803
 31
5.71
  0
LINE
  5
45B42
100
AcDbEntity
  8
0
100
AcDbLine
 10
-0.26744
 20
-4.597476
 30
5.71
 11
-0.26744
 21
-4.487803
 31
5.71
  0
TEXT
  5
45B43
100
AcDbEntity
  8
0
100
AcDbText
 39
0.001
 10
0.378349
 20
-4.184981
 30
5.71
 40
0.05
  1
J1
 72
     2
 11
0.445016
 21
-4.184981
 31
5.71
100
AcDbText
  0
TEXT
  5
45B44
100
AcDbEntity
  8
0
100
AcDbText
 39
0.001
 10
0.211683
 20
-2.384981
 30
5.71
 40
0.05
  1
CHS GND
 72
     2
 11
0.545016
 21
-2.384981
 31
5.71
100
AcDbText
  0
TEXT
  5
45B45
100
AcDbEntity
  8
0
100
AcDbText
 39
0.001
 10
0.261683
 20
-1.984981
 30
5.71
 40
0.05
  1
COMMON
 72
     2
 11
0.545016
 21
-1.984981
 31
5.71
100
AcDbText
  0
LINE
  5
45B46
100
AcDbEntity
  8
0
100
AcDbLine
 10
-0.31744
 20
-2.882149
 30
5.71
 11
-0.31744
 21
-2.932149
 31
5.71
  0
LINE
  5
45B47
100
AcDbEntity
  8
0
100
AcDbLine
 10
0.03256
 20
-2.829467
 30
5.71
 11
0.03256
 21
-3.244685
 31
5.71
  0
LINE
  5
45B48
100
AcDbEntity
  8
0
100
AcDbLine
 10
0.11756
 20
-2.709976
 30
5.71
 11
0.11756
 21
-3.359976
 31
5.71
  0
LINE
  5
45B49
100
AcDbEntity
  8
0
100
AcDbLine
 10
0.03256
 20
-3.244685
 30
5.71
 11
-0.033397
 21
-3.244685
 31
5.71
  0
LINE
  5
45B4A
100
AcDbEntity
  8
0
100
AcDbLine
 10
0.03256
 20
-3.822476
 30
5.71
 11
-0.26744
 21
-3.822476
 31
5.71
  0
LINE
  5
45B4B
100
AcDbEntity
  8
0
100
AcDbLine
 10
-0.31744
 20
-3.932149
 30
5.71
 11
-0.26744
 21
-3.932149
 31
5.71
  0
LINE
  5
45B4C
100
AcDbEntity
  8
0
100
AcDbLine
 10
-0.26744
 20
-3.932149
 30
5.71
 11
-0.26744
 21
-3.822476
 31
5.71
  0
LINE
  5
45B4D
100
AcDbEntity
  8
0
100
AcDbLine
 10
-0.033397
 20
-3.273705
 30
5.71
 11
-0.176496
 21
-3.273705
 31
5.71
  0
LINE
  5
45B4E
100
AcDbEntity
  8
0
100
AcDbLine
 10
-0.31744
 20
-3.137803
 30
5.71
 11
-0.31744
 21
-3.187803
 31
5.71
  0
LINE
  5
45B4F
100
AcDbEntity
  8
0
100
AcDbLine
 10
-0.176496
 20
-3.297476
 30
5.71
 11
-0.26744
 21
-3.297476
 31
5.71
  0
LINE
  5
45B50
100
AcDbEntity
  8
0
100
AcDbLine
 10
-0.26744
 20
-3.187803
 30
5.71
 11
-0.31744
 21
-3.187803
 31
5.71
  0
LINE
  5
45B51
100
AcDbEntity
  8
0
100
AcDbLine
 10
-0.26744
 20
-3.297476
 30
5.71
 11
-0.26744
 21
-3.187803
 31
5.71
  0
LINE
  5
45B52
100
AcDbEntity
  8
0
100
AcDbLine
 10
-0.176496
 20
-3.273705
 30
5.71
 11
-0.176496
 21
-3.297476
 31
5.71
  0
LINE
  5
45B53
100
AcDbEntity
  8
0
100
AcDbLine
 10
-0.033397
 20
-3.244685
 30
5.71
 11
-0.033397
 21
-3.273705
 31
5.71
  0
LINE
  5
45B54
100
AcDbEntity
  8
0
100
AcDbLine
 10
0.03256
 20
-2.829467
 30
5.71
 11
-0.033397
 21
-2.829467
 31
5.71
  0
LINE
  5
45B55
100
AcDbEntity
  8
0
100
AcDbLine
 10
-0.033397
 20
-2.772476
 30
5.71
 11
-0.26744
 21
-2.772476
 31
5.71
  0
LINE
  5
45B56
100
AcDbEntity
  8
0
100
AcDbLine
 10
-0.26744
 20
-2.882149
 30
5.71
 11
-0.26744
 21
-2.772476
 31
5.71
  0
LINE
  5
45B57
100
AcDbEntity
  8
0
100
AcDbLine
 10
-0.31744
 20
-2.882149
 30
5.71
 11
-0.26744
 21
-2.882149
 31
5.71
  0
LINE
  5
45B58
100
AcDbEntity
  8
0
100
AcDbLine
 10
-0.033397
 20
-2.829467
 30
5.71
 11
-0.033397
 21
-2.772476
 31
5.71
  0
TEXT
  5
45B59
100
AcDbEntity
  8
0
100
AcDbText
 39
0.001
 10
0.361683
 20
-2.984981
 30
5.71
 40
0.05
  1
J2
 72
     2
 11
0.445016
 21
-2.984981
 31
5.71
100
AcDbText
  0
TEXT
  5
45B5A
100
AcDbEntity
  8
0
100
AcDbText
 39
0.001
 10
0.361683
 20
-2.184981
 30
5.71
 40
0.05
  1
SHLD
 72
     2
 11
0.545016
 21
-2.184981
 31
5.71
100
AcDbText
  0
LINE
  5
45B5B
100
AcDbEntity
  8
0
100
AcDbLine
 10
-0.254984
 20
-2.409981
 30
6.06
 11
-0.254984
 21
-2.309981
 31
6.06
  0
LINE
  5
45B5C
100
AcDbEntity
  8
0
100
AcDbLine
 10
-0.254984
 20
-2.209981
 30
6.06
 11
-0.254984
 21
-2.109981
 31
6.06
  0
LINE
  5
45B5D
100
AcDbEntity
  8
0
100
AcDbLine
 10
-0.254984
 20
-2.009981
 30
6.06
 11
-0.254984
 21
-1.909981
 31
6.06
  0
LINE
  5
45B5E
100
AcDbEntity
  8
0
100
AcDbLine
 10
0.070016
 20
-2.338555
 30
6.031456
 11
0.070016
 21
-2.404685
 31
5.898765
210
1.0
220
0.0
230
0.0
  0
CIRCLE
  5
45B5F
100
AcDbEntity
  8
0
100
AcDbCircle
 10
-2.359981
 20
5.96
 30
0.070016
 40
0.075
210
1.0
220
0.0
230
0.0
  0
LINE
  5
45B60
100
AcDbEntity
  8
0
100
AcDbLine
 10
0.070016
 20
-2.112632
 30
6.017711
 11
0.070016
 21
-2.178233
 31
5.887135
210
1.0
220
0.0
230
0.0
  0
CIRCLE
  5
45B61
100
AcDbEntity
  8
0
100
AcDbCircle
 10
-2.159981
 20
5.96
 30
0.070016
 40
0.075
210
1.0
220
0.0
230
0.0
  0
LINE
  5
45B62
100
AcDbEntity
  8
0
100
AcDbLine
 10
0.070016
 20
-2.312632
 30
6.017711
 11
0.070016
 21
-2.378233
 31
5.887135
210
1.0
220
0.0
230
0.0
  0
LINE
  5
45B63
100
AcDbEntity
  8
0
100
AcDbLine
 10
0.070016
 20
-2.138555
 30
6.031456
 11
0.070016
 21
-2.204685
 31
5.898765
210
1.0
220
0.0
230
0.0
  0
LINE
  5
45B64
100
AcDbEntity
  8
0
100
AcDbLine
 10
0.070016
 20
-1.912632
 30
6.017711
 11
0.070016
 21
-1.978233
 31
5.887135
210
1.0
220
0.0
230
0.0
  0
LINE
  5
45B65
100
AcDbEntity
  8
0
100
AcDbLine
 10
0.070016
 20
-1.938555
 30
6.031456
 11
0.070016
 21
-2.004685
 31
5.898765
210
1.0
220
0.0
230
0.0
  0
CIRCLE
  5
45B66
100
AcDbEntity
  8
0
100
AcDbCircle
 10
-1.959981
 20
5.96
 30
0.070016
 40
0.075
210
1.0
220
0.0
230
0.0
  0
TEXT
  5
45B67
100
AcDbEntity
  8
0
100
AcDbText
 39
0.001
 10
0.361683
 20
-1.384981
 30
5.71
 40
0.05
  1
TERM
 72
     2
 11
0.545016
 21
-1.384981
 31
5.71
100
AcDbText
  0
TEXT
  5
45B68
100
AcDbEntity
  8
0
100
AcDbText
 39
0.001
 10
0.511683
 20
-1.784981
 30
5.71
 40
0.05
  1
B
 72
     2
 11
0.545016
 21
-1.784981
 31
5.71
100
AcDbText
  0
TEXT
  5
45B69
100
AcDbEntity
  8
0
100
AcDbText
 39
0.001
 10
0.511683
 20
-1.584981
 30
5.71
 40
0.05
  1
A
 72
     2
 11
0.545016
 21
-1.584981
 31
5.71
100
AcDbText
  0
LINE
  5
45B6A
100
AcDbEntity
  8
0
100
AcDbLine
 10
-0.254984
 20
-1.409981
 30
6.06
 11
-0.254984
 21
-1.309981
 31
6.06
  0
LINE
  5
45B6B
100
AcDbEntity
  8
0
100
AcDbLine
 10
-0.254984
 20
-1.809981
 30
6.06
 11
-0.254984
 21
-1.709981
 31
6.06
  0
LINE
  5
45B6C
100
AcDbEntity
  8
0
100
AcDbLine
 10
-0.254984
 20
-1.609981
 30
6.06
 11
-0.254984
 21
-1.509981
 31
6.06
  0
LINE
  5
45B6D
100
AcDbEntity
  8
0
100
AcDbLine
 10
0.070016
 20
-1.312632
 30
6.017711
 11
0.070016
 21
-1.378233
 31
5.887135
210
1.0
220
0.0
230
0.0
  0
LINE
  5
45B6E
100
AcDbEntity
  8
0
100
AcDbLine
 10
0.070016
 20
-1.338555
 30
6.031456
 11
0.070016
 21
-1.404685
 31
5.898765
210
1.0
220
0.0
230
0.0
  0
CIRCLE
  5
45B6F
100
AcDbEntity
  8
0
100
AcDbCircle
 10
-1.359981
 20
5.96
 30
0.070016
 40
0.075
210
1.0
220
0.0
230
0.0
  0
CIRCLE
  5
45B70
100
AcDbEntity
  8
0
100
AcDbCircle
 10
-1.559981
 20
5.96
 30
0.070016
 40
0.075
210
1.0
220
0.0
230
0.0
  0
LINE
  5
45B71
100
AcDbEntity
  8
0
100
AcDbLine
 10
0.070016
 20
-1.712632
 30
6.017711
 11
0.070016
 21
-1.778233
 31
5.887135
210
1.0
220
0.0
230
0.0
  0
LINE
  5
45B72
100
AcDbEntity
  8
0
100
AcDbLine
 10
0.070016
 20
-1.738555
 30
6.031456
 11
0.070016
 21
-1.804685
 31
5.898765
210
1.0
220
0.0
230
0.0
  0
CIRCLE
  5
45B73
100
AcDbEntity
  8
0
100
AcDbCircle
 10
-1.759981
 20
5.96
 30
0.070016
 40
0.075
210
1.0
220
0.0
230
0.0
  0
LINE
  5
45B74
100
AcDbEntity
  8
0
100
AcDbLine
 10
0.070016
 20
-1.512632
 30
6.017711
 11
0.070016
 21
-1.578233
 31
5.887135
210
1.0
220
0.0
230
0.0
  0
LINE
  5
45B75
100
AcDbEntity
  8
0
100
AcDbLine
 10
0.070016
 20
-1.538555
 30
6.031456
 11
0.070016
 21
-1.604685
 31
5.898765
210
1.0
220
0.0
230
0.0
  0
LINE
  5
45B76
100
AcDbEntity
  8
0
100
AcDbLine
 10
-0.217
 20
0.26
 30
0.0
 11
-0.317
 21
0.26
 31
0.0
  0
LINE
  5
45B77
100
AcDbEntity
  8
0
100
AcDbLine
 10
-0.217
 20
0.26
 30
0.17
 11
-0.317
 21
0.26
 31
0.17
  0
LINE
  5
45B78
100
AcDbEntity
  8
0
100
AcDbLine
 10
0.317
 20
0.26
 30
0.0
 11
0.217
 21
0.26
 31
0.0
  0
DIMENSION
  5
45B7B
100
AcDbEntity
  8
AREA1
100
AcDbDimension
  2
*D1
 10
1.673331
 20
-6.47
 30
0.0
 11
1.673331
 21
-3.105
 31
0.0
 70
    32
  3
ABECAD_3D
100
AcDbAlignedDimension
 13
0.317
 23
0.26
 33
0.0
 14
0.217
 24
-6.47
 34
0.0
 50
90.0
100
AcDbRotatedDimension
  0
DIMENSION
  5
45B89
100
AcDbEntity
  8
AREA1
100
AcDbDimension
  2
*D2
 10
0.75
 20
1.154613
 30
0.0
 11
1.86
 21
1.154613
 31
0.0
 70
    32
  3
ABECAD_3D
100
AcDbAlignedDimension
 13
-0.75
 23
-0.57
 33
0.0
 14
0.75
 24
-0.57
 34
0.0
100
AcDbRotatedDimension
  0
ENDSEC
  0
SECTION
  2
OBJECTS
  0
DICTIONARY
  5
458CB
100
AcDbDictionary
  3
ACAD_GROUP
350
458CC
  3
ACAD_LAYOUT
350
458FB
  3
ACAD_MLINESTYLE
350
458D9
  3
ACAD_PLOTSETTINGS
350
458FC
  3
ACAD_PLOTSTYLENAME
350
458F9
  3
ACDBHEADERROUNDTRIPXREC
350
45C3E
  3
ACDBVARIABLEDICTIONARY
350
458E1
  3
DWGPROPS
350
45901
  0
DICTIONARY
  5
45C3C
100
AcDbDictionary
280
     1
  3
ACAD_XREC_ROUNDTRIP
360
45C3D
  0
DICTIONARY
  5
45C67
100
AcDbDictionary
280
     1
  3
ACAD_XREC_ROUNDTRIP
360
45C68
  0
DICTIONARY
  5
45C3A
100
AcDbDictionary
280
     1
  3
ACAD_XREC_ROUNDTRIP
360
45C3B
  0
DICTIONARY
  5
45C61
100
AcDbDictionary
280
     1
  3
ACAD_XREC_ROUNDTRIP
360
45C62
  0
DICTIONARY
  5
45C63
100
AcDbDictionary
280
     1
  3
ACAD_XREC_ROUNDTRIP
360
45C64
  0
DICTIONARY
  5
4592C
100
AcDbDictionary
280
     1
  3
ACAD_LAYOUTSELFREF
360
45C60
  0
DICTIONARY
  5
4592A
100
AcDbDictionary
280
     1
  3
ACAD_LAYOUTSELFREF
360
45C5F
  0
DICTIONARY
  5
45C38
100
AcDbDictionary
280
     1
  3
ACAD_XREC_ROUNDTRIP
360
45C39
  0
DICTIONARY
  5
458CC
102
{ACAD_REACTORS
330
458CB
102
}
100
AcDbDictionary
  0
DICTIONARY
  5
458FB
102
{ACAD_XDICTIONARY
360
45C65
102
}
102
{ACAD_REACTORS
330
458CB
102
}
100
AcDbDictionary
  3
LAYOUT1
350
458FE
  3
MODEL
350
458FD
  0
DICTIONARY
  5
458D9
102
{ACAD_REACTORS
330
458CB
102
}
100
AcDbDictionary
  3
STANDARD
350
458DA
  0
DICTIONARY
  5
458FC
102
{ACAD_REACTORS
330
458CB
102
}
100
AcDbDictionary
  0
ACAD_PROXY_OBJECT
  5
458F9
102
{ACAD_REACTORS
330
458CB
102
}
100
AcDbProxyObject
 90
      499
 91
      501
 93
       86
310
405010041939BDC9B585B0
350
458FA
340
458FA
 94
        0
  0
DICTIONARY
  5
45C3E
102
{ACAD_REACTORS
330
458CB
102
}
100
AcDbDictionary
  3
CEPSNTYPE
350
45C48
  3
DIMSTYLEDATA
350
45C4C
  3
FINGERPRINTGUID
350
45C49
  3
HYPERLINKBASE
350
45C41
  3
INSUNITS
350
45C47
  3
LAYOUTDICT
350
45C43
  3
LWETCUNION
350
45C46
  3
PLOTSETDICT
350
45C44
  3
PLOTSTYLNAMDICT
350
45C45
  3
PSVPSCALE
350
45C4B
  3
PUCSBASE
350
45C4F
  3
PUCSORGBACK
350
45C55
  3
PUCSORGBOTTOM
350
45C51
  3
PUCSORGFRONT
350
45C54
  3
PUCSORGLEFT
350
45C52
  3
PUCSORGRIGHT
350
45C53
  3
PUCSORGTOP
350
45C50
  3
PUCSORTHOREF
350
45C4D
  3
PUCSORTHOVIEW
350
45C4E
  3
STYLESHEET
350
45C42
  3
TSTACKALIGN
350
45C3F
  3
TSTACKSIZE
350
45C40
  3
UCSBASE
350
45C58
  3
UCSORGBACK
350
45C5E
  3
UCSORGBOTTOM
350
45C5A
  3
UCSORGFRONT
350
45C5D
  3
UCSORGLEFT
350
45C5B
  3
UCSORGRIGHT
350
45C5C
  3
UCSORGTOP
350
45C59
  3
UCSORTHOREF
350
45C56
  3
UCSORTHOVIEW
350
45C57
  3
VERSIONGUID
350
45C4A
  0
DICTIONARY
  5
458E1
102
{ACAD_REACTORS
330
458CB
102
}
100
AcDbDictionary
  3
DIMADEC
350
458E2
  0
XRECORD
  5
45901
102
{ACAD_REACTORS
330
458CB
102
}
100
AcDbXrecord
  1
DWGPROPS COOKIE
  2

  3

  4

  6

  7

  8
colin
  9

300
=
301
=
302
=
303
=
304
=
305
=
306
=
307
=
308
=
309
=
 40
0.000599
 41
2451670.444777
 42
2451670.445376
  1

 90
        0
  0
XRECORD
  5
45C3D
102
{ACAD_REACTORS
330
45C3C
102
}
100
AcDbXrecord
102
EXTNAMES
  1
*ACTIVE
  2
*Active
102
UCS
 74
     0
 71
     1
 10
0.0
 20
0.0
 30
0.0
 10
1.0
 20
0.0
 30
0.0
 10
0.0
 20
1.0
 30
0.0
146
0.0
 79
     1
102
VIEW
281
     0
  0
XRECORD
  5
45C68
102
{ACAD_REACTORS
330
45C67
102
}
100
AcDbXrecord
102
PLOTBIT
280
     0
  0
XRECORD
  5
45C3B
102
{ACAD_REACTORS
330
45C3A
102
}
100
AcDbXrecord
102
EXTNAMES
  1
DEFPOINTS
  2
Defpoints
102
PLOTBIT
280
     0
  0
XRECORD
  5
45C62
102
{ACAD_REACTORS
330
45C61
102
}
100
AcDbXrecord
102
ACADR14ROUNDTRIP
1000
DSTYLE
1002
{
1070
   276
 70
     2
1070
   277
 70
     5
1002
}
  0
XRECORD
  5
45C64
102
{ACAD_REACTORS
330
45C63
102
}
100
AcDbXrecord
102
ACADR14ROUNDTRIP
1000
DSTYLE
1002
{
1070
   276
 70
     2
1070
   277
 70
     5
1002
}
  0
XRECORD
  5
45C60
102
{ACAD_REACTORS
330
4592C
102
}
100
AcDbXrecord
340
458D6
  0
XRECORD
  5
45C5F
102
{ACAD_REACTORS
330
4592A
102
}
100
AcDbXrecord
340
458D3
  0
XRECORD
  5
45C39
102
{ACAD_REACTORS
330
45C38
102
}
100
AcDbXrecord
102
EXTNAMES
  1
SCALE
  2
scale
  0
DICTIONARY
  5
45C65
100
AcDbDictionary
280
     1
  3
ACAD_XREC_ROUNDTRIP
360
45C66
  0
ACAD_PROXY_OBJECT
  5
458FE
102
{ACAD_REACTORS
330
458FB
102
}
100
AcDbProxyObject
 90
      499
 91
      503
 93
     1348
310
91D4850204C617365724A65742035303030205365726965732050434C20362C00AAAAAA416AA547D11959985D5B1D08148C4D081C195B88185CDCDA59DB9B595B9D1CCB98DD1891069074C61796F75743140501A800000000000000000000000000000000000000000000A1000000000000008902A6A6A10232D5E076BC551
310
0408CB5781DAF154410232D5E076BC5510408CB5781DAF15C410232D5E076BC5710408CB5781DAF15C40
330
458D3
330
0
340
0
340
0
 94
        0
  0
ACAD_PROXY_OBJECT
  5
458FD
102
{ACAD_REACTORS
330
458FB
102
}
100
AcDbProxyObject
 90
      499
 91
      503
 93
      924
310
91D4850204C617365724A65742035303030205365726965732050434C20362C01AAAAAAAAA547D11959985D5B1D08148C4D081C195B88185CDCDA59DB9B595B9D1CCB98DD18A69054D6F64656C901A800000000000000000000000000000000000000000000A1000000000000008902A6A6AAAA0
330
458D6
330
0
340
0
340
0
 94
        0
  0
MLINESTYLE
  5
458DA
102
{ACAD_REACTORS
330
458D9
102
}
100
AcDbMlineStyle
  2
STANDARD
 70
     0
  3

 62
   256
 51
90.0
 52
90.0
 71
     2
 49
0.5
 62
   256
  6
BYLAYER
 49
-0.5
 62
   256
  6
BYLAYER
  0
ACAD_PROXY_OBJECT
  5
458FA
102
{ACAD_REACTORS
330
458F9
102
}
100
AcDbProxyObject
 90
      499
 91
      502
 93
        0
 94
        0
  0
XRECORD
  5
45C48
102
{ACAD_REACTORS
330
45C3E
102
}
100
AcDbXrecord
 90
        0
  0
XRECORD
  5
45C4C
102
{ACAD_REACTORS
330
45C3E
102
}
100
AcDbXrecord
1000
DSTYLE
1002
{
1070
   276
 70
     2
1070
   277
 70
     5
1002
}
  0
XRECORD
  5
45C49
102
{ACAD_REACTORS
330
45C3E
102
}
100
AcDbXrecord
  1
{6E0CF4B8-225E-11D4-A150-00A0CC3303EC}
  0
XRECORD
  5
45C41
102
{ACAD_REACTORS
330
45C3E
102
}
100
AcDbXrecord
  1

  0
XRECORD
  5
45C47
102
{ACAD_REACTORS
330
45C3E
102
}
100
AcDbXrecord
 90
        0
  0
XRECORD
  5
45C43
102
{ACAD_REACTORS
330
45C3E
102
}
100
AcDbXrecord
340
458FB
  0
XRECORD
  5
45C46
102
{ACAD_REACTORS
330
45C3E
102
}
100
AcDbXrecord
 90
    14877
  0
XRECORD
  5
45C44
102
{ACAD_REACTORS
330
45C3E
102
}
100
AcDbXrecord
340
458FC
  0
XRECORD
  5
45C45
102
{ACAD_REACTORS
330
45C3E
102
}
100
AcDbXrecord
340
458F9
  0
XRECORD
  5
45C4B
102
{ACAD_REACTORS
330
45C3E
102
}
100
AcDbXrecord
 40
0.0
  0
XRECORD
  5
45C4F
102
{ACAD_REACTORS
330
45C3E
102
}
100
AcDbXrecord
340
0
  0
XRECORD
  5
45C55
102
{ACAD_REACTORS
330
45C3E
102
}
100
AcDbXrecord
 10
0.0
 20
0.0
 30
0.0
  0
XRECORD
  5
45C51
102
{ACAD_REACTORS
330
45C3E
102
}
100
AcDbXrecord
 10
0.0
 20
0.0
 30
0.0
  0
XRECORD
  5
45C54
102
{ACAD_REACTORS
330
45C3E
102
}
100
AcDbXrecord
 10
0.0
 20
0.0
 30
0.0
  0
XRECORD
  5
45C52
102
{ACAD_REACTORS
330
45C3E
102
}
100
AcDbXrecord
 10
0.0
 20
0.0
 30
0.0
  0
XRECORD
  5
45C53
102
{ACAD_REACTORS
330
45C3E
102
}
100
AcDbXrecord
 10
0.0
 20
0.0
 30
0.0
  0
XRECORD
  5
45C50
102
{ACAD_REACTORS
330
45C3E
102
}
100
AcDbXrecord
 10
0.0
 20
0.0
 30
0.0
  0
XRECORD
  5
45C4D
102
{ACAD_REACTORS
330
45C3E
102
}
100
AcDbXrecord
340
0
  0
XRECORD
  5
45C4E
102
{ACAD_REACTORS
330
45C3E
102
}
100
AcDbXrecord
 70
     0
  0
XRECORD
  5
45C42
102
{ACAD_REACTORS
330
45C3E
102
}
100
AcDbXrecord
  1

  0
XRECORD
  5
45C3F
102
{ACAD_REACTORS
330
45C3E
102
}
100
AcDbXrecord
 90
        1
  0
XRECORD
  5
45C40
102
{ACAD_REACTORS
330
45C3E
102
}
100
AcDbXrecord
 90
       70
  0
XRECORD
  5
45C58
102
{ACAD_REACTORS
330
45C3E
102
}
100
AcDbXrecord
340
0
  0
XRECORD
  5
45C5E
102
{ACAD_REACTORS
330
45C3E
102
}
100
AcDbXrecord
 10
0.0
 20
0.0
 30
0.0
  0
XRECORD
  5
45C5A
102
{ACAD_REACTORS
330
45C3E
102
}
100
AcDbXrecord
 10
0.0
 20
0.0
 30
0.0
  0
XRECORD
  5
45C5D
102
{ACAD_REACTORS
330
45C3E
102
}
100
AcDbXrecord
 10
0.0
 20
0.0
 30
0.0
  0
XRECORD
  5
45C5B
102
{ACAD_REACTORS
330
45C3E
102
}
100
AcDbXrecord
 10
0.0
 20
0.0
 30
0.0
  0
XRECORD
  5
45C5C
102
{ACAD_REACTORS
330
45C3E
102
}
100
AcDbXrecord
 10
0.0
 20
0.0
 30
0.0
  0
XRECORD
  5
45C59
102
{ACAD_REACTORS
330
45C3E
102
}
100
AcDbXrecord
 10
0.0
 20
0.0
 30
0.0
  0
XRECORD
  5
45C56
102
{ACAD_REACTORS
330
45C3E
102
}
100
AcDbXrecord
340
0
  0
XRECORD
  5
45C57
102
{ACAD_REACTORS
330
45C3E
102
}
100
AcDbXrecord
 70
     1
  0
XRECORD
  5
45C4A
102
{ACAD_REACTORS
330
45C3E
102
}
100
AcDbXrecord
  1
{C4CC0052-222D-46DA-AE75-CC1F70B5D3B3}
  0
DICTIONARYVAR
  5
458E2
102
{ACAD_REACTORS
330
458E1
102
}
100
DictionaryVariables
280
     0
  1
0
  0
XRECORD
  5
45C66
102
{ACAD_REACTORS
330
45C65
102
}
100
AcDbXrecord
102
EXTNAMES
  1
LAYOUT1
  2
Layout1
  1
MODEL
  2
Model
  0
ENDSEC
  0
EOF
