  0
SECTION
  2
HEADER
  9
$ACADVER
  1
AC1014
  9
$ACADMAINTVER
 70
     8
  9
$DWGCODEPAGE
  3
ANSI_1252
  9
$INSBASE
 10
0.0
 20
0.0
 30
0.0
  9
$EXTMIN
 10
-0.063645
 20
-3.278261
 30
0.0
  9
$EXTMAX
 10
4.385573
 20
1.649278
 30
2.3
  9
$LIMMIN
 10
0.0
 20
0.0
  9
$LIMMAX
 10
12.0
 20
9.0
  9
$ORTHOMODE
 70
     0
  9
$REGENMODE
 70
     1
  9
$FILLMODE
 70
     1
  9
$QTEXTMODE
 70
     0
  9
$MIRRTEXT
 70
     1
  9
$DRAGMODE
 70
     2
  9
$LTSCALE
 40
1.0
  9
$OSMODE
 70
    37
  9
$ATTMODE
 70
     1
  9
$TEXTSIZE
 40
0.12
  9
$TRACEWID
 40
0.05
  9
$TEXTSTYLE
  7
STANDARD
  9
$CLAYER
  8
0
  9
$CELTYPE
  6
BYLAYER
  9
$CECOLOR
 62
   256
  9
$CELTSCALE
 40
1.0
  9
$DELOBJ
 70
     1
  9
$DISPSILH
 70
     0
  9
$DIMSCALE
 40
1.0
  9
$DIMASZ
 40
0.18
  9
$DIMEXO
 40
0.0625
  9
$DIMDLI
 40
0.375
  9
$DIMRND
 40
0.0
  9
$DIMDLE
 40
0.0
  9
$DIMEXE
 40
0.18
  9
$DIMTP
 40
0.0
  9
$DIMTM
 40
0.0
  9
$DIMTXT
 40
0.18
  9
$DIMCEN
 40
0.09
  9
$DIMTSZ
 40
0.0
  9
$DIMTOL
 70
     0
  9
$DIMLIM
 70
     0
  9
$DIMTIH
 70
     0
  9
$DIMTOH
 70
     1
  9
$DIMSE1
 70
     0
  9
$DIMSE2
 70
     0
  9
$DIMTAD
 70
     0
  9
$DIMZIN
 70
     4
  9
$DIMBLK
  1

  9
$DIMASO
 70
     1
  9
$DIMSHO
 70
     1
  9
$DIMPOST
  1

  9
$DIMAPOST
  1

  9
$DIMALT
 70
     1
  9
$DIMALTD
 70
     1
  9
$DIMALTF
 40
25.4
  9
$DIMLFAC
 40
1.0
  9
$DIMTOFL
 70
     0
  9
$DIMTVP
 40
0.0
  9
$DIMTIX
 70
     0
  9
$DIMSOXD
 70
     0
  9
$DIMSAH
 70
     0
  9
$DIMBLK1
  1

  9
$DIMBLK2
  1

  9
$DIMSTYLE
  2
ABECAD_3D
  9
$DIMCLRD
 70
     0
  9
$DIMCLRE
 70
     0
  9
$DIMCLRT
 70
     0
  9
$DIMTFAC
 40
1.5
  9
$DIMGAP
 40
0.09
  9
$DIMJUST
 70
     0
  9
$DIMSD1
 70
     0
  9
$DIMSD2
 70
     0
  9
$DIMTOLJ
 70
     1
  9
$DIMTZIN
 70
     4
  9
$DIMALTZ
 70
     4
  9
$DIMALTTZ
 70
     4
  9
$DIMFIT
 70
     3
  9
$DIMUPT
 70
     0
  9
$DIMUNIT
 70
     7
  9
$DIMDEC
 70
     6
  9
$DIMTDEC
 70
     6
  9
$DIMALTU
 70
     2
  9
$DIMALTTD
 70
     1
  9
$DIMTXSTY
  7
STANDARD
  9
$DIMAUNIT
 70
     0
  9
$LUNITS
 70
     2
  9
$LUPREC
 70
     4
  9
$SKETCHINC
 40
0.1
  9
$FILLETRAD
 40
0.0
  9
$AUNITS
 70
     0
  9
$AUPREC
 70
     0
  9
$MENU
  1
ACAD
  9
$ELEVATION
 40
0.0
  9
$PELEVATION
 40
0.0
  9
$THICKNESS
 40
0.0
  9
$LIMCHECK
 70
     0
  9
$BLIPMODE
 70
     0
  9
$CHAMFERA
 40
0.0
  9
$CHAMFERB
 40
0.0
  9
$CHAMFERC
 40
0.0
  9
$CHAMFERD
 40
0.0
  9
$SKPOLY
 70
     0
  9
$TDCREATE
 40
2451737.737590162
  9
$TDUPDATE
 40
2452010.484002199
  9
$TDINDWG
 40
0.0063608796
  9
$TDUSRTIMER
 40
0.0063557870
  9
$USRTIMER
 70
     1
  9
$ANGBASE
 50
0.0
  9
$ANGDIR
 70
     0
  9
$PDMODE
 70
     3
  9
$PDSIZE
 40
0.09
  9
$PLINEWID
 40
0.0
  9
$COORDS
 70
     1
  9
$SPLFRAME
 70
     1
  9
$SPLINETYPE
 70
     6
  9
$SPLINESEGS
 70
     8
  9
$ATTDIA
 70
     0
  9
$ATTREQ
 70
     1
  9
$HANDLING
 70
     1
  9
$HANDSEED
  5
45E22
  9
$SURFTAB1
 70
     6
  9
$SURFTAB2
 70
     6
  9
$SURFTYPE
 70
     6
  9
$SURFU
 70
     6
  9
$SURFV
 70
     6
  9
$UCSNAME
  2

  9
$UCSORG
 10
0.0
 20
0.0
 30
0.0
  9
$UCSXDIR
 10
1.0
 20
0.0
 30
0.0
  9
$UCSYDIR
 10
0.0
 20
1.0
 30
0.0
  9
$PUCSNAME
  2

  9
$PUCSORG
 10
0.0
 20
0.0
 30
0.0
  9
$PUCSXDIR
 10
1.0
 20
0.0
 30
0.0
  9
$PUCSYDIR
 10
0.0
 20
1.0
 30
0.0
  9
$USERI1
 70
     0
  9
$USERI2
 70
     0
  9
$USERI3
 70
     0
  9
$USERI4
 70
     0
  9
$USERI5
 70
     0
  9
$USERR1
 40
0.0
  9
$USERR2
 40
0.0
  9
$USERR3
 40
0.0
  9
$USERR4
 40
0.0
  9
$USERR5
 40
0.0
  9
$WORLDVIEW
 70
     1
  9
$SHADEDGE
 70
     3
  9
$SHADEDIF
 70
    70
  9
$TILEMODE
 70
     1
  9
$MAXACTVP
 70
    16
  9
$PINSBASE
 10
0.0
 20
0.0
 30
0.0
  9
$PLIMCHECK
 70
     0
  9
$PEXTMIN
 10
1.000000E+20
 20
1.000000E+20
 30
1.000000E+20
  9
$PEXTMAX
 10
-1.000000E+20
 20
-1.000000E+20
 30
-1.000000E+20
  9
$PLIMMIN
 10
0.0
 20
0.0
  9
$PLIMMAX
 10
12.0
 20
9.0
  9
$UNITMODE
 70
     0
  9
$VISRETAIN
 70
     0
  9
$PLINEGEN
 70
     0
  9
$PSLTSCALE
 70
     1
  9
$TREEDEPTH
 70
  3020
  9
$PICKSTYLE
 70
     1
  9
$CMLSTYLE
  2
STANDARD
  9
$CMLJUST
 70
     0
  9
$CMLSCALE
 40
1.0
  9
$PROXYGRAPHICS
 70
     1
  9
$MEASUREMENT
 70
     0
  0
ENDSEC
  0
SECTION
  2
CLASSES
  0
CLASS
  1
DICTIONARYVAR
  2
AcDbDictionaryVar
  3
"AutoCAD"
 90
        0
280
     0
281
     0
  0
CLASS
  1
ACDBDICTIONARYWDFLT
  2
AcDbDictionaryWithDefault
  3
AutoCAD 2000
 90
        0
280
     0
281
     0
  0
CLASS
  1
ACDBPLACEHOLDER
  2
AcDbPlaceHolder
  3
AutoCAD 2000
 90
        0
280
     0
281
     0
  0
CLASS
  1
LAYOUT
  2
AcDbLayout
  3
AutoCAD 2000
 90
        0
280
     0
281
     0
  0
CLASS
  1
LONG_TRANSACTION
  2
AcDbLongTransaction
  3
AutoCAD 2000
 90
        0
280
     0
281
     0
  0
CLASS
  1
LWPOLYLINE
  2
AcDbPolyline
  3
"AutoCAD"
 90
        0
280
     0
281
     1
  0
CLASS
  1
HATCH
  2
AcDbHatch
  3
"ACAD_SEDONA"
 90
        0
280
     0
281
     1
  0
CLASS
  1
XRECORD
  2
AcDbXrecord
  3
"<Built In>"
 90
        0
280
     0
281
     0
  0
CLASS
  1
LONG_TRANSACTION
  2
AcDbLongTransaction
  3
AutoCAD 2000
 90
        0
280
     0
281
     0
  0
CLASS
  1
LWPOLYLINE
  2
AcDbPolyline
  3
"AutoCAD"
 90
        0
280
     0
281
     1
  0
CLASS
  1
HATCH
  2
AcDbHatch
  3
"ACAD_SEDONA"
 90
        0
280
     0
281
     1
  0
CLASS
  1
XRECORD
  2
AcDbXrecord
  3
"<Built In>"
 90
        0
280
     0
281
     0
  0
CLASS
  1
LONG_TRANSACTION
  2
AcDbLongTransaction
  3
AutoCAD 2000
 90
        0
280
     0
281
     0
  0
CLASS
  1
LWPOLYLINE
  2
AcDbPolyline
  3
"AutoCAD"
 90
        0
280
     0
281
     1
  0
CLASS
  1
HATCH
  2
AcDbHatch
  3
"ACAD_SEDONA"
 90
        0
280
     0
281
     1
  0
CLASS
  1
XRECORD
  2
AcDbXrecord
  3
"<Built In>"
 90
        0
280
     0
281
     0
  0
CLASS
  1
LONG_TRANSACTION
  2
AcDbLongTransaction
  3
AutoCAD 2000
 90
        0
280
     0
281
     0
  0
CLASS
  1
LWPOLYLINE
  2
AcDbPolyline
  3
"AutoCAD"
 90
        0
280
     0
281
     1
  0
CLASS
  1
HATCH
  2
AcDbHatch
  3
"ACAD_SEDONA"
 90
        0
280
     0
281
     1
  0
CLASS
  1
XRECORD
  2
AcDbXrecord
  3
"<Built In>"
 90
        0
280
     0
281
     0
  0
ENDSEC
  0
SECTION
  2
TABLES
  0
TABLE
  2
VPORT
  5
458C7
100
AcDbSymbolTable
 70
     1
  0
VPORT
  5
45DED
102
{ACAD_XDICTIONARY
360
45DF2
102
}
100
AcDbSymbolTableRecord
100
AcDbViewportTableRecord
  2
*ACTIVE
 70
     0
 10
0.0
 20
0.0
 11
1.0
 21
1.0
 12
2.161013
 22
-0.814496
 13
0.0
 23
0.0
 14
0.25
 24
0.25
 15
0.25
 25
0.25
 16
0.0
 26
0.0
 36
1.0
 17
0.0
 27
0.0
 37
0.0
 40
5.011107
 41
1.960674
 42
50.0
 43
0.0
 44
0.0
 50
0.0
 51
0.0
 71
     0
 72
 20000
 73
     1
 74
     1
 75
     0
 76
     0
 77
     0
 78
     0
  0
ENDTAB
  0
TABLE
  2
LTYPE
  5
458C4
100
AcDbSymbolTable
 70
     1
  0
LTYPE
  5
458D0
100
AcDbSymbolTableRecord
100
AcDbLinetypeTableRecord
  2
BYBLOCK
 70
     0
  3

 72
    65
 73
     0
 40
0.0
  0
LTYPE
  5
458D1
100
AcDbSymbolTableRecord
100
AcDbLinetypeTableRecord
  2
BYLAYER
 70
     0
  3

 72
    65
 73
     0
 40
0.0
  0
LTYPE
  5
458D2
100
AcDbSymbolTableRecord
100
AcDbLinetypeTableRecord
  2
CONTINUOUS
 70
     0
  3
Solid line
 72
    65
 73
     0
 40
0.0
  0
ENDTAB
  0
TABLE
  2
LAYER
  5
458C1
100
AcDbSymbolTable
 70
     7
  0
LAYER
  5
458CD
100
AcDbSymbolTableRecord
100
AcDbLayerTableRecord
  2
0
 70
     0
 62
     7
  6
CONTINUOUS
  0
LAYER
  5
458EA
100
AcDbSymbolTableRecord
100
AcDbLayerTableRecord
  2
DIMS-MTG-HOLES
 70
     0
 62
     1
  6
CONTINUOUS
  0
LAYER
  5
458EB
100
AcDbSymbolTableRecord
100
AcDbLayerTableRecord
  2
ATTRIBUTES
 70
     0
 62
     7
  6
CONTINUOUS
  0
LAYER
  5
4593B
102
{ACAD_XDICTIONARY
360
45E1D
102
}
100
AcDbSymbolTableRecord
100
AcDbLayerTableRecord
  2
AREA1
 70
     0
 62
    -7
  6
CONTINUOUS
  0
LAYER
  5
45940
102
{ACAD_XDICTIONARY
360
45DF0
102
}
100
AcDbSymbolTableRecord
100
AcDbLayerTableRecord
  2
DEFPOINTS
 70
     0
 62
    -7
  6
CONTINUOUS
  0
LAYER
  5
45954
100
AcDbSymbolTableRecord
100
AcDbLayerTableRecord
  2
SCALE
 70
     0
 62
    -7
  6
CONTINUOUS
  0
LAYER
  5
4597B
100
AcDbSymbolTableRecord
100
AcDbLayerTableRecord
  2
SNAP_POINTS
 70
     0
 62
    -1
  6
CONTINUOUS
  0
ENDTAB
  0
TABLE
  2
STYLE
  5
458C2
100
AcDbSymbolTable
 70
     1
  0
STYLE
  5
458CE
100
AcDbSymbolTableRecord
100
AcDbTextStyleTableRecord
  2
STANDARD
 70
     0
 40
0.0
 41
1.0
 50
0.0
 71
     0
 42
0.12
  3
txt
  4

  0
ENDTAB
  0
TABLE
  2
VIEW
  5
458C5
100
AcDbSymbolTable
 70
     0
  0
ENDTAB
  0
TABLE
  2
UCS
  5
458C6
100
AcDbSymbolTable
 70
     0
  0
ENDTAB
  0
TABLE
  2
APPID
  5
458C8
100
AcDbSymbolTable
 70
     1
  0
APPID
  5
458CF
100
AcDbSymbolTableRecord
100
AcDbRegAppTableRecord
  2
ACAD
 70
     0
  0
ENDTAB
  0
TABLE
  2
DIMSTYLE
  5
458C9
100
AcDbSymbolTable
 70
     2
  0
DIMSTYLE
105
458F1
102
{ACAD_XDICTIONARY
360
45E17
102
}
100
AcDbSymbolTableRecord
100
AcDbDimStyleTableRecord
  2
ABECAD
 70
     0
  3

  4

  5

  6

  7

 40
1.0
 41
0.18
 42
0.0625
 43
0.375
 44
0.18
 45
0.0
 46
0.0
 47
0.0
 48
0.0
140
0.18
141
0.09
142
0.0
143
25.4
144
1.0
145
0.0
146
1.5
147
0.09
 71
     0
 72
     0
 73
     0
 74
     1
 75
     0
 76
     0
 77
     0
 78
     4
170
     1
171
     1
172
     0
173
     0
174
     0
175
     0
176
     0
177
     0
178
     0
270
     7
271
     6
272
     6
273
     2
274
     1
340
458CE
275
     0
280
     0
281
     0
282
     0
283
     1
284
     4
285
     4
286
     4
287
     3
288
     0
  0
DIMSTYLE
105
458F6
102
{ACAD_XDICTIONARY
360
45E19
102
}
102
{ACAD_REACTORS
330
45D63
330
45D71
102
}
100
AcDbSymbolTableRecord
100
AcDbDimStyleTableRecord
  2
ABECAD_3D
 70
     0
  3

  4

  5

  6

  7

 40
1.0
 41
0.18
 42
0.0625
 43
0.375
 44
0.18
 45
0.0
 46
0.0
 47
0.0
 48
0.0
140
0.18
141
0.09
142
0.0
143
25.4
144
1.0
145
0.0
146
1.5
147
0.09
 71
     0
 72
     0
 73
     0
 74
     1
 75
     0
 76
     0
 77
     0
 78
     4
170
     1
171
     1
172
     0
173
     0
174
     0
175
     0
176
     0
177
     0
178
     0
270
     7
271
     6
272
     6
273
     2
274
     1
340
458CE
275
     0
280
     0
281
     0
282
     0
283
     1
284
     4
285
     4
286
     4
287
     3
288
     0
  0
ENDTAB
  0
TABLE
  2
BLOCK_RECORD
  5
458C0
100
AcDbSymbolTable
 70
     3
  0
BLOCK_RECORD
  5
458D6
102
{ACAD_XDICTIONARY
360
4592C
102
}
100
AcDbSymbolTableRecord
100
AcDbBlockTableRecord
  2
*MODEL_SPACE
  0
BLOCK_RECORD
  5
458D3
102
{ACAD_XDICTIONARY
360
4592A
102
}
100
AcDbSymbolTableRecord
100
AcDbBlockTableRecord
  2
*PAPER_SPACE
  0
BLOCK_RECORD
  5
45941
102
{ACAD_XDICTIONARY
360
45DEE
102
}
100
AcDbSymbolTableRecord
100
AcDbBlockTableRecord
  2
SCALE
1001
ACAD
1000
DesignCenter Data
1002
{
1070
     1
1070
     1
1002
}
  0
BLOCK_RECORD
  5
45D64
100
AcDbSymbolTableRecord
100
AcDbBlockTableRecord
  2
*D1
  0
BLOCK_RECORD
  5
45D72
100
AcDbSymbolTableRecord
100
AcDbBlockTableRecord
  2
*D2
  0
ENDTAB
  0
ENDSEC
  0
SECTION
  2
BLOCKS
  0
BLOCK
  5
458DF
100
AcDbEntity
  8
0
100
AcDbBlockBegin
  2
*MODEL_SPACE
 70
     0
 10
0.0
 20
0.0
 30
0.0
  3
*MODEL_SPACE
  1

  0
ENDBLK
  5
458E0
100
AcDbEntity
  8
0
100
AcDbBlockEnd
  0
BLOCK
  5
458DD
100
AcDbEntity
 67
     1
  8
0
100
AcDbBlockBegin
  2
*PAPER_SPACE
 70
     0
 10
0.0
 20
0.0
 30
0.0
  3
*PAPER_SPACE
  1

  0
ENDBLK
  5
458DE
100
AcDbEntity
 67
     1
  8
0
100
AcDbBlockEnd
  0
BLOCK
  5
4594D
100
AcDbEntity
  8
0
100
AcDbBlockBegin
  2
SCALE
 70
     0
 10
0.0
 20
0.0
 30
0.0
  3
SCALE
  1

  0
LINE
  5
4596A
100
AcDbEntity
  8
SCALE
100
AcDbLine
 10
0.057999
 20
-0.380078
 30
0.0
 11
1.057999
 21
-0.380078
 31
0.0
  0
LWPOLYLINE
  5
4596B
100
AcDbEntity
  8
SCALE
100
AcDbPolyline
 90
        4
 70
     1
 43
0.0
 10
0.0
 20
0.0
 10
1.135629
 20
0.0
 10
1.135629
 20
-0.84161
 10
0.0
 20
-0.84161
  0
LINE
  5
4596C
100
AcDbEntity
  8
SCALE
100
AcDbLine
 10
0.057999
 20
-0.480078
 30
0.0
 11
0.057999
 21
-0.280078
 31
0.0
  0
TEXT
  5
4596D
100
AcDbEntity
  8
SCALE
100
AcDbText
 10
0.117421
 20
-0.634339
 30
0.0
 40
0.0625
  1
[10mm]
100
AcDbText
  0
LINE
  5
4596E
100
AcDbEntity
  8
SCALE
100
AcDbLine
 10
0.057999
 20
-0.680078
 30
0.0
 11
0.451699
 21
-0.680078
 31
0.0
  0
LINE
  5
4596F
100
AcDbEntity
  8
SCALE
100
AcDbLine
 10
0.057999
 20
-0.780078
 30
0.0
 11
0.057999
 21
-0.580078
 31
0.0
  0
LINE
  5
45970
100
AcDbEntity
  8
SCALE
100
AcDbLine
 10
0.451699
 20
-0.780078
 30
0.0
 11
0.451699
 21
-0.580078
 31
0.0
  0
TEXT
  5
45971
100
AcDbEntity
  8
SCALE
100
AcDbText
 10
0.059529
 20
-0.105201
 30
0.0
 40
0.0625
  1
SCALE:
100
AcDbText
  0
TEXT
  5
45972
100
AcDbEntity
  8
SCALE
100
AcDbText
 10
0.421282
 20
-0.31103
 30
0.0
 40
0.0625
  1
1 Inch
100
AcDbText
  0
LINE
  5
45973
100
AcDbEntity
  8
SCALE
100
AcDbLine
 10
1.057999
 20
-0.380078
 30
0.0
 11
1.057999
 21
-0.480078
 31
0.0
  0
LINE
  5
45974
100
AcDbEntity
  8
SCALE
100
AcDbLine
 10
1.057999
 20
-0.480078
 30
0.0
 11
1.057999
 21
-0.280078
 31
0.0
  0
ENDBLK
  5
4594E
100
AcDbEntity
  8
0
100
AcDbBlockEnd
  0
BLOCK
  5
45D6F
100
AcDbEntity
  8
0
100
AcDbBlockBegin
  2
*D1
 70
     1
 10
0.0
 20
0.0
 30
0.0
  3
*D1
  1

  0
LINE
  5
45D65
100
AcDbEntity
  8
AREA1
 62
     0
100
AcDbLine
 10
3.5625
 20
-2.248
 30
0.0
 11
4.385573
 21
-2.248
 31
0.0
1001
ACAD
1000
RTLwPs
1070
   158
  0
LINE
  5
45D66
100
AcDbEntity
  8
AREA1
 62
     0
100
AcDbLine
 10
3.5625
 20
0.752
 30
0.0
 11
4.385573
 21
0.752
 31
0.0
1001
ACAD
1000
RTLwPs
1070
   158
  0
LINE
  5
45D67
100
AcDbEntity
  8
AREA1
 62
     0
100
AcDbLine
 10
4.205573
 20
-2.068
 30
0.0
 11
4.205573
 21
-1.408
 31
0.0
1001
ACAD
1000
RTLwPs
1070
   158
  0
LINE
  5
45D68
100
AcDbEntity
  8
AREA1
 62
     0
100
AcDbLine
 10
4.205573
 20
0.572
 30
0.0
 11
4.205573
 21
-0.088
 31
0.0
1001
ACAD
1000
RTLwPs
1070
   158
  0
SOLID
  5
45D69
100
AcDbEntity
  8
AREA1
 62
     0
100
AcDbTrace
 10
4.175573
 20
-2.068
 30
0.0
 11
4.235573
 21
-2.068
 31
0.0
 12
4.205573
 22
-2.248
 32
0.0
 13
4.205573
 23
-2.248
 33
0.0
  0
SOLID
  5
45D6A
100
AcDbEntity
  8
AREA1
 62
     0
100
AcDbTrace
 10
4.175573
 20
0.572
 30
0.0
 11
4.235573
 21
0.572
 31
0.0
 12
4.205573
 22
0.752
 32
0.0
 13
4.205573
 23
0.752
 33
0.0
  0
MTEXT
  5
45D6B
100
AcDbEntity
  8
AREA1
 62
     0
100
AcDbMText
 10
4.205573
 20
-0.748
 30
0.0
 40
0.18
 41
0.0
 71
     5
 72
     1
  1
\A1;3 [76.2]
 11
0.0
 21
1.0
 31
0.0
1001
ACAD
1000
MTEXTBEGIN
1070
    73
1070
     1
1070
    44
1040
1.0
1070
    74
1070
     0
1000
MTEXTEND
1000
MTEXTBEGIN
1070
    73
1070
     1
1070
    44
1040
1.0
1070
    74
1070
     0
1000
MTEXTEND
1000
MTEXTBEGIN
1070
    73
1070
     1
1070
    44
1040
1.0
1070
    74
1070
     0
1000
MTEXTEND
  0
POINT
  5
45D6C
100
AcDbEntity
  8
DEFPOINTS
 62
     0
100
AcDbPoint
 10
3.5
 20
-2.248
 30
0.0
  0
POINT
  5
45D6D
100
AcDbEntity
  8
DEFPOINTS
 62
     0
100
AcDbPoint
 10
3.5
 20
0.752
 30
0.7
  0
POINT
  5
45D6E
100
AcDbEntity
  8
DEFPOINTS
 62
     0
100
AcDbPoint
 10
4.205573
 20
0.752
 30
0.0
  0
ENDBLK
  5
45D70
100
AcDbEntity
  8
0
100
AcDbBlockEnd
  0
BLOCK
  5
45D7D
100
AcDbEntity
  8
0
100
AcDbBlockBegin
  2
*D2
 70
     1
 10
0.0
 20
0.0
 30
0.0
  3
*D2
  1

  0
LINE
  5
45D73
100
AcDbEntity
  8
AREA1
 62
     0
100
AcDbLine
 10
0.0
 20
0.8145
 30
0.0
 11
0.0
 21
1.649278
 31
0.0
1001
ACAD
1000
RTLwPs
1070
   158
  0
LINE
  5
45D74
100
AcDbEntity
  8
AREA1
 62
     0
100
AcDbLine
 10
3.5
 20
0.8145
 30
0.0
 11
3.5
 21
1.649278
 31
0.0
1001
ACAD
1000
RTLwPs
1070
   158
  0
LINE
  5
45D75
100
AcDbEntity
  8
AREA1
 62
     0
100
AcDbLine
 10
0.18
 20
1.469278
 30
0.0
 11
0.76
 21
1.469278
 31
0.0
1001
ACAD
1000
RTLwPs
1070
   158
  0
LINE
  5
45D76
100
AcDbEntity
  8
AREA1
 62
     0
100
AcDbLine
 10
3.32
 20
1.469278
 30
0.0
 11
2.74
 21
1.469278
 31
0.0
1001
ACAD
1000
RTLwPs
1070
   158
  0
SOLID
  5
45D77
100
AcDbEntity
  8
AREA1
 62
     0
100
AcDbTrace
 10
0.18
 20
1.499278
 30
0.0
 11
0.18
 21
1.439278
 31
0.0
 12
0.0
 22
1.469278
 32
0.0
 13
0.0
 23
1.469278
 33
0.0
  0
SOLID
  5
45D78
100
AcDbEntity
  8
AREA1
 62
     0
100
AcDbTrace
 10
3.32
 20
1.499278
 30
0.0
 11
3.32
 21
1.439278
 31
0.0
 12
3.5
 22
1.469278
 32
0.0
 13
3.5
 23
1.469278
 33
0.0
  0
MTEXT
  5
45D79
100
AcDbEntity
  8
AREA1
 62
     0
100
AcDbMText
 10
1.75
 20
1.469278
 30
0.0
 40
0.18
 41
0.0
 71
     5
 72
     1
  1
\A1;3 1/2 [88.9]
1001
ACAD
1000
MTEXTBEGIN
1070
    73
1070
     1
1070
    44
1040
1.0
1070
    74
1070
     0
1000
MTEXTEND
1000
MTEXTBEGIN
1070
    73
1070
     1
1070
    44
1040
1.0
1070
    74
1070
     0
1000
MTEXTEND
1000
MTEXTBEGIN
1070
    73
1070
     1
1070
    44
1040
1.0
1070
    74
1070
     0
1000
MTEXTEND
  0
POINT
  5
45D7A
100
AcDbEntity
  8
DEFPOINTS
 62
     0
100
AcDbPoint
 10
0.0
 20
0.752
 30
0.7
  0
POINT
  5
45D7B
100
AcDbEntity
  8
DEFPOINTS
 62
     0
100
AcDbPoint
 10
3.5
 20
0.752
 30
0.7
  0
POINT
  5
45D7C
100
AcDbEntity
  8
DEFPOINTS
 62
     0
100
AcDbPoint
 10
3.5
 20
1.469278
 30
0.0
  0
ENDBLK
  5
45D7E
100
AcDbEntity
  8
0
100
AcDbBlockEnd
  0
ENDSEC
  0
SECTION
  2
ENTITIES
  0
ATTDEF
  5
1
100
AcDbEntity
  8
ATTRIBUTES
100
AcDbText
 10
0.093631
 20
-0.261833
 30
0.0
 40
0.1125
  1
ALLEN-BRADLEY
100
AcDbAttributeDefinition
  3
MANUFACTURER NAME?
  2
AC_VND_LABEL
 70
     1
  0
ATTDEF
  5
2
100
AcDbEntity
  8
ATTRIBUTES
100
AcDbText
 10
0.093631
 20
-0.496208
 30
0.0
 40
0.1125
  1
1771-RT41
100
AcDbAttributeDefinition
  3
CATALOG NUMBER?
  2
AC_PART_NO
 70
     1
  0
ATTDEF
  5
3
100
AcDbEntity
  8
ATTRIBUTES
100
AcDbText
 10
0.093631
 20
-0.730583
 30
0.0
 40
0.1125
  1
1771-RT41: REMOTE TERMINATION PANEL
100
AcDbAttributeDefinition
  3
PART DESCRIPTION?
  2
AC_DESCRIPTION
 70
     1
  0
ATTDEF
  5
4
100
AcDbEntity
  8
ATTRIBUTES
100
AcDbText
 10
0.093631
 20
-0.964958
 30
0.0
 40
0.1125
  1

100
AcDbAttributeDefinition
  3
DEVICE ID?
  2
DEVICE_ID
 70
     1
  0
ATTDEF
  5
5
100
AcDbEntity
  8
ATTRIBUTES
100
AcDbText
 10
0.093631
 20
-1.199333
 30
0.0
 40
0.1125
  1

100
AcDbAttributeDefinition
  3
CUSTOMER PART NUMBER?
  2
AC_CPART_NO
 70
     1
  0
ATTDEF
  5
6
100
AcDbEntity
  8
ATTRIBUTES
100
AcDbText
 10
0.093631
 20
-1.433708
 30
0.0
 40
0.1125
  1

100
AcDbAttributeDefinition
  3
CUSTOMER NOTE?
  2
AC_NOTE
 70
     1
  0
ATTDEF
  5
7
100
AcDbEntity
  8
ATTRIBUTES
100
AcDbText
 10
0.093631
 20
-1.668083
 30
0.0
 40
0.1125
  1

100
AcDbAttributeDefinition
  3
FASTENER DATA?
  2
FASTENER
 70
     1
  0
ATTDEF
  5
8
100
AcDbEntity
  8
ATTRIBUTES
100
AcDbText
 10
0.093631
 20
-1.902458
 30
0.0
 40
0.1125
  1
INCH
100
AcDbAttributeDefinition
  3
UNIT OF SCALE?
  2
AC_SCALE_UNIT
 70
     1
  0
ATTDEF
  5
9
100
AcDbEntity
  8
ATTRIBUTES
100
AcDbText
 10
0.093631
 20
-2.136833
 30
0.0
 40
0.1125
  1
0
100
AcDbAttributeDefinition
  3
VIEW CODE?
  2
AC_VIEW_CODE
 70
     1
  0
INSERT
  5
45975
100
AcDbEntity
  8
SCALE
100
AcDbBlockReference
  2
SCALE
 10
0.001305
 20
-2.436651
 30
0.0
  0
LWPOLYLINE
  5
45B7F
100
AcDbEntity
  8
0
100
AcDbPolyline
 90
        4
 70
     1
 43
0.0
 38
-2.098049
 10
-1.064947
 20
1.37002
 10
-1.064947
 20
1.129989
 10
-0.934979
 20
1.129989
 10
-0.934979
 20
1.37002
210
0.0
220
1.0
230
0.0
  0
POLYLINE
  5
45B80
100
AcDbEntity
  8
0
100
AcDbPolygonMesh
 66
     1
 10
0.0
 20
0.0
 30
0.0
 70
    16
 71
     6
 72
     3
  0
VERTEX
  5
45B81
100
AcDbEntity
  8
0
100
AcDbVertex
100
AcDbPolygonMeshVertex
 10
2.8
 20
0.052
 30
1.515
 70
    64
  0
VERTEX
  5
45B82
100
AcDbEntity
  8
0
100
AcDbVertex
100
AcDbPolygonMeshVertex
 10
2.8
 20
0.052
 30
1.11
 70
    64
  0
VERTEX
  5
45B83
100
AcDbEntity
  8
0
100
AcDbVertex
100
AcDbPolygonMeshVertex
 10
2.8
 20
0.052
 30
1.11
 70
    64
  0
VERTEX
  5
45B84
100
AcDbEntity
  8
0
100
AcDbVertex
100
AcDbPolygonMeshVertex
 10
0.7
 20
0.052
 30
1.515
 70
    64
  0
VERTEX
  5
45B85
100
AcDbEntity
  8
0
100
AcDbVertex
100
AcDbPolygonMeshVertex
 10
0.7
 20
0.052
 30
1.11
 70
    64
  0
VERTEX
  5
45B86
100
AcDbEntity
  8
0
100
AcDbVertex
100
AcDbPolygonMeshVertex
 10
0.7
 20
0.052
 30
1.11
 70
    64
  0
VERTEX
  5
45B87
100
AcDbEntity
  8
0
100
AcDbVertex
100
AcDbPolygonMeshVertex
 10
0.7
 20
0.552
 30
1.515
 70
    64
  0
VERTEX
  5
45B88
100
AcDbEntity
  8
0
100
AcDbVertex
100
AcDbPolygonMeshVertex
 10
0.7
 20
0.552
 30
1.11
 70
    64
  0
VERTEX
  5
45B89
100
AcDbEntity
  8
0
100
AcDbVertex
100
AcDbPolygonMeshVertex
 10
0.7
 20
0.052
 30
1.11
 70
    64
  0
VERTEX
  5
45B8A
100
AcDbEntity
  8
0
100
AcDbVertex
100
AcDbPolygonMeshVertex
 10
2.8
 20
0.552
 30
1.515
 70
    64
  0
VERTEX
  5
45B8B
100
AcDbEntity
  8
0
100
AcDbVertex
100
AcDbPolygonMeshVertex
 10
2.8
 20
0.552
 30
1.11
 70
    64
  0
VERTEX
  5
45B8C
100
AcDbEntity
  8
0
100
AcDbVertex
100
AcDbPolygonMeshVertex
 10
2.8
 20
0.052
 30
1.11
 70
    64
  0
VERTEX
  5
45B8D
100
AcDbEntity
  8
0
100
AcDbVertex
100
AcDbPolygonMeshVertex
 10
2.8
 20
0.552
 30
1.515
 70
    64
  0
VERTEX
  5
45B8E
100
AcDbEntity
  8
0
100
AcDbVertex
100
AcDbPolygonMeshVertex
 10
2.8
 20
0.552
 30
1.515
 70
    64
  0
VERTEX
  5
45B8F
100
AcDbEntity
  8
0
100
AcDbVertex
100
AcDbPolygonMeshVertex
 10
2.8
 20
0.052
 30
1.515
 70
    64
  0
VERTEX
  5
45B90
100
AcDbEntity
  8
0
100
AcDbVertex
100
AcDbPolygonMeshVertex
 10
0.7
 20
0.552
 30
1.515
 70
    64
  0
VERTEX
  5
45B91
100
AcDbEntity
  8
0
100
AcDbVertex
100
AcDbPolygonMeshVertex
 10
0.7
 20
0.552
 30
1.515
 70
    64
  0
VERTEX
  5
45B92
100
AcDbEntity
  8
0
100
AcDbVertex
100
AcDbPolygonMeshVertex
 10
0.7
 20
0.052
 30
1.515
 70
    64
  0
SEQEND
  5
45B93
100
AcDbEntity
  8
0
  0
LWPOLYLINE
  5
45B94
100
AcDbEntity
  8
0
100
AcDbPolyline
 90
        4
 70
     1
 43
0.0
 38
-2.098049
 10
-1.464947
 20
1.37002
 10
-1.464947
 20
1.129989
 10
-1.334979
 20
1.129989
 10
-1.334979
 20
1.37002
210
0.0
220
1.0
230
0.0
  0
LWPOLYLINE
  5
45B95
100
AcDbEntity
  8
0
100
AcDbPolyline
 90
        4
 70
     1
 43
0.0
 38
-2.098049
 10
-1.864947
 20
1.37002
 10
-1.864947
 20
1.129989
 10
-1.734979
 20
1.129989
 10
-1.734979
 20
1.37002
210
0.0
220
1.0
230
0.0
  0
LWPOLYLINE
  5
45B96
100
AcDbEntity
  8
0
100
AcDbPolyline
 90
        4
 70
     1
 43
0.0
 38
-2.098049
 10
-1.664947
 20
1.37002
 10
-1.664947
 20
1.129989
 10
-1.534979
 20
1.129989
 10
-1.534979
 20
1.37002
210
0.0
220
1.0
230
0.0
  0
LWPOLYLINE
  5
45B97
100
AcDbEntity
  8
0
100
AcDbPolyline
 90
        4
 70
     1
 43
0.0
 38
-2.098049
 10
-2.264947
 20
1.37002
 10
-2.264947
 20
1.129989
 10
-2.134979
 20
1.129989
 10
-2.134979
 20
1.37002
210
0.0
220
1.0
230
0.0
  0
LWPOLYLINE
  5
45B98
100
AcDbEntity
  8
0
100
AcDbPolyline
 90
        4
 70
     1
 43
0.0
 38
-2.098049
 10
-2.064947
 20
1.37002
 10
-2.064947
 20
1.129989
 10
-1.934979
 20
1.129989
 10
-1.934979
 20
1.37002
210
0.0
220
1.0
230
0.0
  0
LWPOLYLINE
  5
45B99
100
AcDbEntity
  8
0
100
AcDbPolyline
 90
        4
 70
     1
 43
0.0
 38
-2.098049
 10
-2.664947
 20
1.37002
 10
-2.664947
 20
1.129989
 10
-2.534979
 20
1.129989
 10
-2.534979
 20
1.37002
210
0.0
220
1.0
230
0.0
  0
LWPOLYLINE
  5
45B9A
100
AcDbEntity
  8
0
100
AcDbPolyline
 90
        4
 70
     1
 43
0.0
 38
-2.098049
 10
-2.464947
 20
1.37002
 10
-2.464947
 20
1.129989
 10
-2.334979
 20
1.129989
 10
-2.334979
 20
1.37002
210
0.0
220
1.0
230
0.0
  0
LWPOLYLINE
  5
45B9B
100
AcDbEntity
  8
0
100
AcDbPolyline
 90
        4
 70
     1
 43
0.0
 38
-2.098049
 10
-1.264947
 20
1.37002
 10
-1.264947
 20
1.129989
 10
-1.134979
 20
1.129989
 10
-1.134979
 20
1.37002
210
0.0
220
1.0
230
0.0
  0
POLYLINE
  5
45B9C
100
AcDbEntity
  8
0
100
AcDbPolygonMesh
 66
     1
 10
0.0
 20
0.0
 30
0.0
 70
    16
 71
     6
 72
     3
  0
VERTEX
  5
45B9D
100
AcDbEntity
  8
0
100
AcDbVertex
100
AcDbPolygonMeshVertex
 10
2.7
 20
-2.098
 30
1.47
 70
    64
  0
VERTEX
  5
45B9E
100
AcDbEntity
  8
0
100
AcDbVertex
100
AcDbPolygonMeshVertex
 10
2.7
 20
-2.098
 30
1.11
 70
    64
  0
VERTEX
  5
45B9F
100
AcDbEntity
  8
0
100
AcDbVertex
100
AcDbPolygonMeshVertex
 10
2.7
 20
-2.098
 30
1.11
 70
    64
  0
VERTEX
  5
45BA0
100
AcDbEntity
  8
0
100
AcDbVertex
100
AcDbPolygonMeshVertex
 10
0.8
 20
-2.098
 30
1.47
 70
    64
  0
VERTEX
  5
45BA1
100
AcDbEntity
  8
0
100
AcDbVertex
100
AcDbPolygonMeshVertex
 10
0.8
 20
-2.098
 30
1.11
 70
    64
  0
VERTEX
  5
45BA2
100
AcDbEntity
  8
0
100
AcDbVertex
100
AcDbPolygonMeshVertex
 10
0.8
 20
-2.098
 30
1.11
 70
    64
  0
VERTEX
  5
45BA3
100
AcDbEntity
  8
0
100
AcDbVertex
100
AcDbPolygonMeshVertex
 10
0.8
 20
-2.013
 30
1.47
 70
    64
  0
VERTEX
  5
45BA4
100
AcDbEntity
  8
0
100
AcDbVertex
100
AcDbPolygonMeshVertex
 10
0.8
 20
-2.013
 30
1.11
 70
    64
  0
VERTEX
  5
45BA5
100
AcDbEntity
  8
0
100
AcDbVertex
100
AcDbPolygonMeshVertex
 10
0.8
 20
-2.098
 30
1.11
 70
    64
  0
VERTEX
  5
45BA6
100
AcDbEntity
  8
0
100
AcDbVertex
100
AcDbPolygonMeshVertex
 10
2.7
 20
-2.013
 30
1.47
 70
    64
  0
VERTEX
  5
45BA7
100
AcDbEntity
  8
0
100
AcDbVertex
100
AcDbPolygonMeshVertex
 10
2.7
 20
-2.013
 30
1.11
 70
    64
  0
VERTEX
  5
45BA8
100
AcDbEntity
  8
0
100
AcDbVertex
100
AcDbPolygonMeshVertex
 10
2.7
 20
-2.098
 30
1.11
 70
    64
  0
VERTEX
  5
45BA9
100
AcDbEntity
  8
0
100
AcDbVertex
100
AcDbPolygonMeshVertex
 10
2.7
 20
-2.013
 30
1.47
 70
    64
  0
VERTEX
  5
45BAA
100
AcDbEntity
  8
0
100
AcDbVertex
100
AcDbPolygonMeshVertex
 10
2.7
 20
-2.013
 30
1.47
 70
    64
  0
VERTEX
  5
45BAB
100
AcDbEntity
  8
0
100
AcDbVertex
100
AcDbPolygonMeshVertex
 10
2.7
 20
-2.098
 30
1.47
 70
    64
  0
VERTEX
  5
45BAC
100
AcDbEntity
  8
0
100
AcDbVertex
100
AcDbPolygonMeshVertex
 10
0.8
 20
-2.013
 30
1.47
 70
    64
  0
VERTEX
  5
45BAD
100
AcDbEntity
  8
0
100
AcDbVertex
100
AcDbPolygonMeshVertex
 10
0.8
 20
-2.013
 30
1.47
 70
    64
  0
VERTEX
  5
45BAE
100
AcDbEntity
  8
0
100
AcDbVertex
100
AcDbPolygonMeshVertex
 10
0.8
 20
-2.098
 30
1.47
 70
    64
  0
SEQEND
  5
45BAF
100
AcDbEntity
  8
0
  0
POLYLINE
  5
45BB0
100
AcDbEntity
  8
0
100
AcDbPolygonMesh
 66
     1
 10
0.0
 20
0.0
 30
0.0
 70
    16
 71
     6
 72
     3
  0
VERTEX
  5
45BB1
100
AcDbEntity
  8
0
100
AcDbVertex
100
AcDbPolygonMeshVertex
 10
2.7
 20
-2.013
 30
1.74
 70
    64
  0
VERTEX
  5
45BB2
100
AcDbEntity
  8
0
100
AcDbVertex
100
AcDbPolygonMeshVertex
 10
2.7
 20
-2.013
 30
1.11
 70
    64
  0
VERTEX
  5
45BB3
100
AcDbEntity
  8
0
100
AcDbVertex
100
AcDbPolygonMeshVertex
 10
2.7
 20
-2.013
 30
1.11
 70
    64
  0
VERTEX
  5
45BB4
100
AcDbEntity
  8
0
100
AcDbVertex
100
AcDbPolygonMeshVertex
 10
0.8
 20
-2.013
 30
1.74
 70
    64
  0
VERTEX
  5
45BB5
100
AcDbEntity
  8
0
100
AcDbVertex
100
AcDbPolygonMeshVertex
 10
0.8
 20
-2.013
 30
1.11
 70
    64
  0
VERTEX
  5
45BB6
100
AcDbEntity
  8
0
100
AcDbVertex
100
AcDbPolygonMeshVertex
 10
0.8
 20
-2.013
 30
1.11
 70
    64
  0
VERTEX
  5
45BB7
100
AcDbEntity
  8
0
100
AcDbVertex
100
AcDbPolygonMeshVertex
 10
0.8
 20
-0.673
 30
1.74
 70
    64
  0
VERTEX
  5
45BB8
100
AcDbEntity
  8
0
100
AcDbVertex
100
AcDbPolygonMeshVertex
 10
0.8
 20
-0.673
 30
1.11
 70
    64
  0
VERTEX
  5
45BB9
100
AcDbEntity
  8
0
100
AcDbVertex
100
AcDbPolygonMeshVertex
 10
0.8
 20
-2.013
 30
1.11
 70
    64
  0
VERTEX
  5
45BBA
100
AcDbEntity
  8
0
100
AcDbVertex
100
AcDbPolygonMeshVertex
 10
2.7
 20
-0.673
 30
1.74
 70
    64
  0
VERTEX
  5
45BBB
100
AcDbEntity
  8
0
100
AcDbVertex
100
AcDbPolygonMeshVertex
 10
2.7
 20
-0.673
 30
1.11
 70
    64
  0
VERTEX
  5
45BBC
100
AcDbEntity
  8
0
100
AcDbVertex
100
AcDbPolygonMeshVertex
 10
2.7
 20
-2.013
 30
1.11
 70
    64
  0
VERTEX
  5
45BBD
100
AcDbEntity
  8
0
100
AcDbVertex
100
AcDbPolygonMeshVertex
 10
2.7
 20
-0.673
 30
1.74
 70
    64
  0
VERTEX
  5
45BBE
100
AcDbEntity
  8
0
100
AcDbVertex
100
AcDbPolygonMeshVertex
 10
2.7
 20
-0.673
 30
1.74
 70
    64
  0
VERTEX
  5
45BBF
100
AcDbEntity
  8
0
100
AcDbVertex
100
AcDbPolygonMeshVertex
 10
2.7
 20
-2.013
 30
1.74
 70
    64
  0
VERTEX
  5
45BC0
100
AcDbEntity
  8
0
100
AcDbVertex
100
AcDbPolygonMeshVertex
 10
0.8
 20
-0.673
 30
1.74
 70
    64
  0
VERTEX
  5
45BC1
100
AcDbEntity
  8
0
100
AcDbVertex
100
AcDbPolygonMeshVertex
 10
0.8
 20
-0.673
 30
1.74
 70
    64
  0
VERTEX
  5
45BC2
100
AcDbEntity
  8
0
100
AcDbVertex
100
AcDbPolygonMeshVertex
 10
0.8
 20
-2.013
 30
1.74
 70
    64
  0
SEQEND
  5
45BC3
100
AcDbEntity
  8
0
  0
POLYLINE
  5
45BC4
100
AcDbEntity
  8
0
100
AcDbPolygonMesh
 66
     1
 10
0.0
 20
0.0
 30
0.0
 70
    16
 71
     6
 72
     3
  0
VERTEX
  5
45BC5
100
AcDbEntity
  8
0
100
AcDbVertex
100
AcDbPolygonMeshVertex
 10
3.5
 20
0.752
 30
0.7
 70
    64
  0
VERTEX
  5
45BC6
100
AcDbEntity
  8
0
100
AcDbVertex
100
AcDbPolygonMeshVertex
 10
3.5
 20
0.552
 30
0.7
 70
    64
  0
VERTEX
  5
45BC7
100
AcDbEntity
  8
0
100
AcDbVertex
100
AcDbPolygonMeshVertex
 10
3.5
 20
0.552
 30
0.7
 70
    64
  0
VERTEX
  5
45BC8
100
AcDbEntity
  8
0
100
AcDbVertex
100
AcDbPolygonMeshVertex
 10
0.0
 20
0.752
 30
0.7
 70
    64
  0
VERTEX
  5
45BC9
100
AcDbEntity
  8
0
100
AcDbVertex
100
AcDbPolygonMeshVertex
 10
0.0
 20
0.552
 30
0.7
 70
    64
  0
VERTEX
  5
45BCA
100
AcDbEntity
  8
0
100
AcDbVertex
100
AcDbPolygonMeshVertex
 10
0.0
 20
0.552
 30
0.7
 70
    64
  0
VERTEX
  5
45BCB
100
AcDbEntity
  8
0
100
AcDbVertex
100
AcDbPolygonMeshVertex
 10
0.0
 20
0.752
 30
0.7
 70
    64
  0
VERTEX
  5
45BCC
100
AcDbEntity
  8
0
100
AcDbVertex
100
AcDbPolygonMeshVertex
 10
0.0
 20
0.552
 30
0.5
 70
    64
  0
VERTEX
  5
45BCD
100
AcDbEntity
  8
0
100
AcDbVertex
100
AcDbPolygonMeshVertex
 10
0.0
 20
0.552
 30
0.7
 70
    64
  0
VERTEX
  5
45BCE
100
AcDbEntity
  8
0
100
AcDbVertex
100
AcDbPolygonMeshVertex
 10
3.5
 20
0.752
 30
0.7
 70
    64
  0
VERTEX
  5
45BCF
100
AcDbEntity
  8
0
100
AcDbVertex
100
AcDbPolygonMeshVertex
 10
3.5
 20
0.552
 30
0.5
 70
    64
  0
VERTEX
  5
45BD0
100
AcDbEntity
  8
0
100
AcDbVertex
100
AcDbPolygonMeshVertex
 10
3.5
 20
0.552
 30
0.7
 70
    64
  0
VERTEX
  5
45BD1
100
AcDbEntity
  8
0
100
AcDbVertex
100
AcDbPolygonMeshVertex
 10
3.5
 20
0.752
 30
0.7
 70
    64
  0
VERTEX
  5
45BD2
100
AcDbEntity
  8
0
100
AcDbVertex
100
AcDbPolygonMeshVertex
 10
3.5
 20
0.752
 30
0.7
 70
    64
  0
VERTEX
  5
45BD3
100
AcDbEntity
  8
0
100
AcDbVertex
100
AcDbPolygonMeshVertex
 10
3.5
 20
0.752
 30
0.7
 70
    64
  0
VERTEX
  5
45BD4
100
AcDbEntity
  8
0
100
AcDbVertex
100
AcDbPolygonMeshVertex
 10
0.0
 20
0.752
 30
0.7
 70
    64
  0
VERTEX
  5
45BD5
100
AcDbEntity
  8
0
100
AcDbVertex
100
AcDbPolygonMeshVertex
 10
0.0
 20
0.752
 30
0.7
 70
    64
  0
VERTEX
  5
45BD6
100
AcDbEntity
  8
0
100
AcDbVertex
100
AcDbPolygonMeshVertex
 10
0.0
 20
0.752
 30
0.7
 70
    64
  0
SEQEND
  5
45BD7
100
AcDbEntity
  8
0
  0
POLYLINE
  5
45BD8
100
AcDbEntity
  8
0
100
AcDbPolygonMesh
 66
     1
 10
0.0
 20
0.0
 30
0.0
 70
    16
 71
     6
 72
     3
  0
VERTEX
  5
45BD9
100
AcDbEntity
  8
0
100
AcDbVertex
100
AcDbPolygonMeshVertex
 10
3.5
 20
-1.948
 30
0.7
 70
    64
  0
VERTEX
  5
45BDA
100
AcDbEntity
  8
0
100
AcDbVertex
100
AcDbPolygonMeshVertex
 10
3.5
 20
-2.248
 30
0.7
 70
    64
  0
VERTEX
  5
45BDB
100
AcDbEntity
  8
0
100
AcDbVertex
100
AcDbPolygonMeshVertex
 10
3.5
 20
-2.248
 30
0.7
 70
    64
  0
VERTEX
  5
45BDC
100
AcDbEntity
  8
0
100
AcDbVertex
100
AcDbPolygonMeshVertex
 10
0.0
 20
-1.948
 30
0.7
 70
    64
  0
VERTEX
  5
45BDD
100
AcDbEntity
  8
0
100
AcDbVertex
100
AcDbPolygonMeshVertex
 10
0.0
 20
-2.248
 30
0.7
 70
    64
  0
VERTEX
  5
45BDE
100
AcDbEntity
  8
0
100
AcDbVertex
100
AcDbPolygonMeshVertex
 10
0.0
 20
-2.248
 30
0.7
 70
    64
  0
VERTEX
  5
45BDF
100
AcDbEntity
  8
0
100
AcDbVertex
100
AcDbPolygonMeshVertex
 10
0.0
 20
-1.948
 30
0.7
 70
    64
  0
VERTEX
  5
45BE0
100
AcDbEntity
  8
0
100
AcDbVertex
100
AcDbPolygonMeshVertex
 10
0.0
 20
-1.948
 30
0.5
 70
    64
  0
VERTEX
  5
45BE1
100
AcDbEntity
  8
0
100
AcDbVertex
100
AcDbPolygonMeshVertex
 10
0.0
 20
-2.248
 30
0.7
 70
    64
  0
VERTEX
  5
45BE2
100
AcDbEntity
  8
0
100
AcDbVertex
100
AcDbPolygonMeshVertex
 10
3.5
 20
-1.948
 30
0.7
 70
    64
  0
VERTEX
  5
45BE3
100
AcDbEntity
  8
0
100
AcDbVertex
100
AcDbPolygonMeshVertex
 10
3.5
 20
-1.948
 30
0.5
 70
    64
  0
VERTEX
  5
45BE4
100
AcDbEntity
  8
0
100
AcDbVertex
100
AcDbPolygonMeshVertex
 10
3.5
 20
-2.248
 30
0.7
 70
    64
  0
VERTEX
  5
45BE5
100
AcDbEntity
  8
0
100
AcDbVertex
100
AcDbPolygonMeshVertex
 10
3.5
 20
-1.948
 30
0.7
 70
    64
  0
VERTEX
  5
45BE6
100
AcDbEntity
  8
0
100
AcDbVertex
100
AcDbPolygonMeshVertex
 10
3.5
 20
-1.948
 30
0.7
 70
    64
  0
VERTEX
  5
45BE7
100
AcDbEntity
  8
0
100
AcDbVertex
100
AcDbPolygonMeshVertex
 10
3.5
 20
-1.948
 30
0.7
 70
    64
  0
VERTEX
  5
45BE8
100
AcDbEntity
  8
0
100
AcDbVertex
100
AcDbPolygonMeshVertex
 10
0.0
 20
-1.948
 30
0.7
 70
    64
  0
VERTEX
  5
45BE9
100
AcDbEntity
  8
0
100
AcDbVertex
100
AcDbPolygonMeshVertex
 10
0.0
 20
-1.948
 30
0.7
 70
    64
  0
VERTEX
  5
45BEA
100
AcDbEntity
  8
0
100
AcDbVertex
100
AcDbPolygonMeshVertex
 10
0.0
 20
-1.948
 30
0.7
 70
    64
  0
SEQEND
  5
45BEB
100
AcDbEntity
  8
0
  0
POLYLINE
  5
45BEC
100
AcDbEntity
  8
0
100
AcDbPolygonMesh
 66
     1
 10
0.0
 20
0.0
 30
0.0
 70
    16
 71
     6
 72
     3
  0
VERTEX
  5
45BED
100
AcDbEntity
  8
0
100
AcDbVertex
100
AcDbPolygonMeshVertex
 10
3.5
 20
-1.948
 30
0.7
 70
    64
  0
VERTEX
  5
45BEE
100
AcDbEntity
  8
0
100
AcDbVertex
100
AcDbPolygonMeshVertex
 10
3.5
 20
-1.948
 30
0.5
 70
    64
  0
VERTEX
  5
45BEF
100
AcDbEntity
  8
0
100
AcDbVertex
100
AcDbPolygonMeshVertex
 10
3.5
 20
-1.948
 30
0.5
 70
    64
  0
VERTEX
  5
45BF0
100
AcDbEntity
  8
0
100
AcDbVertex
100
AcDbPolygonMeshVertex
 10
0.0
 20
-1.948
 30
0.7
 70
    64
  0
VERTEX
  5
45BF1
100
AcDbEntity
  8
0
100
AcDbVertex
100
AcDbPolygonMeshVertex
 10
0.0
 20
-1.948
 30
0.5
 70
    64
  0
VERTEX
  5
45BF2
100
AcDbEntity
  8
0
100
AcDbVertex
100
AcDbPolygonMeshVertex
 10
0.0
 20
-1.948
 30
0.5
 70
    64
  0
VERTEX
  5
45BF3
100
AcDbEntity
  8
0
100
AcDbVertex
100
AcDbPolygonMeshVertex
 10
0.0
 20
0.552
 30
0.7
 70
    64
  0
VERTEX
  5
45BF4
100
AcDbEntity
  8
0
100
AcDbVertex
100
AcDbPolygonMeshVertex
 10
0.0
 20
0.552
 30
0.5
 70
    64
  0
VERTEX
  5
45BF5
100
AcDbEntity
  8
0
100
AcDbVertex
100
AcDbPolygonMeshVertex
 10
0.0
 20
-1.948
 30
0.5
 70
    64
  0
VERTEX
  5
45BF6
100
AcDbEntity
  8
0
100
AcDbVertex
100
AcDbPolygonMeshVertex
 10
3.5
 20
0.552
 30
0.7
 70
    64
  0
VERTEX
  5
45BF7
100
AcDbEntity
  8
0
100
AcDbVertex
100
AcDbPolygonMeshVertex
 10
3.5
 20
0.552
 30
0.5
 70
    64
  0
VERTEX
  5
45BF8
100
AcDbEntity
  8
0
100
AcDbVertex
100
AcDbPolygonMeshVertex
 10
3.5
 20
-1.948
 30
0.5
 70
    64
  0
VERTEX
  5
45BF9
100
AcDbEntity
  8
0
100
AcDbVertex
100
AcDbPolygonMeshVertex
 10
3.5
 20
0.552
 30
0.7
 70
    64
  0
VERTEX
  5
45BFA
100
AcDbEntity
  8
0
100
AcDbVertex
100
AcDbPolygonMeshVertex
 10
3.5
 20
0.552
 30
0.7
 70
    64
  0
VERTEX
  5
45BFB
100
AcDbEntity
  8
0
100
AcDbVertex
100
AcDbPolygonMeshVertex
 10
3.5
 20
-1.948
 30
0.7
 70
    64
  0
VERTEX
  5
45BFC
100
AcDbEntity
  8
0
100
AcDbVertex
100
AcDbPolygonMeshVertex
 10
0.0
 20
0.552
 30
0.7
 70
    64
  0
VERTEX
  5
45BFD
100
AcDbEntity
  8
0
100
AcDbVertex
100
AcDbPolygonMeshVertex
 10
0.0
 20
0.552
 30
0.7
 70
    64
  0
VERTEX
  5
45BFE
100
AcDbEntity
  8
0
100
AcDbVertex
100
AcDbPolygonMeshVertex
 10
0.0
 20
-1.948
 30
0.7
 70
    64
  0
SEQEND
  5
45BFF
100
AcDbEntity
  8
0
  0
POLYLINE
  5
45C00
100
AcDbEntity
  8
0
100
AcDbPolygonMesh
 66
     1
 10
0.0
 20
0.0
 30
0.0
 70
    16
 71
     6
 72
     3
  0
VERTEX
  5
45C01
100
AcDbEntity
  8
0
100
AcDbVertex
100
AcDbPolygonMeshVertex
 10
3.5
 20
-2.248
 30
1.11
 70
    64
  0
VERTEX
  5
45C02
100
AcDbEntity
  8
0
100
AcDbVertex
100
AcDbPolygonMeshVertex
 10
3.5
 20
-2.248
 30
0.7
 70
    64
  0
VERTEX
  5
45C03
100
AcDbEntity
  8
0
100
AcDbVertex
100
AcDbPolygonMeshVertex
 10
3.5
 20
-2.248
 30
0.7
 70
    64
  0
VERTEX
  5
45C04
100
AcDbEntity
  8
0
100
AcDbVertex
100
AcDbPolygonMeshVertex
 10
0.0
 20
-2.248
 30
1.11
 70
    64
  0
VERTEX
  5
45C05
100
AcDbEntity
  8
0
100
AcDbVertex
100
AcDbPolygonMeshVertex
 10
0.0
 20
-2.248
 30
0.7
 70
    64
  0
VERTEX
  5
45C06
100
AcDbEntity
  8
0
100
AcDbVertex
100
AcDbPolygonMeshVertex
 10
0.0
 20
-2.248
 30
0.7
 70
    64
  0
VERTEX
  5
45C07
100
AcDbEntity
  8
0
100
AcDbVertex
100
AcDbPolygonMeshVertex
 10
0.0
 20
0.752
 30
1.11
 70
    64
  0
VERTEX
  5
45C08
100
AcDbEntity
  8
0
100
AcDbVertex
100
AcDbPolygonMeshVertex
 10
0.0
 20
0.752
 30
0.7
 70
    64
  0
VERTEX
  5
45C09
100
AcDbEntity
  8
0
100
AcDbVertex
100
AcDbPolygonMeshVertex
 10
0.0
 20
-2.248
 30
0.7
 70
    64
  0
VERTEX
  5
45C0A
100
AcDbEntity
  8
0
100
AcDbVertex
100
AcDbPolygonMeshVertex
 10
3.5
 20
0.752
 30
1.11
 70
    64
  0
VERTEX
  5
45C0B
100
AcDbEntity
  8
0
100
AcDbVertex
100
AcDbPolygonMeshVertex
 10
3.5
 20
0.752
 30
0.7
 70
    64
  0
VERTEX
  5
45C0C
100
AcDbEntity
  8
0
100
AcDbVertex
100
AcDbPolygonMeshVertex
 10
3.5
 20
-2.248
 30
0.7
 70
    64
  0
VERTEX
  5
45C0D
100
AcDbEntity
  8
0
100
AcDbVertex
100
AcDbPolygonMeshVertex
 10
3.5
 20
0.752
 30
1.11
 70
    64
  0
VERTEX
  5
45C0E
100
AcDbEntity
  8
0
100
AcDbVertex
100
AcDbPolygonMeshVertex
 10
3.5
 20
0.752
 30
1.11
 70
    64
  0
VERTEX
  5
45C0F
100
AcDbEntity
  8
0
100
AcDbVertex
100
AcDbPolygonMeshVertex
 10
3.5
 20
-2.248
 30
1.11
 70
    64
  0
VERTEX
  5
45C10
100
AcDbEntity
  8
0
100
AcDbVertex
100
AcDbPolygonMeshVertex
 10
0.0
 20
0.752
 30
1.11
 70
    64
  0
VERTEX
  5
45C11
100
AcDbEntity
  8
0
100
AcDbVertex
100
AcDbPolygonMeshVertex
 10
0.0
 20
0.752
 30
1.11
 70
    64
  0
VERTEX
  5
45C12
100
AcDbEntity
  8
0
100
AcDbVertex
100
AcDbPolygonMeshVertex
 10
0.0
 20
-2.248
 30
1.11
 70
    64
  0
SEQEND
  5
45C13
100
AcDbEntity
  8
0
  0
POLYLINE
  5
45C14
100
AcDbEntity
  8
0
100
AcDbPolygonMesh
 66
     1
 10
0.0
 20
0.0
 30
0.0
 70
    16
 71
     6
 72
     3
  0
VERTEX
  5
45C15
100
AcDbEntity
  8
0
100
AcDbVertex
100
AcDbPolygonMeshVertex
 10
0.78
 20
-1.408
 30
0.5
 70
    64
  0
VERTEX
  5
45C16
100
AcDbEntity
  8
0
100
AcDbVertex
100
AcDbPolygonMeshVertex
 10
0.78
 20
-1.408
 30
0.3
 70
    64
  0
VERTEX
  5
45C17
100
AcDbEntity
  8
0
100
AcDbVertex
100
AcDbPolygonMeshVertex
 10
0.78
 20
-1.408
 30
0.3
 70
    64
  0
VERTEX
  5
45C18
100
AcDbEntity
  8
0
100
AcDbVertex
100
AcDbPolygonMeshVertex
 10
0.0
 20
-1.408
 30
0.5
 70
    64
  0
VERTEX
  5
45C19
100
AcDbEntity
  8
0
100
AcDbVertex
100
AcDbPolygonMeshVertex
 10
0.0
 20
-1.408
 30
0.3
 70
    64
  0
VERTEX
  5
45C1A
100
AcDbEntity
  8
0
100
AcDbVertex
100
AcDbPolygonMeshVertex
 10
0.0
 20
-1.408
 30
0.3
 70
    64
  0
VERTEX
  5
45C1B
100
AcDbEntity
  8
0
100
AcDbVertex
100
AcDbPolygonMeshVertex
 10
0.0
 20
0.0
 30
0.5
 70
    64
  0
VERTEX
  5
45C1C
100
AcDbEntity
  8
0
100
AcDbVertex
100
AcDbPolygonMeshVertex
 10
0.0
 20
0.0
 30
0.3
 70
    64
  0
VERTEX
  5
45C1D
100
AcDbEntity
  8
0
100
AcDbVertex
100
AcDbPolygonMeshVertex
 10
0.0
 20
-1.408
 30
0.3
 70
    64
  0
VERTEX
  5
45C1E
100
AcDbEntity
  8
0
100
AcDbVertex
100
AcDbPolygonMeshVertex
 10
0.78
 20
0.0
 30
0.5
 70
    64
  0
VERTEX
  5
45C1F
100
AcDbEntity
  8
0
100
AcDbVertex
100
AcDbPolygonMeshVertex
 10
0.78
 20
0.0
 30
0.3
 70
    64
  0
VERTEX
  5
45C20
100
AcDbEntity
  8
0
100
AcDbVertex
100
AcDbPolygonMeshVertex
 10
0.78
 20
-1.408
 30
0.3
 70
    64
  0
VERTEX
  5
45C21
100
AcDbEntity
  8
0
100
AcDbVertex
100
AcDbPolygonMeshVertex
 10
0.78
 20
0.0
 30
0.5
 70
    64
  0
VERTEX
  5
45C22
100
AcDbEntity
  8
0
100
AcDbVertex
100
AcDbPolygonMeshVertex
 10
0.78
 20
0.0
 30
0.5
 70
    64
  0
VERTEX
  5
45C23
100
AcDbEntity
  8
0
100
AcDbVertex
100
AcDbPolygonMeshVertex
 10
0.78
 20
-1.408
 30
0.5
 70
    64
  0
VERTEX
  5
45C24
100
AcDbEntity
  8
0
100
AcDbVertex
100
AcDbPolygonMeshVertex
 10
0.0
 20
0.0
 30
0.5
 70
    64
  0
VERTEX
  5
45C25
100
AcDbEntity
  8
0
100
AcDbVertex
100
AcDbPolygonMeshVertex
 10
0.0
 20
0.0
 30
0.5
 70
    64
  0
VERTEX
  5
45C26
100
AcDbEntity
  8
0
100
AcDbVertex
100
AcDbPolygonMeshVertex
 10
0.0
 20
-1.408
 30
0.5
 70
    64
  0
SEQEND
  5
45C27
100
AcDbEntity
  8
0
  0
POLYLINE
  5
45C28
100
AcDbEntity
  8
0
100
AcDbPolygonMesh
 66
     1
 10
0.0
 20
0.0
 30
0.0
 70
    16
 71
     6
 72
     3
  0
VERTEX
  5
45C29
100
AcDbEntity
  8
0
100
AcDbVertex
100
AcDbPolygonMeshVertex
 10
0.78
 20
-1.948
 30
0.5
 70
    64
  0
VERTEX
  5
45C2A
100
AcDbEntity
  8
0
100
AcDbVertex
100
AcDbPolygonMeshVertex
 10
0.78
 20
-1.948
 30
0.0
 70
    64
  0
VERTEX
  5
45C2B
100
AcDbEntity
  8
0
100
AcDbVertex
100
AcDbPolygonMeshVertex
 10
0.78
 20
-1.948
 30
0.0
 70
    64
  0
VERTEX
  5
45C2C
100
AcDbEntity
  8
0
100
AcDbVertex
100
AcDbPolygonMeshVertex
 10
0.0
 20
-1.948
 30
0.5
 70
    64
  0
VERTEX
  5
45C2D
100
AcDbEntity
  8
0
100
AcDbVertex
100
AcDbPolygonMeshVertex
 10
0.0
 20
-1.948
 30
0.0
 70
    64
  0
VERTEX
  5
45C2E
100
AcDbEntity
  8
0
100
AcDbVertex
100
AcDbPolygonMeshVertex
 10
0.0
 20
-1.948
 30
0.0
 70
    64
  0
VERTEX
  5
45C2F
100
AcDbEntity
  8
0
100
AcDbVertex
100
AcDbPolygonMeshVertex
 10
0.0
 20
-1.408
 30
0.5
 70
    64
  0
VERTEX
  5
45C30
100
AcDbEntity
  8
0
100
AcDbVertex
100
AcDbPolygonMeshVertex
 10
0.0
 20
-1.408
 30
0.0
 70
    64
  0
VERTEX
  5
45C31
100
AcDbEntity
  8
0
100
AcDbVertex
100
AcDbPolygonMeshVertex
 10
0.0
 20
-1.948
 30
0.0
 70
    64
  0
VERTEX
  5
45C32
100
AcDbEntity
  8
0
100
AcDbVertex
100
AcDbPolygonMeshVertex
 10
0.78
 20
-1.408
 30
0.5
 70
    64
  0
VERTEX
  5
45C33
100
AcDbEntity
  8
0
100
AcDbVertex
100
AcDbPolygonMeshVertex
 10
0.78
 20
-1.408
 30
0.0
 70
    64
  0
VERTEX
  5
45C34
100
AcDbEntity
  8
0
100
AcDbVertex
100
AcDbPolygonMeshVertex
 10
0.78
 20
-1.948
 30
0.0
 70
    64
  0
VERTEX
  5
45C35
100
AcDbEntity
  8
0
100
AcDbVertex
100
AcDbPolygonMeshVertex
 10
0.78
 20
-1.408
 30
0.5
 70
    64
  0
VERTEX
  5
45C36
100
AcDbEntity
  8
0
100
AcDbVertex
100
AcDbPolygonMeshVertex
 10
0.78
 20
-1.408
 30
0.5
 70
    64
  0
VERTEX
  5
45C37
100
AcDbEntity
  8
0
100
AcDbVertex
100
AcDbPolygonMeshVertex
 10
0.78
 20
-1.948
 30
0.5
 70
    64
  0
VERTEX
  5
45C38
100
AcDbEntity
  8
0
100
AcDbVertex
100
AcDbPolygonMeshVertex
 10
0.0
 20
-1.408
 30
0.5
 70
    64
  0
VERTEX
  5
45C39
100
AcDbEntity
  8
0
100
AcDbVertex
100
AcDbPolygonMeshVertex
 10
0.0
 20
-1.408
 30
0.5
 70
    64
  0
VERTEX
  5
45C3A
100
AcDbEntity
  8
0
100
AcDbVertex
100
AcDbPolygonMeshVertex
 10
0.0
 20
-1.948
 30
0.5
 70
    64
  0
SEQEND
  5
45C3B
100
AcDbEntity
  8
0
  0
POLYLINE
  5
45C3C
100
AcDbEntity
  8
0
100
AcDbPolygonMesh
 66
     1
 10
0.0
 20
0.0
 30
0.0
 70
    16
 71
     6
 72
     3
  0
VERTEX
  5
45C3D
100
AcDbEntity
  8
0
100
AcDbVertex
100
AcDbPolygonMeshVertex
 10
0.78
 20
-2.248
 30
0.2
 70
    64
  0
VERTEX
  5
45C3E
100
AcDbEntity
  8
0
100
AcDbVertex
100
AcDbPolygonMeshVertex
 10
0.78
 20
-2.248
 30
0.0
 70
    64
  0
VERTEX
  5
45C3F
100
AcDbEntity
  8
0
100
AcDbVertex
100
AcDbPolygonMeshVertex
 10
0.78
 20
-2.248
 30
0.0
 70
    64
  0
VERTEX
  5
45C40
100
AcDbEntity
  8
0
100
AcDbVertex
100
AcDbPolygonMeshVertex
 10
0.0
 20
-2.248
 30
0.2
 70
    64
  0
VERTEX
  5
45C41
100
AcDbEntity
  8
0
100
AcDbVertex
100
AcDbPolygonMeshVertex
 10
0.0
 20
-2.248
 30
0.0
 70
    64
  0
VERTEX
  5
45C42
100
AcDbEntity
  8
0
100
AcDbVertex
100
AcDbPolygonMeshVertex
 10
0.0
 20
-2.248
 30
0.0
 70
    64
  0
VERTEX
  5
45C43
100
AcDbEntity
  8
0
100
AcDbVertex
100
AcDbPolygonMeshVertex
 10
0.0
 20
-1.948
 30
0.2
 70
    64
  0
VERTEX
  5
45C44
100
AcDbEntity
  8
0
100
AcDbVertex
100
AcDbPolygonMeshVertex
 10
0.0
 20
-1.948
 30
0.0
 70
    64
  0
VERTEX
  5
45C45
100
AcDbEntity
  8
0
100
AcDbVertex
100
AcDbPolygonMeshVertex
 10
0.0
 20
-2.248
 30
0.0
 70
    64
  0
VERTEX
  5
45C46
100
AcDbEntity
  8
0
100
AcDbVertex
100
AcDbPolygonMeshVertex
 10
0.78
 20
-1.948
 30
0.2
 70
    64
  0
VERTEX
  5
45C47
100
AcDbEntity
  8
0
100
AcDbVertex
100
AcDbPolygonMeshVertex
 10
0.78
 20
-1.948
 30
0.0
 70
    64
  0
VERTEX
  5
45C48
100
AcDbEntity
  8
0
100
AcDbVertex
100
AcDbPolygonMeshVertex
 10
0.78
 20
-2.248
 30
0.0
 70
    64
  0
VERTEX
  5
45C49
100
AcDbEntity
  8
0
100
AcDbVertex
100
AcDbPolygonMeshVertex
 10
0.78
 20
-1.948
 30
0.2
 70
    64
  0
VERTEX
  5
45C4A
100
AcDbEntity
  8
0
100
AcDbVertex
100
AcDbPolygonMeshVertex
 10
0.78
 20
-1.948
 30
0.2
 70
    64
  0
VERTEX
  5
45C4B
100
AcDbEntity
  8
0
100
AcDbVertex
100
AcDbPolygonMeshVertex
 10
0.78
 20
-2.248
 30
0.2
 70
    64
  0
VERTEX
  5
45C4C
100
AcDbEntity
  8
0
100
AcDbVertex
100
AcDbPolygonMeshVertex
 10
0.0
 20
-1.948
 30
0.2
 70
    64
  0
VERTEX
  5
45C4D
100
AcDbEntity
  8
0
100
AcDbVertex
100
AcDbPolygonMeshVertex
 10
0.0
 20
-1.948
 30
0.2
 70
    64
  0
VERTEX
  5
45C4E
100
AcDbEntity
  8
0
100
AcDbVertex
100
AcDbPolygonMeshVertex
 10
0.0
 20
-2.248
 30
0.2
 70
    64
  0
SEQEND
  5
45C4F
100
AcDbEntity
  8
0
  0
POLYLINE
  5
45C50
100
AcDbEntity
  8
0
100
AcDbPolygonMesh
 66
     1
 10
0.0
 20
0.0
 30
0.0
 70
    16
 71
     6
 72
     3
  0
VERTEX
  5
45C51
100
AcDbEntity
  8
0
100
AcDbVertex
100
AcDbPolygonMeshVertex
 10
0.78
 20
0.0
 30
0.5
 70
    64
  0
VERTEX
  5
45C52
100
AcDbEntity
  8
0
100
AcDbVertex
100
AcDbPolygonMeshVertex
 10
0.78
 20
0.0
 30
0.0
 70
    64
  0
VERTEX
  5
45C53
100
AcDbEntity
  8
0
100
AcDbVertex
100
AcDbPolygonMeshVertex
 10
0.78
 20
0.0
 30
0.0
 70
    64
  0
VERTEX
  5
45C54
100
AcDbEntity
  8
0
100
AcDbVertex
100
AcDbPolygonMeshVertex
 10
0.0
 20
0.0
 30
0.5
 70
    64
  0
VERTEX
  5
45C55
100
AcDbEntity
  8
0
100
AcDbVertex
100
AcDbPolygonMeshVertex
 10
0.0
 20
0.0
 30
0.0
 70
    64
  0
VERTEX
  5
45C56
100
AcDbEntity
  8
0
100
AcDbVertex
100
AcDbPolygonMeshVertex
 10
0.0
 20
0.0
 30
0.0
 70
    64
  0
VERTEX
  5
45C57
100
AcDbEntity
  8
0
100
AcDbVertex
100
AcDbPolygonMeshVertex
 10
0.0
 20
0.215
 30
0.5
 70
    64
  0
VERTEX
  5
45C58
100
AcDbEntity
  8
0
100
AcDbVertex
100
AcDbPolygonMeshVertex
 10
0.0
 20
0.215
 30
0.0
 70
    64
  0
VERTEX
  5
45C59
100
AcDbEntity
  8
0
100
AcDbVertex
100
AcDbPolygonMeshVertex
 10
0.0
 20
0.0
 30
0.0
 70
    64
  0
VERTEX
  5
45C5A
100
AcDbEntity
  8
0
100
AcDbVertex
100
AcDbPolygonMeshVertex
 10
0.78
 20
0.215
 30
0.5
 70
    64
  0
VERTEX
  5
45C5B
100
AcDbEntity
  8
0
100
AcDbVertex
100
AcDbPolygonMeshVertex
 10
0.78
 20
0.215
 30
0.0
 70
    64
  0
VERTEX
  5
45C5C
100
AcDbEntity
  8
0
100
AcDbVertex
100
AcDbPolygonMeshVertex
 10
0.78
 20
0.0
 30
0.0
 70
    64
  0
VERTEX
  5
45C5D
100
AcDbEntity
  8
0
100
AcDbVertex
100
AcDbPolygonMeshVertex
 10
0.78
 20
0.215
 30
0.5
 70
    64
  0
VERTEX
  5
45C5E
100
AcDbEntity
  8
0
100
AcDbVertex
100
AcDbPolygonMeshVertex
 10
0.78
 20
0.215
 30
0.5
 70
    64
  0
VERTEX
  5
45C5F
100
AcDbEntity
  8
0
100
AcDbVertex
100
AcDbPolygonMeshVertex
 10
0.78
 20
0.0
 30
0.5
 70
    64
  0
VERTEX
  5
45C60
100
AcDbEntity
  8
0
100
AcDbVertex
100
AcDbPolygonMeshVertex
 10
0.0
 20
0.215
 30
0.5
 70
    64
  0
VERTEX
  5
45C61
100
AcDbEntity
  8
0
100
AcDbVertex
100
AcDbPolygonMeshVertex
 10
0.0
 20
0.215
 30
0.5
 70
    64
  0
VERTEX
  5
45C62
100
AcDbEntity
  8
0
100
AcDbVertex
100
AcDbPolygonMeshVertex
 10
0.0
 20
0.0
 30
0.5
 70
    64
  0
SEQEND
  5
45C63
100
AcDbEntity
  8
0
  0
POINT
  5
45C64
100
AcDbEntity
  8
SNAP_POINTS
100
AcDbPoint
 10
0.0
 20
0.0
 30
0.0
  0
POLYLINE
  5
45C65
100
AcDbEntity
  8
0
100
AcDbPolygonMesh
 66
     1
 10
0.0
 20
0.0
 30
0.0
 70
    16
 71
     6
 72
     3
  0
VERTEX
  5
45C66
100
AcDbEntity
  8
0
100
AcDbVertex
100
AcDbPolygonMeshVertex
 10
3.5
 20
-1.408
 30
0.5
 70
    64
  0
VERTEX
  5
45C67
100
AcDbEntity
  8
0
100
AcDbVertex
100
AcDbPolygonMeshVertex
 10
3.5
 20
-1.408
 30
0.3
 70
    64
  0
VERTEX
  5
45C68
100
AcDbEntity
  8
0
100
AcDbVertex
100
AcDbPolygonMeshVertex
 10
3.5
 20
-1.408
 30
0.3
 70
    64
  0
VERTEX
  5
45C69
100
AcDbEntity
  8
0
100
AcDbVertex
100
AcDbPolygonMeshVertex
 10
2.72
 20
-1.408
 30
0.5
 70
    64
  0
VERTEX
  5
45C6A
100
AcDbEntity
  8
0
100
AcDbVertex
100
AcDbPolygonMeshVertex
 10
2.72
 20
-1.408
 30
0.3
 70
    64
  0
VERTEX
  5
45C6B
100
AcDbEntity
  8
0
100
AcDbVertex
100
AcDbPolygonMeshVertex
 10
2.72
 20
-1.408
 30
0.3
 70
    64
  0
VERTEX
  5
45C6C
100
AcDbEntity
  8
0
100
AcDbVertex
100
AcDbPolygonMeshVertex
 10
2.72
 20
0.0
 30
0.5
 70
    64
  0
VERTEX
  5
45C6D
100
AcDbEntity
  8
0
100
AcDbVertex
100
AcDbPolygonMeshVertex
 10
2.72
 20
0.0
 30
0.3
 70
    64
  0
VERTEX
  5
45C6E
100
AcDbEntity
  8
0
100
AcDbVertex
100
AcDbPolygonMeshVertex
 10
2.72
 20
-1.408
 30
0.3
 70
    64
  0
VERTEX
  5
45C6F
100
AcDbEntity
  8
0
100
AcDbVertex
100
AcDbPolygonMeshVertex
 10
3.5
 20
0.0
 30
0.5
 70
    64
  0
VERTEX
  5
45C70
100
AcDbEntity
  8
0
100
AcDbVertex
100
AcDbPolygonMeshVertex
 10
3.5
 20
0.0
 30
0.3
 70
    64
  0
VERTEX
  5
45C71
100
AcDbEntity
  8
0
100
AcDbVertex
100
AcDbPolygonMeshVertex
 10
3.5
 20
-1.408
 30
0.3
 70
    64
  0
VERTEX
  5
45C72
100
AcDbEntity
  8
0
100
AcDbVertex
100
AcDbPolygonMeshVertex
 10
3.5
 20
0.0
 30
0.5
 70
    64
  0
VERTEX
  5
45C73
100
AcDbEntity
  8
0
100
AcDbVertex
100
AcDbPolygonMeshVertex
 10
3.5
 20
0.0
 30
0.5
 70
    64
  0
VERTEX
  5
45C74
100
AcDbEntity
  8
0
100
AcDbVertex
100
AcDbPolygonMeshVertex
 10
3.5
 20
-1.408
 30
0.5
 70
    64
  0
VERTEX
  5
45C75
100
AcDbEntity
  8
0
100
AcDbVertex
100
AcDbPolygonMeshVertex
 10
2.72
 20
0.0
 30
0.5
 70
    64
  0
VERTEX
  5
45C76
100
AcDbEntity
  8
0
100
AcDbVertex
100
AcDbPolygonMeshVertex
 10
2.72
 20
0.0
 30
0.5
 70
    64
  0
VERTEX
  5
45C77
100
AcDbEntity
  8
0
100
AcDbVertex
100
AcDbPolygonMeshVertex
 10
2.72
 20
-1.408
 30
0.5
 70
    64
  0
SEQEND
  5
45C78
100
AcDbEntity
  8
0
  0
POLYLINE
  5
45C79
100
AcDbEntity
  8
0
100
AcDbPolygonMesh
 66
     1
 10
0.0
 20
0.0
 30
0.0
 70
    16
 71
     6
 72
     3
  0
VERTEX
  5
45C7A
100
AcDbEntity
  8
0
100
AcDbVertex
100
AcDbPolygonMeshVertex
 10
3.5
 20
-1.948
 30
0.5
 70
    64
  0
VERTEX
  5
45C7B
100
AcDbEntity
  8
0
100
AcDbVertex
100
AcDbPolygonMeshVertex
 10
3.5
 20
-1.948
 30
0.0
 70
    64
  0
VERTEX
  5
45C7C
100
AcDbEntity
  8
0
100
AcDbVertex
100
AcDbPolygonMeshVertex
 10
3.5
 20
-1.948
 30
0.0
 70
    64
  0
VERTEX
  5
45C7D
100
AcDbEntity
  8
0
100
AcDbVertex
100
AcDbPolygonMeshVertex
 10
2.72
 20
-1.948
 30
0.5
 70
    64
  0
VERTEX
  5
45C7E
100
AcDbEntity
  8
0
100
AcDbVertex
100
AcDbPolygonMeshVertex
 10
2.72
 20
-1.948
 30
0.0
 70
    64
  0
VERTEX
  5
45C7F
100
AcDbEntity
  8
0
100
AcDbVertex
100
AcDbPolygonMeshVertex
 10
2.72
 20
-1.948
 30
0.0
 70
    64
  0
VERTEX
  5
45C80
100
AcDbEntity
  8
0
100
AcDbVertex
100
AcDbPolygonMeshVertex
 10
2.72
 20
-1.408
 30
0.5
 70
    64
  0
VERTEX
  5
45C81
100
AcDbEntity
  8
0
100
AcDbVertex
100
AcDbPolygonMeshVertex
 10
2.72
 20
-1.408
 30
0.0
 70
    64
  0
VERTEX
  5
45C82
100
AcDbEntity
  8
0
100
AcDbVertex
100
AcDbPolygonMeshVertex
 10
2.72
 20
-1.948
 30
0.0
 70
    64
  0
VERTEX
  5
45C83
100
AcDbEntity
  8
0
100
AcDbVertex
100
AcDbPolygonMeshVertex
 10
3.5
 20
-1.408
 30
0.5
 70
    64
  0
VERTEX
  5
45C84
100
AcDbEntity
  8
0
100
AcDbVertex
100
AcDbPolygonMeshVertex
 10
3.5
 20
-1.408
 30
0.0
 70
    64
  0
VERTEX
  5
45C85
100
AcDbEntity
  8
0
100
AcDbVertex
100
AcDbPolygonMeshVertex
 10
3.5
 20
-1.948
 30
0.0
 70
    64
  0
VERTEX
  5
45C86
100
AcDbEntity
  8
0
100
AcDbVertex
100
AcDbPolygonMeshVertex
 10
3.5
 20
-1.408
 30
0.5
 70
    64
  0
VERTEX
  5
45C87
100
AcDbEntity
  8
0
100
AcDbVertex
100
AcDbPolygonMeshVertex
 10
3.5
 20
-1.408
 30
0.5
 70
    64
  0
VERTEX
  5
45C88
100
AcDbEntity
  8
0
100
AcDbVertex
100
AcDbPolygonMeshVertex
 10
3.5
 20
-1.948
 30
0.5
 70
    64
  0
VERTEX
  5
45C89
100
AcDbEntity
  8
0
100
AcDbVertex
100
AcDbPolygonMeshVertex
 10
2.72
 20
-1.408
 30
0.5
 70
    64
  0
VERTEX
  5
45C8A
100
AcDbEntity
  8
0
100
AcDbVertex
100
AcDbPolygonMeshVertex
 10
2.72
 20
-1.408
 30
0.5
 70
    64
  0
VERTEX
  5
45C8B
100
AcDbEntity
  8
0
100
AcDbVertex
100
AcDbPolygonMeshVertex
 10
2.72
 20
-1.948
 30
0.5
 70
    64
  0
SEQEND
  5
45C8C
100
AcDbEntity
  8
0
  0
POLYLINE
  5
45C8D
100
AcDbEntity
  8
0
100
AcDbPolygonMesh
 66
     1
 10
0.0
 20
0.0
 30
0.0
 70
    16
 71
     6
 72
     3
  0
VERTEX
  5
45C8E
100
AcDbEntity
  8
0
100
AcDbVertex
100
AcDbPolygonMeshVertex
 10
3.5
 20
-2.248
 30
0.2
 70
    64
  0
VERTEX
  5
45C8F
100
AcDbEntity
  8
0
100
AcDbVertex
100
AcDbPolygonMeshVertex
 10
3.5
 20
-2.248
 30
0.0
 70
    64
  0
VERTEX
  5
45C90
100
AcDbEntity
  8
0
100
AcDbVertex
100
AcDbPolygonMeshVertex
 10
3.5
 20
-2.248
 30
0.0
 70
    64
  0
VERTEX
  5
45C91
100
AcDbEntity
  8
0
100
AcDbVertex
100
AcDbPolygonMeshVertex
 10
2.72
 20
-2.248
 30
0.2
 70
    64
  0
VERTEX
  5
45C92
100
AcDbEntity
  8
0
100
AcDbVertex
100
AcDbPolygonMeshVertex
 10
2.72
 20
-2.248
 30
0.0
 70
    64
  0
VERTEX
  5
45C93
100
AcDbEntity
  8
0
100
AcDbVertex
100
AcDbPolygonMeshVertex
 10
2.72
 20
-2.248
 30
0.0
 70
    64
  0
VERTEX
  5
45C94
100
AcDbEntity
  8
0
100
AcDbVertex
100
AcDbPolygonMeshVertex
 10
2.72
 20
-1.948
 30
0.2
 70
    64
  0
VERTEX
  5
45C95
100
AcDbEntity
  8
0
100
AcDbVertex
100
AcDbPolygonMeshVertex
 10
2.72
 20
-1.948
 30
0.0
 70
    64
  0
VERTEX
  5
45C96
100
AcDbEntity
  8
0
100
AcDbVertex
100
AcDbPolygonMeshVertex
 10
2.72
 20
-2.248
 30
0.0
 70
    64
  0
VERTEX
  5
45C97
100
AcDbEntity
  8
0
100
AcDbVertex
100
AcDbPolygonMeshVertex
 10
3.5
 20
-1.948
 30
0.2
 70
    64
  0
VERTEX
  5
45C98
100
AcDbEntity
  8
0
100
AcDbVertex
100
AcDbPolygonMeshVertex
 10
3.5
 20
-1.948
 30
0.0
 70
    64
  0
VERTEX
  5
45C99
100
AcDbEntity
  8
0
100
AcDbVertex
100
AcDbPolygonMeshVertex
 10
3.5
 20
-2.248
 30
0.0
 70
    64
  0
VERTEX
  5
45C9A
100
AcDbEntity
  8
0
100
AcDbVertex
100
AcDbPolygonMeshVertex
 10
3.5
 20
-1.948
 30
0.2
 70
    64
  0
VERTEX
  5
45C9B
100
AcDbEntity
  8
0
100
AcDbVertex
100
AcDbPolygonMeshVertex
 10
3.5
 20
-1.948
 30
0.2
 70
    64
  0
VERTEX
  5
45C9C
100
AcDbEntity
  8
0
100
AcDbVertex
100
AcDbPolygonMeshVertex
 10
3.5
 20
-2.248
 30
0.2
 70
    64
  0
VERTEX
  5
45C9D
100
AcDbEntity
  8
0
100
AcDbVertex
100
AcDbPolygonMeshVertex
 10
2.72
 20
-1.948
 30
0.2
 70
    64
  0
VERTEX
  5
45C9E
100
AcDbEntity
  8
0
100
AcDbVertex
100
AcDbPolygonMeshVertex
 10
2.72
 20
-1.948
 30
0.2
 70
    64
  0
VERTEX
  5
45C9F
100
AcDbEntity
  8
0
100
AcDbVertex
100
AcDbPolygonMeshVertex
 10
2.72
 20
-2.248
 30
0.2
 70
    64
  0
SEQEND
  5
45CA0
100
AcDbEntity
  8
0
  0
POLYLINE
  5
45CA1
100
AcDbEntity
  8
0
100
AcDbPolygonMesh
 66
     1
 10
0.0
 20
0.0
 30
0.0
 70
    16
 71
     6
 72
     3
  0
VERTEX
  5
45CA2
100
AcDbEntity
  8
0
100
AcDbVertex
100
AcDbPolygonMeshVertex
 10
3.5
 20
0.0
 30
0.5
 70
    64
  0
VERTEX
  5
45CA3
100
AcDbEntity
  8
0
100
AcDbVertex
100
AcDbPolygonMeshVertex
 10
3.5
 20
0.0
 30
0.0
 70
    64
  0
VERTEX
  5
45CA4
100
AcDbEntity
  8
0
100
AcDbVertex
100
AcDbPolygonMeshVertex
 10
3.5
 20
0.0
 30
0.0
 70
    64
  0
VERTEX
  5
45CA5
100
AcDbEntity
  8
0
100
AcDbVertex
100
AcDbPolygonMeshVertex
 10
2.72
 20
0.0
 30
0.5
 70
    64
  0
VERTEX
  5
45CA6
100
AcDbEntity
  8
0
100
AcDbVertex
100
AcDbPolygonMeshVertex
 10
2.72
 20
0.0
 30
0.0
 70
    64
  0
VERTEX
  5
45CA7
100
AcDbEntity
  8
0
100
AcDbVertex
100
AcDbPolygonMeshVertex
 10
2.72
 20
0.0
 30
0.0
 70
    64
  0
VERTEX
  5
45CA8
100
AcDbEntity
  8
0
100
AcDbVertex
100
AcDbPolygonMeshVertex
 10
2.72
 20
0.215
 30
0.5
 70
    64
  0
VERTEX
  5
45CA9
100
AcDbEntity
  8
0
100
AcDbVertex
100
AcDbPolygonMeshVertex
 10
2.72
 20
0.215
 30
0.0
 70
    64
  0
VERTEX
  5
45CAA
100
AcDbEntity
  8
0
100
AcDbVertex
100
AcDbPolygonMeshVertex
 10
2.72
 20
0.0
 30
0.0
 70
    64
  0
VERTEX
  5
45CAB
100
AcDbEntity
  8
0
100
AcDbVertex
100
AcDbPolygonMeshVertex
 10
3.5
 20
0.215
 30
0.5
 70
    64
  0
VERTEX
  5
45CAC
100
AcDbEntity
  8
0
100
AcDbVertex
100
AcDbPolygonMeshVertex
 10
3.5
 20
0.215
 30
0.0
 70
    64
  0
VERTEX
  5
45CAD
100
AcDbEntity
  8
0
100
AcDbVertex
100
AcDbPolygonMeshVertex
 10
3.5
 20
0.0
 30
0.0
 70
    64
  0
VERTEX
  5
45CAE
100
AcDbEntity
  8
0
100
AcDbVertex
100
AcDbPolygonMeshVertex
 10
3.5
 20
0.215
 30
0.5
 70
    64
  0
VERTEX
  5
45CAF
100
AcDbEntity
  8
0
100
AcDbVertex
100
AcDbPolygonMeshVertex
 10
3.5
 20
0.215
 30
0.5
 70
    64
  0
VERTEX
  5
45CB0
100
AcDbEntity
  8
0
100
AcDbVertex
100
AcDbPolygonMeshVertex
 10
3.5
 20
0.0
 30
0.5
 70
    64
  0
VERTEX
  5
45CB1
100
AcDbEntity
  8
0
100
AcDbVertex
100
AcDbPolygonMeshVertex
 10
2.72
 20
0.215
 30
0.5
 70
    64
  0
VERTEX
  5
45CB2
100
AcDbEntity
  8
0
100
AcDbVertex
100
AcDbPolygonMeshVertex
 10
2.72
 20
0.215
 30
0.5
 70
    64
  0
VERTEX
  5
45CB3
100
AcDbEntity
  8
0
100
AcDbVertex
100
AcDbPolygonMeshVertex
 10
2.72
 20
0.0
 30
0.5
 70
    64
  0
SEQEND
  5
45CB4
100
AcDbEntity
  8
0
  0
CIRCLE
  5
45CB5
100
AcDbEntity
  8
0
100
AcDbCircle
 10
2.189491
 20
0.241003
 30
1.515
 40
0.035
  0
CIRCLE
  5
45CB6
100
AcDbEntity
  8
0
100
AcDbCircle
 10
2.244491
 20
0.351003
 30
1.515
 40
0.035
  0
LINE
  5
45CB7
100
AcDbEntity
  8
0
100
AcDbLine
 10
0.937
 20
0.146
 30
1.515
 11
2.562
 21
0.146
 31
1.515
  0
LINE
  5
45CB8
100
AcDbEntity
  8
0
100
AcDbLine
 10
2.487
 20
0.446
 30
1.515
 11
1.012
 21
0.446
 31
1.515
  0
CIRCLE
  5
45CB9
100
AcDbEntity
  8
0
100
AcDbCircle
 10
2.199991
 20
-1.900397
 30
1.74
 40
0.075
  0
LINE
  5
45CBA
100
AcDbEntity
  8
0
100
AcDbLine
 10
2.24734
 20
-1.842686
 30
1.74
 11
2.181739
 21
-1.973262
 31
1.74
  0
LINE
  5
45CBB
100
AcDbEntity
  8
0
100
AcDbLine
 10
2.221417
 20
-1.828941
 30
1.74
 11
2.155287
 21
-1.961632
 31
1.74
  0
POLYLINE
  5
45CBC
100
AcDbEntity
  8
0
100
AcDbPolygonMesh
 66
     1
 10
0.0
 20
0.0
 30
0.0
 70
    16
 71
     6
 72
     3
  0
VERTEX
  5
45CBD
100
AcDbEntity
  8
0
100
AcDbVertex
100
AcDbPolygonMeshVertex
 10
2.7
 20
-1.673
 30
2.03
 70
    64
  0
VERTEX
  5
45CBE
100
AcDbEntity
  8
0
100
AcDbVertex
100
AcDbPolygonMeshVertex
 10
2.7
 20
-1.673
 30
1.74
 70
    64
  0
VERTEX
  5
45CBF
100
AcDbEntity
  8
0
100
AcDbVertex
100
AcDbPolygonMeshVertex
 10
2.7
 20
-1.673
 30
1.74
 70
    64
  0
VERTEX
  5
45CC0
100
AcDbEntity
  8
0
100
AcDbVertex
100
AcDbPolygonMeshVertex
 10
0.8
 20
-1.673
 30
2.03
 70
    64
  0
VERTEX
  5
45CC1
100
AcDbEntity
  8
0
100
AcDbVertex
100
AcDbPolygonMeshVertex
 10
0.8
 20
-1.673
 30
1.74
 70
    64
  0
VERTEX
  5
45CC2
100
AcDbEntity
  8
0
100
AcDbVertex
100
AcDbPolygonMeshVertex
 10
0.8
 20
-1.673
 30
1.74
 70
    64
  0
VERTEX
  5
45CC3
100
AcDbEntity
  8
0
100
AcDbVertex
100
AcDbPolygonMeshVertex
 10
0.8
 20
-1.588
 30
2.03
 70
    64
  0
VERTEX
  5
45CC4
100
AcDbEntity
  8
0
100
AcDbVertex
100
AcDbPolygonMeshVertex
 10
0.8
 20
-1.588
 30
1.74
 70
    64
  0
VERTEX
  5
45CC5
100
AcDbEntity
  8
0
100
AcDbVertex
100
AcDbPolygonMeshVertex
 10
0.8
 20
-1.673
 30
1.74
 70
    64
  0
VERTEX
  5
45CC6
100
AcDbEntity
  8
0
100
AcDbVertex
100
AcDbPolygonMeshVertex
 10
2.7
 20
-1.588
 30
2.03
 70
    64
  0
VERTEX
  5
45CC7
100
AcDbEntity
  8
0
100
AcDbVertex
100
AcDbPolygonMeshVertex
 10
2.7
 20
-1.588
 30
1.74
 70
    64
  0
VERTEX
  5
45CC8
100
AcDbEntity
  8
0
100
AcDbVertex
100
AcDbPolygonMeshVertex
 10
2.7
 20
-1.673
 30
1.74
 70
    64
  0
VERTEX
  5
45CC9
100
AcDbEntity
  8
0
100
AcDbVertex
100
AcDbPolygonMeshVertex
 10
2.7
 20
-1.588
 30
2.03
 70
    64
  0
VERTEX
  5
45CCA
100
AcDbEntity
  8
0
100
AcDbVertex
100
AcDbPolygonMeshVertex
 10
2.7
 20
-1.588
 30
2.03
 70
    64
  0
VERTEX
  5
45CCB
100
AcDbEntity
  8
0
100
AcDbVertex
100
AcDbPolygonMeshVertex
 10
2.7
 20
-1.673
 30
2.03
 70
    64
  0
VERTEX
  5
45CCC
100
AcDbEntity
  8
0
100
AcDbVertex
100
AcDbPolygonMeshVertex
 10
0.8
 20
-1.588
 30
2.03
 70
    64
  0
VERTEX
  5
45CCD
100
AcDbEntity
  8
0
100
AcDbVertex
100
AcDbPolygonMeshVertex
 10
0.8
 20
-1.588
 30
2.03
 70
    64
  0
VERTEX
  5
45CCE
100
AcDbEntity
  8
0
100
AcDbVertex
100
AcDbPolygonMeshVertex
 10
0.8
 20
-1.673
 30
2.03
 70
    64
  0
SEQEND
  5
45CCF
100
AcDbEntity
  8
0
  0
POLYLINE
  5
45CD0
100
AcDbEntity
  8
0
100
AcDbPolygonMesh
 66
     1
 10
0.0
 20
0.0
 30
0.0
 70
    16
 71
     6
 72
     3
  0
VERTEX
  5
45CD1
100
AcDbEntity
  8
0
100
AcDbVertex
100
AcDbPolygonMeshVertex
 10
2.7
 20
-1.588
 30
2.3
 70
    64
  0
VERTEX
  5
45CD2
100
AcDbEntity
  8
0
100
AcDbVertex
100
AcDbPolygonMeshVertex
 10
2.7
 20
-1.673
 30
2.03
 70
    64
  0
VERTEX
  5
45CD3
100
AcDbEntity
  8
0
100
AcDbVertex
100
AcDbPolygonMeshVertex
 10
2.7
 20
-1.673
 30
2.03
 70
    64
  0
VERTEX
  5
45CD4
100
AcDbEntity
  8
0
100
AcDbVertex
100
AcDbPolygonMeshVertex
 10
0.8
 20
-1.588
 30
2.3
 70
    64
  0
VERTEX
  5
45CD5
100
AcDbEntity
  8
0
100
AcDbVertex
100
AcDbPolygonMeshVertex
 10
0.8
 20
-1.673
 30
2.03
 70
    64
  0
VERTEX
  5
45CD6
100
AcDbEntity
  8
0
100
AcDbVertex
100
AcDbPolygonMeshVertex
 10
0.8
 20
-1.673
 30
2.03
 70
    64
  0
VERTEX
  5
45CD7
100
AcDbEntity
  8
0
100
AcDbVertex
100
AcDbPolygonMeshVertex
 10
0.8
 20
-1.588
 30
2.3
 70
    64
  0
VERTEX
  5
45CD8
100
AcDbEntity
  8
0
100
AcDbVertex
100
AcDbPolygonMeshVertex
 10
0.8
 20
-1.588
 30
2.03
 70
    64
  0
VERTEX
  5
45CD9
100
AcDbEntity
  8
0
100
AcDbVertex
100
AcDbPolygonMeshVertex
 10
0.8
 20
-1.673
 30
2.03
 70
    64
  0
VERTEX
  5
45CDA
100
AcDbEntity
  8
0
100
AcDbVertex
100
AcDbPolygonMeshVertex
 10
2.7
 20
-1.588
 30
2.3
 70
    64
  0
VERTEX
  5
45CDB
100
AcDbEntity
  8
0
100
AcDbVertex
100
AcDbPolygonMeshVertex
 10
2.7
 20
-1.588
 30
2.03
 70
    64
  0
VERTEX
  5
45CDC
100
AcDbEntity
  8
0
100
AcDbVertex
100
AcDbPolygonMeshVertex
 10
2.7
 20
-1.673
 30
2.03
 70
    64
  0
VERTEX
  5
45CDD
100
AcDbEntity
  8
0
100
AcDbVertex
100
AcDbPolygonMeshVertex
 10
2.7
 20
-1.588
 30
2.3
 70
    64
  0
VERTEX
  5
45CDE
100
AcDbEntity
  8
0
100
AcDbVertex
100
AcDbPolygonMeshVertex
 10
2.7
 20
-1.588
 30
2.3
 70
    64
  0
VERTEX
  5
45CDF
100
AcDbEntity
  8
0
100
AcDbVertex
100
AcDbPolygonMeshVertex
 10
2.7
 20
-1.588
 30
2.3
 70
    64
  0
VERTEX
  5
45CE0
100
AcDbEntity
  8
0
100
AcDbVertex
100
AcDbPolygonMeshVertex
 10
0.8
 20
-1.588
 30
2.3
 70
    64
  0
VERTEX
  5
45CE1
100
AcDbEntity
  8
0
100
AcDbVertex
100
AcDbPolygonMeshVertex
 10
0.8
 20
-1.588
 30
2.3
 70
    64
  0
VERTEX
  5
45CE2
100
AcDbEntity
  8
0
100
AcDbVertex
100
AcDbPolygonMeshVertex
 10
0.8
 20
-1.588
 30
2.3
 70
    64
  0
SEQEND
  5
45CE3
100
AcDbEntity
  8
0
  0
POLYLINE
  5
45CE4
100
AcDbEntity
  8
0
100
AcDbPolygonMesh
 66
     1
 10
0.0
 20
0.0
 30
0.0
 70
    16
 71
     6
 72
     3
  0
VERTEX
  5
45CE5
100
AcDbEntity
  8
0
100
AcDbVertex
100
AcDbPolygonMeshVertex
 10
2.7
 20
-1.588
 30
2.3
 70
    64
  0
VERTEX
  5
45CE6
100
AcDbEntity
  8
0
100
AcDbVertex
100
AcDbPolygonMeshVertex
 10
2.7
 20
-1.588
 30
1.74
 70
    64
  0
VERTEX
  5
45CE7
100
AcDbEntity
  8
0
100
AcDbVertex
100
AcDbPolygonMeshVertex
 10
2.7
 20
-1.588
 30
1.74
 70
    64
  0
VERTEX
  5
45CE8
100
AcDbEntity
  8
0
100
AcDbVertex
100
AcDbPolygonMeshVertex
 10
0.8
 20
-1.588
 30
2.3
 70
    64
  0
VERTEX
  5
45CE9
100
AcDbEntity
  8
0
100
AcDbVertex
100
AcDbPolygonMeshVertex
 10
0.8
 20
-1.588
 30
1.74
 70
    64
  0
VERTEX
  5
45CEA
100
AcDbEntity
  8
0
100
AcDbVertex
100
AcDbPolygonMeshVertex
 10
0.8
 20
-1.588
 30
1.74
 70
    64
  0
VERTEX
  5
45CEB
100
AcDbEntity
  8
0
100
AcDbVertex
100
AcDbPolygonMeshVertex
 10
0.8
 20
-0.673
 30
2.3
 70
    64
  0
VERTEX
  5
45CEC
100
AcDbEntity
  8
0
100
AcDbVertex
100
AcDbPolygonMeshVertex
 10
0.8
 20
-0.673
 30
1.74
 70
    64
  0
VERTEX
  5
45CED
100
AcDbEntity
  8
0
100
AcDbVertex
100
AcDbPolygonMeshVertex
 10
0.8
 20
-1.588
 30
1.74
 70
    64
  0
VERTEX
  5
45CEE
100
AcDbEntity
  8
0
100
AcDbVertex
100
AcDbPolygonMeshVertex
 10
2.7
 20
-0.673
 30
2.3
 70
    64
  0
VERTEX
  5
45CEF
100
AcDbEntity
  8
0
100
AcDbVertex
100
AcDbPolygonMeshVertex
 10
2.7
 20
-0.673
 30
1.74
 70
    64
  0
VERTEX
  5
45CF0
100
AcDbEntity
  8
0
100
AcDbVertex
100
AcDbPolygonMeshVertex
 10
2.7
 20
-1.588
 30
1.74
 70
    64
  0
VERTEX
  5
45CF1
100
AcDbEntity
  8
0
100
AcDbVertex
100
AcDbPolygonMeshVertex
 10
2.7
 20
-0.673
 30
2.3
 70
    64
  0
VERTEX
  5
45CF2
100
AcDbEntity
  8
0
100
AcDbVertex
100
AcDbPolygonMeshVertex
 10
2.7
 20
-0.673
 30
2.3
 70
    64
  0
VERTEX
  5
45CF3
100
AcDbEntity
  8
0
100
AcDbVertex
100
AcDbPolygonMeshVertex
 10
2.7
 20
-1.588
 30
2.3
 70
    64
  0
VERTEX
  5
45CF4
100
AcDbEntity
  8
0
100
AcDbVertex
100
AcDbPolygonMeshVertex
 10
0.8
 20
-0.673
 30
2.3
 70
    64
  0
VERTEX
  5
45CF5
100
AcDbEntity
  8
0
100
AcDbVertex
100
AcDbPolygonMeshVertex
 10
0.8
 20
-0.673
 30
2.3
 70
    64
  0
VERTEX
  5
45CF6
100
AcDbEntity
  8
0
100
AcDbVertex
100
AcDbPolygonMeshVertex
 10
0.8
 20
-1.588
 30
2.3
 70
    64
  0
SEQEND
  5
45CF7
100
AcDbEntity
  8
0
  0
POLYLINE
  5
45CF8
100
AcDbEntity
  8
0
100
AcDbPolygonMesh
 66
     1
 10
0.0
 20
0.0
 30
0.0
 70
    16
 71
     6
 72
     3
  0
VERTEX
  5
45CF9
100
AcDbEntity
  8
0
100
AcDbVertex
100
AcDbPolygonMeshVertex
 10
2.7
 20
-2.013
 30
1.74
 70
    64
  0
VERTEX
  5
45CFA
100
AcDbEntity
  8
0
100
AcDbVertex
100
AcDbPolygonMeshVertex
 10
2.7
 20
-2.098
 30
1.47
 70
    64
  0
VERTEX
  5
45CFB
100
AcDbEntity
  8
0
100
AcDbVertex
100
AcDbPolygonMeshVertex
 10
2.7
 20
-2.098
 30
1.47
 70
    64
  0
VERTEX
  5
45CFC
100
AcDbEntity
  8
0
100
AcDbVertex
100
AcDbPolygonMeshVertex
 10
0.8
 20
-2.013
 30
1.74
 70
    64
  0
VERTEX
  5
45CFD
100
AcDbEntity
  8
0
100
AcDbVertex
100
AcDbPolygonMeshVertex
 10
0.8
 20
-2.098
 30
1.47
 70
    64
  0
VERTEX
  5
45CFE
100
AcDbEntity
  8
0
100
AcDbVertex
100
AcDbPolygonMeshVertex
 10
0.8
 20
-2.098
 30
1.47
 70
    64
  0
VERTEX
  5
45CFF
100
AcDbEntity
  8
0
100
AcDbVertex
100
AcDbPolygonMeshVertex
 10
0.8
 20
-2.013
 30
1.74
 70
    64
  0
VERTEX
  5
45D00
100
AcDbEntity
  8
0
100
AcDbVertex
100
AcDbPolygonMeshVertex
 10
0.8
 20
-2.013
 30
1.47
 70
    64
  0
VERTEX
  5
45D01
100
AcDbEntity
  8
0
100
AcDbVertex
100
AcDbPolygonMeshVertex
 10
0.8
 20
-2.098
 30
1.47
 70
    64
  0
VERTEX
  5
45D02
100
AcDbEntity
  8
0
100
AcDbVertex
100
AcDbPolygonMeshVertex
 10
2.7
 20
-2.013
 30
1.74
 70
    64
  0
VERTEX
  5
45D03
100
AcDbEntity
  8
0
100
AcDbVertex
100
AcDbPolygonMeshVertex
 10
2.7
 20
-2.013
 30
1.47
 70
    64
  0
VERTEX
  5
45D04
100
AcDbEntity
  8
0
100
AcDbVertex
100
AcDbPolygonMeshVertex
 10
2.7
 20
-2.098
 30
1.47
 70
    64
  0
VERTEX
  5
45D05
100
AcDbEntity
  8
0
100
AcDbVertex
100
AcDbPolygonMeshVertex
 10
2.7
 20
-2.013
 30
1.74
 70
    64
  0
VERTEX
  5
45D06
100
AcDbEntity
  8
0
100
AcDbVertex
100
AcDbPolygonMeshVertex
 10
2.7
 20
-2.013
 30
1.74
 70
    64
  0
VERTEX
  5
45D07
100
AcDbEntity
  8
0
100
AcDbVertex
100
AcDbPolygonMeshVertex
 10
2.7
 20
-2.013
 30
1.74
 70
    64
  0
VERTEX
  5
45D08
100
AcDbEntity
  8
0
100
AcDbVertex
100
AcDbPolygonMeshVertex
 10
0.8
 20
-2.013
 30
1.74
 70
    64
  0
VERTEX
  5
45D09
100
AcDbEntity
  8
0
100
AcDbVertex
100
AcDbPolygonMeshVertex
 10
0.8
 20
-2.013
 30
1.74
 70
    64
  0
VERTEX
  5
45D0A
100
AcDbEntity
  8
0
100
AcDbVertex
100
AcDbPolygonMeshVertex
 10
0.8
 20
-2.013
 30
1.74
 70
    64
  0
SEQEND
  5
45D0B
100
AcDbEntity
  8
0
  0
LWPOLYLINE
  5
45D0C
100
AcDbEntity
  8
0
100
AcDbPolyline
 90
        4
 70
     1
 43
0.0
 38
-1.673049
 10
-0.964947
 20
1.93002
 10
-0.964947
 20
1.739989
 10
-0.834979
 20
1.739989
 10
-0.834979
 20
1.93002
210
0.0
220
1.0
230
0.0
  0
LWPOLYLINE
  5
45D0D
100
AcDbEntity
  8
0
100
AcDbPolyline
 90
        4
 70
     1
 43
0.0
 38
-1.673049
 10
-2.164947
 20
1.93002
 10
-2.164947
 20
1.739989
 10
-2.034979
 20
1.739989
 10
-2.034979
 20
1.93002
210
0.0
220
1.0
230
0.0
  0
LWPOLYLINE
  5
45D0E
100
AcDbEntity
  8
0
100
AcDbPolyline
 90
        4
 70
     1
 43
0.0
 38
-1.673049
 10
-1.964947
 20
1.93002
 10
-1.964947
 20
1.739989
 10
-1.834979
 20
1.739989
 10
-1.834979
 20
1.93002
210
0.0
220
1.0
230
0.0
  0
LWPOLYLINE
  5
45D0F
100
AcDbEntity
  8
0
100
AcDbPolyline
 90
        4
 70
     1
 43
0.0
 38
-1.673049
 10
-1.764947
 20
1.93002
 10
-1.764947
 20
1.739989
 10
-1.634979
 20
1.739989
 10
-1.634979
 20
1.93002
210
0.0
220
1.0
230
0.0
  0
LWPOLYLINE
  5
45D10
100
AcDbEntity
  8
0
100
AcDbPolyline
 90
        4
 70
     1
 43
0.0
 38
-1.673049
 10
-1.564947
 20
1.93002
 10
-1.564947
 20
1.739989
 10
-1.434979
 20
1.739989
 10
-1.434979
 20
1.93002
210
0.0
220
1.0
230
0.0
  0
LWPOLYLINE
  5
45D11
100
AcDbEntity
  8
0
100
AcDbPolyline
 90
        4
 70
     1
 43
0.0
 38
-1.673049
 10
-1.364947
 20
1.93002
 10
-1.364947
 20
1.739989
 10
-1.234979
 20
1.739989
 10
-1.234979
 20
1.93002
210
0.0
220
1.0
230
0.0
  0
LWPOLYLINE
  5
45D12
100
AcDbEntity
  8
0
100
AcDbPolyline
 90
        4
 70
     1
 43
0.0
 38
-1.673049
 10
-1.164947
 20
1.93002
 10
-1.164947
 20
1.739989
 10
-1.034979
 20
1.739989
 10
-1.034979
 20
1.93002
210
0.0
220
1.0
230
0.0
  0
LINE
  5
45D13
100
AcDbEntity
  8
0
100
AcDbLine
 10
1.021417
 20
-1.828941
 30
1.74
 11
0.955287
 21
-1.961632
 31
1.74
  0
CIRCLE
  5
45D14
100
AcDbEntity
  8
0
100
AcDbCircle
 10
0.999991
 20
-1.900397
 30
1.74
 40
0.075
  0
LINE
  5
45D15
100
AcDbEntity
  8
0
100
AcDbLine
 10
1.04734
 20
-1.842686
 30
1.74
 11
0.981739
 21
-1.973262
 31
1.74
  0
LINE
  5
45D16
100
AcDbEntity
  8
0
100
AcDbLine
 10
2.04734
 20
-1.842686
 30
1.74
 11
1.981739
 21
-1.973262
 31
1.74
  0
LINE
  5
45D17
100
AcDbEntity
  8
0
100
AcDbLine
 10
2.021417
 20
-1.828941
 30
1.74
 11
1.955287
 21
-1.961632
 31
1.74
  0
CIRCLE
  5
45D18
100
AcDbEntity
  8
0
100
AcDbCircle
 10
1.999991
 20
-1.900397
 30
1.74
 40
0.075
  0
LINE
  5
45D19
100
AcDbEntity
  8
0
100
AcDbLine
 10
1.821417
 20
-1.828941
 30
1.74
 11
1.755287
 21
-1.961632
 31
1.74
  0
LINE
  5
45D1A
100
AcDbEntity
  8
0
100
AcDbLine
 10
1.421417
 20
-1.828941
 30
1.74
 11
1.355287
 21
-1.961632
 31
1.74
  0
LINE
  5
45D1B
100
AcDbEntity
  8
0
100
AcDbLine
 10
1.44734
 20
-1.842686
 30
1.74
 11
1.381739
 21
-1.973262
 31
1.74
  0
LINE
  5
45D1C
100
AcDbEntity
  8
0
100
AcDbLine
 10
1.64734
 20
-1.842686
 30
1.74
 11
1.581739
 21
-1.973262
 31
1.74
  0
LINE
  5
45D1D
100
AcDbEntity
  8
0
100
AcDbLine
 10
1.621417
 20
-1.828941
 30
1.74
 11
1.555287
 21
-1.961632
 31
1.74
  0
CIRCLE
  5
45D1E
100
AcDbEntity
  8
0
100
AcDbCircle
 10
1.599991
 20
-1.900397
 30
1.74
 40
0.075
  0
CIRCLE
  5
45D1F
100
AcDbEntity
  8
0
100
AcDbCircle
 10
1.799991
 20
-1.900397
 30
1.74
 40
0.075
  0
LINE
  5
45D20
100
AcDbEntity
  8
0
100
AcDbLine
 10
1.84734
 20
-1.842686
 30
1.74
 11
1.781739
 21
-1.973262
 31
1.74
  0
CIRCLE
  5
45D21
100
AcDbEntity
  8
0
100
AcDbCircle
 10
1.399991
 20
-1.900397
 30
1.74
 40
0.075
  0
LINE
  5
45D22
100
AcDbEntity
  8
0
100
AcDbLine
 10
1.221417
 20
-1.828941
 30
1.74
 11
1.155287
 21
-1.961632
 31
1.74
  0
LINE
  5
45D23
100
AcDbEntity
  8
0
100
AcDbLine
 10
1.24734
 20
-1.842686
 30
1.74
 11
1.181739
 21
-1.973262
 31
1.74
  0
CIRCLE
  5
45D24
100
AcDbEntity
  8
0
100
AcDbCircle
 10
1.199991
 20
-1.900397
 30
1.74
 40
0.075
  0
LINE
  5
45D25
100
AcDbEntity
  8
0
100
AcDbLine
 10
1.321417
 20
-1.403941
 30
2.3
 11
1.255287
 21
-1.536632
 31
2.3
  0
CIRCLE
  5
45D26
100
AcDbEntity
  8
0
100
AcDbCircle
 10
1.299991
 20
-1.475397
 30
2.3
 40
0.075
  0
CIRCLE
  5
45D27
100
AcDbEntity
  8
0
100
AcDbCircle
 10
0.899991
 20
-1.475397
 30
2.3
 40
0.075
  0
LINE
  5
45D28
100
AcDbEntity
  8
0
100
AcDbLine
 10
0.94734
 20
-1.417686
 30
2.3
 11
0.881739
 21
-1.548262
 31
2.3
  0
LINE
  5
45D29
100
AcDbEntity
  8
0
100
AcDbLine
 10
0.921417
 20
-1.403941
 30
2.3
 11
0.855287
 21
-1.536632
 31
2.3
  0
LINE
  5
45D2A
100
AcDbEntity
  8
0
100
AcDbLine
 10
1.121417
 20
-1.403941
 30
2.3
 11
1.055287
 21
-1.536632
 31
2.3
  0
LINE
  5
45D2B
100
AcDbEntity
  8
0
100
AcDbLine
 10
1.14734
 20
-1.417686
 30
2.3
 11
1.081739
 21
-1.548262
 31
2.3
  0
CIRCLE
  5
45D2C
100
AcDbEntity
  8
0
100
AcDbCircle
 10
1.099991
 20
-1.475397
 30
2.3
 40
0.075
  0
LINE
  5
45D2D
100
AcDbEntity
  8
0
100
AcDbLine
 10
1.74734
 20
-1.417686
 30
2.3
 11
1.681739
 21
-1.548262
 31
2.3
  0
CIRCLE
  5
45D2E
100
AcDbEntity
  8
0
100
AcDbCircle
 10
1.699991
 20
-1.475397
 30
2.3
 40
0.075
  0
LINE
  5
45D2F
100
AcDbEntity
  8
0
100
AcDbLine
 10
1.721417
 20
-1.403941
 30
2.3
 11
1.655287
 21
-1.536632
 31
2.3
  0
LINE
  5
45D30
100
AcDbEntity
  8
0
100
AcDbLine
 10
1.521417
 20
-1.403941
 30
2.3
 11
1.455287
 21
-1.536632
 31
2.3
  0
CIRCLE
  5
45D31
100
AcDbEntity
  8
0
100
AcDbCircle
 10
1.499991
 20
-1.475397
 30
2.3
 40
0.075
  0
LINE
  5
45D32
100
AcDbEntity
  8
0
100
AcDbLine
 10
1.54734
 20
-1.417686
 30
2.3
 11
1.481739
 21
-1.548262
 31
2.3
  0
LINE
  5
45D33
100
AcDbEntity
  8
0
100
AcDbLine
 10
1.34734
 20
-1.417686
 30
2.3
 11
1.281739
 21
-1.548262
 31
2.3
  0
LINE
  5
45D34
100
AcDbEntity
  8
0
100
AcDbLine
 10
2.121417
 20
-1.403941
 30
2.3
 11
2.055287
 21
-1.536632
 31
2.3
  0
LINE
  5
45D35
100
AcDbEntity
  8
0
100
AcDbLine
 10
2.14734
 20
-1.417686
 30
2.3
 11
2.081739
 21
-1.548262
 31
2.3
  0
LINE
  5
45D36
100
AcDbEntity
  8
0
100
AcDbLine
 10
1.921417
 20
-1.403941
 30
2.3
 11
1.855287
 21
-1.536632
 31
2.3
  0
CIRCLE
  5
45D37
100
AcDbEntity
  8
0
100
AcDbCircle
 10
1.899991
 20
-1.475397
 30
2.3
 40
0.075
  0
LINE
  5
45D38
100
AcDbEntity
  8
0
100
AcDbLine
 10
1.94734
 20
-1.417686
 30
2.3
 11
1.881739
 21
-1.548262
 31
2.3
  0
CIRCLE
  5
45D39
100
AcDbEntity
  8
0
100
AcDbCircle
 10
2.099991
 20
-1.475397
 30
2.3
 40
0.075
  0
CIRCLE
  5
45D3A
100
AcDbEntity
  8
0
100
AcDbCircle
 10
1.254491
 20
0.351003
 30
1.515
 40
0.035
  0
CIRCLE
  5
45D3B
100
AcDbEntity
  8
0
100
AcDbCircle
 10
0.799991
 20
0.302003
 30
1.515
 40
0.075
  0
LINE
  5
45D3C
100
AcDbEntity
  8
0
100
AcDbLine
 10
1.012
 20
0.446
 30
1.515
 11
0.937
 21
0.146
 31
1.515
  0
CIRCLE
  5
45D3D
100
AcDbEntity
  8
0
100
AcDbCircle
 10
1.089491
 20
0.241003
 30
1.515
 40
0.035
  0
CIRCLE
  5
45D3E
100
AcDbEntity
  8
0
100
AcDbCircle
 10
1.199491
 20
0.241003
 30
1.515
 40
0.035
  0
CIRCLE
  5
45D3F
100
AcDbEntity
  8
0
100
AcDbCircle
 10
1.144491
 20
0.351003
 30
1.515
 40
0.035
  0
CIRCLE
  5
45D40
100
AcDbEntity
  8
0
100
AcDbCircle
 10
1.749491
 20
0.241003
 30
1.515
 40
0.035
  0
CIRCLE
  5
45D41
100
AcDbEntity
  8
0
100
AcDbCircle
 10
1.529491
 20
0.241003
 30
1.515
 40
0.035
  0
CIRCLE
  5
45D42
100
AcDbEntity
  8
0
100
AcDbCircle
 10
1.419491
 20
0.241003
 30
1.515
 40
0.035
  0
CIRCLE
  5
45D43
100
AcDbEntity
  8
0
100
AcDbCircle
 10
1.309491
 20
0.241003
 30
1.515
 40
0.035
  0
CIRCLE
  5
45D44
100
AcDbEntity
  8
0
100
AcDbCircle
 10
1.639491
 20
0.241003
 30
1.515
 40
0.035
  0
CIRCLE
  5
45D45
100
AcDbEntity
  8
0
100
AcDbCircle
 10
1.474491
 20
0.351003
 30
1.515
 40
0.035
  0
CIRCLE
  5
45D46
100
AcDbEntity
  8
0
100
AcDbCircle
 10
1.364491
 20
0.351003
 30
1.515
 40
0.035
  0
CIRCLE
  5
45D47
100
AcDbEntity
  8
0
100
AcDbCircle
 10
1.584491
 20
0.351003
 30
1.515
 40
0.035
  0
CIRCLE
  5
45D48
100
AcDbEntity
  8
0
100
AcDbCircle
 10
1.694491
 20
0.351003
 30
1.515
 40
0.035
  0
CIRCLE
  5
45D49
100
AcDbEntity
  8
0
100
AcDbCircle
 10
1.969491
 20
0.241003
 30
1.515
 40
0.035
  0
CIRCLE
  5
45D4A
100
AcDbEntity
  8
0
100
AcDbCircle
 10
1.859491
 20
0.241003
 30
1.515
 40
0.035
  0
CIRCLE
  5
45D4B
100
AcDbEntity
  8
0
100
AcDbCircle
 10
2.079491
 20
0.241003
 30
1.515
 40
0.035
  0
CIRCLE
  5
45D4C
100
AcDbEntity
  8
0
100
AcDbCircle
 10
1.804491
 20
0.351003
 30
1.515
 40
0.035
  0
CIRCLE
  5
45D4D
100
AcDbEntity
  8
0
100
AcDbCircle
 10
1.914491
 20
0.351003
 30
1.515
 40
0.035
  0
CIRCLE
  5
45D4E
100
AcDbEntity
  8
0
100
AcDbCircle
 10
2.024491
 20
0.351003
 30
1.515
 40
0.035
  0
CIRCLE
  5
45D4F
100
AcDbEntity
  8
0
100
AcDbCircle
 10
2.134491
 20
0.351003
 30
1.515
 40
0.035
  0
LWPOLYLINE
  5
45D50
100
AcDbEntity
  8
0
100
AcDbPolyline
 90
        4
 70
     1
 43
0.0
 38
-1.673049
 10
-2.564947
 20
1.93002
 10
-2.564947
 20
1.739989
 10
-2.434979
 20
1.739989
 10
-2.434979
 20
1.93002
210
0.0
220
1.0
230
0.0
  0
LWPOLYLINE
  5
45D51
100
AcDbEntity
  8
0
100
AcDbPolyline
 90
        4
 70
     1
 43
0.0
 38
-1.673049
 10
-2.364947
 20
1.93002
 10
-2.364947
 20
1.739989
 10
-2.234979
 20
1.739989
 10
-2.234979
 20
1.93002
210
0.0
220
1.0
230
0.0
  0
LINE
  5
45D52
100
AcDbEntity
  8
0
100
AcDbLine
 10
2.64734
 20
-1.842686
 30
1.74
 11
2.581739
 21
-1.973262
 31
1.74
  0
LINE
  5
45D53
100
AcDbEntity
  8
0
100
AcDbLine
 10
2.421417
 20
-1.828941
 30
1.74
 11
2.355287
 21
-1.961632
 31
1.74
  0
LINE
  5
45D54
100
AcDbEntity
  8
0
100
AcDbLine
 10
2.44734
 20
-1.842686
 30
1.74
 11
2.381739
 21
-1.973262
 31
1.74
  0
CIRCLE
  5
45D55
100
AcDbEntity
  8
0
100
AcDbCircle
 10
2.599991
 20
-1.900397
 30
1.74
 40
0.075
  0
LINE
  5
45D56
100
AcDbEntity
  8
0
100
AcDbLine
 10
2.621417
 20
-1.828941
 30
1.74
 11
2.555287
 21
-1.961632
 31
1.74
  0
CIRCLE
  5
45D57
100
AcDbEntity
  8
0
100
AcDbCircle
 10
2.399991
 20
-1.900397
 30
1.74
 40
0.075
  0
CIRCLE
  5
45D58
100
AcDbEntity
  8
0
100
AcDbCircle
 10
2.499991
 20
-1.475397
 30
2.3
 40
0.075
  0
LINE
  5
45D59
100
AcDbEntity
  8
0
100
AcDbLine
 10
2.54734
 20
-1.417686
 30
2.3
 11
2.481739
 21
-1.548262
 31
2.3
  0
LINE
  5
45D5A
100
AcDbEntity
  8
0
100
AcDbLine
 10
2.521417
 20
-1.403941
 30
2.3
 11
2.455287
 21
-1.536632
 31
2.3
  0
LINE
  5
45D5B
100
AcDbEntity
  8
0
100
AcDbLine
 10
2.34734
 20
-1.417686
 30
2.3
 11
2.281739
 21
-1.548262
 31
2.3
  0
CIRCLE
  5
45D5C
100
AcDbEntity
  8
0
100
AcDbCircle
 10
2.299991
 20
-1.475397
 30
2.3
 40
0.075
  0
LINE
  5
45D5D
100
AcDbEntity
  8
0
100
AcDbLine
 10
2.321417
 20
-1.403941
 30
2.3
 11
2.255287
 21
-1.536632
 31
2.3
  0
CIRCLE
  5
45D5E
100
AcDbEntity
  8
0
100
AcDbCircle
 10
2.699991
 20
0.302003
 30
1.515
 40
0.075
  0
LINE
  5
45D5F
100
AcDbEntity
  8
0
100
AcDbLine
 10
2.562
 20
0.146
 30
1.515
 11
2.487
 21
0.446
 31
1.515
  0
CIRCLE
  5
45D60
100
AcDbEntity
  8
0
100
AcDbCircle
 10
2.299491
 20
0.241003
 30
1.515
 40
0.035
  0
CIRCLE
  5
45D61
100
AcDbEntity
  8
0
100
AcDbCircle
 10
2.409491
 20
0.241003
 30
1.515
 40
0.035
  0
CIRCLE
  5
45D62
100
AcDbEntity
  8
0
100
AcDbCircle
 10
2.354491
 20
0.351003
 30
1.515
 40
0.035
  0
DIMENSION
  5
45D63
100
AcDbEntity
  8
AREA1
100
AcDbDimension
  2
*D1
 10
4.205573
 20
0.752
 30
0.0
 11
4.205573
 21
-0.748
 31
0.0
 70
    32
  3
ABECAD_3D
100
AcDbAlignedDimension
 13
3.5
 23
-2.248
 33
0.0
 14
3.5
 24
0.752
 34
0.7
 50
90.0
100
AcDbRotatedDimension
  0
DIMENSION
  5
45D71
100
AcDbEntity
  8
AREA1
100
AcDbDimension
  2
*D2
 10
3.5
 20
1.469278
 30
0.0
 11
1.75
 21
1.469278
 31
0.0
 70
    32
  3
ABECAD_3D
100
AcDbAlignedDimension
 13
0.0
 23
0.752
 33
0.7
 14
3.5
 24
0.752
 34
0.7
100
AcDbRotatedDimension
  0
ENDSEC
  0
SECTION
  2
OBJECTS
  0
DICTIONARY
  5
458CB
100
AcDbDictionary
  3
ACAD_GROUP
350
458CC
  3
ACAD_LAYOUT
350
458FB
  3
ACAD_MLINESTYLE
350
458D9
  3
ACAD_PLOTSETTINGS
350
458FC
  3
ACAD_PLOTSTYLENAME
350
458F9
  3
ACDBHEADERROUNDTRIPXREC
350
45DF4
  3
ACDBVARIABLEDICTIONARY
350
458E1
  3
DWGPROPS
350
45901
  0
DICTIONARY
  5
45DF2
100
AcDbDictionary
280
     1
  3
ACAD_XREC_ROUNDTRIP
360
45DF3
  0
DICTIONARY
  5
45E1D
100
AcDbDictionary
280
     1
  3
ACAD_XREC_ROUNDTRIP
360
45E1E
  0
DICTIONARY
  5
45DF0
100
AcDbDictionary
280
     1
  3
ACAD_XREC_ROUNDTRIP
360
45DF1
  0
DICTIONARY
  5
45E17
100
AcDbDictionary
280
     1
  3
ACAD_XREC_ROUNDTRIP
360
45E18
  0
DICTIONARY
  5
45E19
100
AcDbDictionary
280
     1
  3
ACAD_XREC_ROUNDTRIP
360
45E1A
  0
DICTIONARY
  5
4592C
100
AcDbDictionary
280
     1
  3
ACAD_LAYOUTSELFREF
360
45E16
  0
DICTIONARY
  5
4592A
100
AcDbDictionary
280
     1
  3
ACAD_LAYOUTSELFREF
360
45E15
  0
DICTIONARY
  5
45DEE
100
AcDbDictionary
280
     1
  3
ACAD_XREC_ROUNDTRIP
360
45DEF
  0
DICTIONARY
  5
458CC
102
{ACAD_REACTORS
330
458CB
102
}
100
AcDbDictionary
  0
DICTIONARY
  5
458FB
102
{ACAD_XDICTIONARY
360
45E1B
102
}
102
{ACAD_REACTORS
330
458CB
102
}
100
AcDbDictionary
  3
LAYOUT1
350
458FE
  3
MODEL
350
458FD
  0
DICTIONARY
  5
458D9
102
{ACAD_REACTORS
330
458CB
102
}
100
AcDbDictionary
  3
STANDARD
350
458DA
  0
DICTIONARY
  5
458FC
102
{ACAD_REACTORS
330
458CB
102
}
100
AcDbDictionary
  0
ACAD_PROXY_OBJECT
  5
458F9
102
{ACAD_REACTORS
330
458CB
102
}
100
AcDbProxyObject
 90
      499
 91
      501
 93
       86
310
405010041939BDC9B585B0
350
458FA
340
458FA
 94
        0
  0
DICTIONARY
  5
45DF4
102
{ACAD_REACTORS
330
458CB
102
}
100
AcDbDictionary
  3
CEPSNTYPE
350
45DFE
  3
DIMSTYLEDATA
350
45E02
  3
FINGERPRINTGUID
350
45DFF
  3
HYPERLINKBASE
350
45DF7
  3
INSUNITS
350
45DFD
  3
LAYOUTDICT
350
45DF9
  3
LWETCUNION
350
45DFC
  3
PLOTSETDICT
350
45DFA
  3
PLOTSTYLNAMDICT
350
45DFB
  3
PSVPSCALE
350
45E01
  3
PUCSBASE
350
45E05
  3
PUCSORGBACK
350
45E0B
  3
PUCSORGBOTTOM
350
45E07
  3
PUCSORGFRONT
350
45E0A
  3
PUCSORGLEFT
350
45E08
  3
PUCSORGRIGHT
350
45E09
  3
PUCSORGTOP
350
45E06
  3
PUCSORTHOREF
350
45E03
  3
PUCSORTHOVIEW
350
45E04
  3
STYLESHEET
350
45DF8
  3
TSTACKALIGN
350
45DF5
  3
TSTACKSIZE
350
45DF6
  3
UCSBASE
350
45E0E
  3
UCSORGBACK
350
45E14
  3
UCSORGBOTTOM
350
45E10
  3
UCSORGFRONT
350
45E13
  3
UCSORGLEFT
350
45E11
  3
UCSORGRIGHT
350
45E12
  3
UCSORGTOP
350
45E0F
  3
UCSORTHOREF
350
45E0C
  3
UCSORTHOVIEW
350
45E0D
  3
VERSIONGUID
350
45E00
  0
DICTIONARY
  5
458E1
102
{ACAD_REACTORS
330
458CB
102
}
100
AcDbDictionary
  3
DIMADEC
350
458E2
  0
XRECORD
  5
45901
102
{ACAD_REACTORS
330
458CB
102
}
100
AcDbXrecord
  1
DWGPROPS COOKIE
  2

  3

  4

  6

  7

  8
colin
  9

300
=
301
=
302
=
303
=
304
=
305
=
306
=
307
=
308
=
309
=
 40
0.000599
 41
2451670.444777
 42
2451670.445376
  1

 90
        0
  0
XRECORD
  5
45DF3
102
{ACAD_REACTORS
330
45DF2
102
}
100
AcDbXrecord
102
EXTNAMES
  1
*ACTIVE
  2
*Active
102
UCS
 74
     0
 71
     1
 10
0.0
 20
0.0
 30
0.0
 10
1.0
 20
0.0
 30
0.0
 10
0.0
 20
1.0
 30
0.0
146
0.0
 79
     1
102
VIEW
281
     0
  0
XRECORD
  5
45E1E
102
{ACAD_REACTORS
330
45E1D
102
}
100
AcDbXrecord
102
PLOTBIT
280
     0
  0
XRECORD
  5
45DF1
102
{ACAD_REACTORS
330
45DF0
102
}
100
AcDbXrecord
102
EXTNAMES
  1
DEFPOINTS
  2
Defpoints
102
PLOTBIT
280
     0
  0
XRECORD
  5
45E18
102
{ACAD_REACTORS
330
45E17
102
}
100
AcDbXrecord
102
ACADR14ROUNDTRIP
1000
DSTYLE
1002
{
1070
   276
 70
     2
1070
   277
 70
     5
1002
}
  0
XRECORD
  5
45E1A
102
{ACAD_REACTORS
330
45E19
102
}
100
AcDbXrecord
102
ACADR14ROUNDTRIP
1000
DSTYLE
1002
{
1070
   276
 70
     2
1070
   277
 70
     5
1002
}
  0
XRECORD
  5
45E16
102
{ACAD_REACTORS
330
4592C
102
}
100
AcDbXrecord
340
458D6
  0
XRECORD
  5
45E15
102
{ACAD_REACTORS
330
4592A
102
}
100
AcDbXrecord
340
458D3
  0
XRECORD
  5
45DEF
102
{ACAD_REACTORS
330
45DEE
102
}
100
AcDbXrecord
102
EXTNAMES
  1
SCALE
  2
scale
  0
DICTIONARY
  5
45E1B
100
AcDbDictionary
280
     1
  3
ACAD_XREC_ROUNDTRIP
360
45E1C
  0
ACAD_PROXY_OBJECT
  5
458FE
102
{ACAD_REACTORS
330
458FB
102
}
100
AcDbProxyObject
 90
      499
 91
      503
 93
     1348
310
91D4850204C617365724A65742035303030205365726965732050434C20362C00AAAAAA416AA547D11959985D5B1D08148C4D081C195B88185CDCDA59DB9B595B9D1CCB98DD1891069074C61796F75743140501A800000000000000000000000000000000000000000000A1000000000000008902A6A6A10232D5E076BC551
310
0408CB5781DAF154410232D5E076BC5510408CB5781DAF15C410232D5E076BC5710408CB5781DAF15C40
330
458D3
330
0
340
0
340
0
 94
        0
  0
ACAD_PROXY_OBJECT
  5
458FD
102
{ACAD_REACTORS
330
458FB
102
}
100
AcDbProxyObject
 90
      499
 91
      503
 93
      924
310
91D4850204C617365724A65742035303030205365726965732050434C20362C01AAAAAAAAA547D11959985D5B1D08148C4D081C195B88185CDCDA59DB9B595B9D1CCB98DD18A69054D6F64656C901A800000000000000000000000000000000000000000000A1000000000000008902A6A6AAAA0
330
458D6
330
0
340
0
340
0
 94
        0
  0
MLINESTYLE
  5
458DA
102
{ACAD_REACTORS
330
458D9
102
}
100
AcDbMlineStyle
  2
STANDARD
 70
     0
  3

 62
   256
 51
90.0
 52
90.0
 71
     2
 49
0.5
 62
   256
  6
BYLAYER
 49
-0.5
 62
   256
  6
BYLAYER
  0
ACAD_PROXY_OBJECT
  5
458FA
102
{ACAD_REACTORS
330
458F9
102
}
100
AcDbProxyObject
 90
      499
 91
      502
 93
        0
 94
        0
  0
XRECORD
  5
45DFE
102
{ACAD_REACTORS
330
45DF4
102
}
100
AcDbXrecord
 90
        0
  0
XRECORD
  5
45E02
102
{ACAD_REACTORS
330
45DF4
102
}
100
AcDbXrecord
1000
DSTYLE
1002
{
1070
   276
 70
     2
1070
   277
 70
     5
1002
}
  0
XRECORD
  5
45DFF
102
{ACAD_REACTORS
330
45DF4
102
}
100
AcDbXrecord
  1
{6E0CF4B8-225E-11D4-A150-00A0CC3303EC}
  0
XRECORD
  5
45DF7
102
{ACAD_REACTORS
330
45DF4
102
}
100
AcDbXrecord
  1

  0
XRECORD
  5
45DFD
102
{ACAD_REACTORS
330
45DF4
102
}
100
AcDbXrecord
 90
        0
  0
XRECORD
  5
45DF9
102
{ACAD_REACTORS
330
45DF4
102
}
100
AcDbXrecord
340
458FB
  0
XRECORD
  5
45DFC
102
{ACAD_REACTORS
330
45DF4
102
}
100
AcDbXrecord
 90
    14877
  0
XRECORD
  5
45DFA
102
{ACAD_REACTORS
330
45DF4
102
}
100
AcDbXrecord
340
458FC
  0
XRECORD
  5
45DFB
102
{ACAD_REACTORS
330
45DF4
102
}
100
AcDbXrecord
340
458F9
  0
XRECORD
  5
45E01
102
{ACAD_REACTORS
330
45DF4
102
}
100
AcDbXrecord
 40
0.0
  0
XRECORD
  5
45E05
102
{ACAD_REACTORS
330
45DF4
102
}
100
AcDbXrecord
340
0
  0
XRECORD
  5
45E0B
102
{ACAD_REACTORS
330
45DF4
102
}
100
AcDbXrecord
 10
0.0
 20
0.0
 30
0.0
  0
XRECORD
  5
45E07
102
{ACAD_REACTORS
330
45DF4
102
}
100
AcDbXrecord
 10
0.0
 20
0.0
 30
0.0
  0
XRECORD
  5
45E0A
102
{ACAD_REACTORS
330
45DF4
102
}
100
AcDbXrecord
 10
0.0
 20
0.0
 30
0.0
  0
XRECORD
  5
45E08
102
{ACAD_REACTORS
330
45DF4
102
}
100
AcDbXrecord
 10
0.0
 20
0.0
 30
0.0
  0
XRECORD
  5
45E09
102
{ACAD_REACTORS
330
45DF4
102
}
100
AcDbXrecord
 10
0.0
 20
0.0
 30
0.0
  0
XRECORD
  5
45E06
102
{ACAD_REACTORS
330
45DF4
102
}
100
AcDbXrecord
 10
0.0
 20
0.0
 30
0.0
  0
XRECORD
  5
45E03
102
{ACAD_REACTORS
330
45DF4
102
}
100
AcDbXrecord
340
0
  0
XRECORD
  5
45E04
102
{ACAD_REACTORS
330
45DF4
102
}
100
AcDbXrecord
 70
     0
  0
XRECORD
  5
45DF8
102
{ACAD_REACTORS
330
45DF4
102
}
100
AcDbXrecord
  1

  0
XRECORD
  5
45DF5
102
{ACAD_REACTORS
330
45DF4
102
}
100
AcDbXrecord
 90
        1
  0
XRECORD
  5
45DF6
102
{ACAD_REACTORS
330
45DF4
102
}
100
AcDbXrecord
 90
       70
  0
XRECORD
  5
45E0E
102
{ACAD_REACTORS
330
45DF4
102
}
100
AcDbXrecord
340
0
  0
XRECORD
  5
45E14
102
{ACAD_REACTORS
330
45DF4
102
}
100
AcDbXrecord
 10
0.0
 20
0.0
 30
0.0
  0
XRECORD
  5
45E10
102
{ACAD_REACTORS
330
45DF4
102
}
100
AcDbXrecord
 10
0.0
 20
0.0
 30
0.0
  0
XRECORD
  5
45E13
102
{ACAD_REACTORS
330
45DF4
102
}
100
AcDbXrecord
 10
0.0
 20
0.0
 30
0.0
  0
XRECORD
  5
45E11
102
{ACAD_REACTORS
330
45DF4
102
}
100
AcDbXrecord
 10
0.0
 20
0.0
 30
0.0
  0
XRECORD
  5
45E12
102
{ACAD_REACTORS
330
45DF4
102
}
100
AcDbXrecord
 10
0.0
 20
0.0
 30
0.0
  0
XRECORD
  5
45E0F
102
{ACAD_REACTORS
330
45DF4
102
}
100
AcDbXrecord
 10
0.0
 20
0.0
 30
0.0
  0
XRECORD
  5
45E0C
102
{ACAD_REACTORS
330
45DF4
102
}
100
AcDbXrecord
340
0
  0
XRECORD
  5
45E0D
102
{ACAD_REACTORS
330
45DF4
102
}
100
AcDbXrecord
 70
     1
  0
XRECORD
  5
45E00
102
{ACAD_REACTORS
330
45DF4
102
}
100
AcDbXrecord
  1
{246D7D8D-D4E5-44CC-94CD-81B43FE7F403}
  0
DICTIONARYVAR
  5
458E2
102
{ACAD_REACTORS
330
458E1
102
}
100
DictionaryVariables
280
     0
  1
0
  0
XRECORD
  5
45E1C
102
{ACAD_REACTORS
330
45E1B
102
}
100
AcDbXrecord
102
EXTNAMES
  1
LAYOUT1
  2
Layout1
  1
MODEL
  2
Model
  0
ENDSEC
  0
EOF
