  0
SECTION
  2
HEADER
  9
$ACADVER
  1
AC1014
  9
$ACADMAINTVER
 70
     8
  9
$DWGCODEPAGE
  3
ANSI_1252
  9
$INSBASE
 10
0.0
 20
0.0
 30
0.0
  9
$EXTMIN
 10
-0.92553
 20
-3.278261
 30
0.0
  9
$EXTMAX
 10
6.258703
 20
1.62068
 30
2.3
  9
$LIMMIN
 10
0.0
 20
0.0
  9
$LIMMAX
 10
12.0
 20
9.0
  9
$ORTHOMODE
 70
     0
  9
$REGENMODE
 70
     1
  9
$FILLMODE
 70
     1
  9
$QTEXTMODE
 70
     0
  9
$MIRRTEXT
 70
     1
  9
$DRAGMODE
 70
     2
  9
$LTSCALE
 40
1.0
  9
$OSMODE
 70
    37
  9
$ATTMODE
 70
     0
  9
$TEXTSIZE
 40
0.2
  9
$TRACEWID
 40
0.05
  9
$TEXTSTYLE
  7
STANDARD
  9
$CLAYER
  8
0
  9
$CELTYPE
  6
BYLAYER
  9
$CECOLOR
 62
   256
  9
$CELTSCALE
 40
1.0
  9
$DELOBJ
 70
     1
  9
$DISPSILH
 70
     0
  9
$DIMSCALE
 40
0.0
  9
$DIMASZ
 40
0.179688
  9
$DIMEXO
 40
0.0625
  9
$DIMDLI
 40
0.375
  9
$DIMRND
 40
0.0
  9
$DIMDLE
 40
0.0
  9
$DIMEXE
 40
0.179688
  9
$DIMTP
 40
0.0
  9
$DIMTM
 40
0.0
  9
$DIMTXT
 40
0.125
  9
$DIMCEN
 40
0.089844
  9
$DIMTSZ
 40
0.0
  9
$DIMTOL
 70
     0
  9
$DIMLIM
 70
     0
  9
$DIMTIH
 70
     0
  9
$DIMTOH
 70
     0
  9
$DIMSE1
 70
     0
  9
$DIMSE2
 70
     0
  9
$DIMTAD
 70
     0
  9
$DIMZIN
 70
     4
  9
$DIMBLK
  1

  9
$DIMASO
 70
     1
  9
$DIMSHO
 70
     1
  9
$DIMPOST
  1

  9
$DIMAPOST
  1

  9
$DIMALT
 70
     1
  9
$DIMALTD
 70
     1
  9
$DIMALTF
 40
25.4
  9
$DIMLFAC
 40
1.0
  9
$DIMTOFL
 70
     0
  9
$DIMTVP
 40
0.0
  9
$DIMTIX
 70
     1
  9
$DIMSOXD
 70
     0
  9
$DIMSAH
 70
     0
  9
$DIMBLK1
  1

  9
$DIMBLK2
  1

  9
$DIMSTYLE
  2
ABECAD_3V
  9
$DIMCLRD
 70
     0
  9
$DIMCLRE
 70
     0
  9
$DIMCLRT
 70
     0
  9
$DIMTFAC
 40
1.5
  9
$DIMGAP
 40
0.09375
  9
$DIMJUST
 70
     0
  9
$DIMSD1
 70
     0
  9
$DIMSD2
 70
     0
  9
$DIMTOLJ
 70
     1
  9
$DIMTZIN
 70
     4
  9
$DIMALTZ
 70
     4
  9
$DIMALTTZ
 70
     4
  9
$DIMFIT
 70
     5
  9
$DIMUPT
 70
     0
  9
$DIMUNIT
 70
     7
  9
$DIMDEC
 70
     6
  9
$DIMTDEC
 70
     6
  9
$DIMALTU
 70
     2
  9
$DIMALTTD
 70
     1
  9
$DIMTXSTY
  7
STANDARD
  9
$DIMAUNIT
 70
     0
  9
$LUNITS
 70
     5
  9
$LUPREC
 70
     6
  9
$SKETCHINC
 40
0.1
  9
$FILLETRAD
 40
0.0
  9
$AUNITS
 70
     0
  9
$AUPREC
 70
     0
  9
$MENU
  1
acad
  9
$ELEVATION
 40
0.0
  9
$PELEVATION
 40
0.0
  9
$THICKNESS
 40
0.0
  9
$LIMCHECK
 70
     0
  9
$BLIPMODE
 70
     0
  9
$CHAMFERA
 40
0.0
  9
$CHAMFERB
 40
0.0
  9
$CHAMFERC
 40
0.0
  9
$CHAMFERD
 40
0.0
  9
$SKPOLY
 70
     0
  9
$TDCREATE
 40
2451670.441490278
  9
$TDUPDATE
 40
2452010.732087500
  9
$TDINDWG
 40
0.0064083333
  9
$TDUSRTIMER
 40
0.0064083333
  9
$USRTIMER
 70
     1
  9
$ANGBASE
 50
0.0
  9
$ANGDIR
 70
     0
  9
$PDMODE
 70
     2
  9
$PDSIZE
 40
0.0
  9
$PLINEWID
 40
0.0
  9
$COORDS
 70
     1
  9
$SPLFRAME
 70
     0
  9
$SPLINETYPE
 70
     6
  9
$SPLINESEGS
 70
     8
  9
$ATTDIA
 70
     0
  9
$ATTREQ
 70
     1
  9
$HANDLING
 70
     1
  9
$HANDSEED
  5
87B
  9
$SURFTAB1
 70
     6
  9
$SURFTAB2
 70
     6
  9
$SURFTYPE
 70
     6
  9
$SURFU
 70
     6
  9
$SURFV
 70
     6
  9
$UCSNAME
  2

  9
$UCSORG
 10
0.0
 20
0.0
 30
0.0
  9
$UCSXDIR
 10
1.0
 20
0.0
 30
0.0
  9
$UCSYDIR
 10
0.0
 20
1.0
 30
0.0
  9
$PUCSNAME
  2

  9
$PUCSORG
 10
0.0
 20
0.0
 30
0.0
  9
$PUCSXDIR
 10
1.0
 20
0.0
 30
0.0
  9
$PUCSYDIR
 10
0.0
 20
1.0
 30
0.0
  9
$USERI1
 70
     0
  9
$USERI2
 70
     0
  9
$USERI3
 70
     0
  9
$USERI4
 70
     0
  9
$USERI5
 70
     0
  9
$USERR1
 40
0.0
  9
$USERR2
 40
0.0
  9
$USERR3
 40
0.0
  9
$USERR4
 40
0.0
  9
$USERR5
 40
0.0
  9
$WORLDVIEW
 70
     1
  9
$SHADEDGE
 70
     3
  9
$SHADEDIF
 70
    70
  9
$TILEMODE
 70
     0
  9
$MAXACTVP
 70
    16
  9
$PINSBASE
 10
0.0
 20
0.0
 30
0.0
  9
$PLIMCHECK
 70
     0
  9
$PEXTMIN
 10
0.0
 20
0.0
 30
0.0
  9
$PEXTMAX
 10
10.0
 20
7.5
 30
0.0
  9
$PLIMMIN
 10
-0.187029
 20
-0.186938
  9
$PLIMMAX
 10
10.187518
 20
7.829757
  9
$UNITMODE
 70
     0
  9
$VISRETAIN
 70
     0
  9
$PLINEGEN
 70
     0
  9
$PSLTSCALE
 70
     1
  9
$TREEDEPTH
 70
  3020
  9
$PICKSTYLE
 70
     1
  9
$CMLSTYLE
  2
STANDARD
  9
$CMLJUST
 70
     0
  9
$CMLSCALE
 40
1.0
  9
$PROXYGRAPHICS
 70
     1
  9
$MEASUREMENT
 70
     0
  0
ENDSEC
  0
SECTION
  2
CLASSES
  0
CLASS
  1
DICTIONARYVAR
  2
AcDbDictionaryVar
  3
"AutoCAD"
 90
        0
280
     0
281
     0
  0
CLASS
  1
ACDBDICTIONARYWDFLT
  2
AcDbDictionaryWithDefault
  3
AutoCAD 2000
 90
        0
280
     0
281
     0
  0
CLASS
  1
ACDBPLACEHOLDER
  2
AcDbPlaceHolder
  3
AutoCAD 2000
 90
        0
280
     0
281
     0
  0
CLASS
  1
LAYOUT
  2
AcDbLayout
  3
AutoCAD 2000
 90
        0
280
     0
281
     0
  0
CLASS
  1
LONG_TRANSACTION
  2
AcDbLongTransaction
  3
AutoCAD 2000
 90
        0
280
     0
281
     0
  0
CLASS
  1
LWPOLYLINE
  2
AcDbPolyline
  3
"AutoCAD"
 90
        0
280
     0
281
     1
  0
CLASS
  1
HATCH
  2
AcDbHatch
  3
"ACAD_SEDONA"
 90
        0
280
     0
281
     1
  0
CLASS
  1
XRECORD
  2
AcDbXrecord
  3
"<Built In>"
 90
        0
280
     0
281
     0
  0
CLASS
  1
LONG_TRANSACTION
  2
AcDbLongTransaction
  3
AutoCAD 2000
 90
        0
280
     0
281
     0
  0
CLASS
  1
LWPOLYLINE
  2
AcDbPolyline
  3
"AutoCAD"
 90
        0
280
     0
281
     1
  0
CLASS
  1
HATCH
  2
AcDbHatch
  3
"ACAD_SEDONA"
 90
        0
280
     0
281
     1
  0
CLASS
  1
XRECORD
  2
AcDbXrecord
  3
"<Built In>"
 90
        0
280
     0
281
     0
  0
CLASS
  1
LONG_TRANSACTION
  2
AcDbLongTransaction
  3
AutoCAD 2000
 90
        0
280
     0
281
     0
  0
CLASS
  1
LWPOLYLINE
  2
AcDbPolyline
  3
"AutoCAD"
 90
        0
280
     0
281
     1
  0
CLASS
  1
HATCH
  2
AcDbHatch
  3
"ACAD_SEDONA"
 90
        0
280
     0
281
     1
  0
CLASS
  1
XRECORD
  2
AcDbXrecord
  3
"<Built In>"
 90
        0
280
     0
281
     0
  0
CLASS
  1
LONG_TRANSACTION
  2
AcDbLongTransaction
  3
AutoCAD 2000
 90
        0
280
     0
281
     0
  0
CLASS
  1
LWPOLYLINE
  2
AcDbPolyline
  3
"AutoCAD"
 90
        0
280
     0
281
     1
  0
CLASS
  1
HATCH
  2
AcDbHatch
  3
"ACAD_SEDONA"
 90
        0
280
     0
281
     1
  0
CLASS
  1
XRECORD
  2
AcDbXrecord
  3
"<Built In>"
 90
        0
280
     0
281
     0
  0
ENDSEC
  0
SECTION
  2
TABLES
  0
TABLE
  2
VPORT
  5
469
100
AcDbSymbolTable
 70
     1
  0
VPORT
  5
7FE
102
{ACAD_XDICTIONARY
360
841
102
}
100
AcDbSymbolTableRecord
100
AcDbViewportTableRecord
  2
*ACTIVE
 70
     0
 10
0.0
 20
0.0
 11
1.0
 21
1.0
 12
2.666587
 22
-0.82879
 13
0.0
 23
0.0
 14
1.0
 24
1.0
 15
0.0
 25
0.0
 16
0.0
 26
0.0
 36
1.0
 17
0.0
 27
0.0
 37
0.0
 40
5.005055
 41
2.608696
 42
50.0
 43
0.0
 44
0.0
 50
0.0
 51
0.0
 71
     0
 72
   100
 73
     1
 74
     1
 75
     0
 76
     0
 77
     0
 78
     0
  0
ENDTAB
  0
TABLE
  2
LTYPE
  5
466
100
AcDbSymbolTable
 70
     1
  0
LTYPE
  5
472
100
AcDbSymbolTableRecord
100
AcDbLinetypeTableRecord
  2
BYBLOCK
 70
     0
  3

 72
    65
 73
     0
 40
0.0
  0
LTYPE
  5
473
100
AcDbSymbolTableRecord
100
AcDbLinetypeTableRecord
  2
BYLAYER
 70
     0
  3

 72
    65
 73
     0
 40
0.0
  0
LTYPE
  5
474
100
AcDbSymbolTableRecord
100
AcDbLinetypeTableRecord
  2
CONTINUOUS
 70
     0
  3
Solid line
 72
    65
 73
     0
 40
0.0
  0
ENDTAB
  0
TABLE
  2
LAYER
  5
463
100
AcDbSymbolTable
 70
     8
  0
LAYER
  5
46F
100
AcDbSymbolTableRecord
100
AcDbLayerTableRecord
  2
0
 70
     0
 62
     7
  6
CONTINUOUS
  0
LAYER
  5
485
100
AcDbSymbolTableRecord
100
AcDbLayerTableRecord
  2
AREA1
 70
     0
 62
     7
  6
CONTINUOUS
  0
LAYER
  5
486
100
AcDbSymbolTableRecord
100
AcDbLayerTableRecord
  2
AREA2
 70
     0
 62
     7
  6
CONTINUOUS
  0
LAYER
  5
494
102
{ACAD_XDICTIONARY
360
86E
102
}
100
AcDbSymbolTableRecord
100
AcDbLayerTableRecord
  2
DEFPOINTS
 70
     0
 62
    -7
  6
CONTINUOUS
  0
LAYER
  5
495
100
AcDbSymbolTableRecord
100
AcDbLayerTableRecord
  2
DIMS-MTG-HOLES
 70
     0
 62
    -1
  6
CONTINUOUS
  0
LAYER
  5
4E9
100
AcDbSymbolTableRecord
100
AcDbLayerTableRecord
  2
SCALE
 70
     0
 62
    -7
  6
CONTINUOUS
  0
LAYER
  5
4EA
100
AcDbSymbolTableRecord
100
AcDbLayerTableRecord
  2
SNAP_POINTS
 70
     0
 62
    -1
  6
CONTINUOUS
  0
LAYER
  5
56D
100
AcDbSymbolTableRecord
100
AcDbLayerTableRecord
  2
ATTRIBUTES
 70
     0
 62
    -7
  6
CONTINUOUS
  0
ENDTAB
  0
TABLE
  2
STYLE
  5
464
100
AcDbSymbolTable
 70
     1
  0
STYLE
  5
470
100
AcDbSymbolTableRecord
100
AcDbTextStyleTableRecord
  2
STANDARD
 70
     0
 40
0.0
 41
1.0
 50
0.0
 71
     0
 42
0.2
  3
txt
  4

  0
ENDTAB
  0
TABLE
  2
VIEW
  5
467
100
AcDbSymbolTable
 70
     0
  0
ENDTAB
  0
TABLE
  2
UCS
  5
468
100
AcDbSymbolTable
 70
     0
  0
ENDTAB
  0
TABLE
  2
APPID
  5
46A
100
AcDbSymbolTable
 70
     2
  0
APPID
  5
471
100
AcDbSymbolTableRecord
100
AcDbRegAppTableRecord
  2
ACAD
 70
     0
  0
APPID
  5
47E
100
AcDbSymbolTableRecord
100
AcDbRegAppTableRecord
  2
AVE_RENDER
 70
     0
  0
ENDTAB
  0
TABLE
  2
DIMSTYLE
  5
46B
100
AcDbSymbolTable
 70
     3
  0
DIMSTYLE
105
496
102
{ACAD_XDICTIONARY
360
870
102
}
100
AcDbSymbolTableRecord
100
AcDbDimStyleTableRecord
  2
ABECAD
 70
     0
  3

  4

  5

  6

  7

 40
0.0
 41
0.179688
 42
0.0625
 43
0.375
 44
0.179688
 45
0.0
 46
0.0
 47
0.0
 48
0.0
140
0.125
141
0.089844
142
0.0
143
25.4
144
1.0
145
0.0
146
1.5
147
0.09375
 71
     0
 72
     0
 73
     0
 74
     0
 75
     0
 76
     0
 77
     0
 78
     4
170
     1
171
     1
172
     0
173
     0
174
     1
175
     0
176
     0
177
     0
178
     0
270
     7
271
     6
272
     6
273
     2
274
     1
340
470
275
     0
280
     0
281
     0
282
     0
283
     1
284
     4
285
     4
286
     4
287
     5
288
     0
  0
DIMSTYLE
105
49A
102
{ACAD_XDICTIONARY
360
872
102
}
102
{ACAD_REACTORS
330
7F0
102
}
100
AcDbSymbolTableRecord
100
AcDbDimStyleTableRecord
  2
ABECAD_3V
 70
     0
  3

  4

  5

  6

  7

 40
0.0
 41
0.179688
 42
0.0625
 43
0.375
 44
0.179688
 45
0.0
 46
0.0
 47
0.0
 48
0.0
140
0.125
141
0.089844
142
0.0
143
25.4
144
1.0
145
0.0
146
1.5
147
0.09375
 71
     0
 72
     0
 73
     0
 74
     0
 75
     0
 76
     0
 77
     0
 78
     4
170
     1
171
     1
172
     0
173
     0
174
     1
175
     0
176
     0
177
     0
178
     0
270
     7
271
     6
272
     6
273
     2
274
     1
340
470
275
     0
280
     0
281
     0
282
     0
283
     1
284
     4
285
     4
286
     4
287
     5
288
     0
  0
DIMSTYLE
105
56E
102
{ACAD_XDICTIONARY
360
876
102
}
102
{ACAD_REACTORS
330
7E1
330
7E2
102
}
100
AcDbSymbolTableRecord
100
AcDbDimStyleTableRecord
  2
ABECAD_3D
 70
     0
  3

  4

  5

  6

  7

 40
1.0
 41
0.18
 42
0.0625
 43
0.375
 44
0.18
 45
0.0
 46
0.0
 47
0.0
 48
0.0
140
0.18
141
0.09
142
0.0
143
25.4
144
1.0
145
0.0
146
1.5
147
0.09
 71
     0
 72
     0
 73
     0
 74
     1
 75
     0
 76
     0
 77
     0
 78
     4
170
     1
171
     1
172
     0
173
     0
174
     0
175
     0
176
     0
177
     0
178
     0
270
     7
271
     6
272
     6
273
     2
274
     1
340
470
275
     0
280
     0
281
     0
282
     0
283
     1
284
     4
285
     4
286
     4
287
     3
288
     0
  0
ENDTAB
  0
TABLE
  2
BLOCK_RECORD
  5
462
100
AcDbSymbolTable
 70
     5
  0
BLOCK_RECORD
  5
478
102
{ACAD_XDICTIONARY
360
4D2
102
}
100
AcDbSymbolTableRecord
100
AcDbBlockTableRecord
  2
*MODEL_SPACE
  0
BLOCK_RECORD
  5
475
102
{ACAD_XDICTIONARY
360
4D0
102
}
100
AcDbSymbolTableRecord
100
AcDbBlockTableRecord
  2
*PAPER_SPACE
  0
BLOCK_RECORD
  5
545
102
{ACAD_XDICTIONARY
360
83D
102
}
100
AcDbSymbolTableRecord
100
AcDbBlockTableRecord
  2
SCALE
1001
ACAD
1000
DesignCenter Data
1002
{
1070
     1
1070
     1
1002
}
  0
BLOCK_RECORD
  5
553
100
AcDbSymbolTableRecord
100
AcDbBlockTableRecord
  2
*D1
  0
BLOCK_RECORD
  5
560
100
AcDbSymbolTableRecord
100
AcDbBlockTableRecord
  2
*D2
  0
BLOCK_RECORD
  5
56F
102
{ACAD_XDICTIONARY
360
83F
102
}
100
AcDbSymbolTableRecord
100
AcDbBlockTableRecord
  2
ABCHD060
  0
BLOCK_RECORD
  5
7F1
100
AcDbSymbolTableRecord
100
AcDbBlockTableRecord
  2
*D4
  0
ENDTAB
  0
ENDSEC
  0
SECTION
  2
BLOCKS
  0
BLOCK
  5
48B
100
AcDbEntity
  8
0
100
AcDbBlockBegin
  2
*MODEL_SPACE
 70
     0
 10
0.0
 20
0.0
 30
0.0
  3
*MODEL_SPACE
  1

  0
ENDBLK
  5
48C
100
AcDbEntity
  8
0
100
AcDbBlockEnd
  0
BLOCK
  5
489
100
AcDbEntity
 67
     1
  8
0
100
AcDbBlockBegin
  2
*PAPER_SPACE
 70
     0
 10
0.0
 20
0.0
 30
0.0
  3
*PAPER_SPACE
  1

  0
ENDBLK
  5
48A
100
AcDbEntity
 67
     1
  8
0
100
AcDbBlockEnd
  0
BLOCK
  5
551
100
AcDbEntity
  8
0
100
AcDbBlockBegin
  2
SCALE
 70
     0
 10
0.0
 20
0.0
 30
0.0
  3
SCALE
  1

  0
LINE
  5
546
100
AcDbEntity
  8
SCALE
100
AcDbLine
 10
0.057999
 20
-0.380078
 30
0.0
 11
1.057999
 21
-0.380078
 31
0.0
  0
LWPOLYLINE
  5
547
100
AcDbEntity
  8
SCALE
100
AcDbPolyline
 90
        4
 70
     1
 43
0.0
 10
0.0
 20
0.0
 10
1.135629
 20
0.0
 10
1.135629
 20
-0.84161
 10
0.0
 20
-0.84161
  0
LINE
  5
548
100
AcDbEntity
  8
SCALE
100
AcDbLine
 10
0.057999
 20
-0.480078
 30
0.0
 11
0.057999
 21
-0.280078
 31
0.0
  0
TEXT
  5
549
100
AcDbEntity
  8
SCALE
100
AcDbText
 10
0.117421
 20
-0.634339
 30
0.0
 40
0.0625
  1
[10mm]
100
AcDbText
  0
LINE
  5
54A
100
AcDbEntity
  8
SCALE
100
AcDbLine
 10
0.057999
 20
-0.680078
 30
0.0
 11
0.451699
 21
-0.680078
 31
0.0
  0
LINE
  5
54B
100
AcDbEntity
  8
SCALE
100
AcDbLine
 10
0.057999
 20
-0.780078
 30
0.0
 11
0.057999
 21
-0.580078
 31
0.0
  0
LINE
  5
54C
100
AcDbEntity
  8
SCALE
100
AcDbLine
 10
0.451699
 20
-0.780078
 30
0.0
 11
0.451699
 21
-0.580078
 31
0.0
  0
TEXT
  5
54D
100
AcDbEntity
  8
SCALE
100
AcDbText
 10
0.059529
 20
-0.105201
 30
0.0
 40
0.0625
  1
SCALE:
100
AcDbText
  0
TEXT
  5
54E
100
AcDbEntity
  8
SCALE
100
AcDbText
 10
0.421282
 20
-0.31103
 30
0.0
 40
0.0625
  1
1 Inch
100
AcDbText
  0
LINE
  5
54F
100
AcDbEntity
  8
SCALE
100
AcDbLine
 10
1.057999
 20
-0.380078
 30
0.0
 11
1.057999
 21
-0.480078
 31
0.0
  0
LINE
  5
550
100
AcDbEntity
  8
SCALE
100
AcDbLine
 10
1.057999
 20
-0.480078
 30
0.0
 11
1.057999
 21
-0.280078
 31
0.0
  0
ENDBLK
  5
552
100
AcDbEntity
  8
0
100
AcDbBlockEnd
  0
BLOCK
  5
55E
100
AcDbEntity
  8
0
100
AcDbBlockBegin
  2
*D1
 70
     1
 10
0.0
 20
0.0
 30
0.0
  3
*D1
  1

  0
LINE
  5
554
100
AcDbEntity
  8
AREA1
 62
     0
100
AcDbLine
 10
5.3625
 20
0.752
 30
0.0
 11
6.258703
 21
0.752
 31
0.0
1001
ACAD
1000
RTLwPs
1070
   158
  0
LINE
  5
555
100
AcDbEntity
  8
AREA1
 62
     0
100
AcDbLine
 10
5.3625
 20
-2.248
 30
0.0
 11
6.258703
 21
-2.248
 31
0.0
1001
ACAD
1000
RTLwPs
1070
   158
  0
LINE
  5
556
100
AcDbEntity
  8
AREA1
 62
     0
100
AcDbLine
 10
6.078703
 20
0.572
 30
0.0
 11
6.078703
 21
-0.088
 31
0.0
1001
ACAD
1000
RTLwPs
1070
   158
  0
LINE
  5
557
100
AcDbEntity
  8
AREA1
 62
     0
100
AcDbLine
 10
6.078703
 20
-2.068
 30
0.0
 11
6.078703
 21
-1.408
 31
0.0
1001
ACAD
1000
RTLwPs
1070
   158
  0
SOLID
  5
558
100
AcDbEntity
  8
AREA1
 62
     0
100
AcDbTrace
 10
6.048703
 20
0.572
 30
0.0
 11
6.108703
 21
0.572
 31
0.0
 12
6.078703
 22
0.752
 32
0.0
 13
6.078703
 23
0.752
 33
0.0
  0
SOLID
  5
559
100
AcDbEntity
  8
AREA1
 62
     0
100
AcDbTrace
 10
6.048703
 20
-2.068
 30
0.0
 11
6.108703
 21
-2.068
 31
0.0
 12
6.078703
 22
-2.248
 32
0.0
 13
6.078703
 23
-2.248
 33
0.0
  0
MTEXT
  5
55A
100
AcDbEntity
  8
AREA1
 62
     0
100
AcDbMText
 10
6.078703
 20
-0.748
 30
0.0
 40
0.18
 41
0.0
 71
     5
 72
     1
  1
\A1;3 [76.2]
 11
0.0
 21
1.0
 31
0.0
1001
ACAD
1000
MTEXTBEGIN
1070
    73
1070
     1
1070
    44
1040
1.0
1070
    74
1070
     0
1000
MTEXTEND
1000
MTEXTBEGIN
1070
    73
1070
     1
1070
    44
1040
1.0
1070
    74
1070
     0
1000
MTEXTEND
1000
MTEXTBEGIN
1070
    73
1070
     1
1070
    44
1040
1.0
1070
    74
1070
     0
1000
MTEXTEND
  0
POINT
  5
55B
100
AcDbEntity
  8
DEFPOINTS
 62
     0
100
AcDbPoint
 10
5.3
 20
0.752
 30
0.7
  0
POINT
  5
55C
100
AcDbEntity
  8
DEFPOINTS
 62
     0
100
AcDbPoint
 10
5.3
 20
-2.248
 30
0.0
  0
POINT
  5
55D
100
AcDbEntity
  8
DEFPOINTS
 62
     0
100
AcDbPoint
 10
6.078703
 20
-2.248
 30
0.0
  0
ENDBLK
  5
55F
100
AcDbEntity
  8
0
100
AcDbBlockEnd
  0
BLOCK
  5
56B
100
AcDbEntity
  8
0
100
AcDbBlockBegin
  2
*D2
 70
     1
 10
0.0
 20
0.0
 30
0.0
  3
*D2
  1

  0
LINE
  5
561
100
AcDbEntity
  8
AREA1
 62
     0
100
AcDbLine
 10
0.0
 20
0.8145
 30
0.0
 11
0.0
 21
1.62068
 31
0.0
1001
ACAD
1000
RTLwPs
1070
   158
  0
LINE
  5
562
100
AcDbEntity
  8
AREA1
 62
     0
100
AcDbLine
 10
5.3
 20
0.8145
 30
0.0
 11
5.3
 21
1.62068
 31
0.0
1001
ACAD
1000
RTLwPs
1070
   158
  0
LINE
  5
563
100
AcDbEntity
  8
AREA1
 62
     0
100
AcDbLine
 10
0.18
 20
1.44068
 30
0.0
 11
1.42
 21
1.44068
 31
0.0
1001
ACAD
1000
RTLwPs
1070
   158
  0
LINE
  5
564
100
AcDbEntity
  8
AREA1
 62
     0
100
AcDbLine
 10
5.12
 20
1.44068
 30
0.0
 11
3.88
 21
1.44068
 31
0.0
1001
ACAD
1000
RTLwPs
1070
   158
  0
SOLID
  5
565
100
AcDbEntity
  8
AREA1
 62
     0
100
AcDbTrace
 10
0.18
 20
1.47068
 30
0.0
 11
0.18
 21
1.41068
 31
0.0
 12
0.0
 22
1.44068
 32
0.0
 13
0.0
 23
1.44068
 33
0.0
  0
SOLID
  5
566
100
AcDbEntity
  8
AREA1
 62
     0
100
AcDbTrace
 10
5.12
 20
1.47068
 30
0.0
 11
5.12
 21
1.41068
 31
0.0
 12
5.3
 22
1.44068
 32
0.0
 13
5.3
 23
1.44068
 33
0.0
  0
MTEXT
  5
567
100
AcDbEntity
  8
AREA1
 62
     0
100
AcDbMText
 10
2.65
 20
1.44068
 30
0.0
 40
0.18
 41
0.0
 71
     5
 72
     1
  1
\A1;5 19/64 [134.6]
1001
ACAD
1000
MTEXTBEGIN
1070
    73
1070
     1
1070
    44
1040
1.0
1070
    74
1070
     0
1000
MTEXTEND
1000
MTEXTBEGIN
1070
    73
1070
     1
1070
    44
1040
1.0
1070
    74
1070
     0
1000
MTEXTEND
1000
MTEXTBEGIN
1070
    73
1070
     1
1070
    44
1040
1.0
1070
    74
1070
     0
1000
MTEXTEND
  0
POINT
  5
568
100
AcDbEntity
  8
DEFPOINTS
 62
     0
100
AcDbPoint
 10
0.0
 20
0.752
 30
0.7
  0
POINT
  5
569
100
AcDbEntity
  8
DEFPOINTS
 62
     0
100
AcDbPoint
 10
5.3
 20
0.752
 30
0.7
  0
POINT
  5
56A
100
AcDbEntity
  8
DEFPOINTS
 62
     0
100
AcDbPoint
 10
5.3
 20
1.44068
 30
0.0
  0
ENDBLK
  5
56C
100
AcDbEntity
  8
0
100
AcDbBlockEnd
  0
BLOCK
  5
7E3
100
AcDbEntity
  8
0
100
AcDbBlockBegin
  2
ABCHD060
 70
     2
 10
0.0
 20
0.0
 30
0.0
  3
ABCHD060
  1

  0
ATTDEF
  5
570
100
AcDbEntity
  8
ATTRIBUTES
100
AcDbText
 10
0.115855
 20
-0.261833
 30
0.0
 40
0.1125
  1
ALLEN-BRADLEY
100
AcDbAttributeDefinition
  3
MANUFACTURER NAME?
  2
AC_VND_LABEL
 70
     1
  0
ATTDEF
  5
571
100
AcDbEntity
  8
ATTRIBUTES
100
AcDbText
 10
0.115855
 20
-0.496208
 30
0.0
 40
0.1125
  1
1771-RTP1
100
AcDbAttributeDefinition
  3
CATALOG NUMBER?
  2
AC_PART_NO
 70
     1
  0
ATTDEF
  5
572
100
AcDbEntity
  8
ATTRIBUTES
100
AcDbText
 10
0.115855
 20
-0.730583
 30
0.0
 40
0.1125
  1
1771-RTP1: REMOTE TERMINATION PANEL
100
AcDbAttributeDefinition
  3
PART DESCRIPTION?
  2
AC_DESCRIPTION
 70
     1
  0
ATTDEF
  5
573
100
AcDbEntity
  8
ATTRIBUTES
100
AcDbText
 10
0.115855
 20
-0.964958
 30
0.0
 40
0.1125
  1

100
AcDbAttributeDefinition
  3
DEVICE ID?
  2
DEVICE_ID
 70
     1
  0
ATTDEF
  5
574
100
AcDbEntity
  8
ATTRIBUTES
100
AcDbText
 10
0.115855
 20
-1.199333
 30
0.0
 40
0.1125
  1

100
AcDbAttributeDefinition
  3
CUSTOMER PART NUMBER?
  2
AC_CPART_NO
 70
     1
  0
ATTDEF
  5
575
100
AcDbEntity
  8
ATTRIBUTES
100
AcDbText
 10
0.115855
 20
-1.433708
 30
0.0
 40
0.1125
  1

100
AcDbAttributeDefinition
  3
CUSTOMER NOTE?
  2
AC_NOTE
 70
     1
  0
ATTDEF
  5
576
100
AcDbEntity
  8
ATTRIBUTES
100
AcDbText
 10
0.115855
 20
-1.668083
 30
0.0
 40
0.1125
  1

100
AcDbAttributeDefinition
  3
FASTENER DATA?
  2
FASTENER
 70
     1
  0
ATTDEF
  5
577
100
AcDbEntity
  8
ATTRIBUTES
100
AcDbText
 10
0.115855
 20
-1.902458
 30
0.0
 40
0.1125
  1
INCH
100
AcDbAttributeDefinition
  3
UNIT OF SCALE?
  2
AC_SCALE_UNIT
 70
     1
  0
ATTDEF
  5
578
100
AcDbEntity
  8
ATTRIBUTES
100
AcDbText
 10
0.115855
 20
-2.136833
 30
0.0
 40
0.1125
  1
0
100
AcDbAttributeDefinition
  3
VIEW CODE?
  2
AC_VIEW_CODE
 70
     1
  0
INSERT
  5
579
100
AcDbEntity
  8
SCALE
100
AcDbBlockReference
  2
SCALE
 10
0.001305
 20
-2.436651
 30
0.0
  0
LWPOLYLINE
  5
57A
100
AcDbEntity
  8
0
100
AcDbPolyline
 90
        4
 70
     1
 43
0.0
 38
-2.098049
 10
-0.964947
 20
1.37002
 10
-0.964947
 20
1.129989
 10
-0.834979
 20
1.129989
 10
-0.834979
 20
1.37002
210
0.0
220
1.0
230
0.0
  0
POLYLINE
  5
57B
100
AcDbEntity
  8
0
100
AcDbPolygonMesh
 66
     1
 10
0.0
 20
0.0
 30
0.0
 70
    16
 71
     6
 72
     3
  0
VERTEX
  5
57C
100
AcDbEntity
  8
0
100
AcDbVertex
100
AcDbPolygonMeshVertex
 10
4.85
 20
0.052
 30
1.515
 70
    64
  0
VERTEX
  5
57D
100
AcDbEntity
  8
0
100
AcDbVertex
100
AcDbPolygonMeshVertex
 10
4.85
 20
0.052
 30
1.11
 70
    64
  0
VERTEX
  5
57E
100
AcDbEntity
  8
0
100
AcDbVertex
100
AcDbPolygonMeshVertex
 10
4.85
 20
0.052
 30
1.11
 70
    64
  0
VERTEX
  5
57F
100
AcDbEntity
  8
0
100
AcDbVertex
100
AcDbPolygonMeshVertex
 10
2.75
 20
0.052
 30
1.515
 70
    64
  0
VERTEX
  5
580
100
AcDbEntity
  8
0
100
AcDbVertex
100
AcDbPolygonMeshVertex
 10
2.75
 20
0.052
 30
1.11
 70
    64
  0
VERTEX
  5
581
100
AcDbEntity
  8
0
100
AcDbVertex
100
AcDbPolygonMeshVertex
 10
2.75
 20
0.052
 30
1.11
 70
    64
  0
VERTEX
  5
582
100
AcDbEntity
  8
0
100
AcDbVertex
100
AcDbPolygonMeshVertex
 10
2.75
 20
0.552
 30
1.515
 70
    64
  0
VERTEX
  5
583
100
AcDbEntity
  8
0
100
AcDbVertex
100
AcDbPolygonMeshVertex
 10
2.75
 20
0.552
 30
1.11
 70
    64
  0
VERTEX
  5
584
100
AcDbEntity
  8
0
100
AcDbVertex
100
AcDbPolygonMeshVertex
 10
2.75
 20
0.052
 30
1.11
 70
    64
  0
VERTEX
  5
585
100
AcDbEntity
  8
0
100
AcDbVertex
100
AcDbPolygonMeshVertex
 10
4.85
 20
0.552
 30
1.515
 70
    64
  0
VERTEX
  5
586
100
AcDbEntity
  8
0
100
AcDbVertex
100
AcDbPolygonMeshVertex
 10
4.85
 20
0.552
 30
1.11
 70
    64
  0
VERTEX
  5
587
100
AcDbEntity
  8
0
100
AcDbVertex
100
AcDbPolygonMeshVertex
 10
4.85
 20
0.052
 30
1.11
 70
    64
  0
VERTEX
  5
588
100
AcDbEntity
  8
0
100
AcDbVertex
100
AcDbPolygonMeshVertex
 10
4.85
 20
0.552
 30
1.515
 70
    64
  0
VERTEX
  5
589
100
AcDbEntity
  8
0
100
AcDbVertex
100
AcDbPolygonMeshVertex
 10
4.85
 20
0.552
 30
1.515
 70
    64
  0
VERTEX
  5
58A
100
AcDbEntity
  8
0
100
AcDbVertex
100
AcDbPolygonMeshVertex
 10
4.85
 20
0.052
 30
1.515
 70
    64
  0
VERTEX
  5
58B
100
AcDbEntity
  8
0
100
AcDbVertex
100
AcDbPolygonMeshVertex
 10
2.75
 20
0.552
 30
1.515
 70
    64
  0
VERTEX
  5
58C
100
AcDbEntity
  8
0
100
AcDbVertex
100
AcDbPolygonMeshVertex
 10
2.75
 20
0.552
 30
1.515
 70
    64
  0
VERTEX
  5
58D
100
AcDbEntity
  8
0
100
AcDbVertex
100
AcDbPolygonMeshVertex
 10
2.75
 20
0.052
 30
1.515
 70
    64
  0
SEQEND
  5
58E
100
AcDbEntity
  8
0
  0
POLYLINE
  5
58F
100
AcDbEntity
  8
0
100
AcDbPolygonMesh
 66
     1
 10
0.0
 20
0.0
 30
0.0
 70
    16
 71
     6
 72
     3
  0
VERTEX
  5
590
100
AcDbEntity
  8
0
100
AcDbVertex
100
AcDbPolygonMeshVertex
 10
2.5
 20
0.052
 30
1.515
 70
    64
  0
VERTEX
  5
591
100
AcDbEntity
  8
0
100
AcDbVertex
100
AcDbPolygonMeshVertex
 10
2.5
 20
0.052
 30
1.11
 70
    64
  0
VERTEX
  5
592
100
AcDbEntity
  8
0
100
AcDbVertex
100
AcDbPolygonMeshVertex
 10
2.5
 20
0.052
 30
1.11
 70
    64
  0
VERTEX
  5
593
100
AcDbEntity
  8
0
100
AcDbVertex
100
AcDbPolygonMeshVertex
 10
0.4
 20
0.052
 30
1.515
 70
    64
  0
VERTEX
  5
594
100
AcDbEntity
  8
0
100
AcDbVertex
100
AcDbPolygonMeshVertex
 10
0.4
 20
0.052
 30
1.11
 70
    64
  0
VERTEX
  5
595
100
AcDbEntity
  8
0
100
AcDbVertex
100
AcDbPolygonMeshVertex
 10
0.4
 20
0.052
 30
1.11
 70
    64
  0
VERTEX
  5
596
100
AcDbEntity
  8
0
100
AcDbVertex
100
AcDbPolygonMeshVertex
 10
0.4
 20
0.552
 30
1.515
 70
    64
  0
VERTEX
  5
597
100
AcDbEntity
  8
0
100
AcDbVertex
100
AcDbPolygonMeshVertex
 10
0.4
 20
0.552
 30
1.11
 70
    64
  0
VERTEX
  5
598
100
AcDbEntity
  8
0
100
AcDbVertex
100
AcDbPolygonMeshVertex
 10
0.4
 20
0.052
 30
1.11
 70
    64
  0
VERTEX
  5
599
100
AcDbEntity
  8
0
100
AcDbVertex
100
AcDbPolygonMeshVertex
 10
2.5
 20
0.552
 30
1.515
 70
    64
  0
VERTEX
  5
59A
100
AcDbEntity
  8
0
100
AcDbVertex
100
AcDbPolygonMeshVertex
 10
2.5
 20
0.552
 30
1.11
 70
    64
  0
VERTEX
  5
59B
100
AcDbEntity
  8
0
100
AcDbVertex
100
AcDbPolygonMeshVertex
 10
2.5
 20
0.052
 30
1.11
 70
    64
  0
VERTEX
  5
59C
100
AcDbEntity
  8
0
100
AcDbVertex
100
AcDbPolygonMeshVertex
 10
2.5
 20
0.552
 30
1.515
 70
    64
  0
VERTEX
  5
59D
100
AcDbEntity
  8
0
100
AcDbVertex
100
AcDbPolygonMeshVertex
 10
2.5
 20
0.552
 30
1.515
 70
    64
  0
VERTEX
  5
59E
100
AcDbEntity
  8
0
100
AcDbVertex
100
AcDbPolygonMeshVertex
 10
2.5
 20
0.052
 30
1.515
 70
    64
  0
VERTEX
  5
59F
100
AcDbEntity
  8
0
100
AcDbVertex
100
AcDbPolygonMeshVertex
 10
0.4
 20
0.552
 30
1.515
 70
    64
  0
VERTEX
  5
5A0
100
AcDbEntity
  8
0
100
AcDbVertex
100
AcDbPolygonMeshVertex
 10
0.4
 20
0.552
 30
1.515
 70
    64
  0
VERTEX
  5
5A1
100
AcDbEntity
  8
0
100
AcDbVertex
100
AcDbPolygonMeshVertex
 10
0.4
 20
0.052
 30
1.515
 70
    64
  0
SEQEND
  5
5A2
100
AcDbEntity
  8
0
  0
LWPOLYLINE
  5
5A3
100
AcDbEntity
  8
0
100
AcDbPolyline
 90
        4
 70
     1
 43
0.0
 38
-2.098049
 10
-4.364947
 20
1.37002
 10
-4.364947
 20
1.129989
 10
-4.234979
 20
1.129989
 10
-4.234979
 20
1.37002
210
0.0
220
1.0
230
0.0
  0
LWPOLYLINE
  5
5A4
100
AcDbEntity
  8
0
100
AcDbPolyline
 90
        4
 70
     1
 43
0.0
 38
-2.098049
 10
-3.764947
 20
1.37002
 10
-3.764947
 20
1.129989
 10
-3.634979
 20
1.129989
 10
-3.634979
 20
1.37002
210
0.0
220
1.0
230
0.0
  0
LWPOLYLINE
  5
5A5
100
AcDbEntity
  8
0
100
AcDbPolyline
 90
        4
 70
     1
 43
0.0
 38
-2.098049
 10
-3.564947
 20
1.37002
 10
-3.564947
 20
1.129989
 10
-3.434979
 20
1.129989
 10
-3.434979
 20
1.37002
210
0.0
220
1.0
230
0.0
  0
LWPOLYLINE
  5
5A6
100
AcDbEntity
  8
0
100
AcDbPolyline
 90
        4
 70
     1
 43
0.0
 38
-2.098049
 10
-3.364947
 20
1.37002
 10
-3.364947
 20
1.129989
 10
-3.234979
 20
1.129989
 10
-3.234979
 20
1.37002
210
0.0
220
1.0
230
0.0
  0
LWPOLYLINE
  5
5A7
100
AcDbEntity
  8
0
100
AcDbPolyline
 90
        4
 70
     1
 43
0.0
 38
-2.098049
 10
-3.964947
 20
1.37002
 10
-3.964947
 20
1.129989
 10
-3.834979
 20
1.129989
 10
-3.834979
 20
1.37002
210
0.0
220
1.0
230
0.0
  0
LWPOLYLINE
  5
5A8
100
AcDbEntity
  8
0
100
AcDbPolyline
 90
        4
 70
     1
 43
0.0
 38
-2.098049
 10
-4.164947
 20
1.37002
 10
-4.164947
 20
1.129989
 10
-4.034979
 20
1.129989
 10
-4.034979
 20
1.37002
210
0.0
220
1.0
230
0.0
  0
LWPOLYLINE
  5
5A9
100
AcDbEntity
  8
0
100
AcDbPolyline
 90
        4
 70
     1
 43
0.0
 38
-2.098049
 10
-1.364947
 20
1.37002
 10
-1.364947
 20
1.129989
 10
-1.234979
 20
1.129989
 10
-1.234979
 20
1.37002
210
0.0
220
1.0
230
0.0
  0
LWPOLYLINE
  5
5AA
100
AcDbEntity
  8
0
100
AcDbPolyline
 90
        4
 70
     1
 43
0.0
 38
-2.098049
 10
-1.764947
 20
1.37002
 10
-1.764947
 20
1.129989
 10
-1.634979
 20
1.129989
 10
-1.634979
 20
1.37002
210
0.0
220
1.0
230
0.0
  0
LWPOLYLINE
  5
5AB
100
AcDbEntity
  8
0
100
AcDbPolyline
 90
        4
 70
     1
 43
0.0
 38
-2.098049
 10
-1.564947
 20
1.37002
 10
-1.564947
 20
1.129989
 10
-1.434979
 20
1.129989
 10
-1.434979
 20
1.37002
210
0.0
220
1.0
230
0.0
  0
LWPOLYLINE
  5
5AC
100
AcDbEntity
  8
0
100
AcDbPolyline
 90
        4
 70
     1
 43
0.0
 38
-2.098049
 10
-2.164947
 20
1.37002
 10
-2.164947
 20
1.129989
 10
-2.034979
 20
1.129989
 10
-2.034979
 20
1.37002
210
0.0
220
1.0
230
0.0
  0
LWPOLYLINE
  5
5AD
100
AcDbEntity
  8
0
100
AcDbPolyline
 90
        4
 70
     1
 43
0.0
 38
-2.098049
 10
-1.964947
 20
1.37002
 10
-1.964947
 20
1.129989
 10
-1.834979
 20
1.129989
 10
-1.834979
 20
1.37002
210
0.0
220
1.0
230
0.0
  0
LWPOLYLINE
  5
5AE
100
AcDbEntity
  8
0
100
AcDbPolyline
 90
        4
 70
     1
 43
0.0
 38
-2.098049
 10
-2.564947
 20
1.37002
 10
-2.564947
 20
1.129989
 10
-2.434979
 20
1.129989
 10
-2.434979
 20
1.37002
210
0.0
220
1.0
230
0.0
  0
LWPOLYLINE
  5
5AF
100
AcDbEntity
  8
0
100
AcDbPolyline
 90
        4
 70
     1
 43
0.0
 38
-2.098049
 10
-2.364947
 20
1.37002
 10
-2.364947
 20
1.129989
 10
-2.234979
 20
1.129989
 10
-2.234979
 20
1.37002
210
0.0
220
1.0
230
0.0
  0
LWPOLYLINE
  5
5B0
100
AcDbEntity
  8
0
100
AcDbPolyline
 90
        4
 70
     1
 43
0.0
 38
-2.098049
 10
-2.964947
 20
1.37002
 10
-2.964947
 20
1.129989
 10
-2.834979
 20
1.129989
 10
-2.834979
 20
1.37002
210
0.0
220
1.0
230
0.0
  0
LWPOLYLINE
  5
5B1
100
AcDbEntity
  8
0
100
AcDbPolyline
 90
        4
 70
     1
 43
0.0
 38
-2.098049
 10
-2.764947
 20
1.37002
 10
-2.764947
 20
1.129989
 10
-2.634979
 20
1.129989
 10
-2.634979
 20
1.37002
210
0.0
220
1.0
230
0.0
  0
LWPOLYLINE
  5
5B2
100
AcDbEntity
  8
0
100
AcDbPolyline
 90
        4
 70
     1
 43
0.0
 38
-2.098049
 10
-3.164947
 20
1.37002
 10
-3.164947
 20
1.129989
 10
-3.034979
 20
1.129989
 10
-3.034979
 20
1.37002
210
0.0
220
1.0
230
0.0
  0
LWPOLYLINE
  5
5B3
100
AcDbEntity
  8
0
100
AcDbPolyline
 90
        4
 70
     1
 43
0.0
 38
-2.098049
 10
-1.164947
 20
1.37002
 10
-1.164947
 20
1.129989
 10
-1.034979
 20
1.129989
 10
-1.034979
 20
1.37002
210
0.0
220
1.0
230
0.0
  0
LWPOLYLINE
  5
5B4
100
AcDbEntity
  8
0
100
AcDbPolyline
 90
        4
 70
     1
 43
0.0
 38
-2.098049
 10
-4.564947
 20
1.37002
 10
-4.564947
 20
1.129989
 10
-4.434979
 20
1.129989
 10
-4.434979
 20
1.37002
210
0.0
220
1.0
230
0.0
  0
POLYLINE
  5
5B5
100
AcDbEntity
  8
0
100
AcDbPolygonMesh
 66
     1
 10
0.0
 20
0.0
 30
0.0
 70
    16
 71
     6
 72
     3
  0
VERTEX
  5
5B6
100
AcDbEntity
  8
0
100
AcDbVertex
100
AcDbPolygonMeshVertex
 10
4.6
 20
-2.098
 30
1.47
 70
    64
  0
VERTEX
  5
5B7
100
AcDbEntity
  8
0
100
AcDbVertex
100
AcDbPolygonMeshVertex
 10
4.6
 20
-2.098
 30
1.11
 70
    64
  0
VERTEX
  5
5B8
100
AcDbEntity
  8
0
100
AcDbVertex
100
AcDbPolygonMeshVertex
 10
4.6
 20
-2.098
 30
1.11
 70
    64
  0
VERTEX
  5
5B9
100
AcDbEntity
  8
0
100
AcDbVertex
100
AcDbPolygonMeshVertex
 10
0.7
 20
-2.098
 30
1.47
 70
    64
  0
VERTEX
  5
5BA
100
AcDbEntity
  8
0
100
AcDbVertex
100
AcDbPolygonMeshVertex
 10
0.7
 20
-2.098
 30
1.11
 70
    64
  0
VERTEX
  5
5BB
100
AcDbEntity
  8
0
100
AcDbVertex
100
AcDbPolygonMeshVertex
 10
0.7
 20
-2.098
 30
1.11
 70
    64
  0
VERTEX
  5
5BC
100
AcDbEntity
  8
0
100
AcDbVertex
100
AcDbPolygonMeshVertex
 10
0.7
 20
-2.013
 30
1.47
 70
    64
  0
VERTEX
  5
5BD
100
AcDbEntity
  8
0
100
AcDbVertex
100
AcDbPolygonMeshVertex
 10
0.7
 20
-2.013
 30
1.11
 70
    64
  0
VERTEX
  5
5BE
100
AcDbEntity
  8
0
100
AcDbVertex
100
AcDbPolygonMeshVertex
 10
0.7
 20
-2.098
 30
1.11
 70
    64
  0
VERTEX
  5
5BF
100
AcDbEntity
  8
0
100
AcDbVertex
100
AcDbPolygonMeshVertex
 10
4.6
 20
-2.013
 30
1.47
 70
    64
  0
VERTEX
  5
5C0
100
AcDbEntity
  8
0
100
AcDbVertex
100
AcDbPolygonMeshVertex
 10
4.6
 20
-2.013
 30
1.11
 70
    64
  0
VERTEX
  5
5C1
100
AcDbEntity
  8
0
100
AcDbVertex
100
AcDbPolygonMeshVertex
 10
4.6
 20
-2.098
 30
1.11
 70
    64
  0
VERTEX
  5
5C2
100
AcDbEntity
  8
0
100
AcDbVertex
100
AcDbPolygonMeshVertex
 10
4.6
 20
-2.013
 30
1.47
 70
    64
  0
VERTEX
  5
5C3
100
AcDbEntity
  8
0
100
AcDbVertex
100
AcDbPolygonMeshVertex
 10
4.6
 20
-2.013
 30
1.47
 70
    64
  0
VERTEX
  5
5C4
100
AcDbEntity
  8
0
100
AcDbVertex
100
AcDbPolygonMeshVertex
 10
4.6
 20
-2.098
 30
1.47
 70
    64
  0
VERTEX
  5
5C5
100
AcDbEntity
  8
0
100
AcDbVertex
100
AcDbPolygonMeshVertex
 10
0.7
 20
-2.013
 30
1.47
 70
    64
  0
VERTEX
  5
5C6
100
AcDbEntity
  8
0
100
AcDbVertex
100
AcDbPolygonMeshVertex
 10
0.7
 20
-2.013
 30
1.47
 70
    64
  0
VERTEX
  5
5C7
100
AcDbEntity
  8
0
100
AcDbVertex
100
AcDbPolygonMeshVertex
 10
0.7
 20
-2.098
 30
1.47
 70
    64
  0
SEQEND
  5
5C8
100
AcDbEntity
  8
0
  0
POLYLINE
  5
5C9
100
AcDbEntity
  8
0
100
AcDbPolygonMesh
 66
     1
 10
0.0
 20
0.0
 30
0.0
 70
    16
 71
     6
 72
     3
  0
VERTEX
  5
5CA
100
AcDbEntity
  8
0
100
AcDbVertex
100
AcDbPolygonMeshVertex
 10
4.6
 20
-2.013
 30
1.74
 70
    64
  0
VERTEX
  5
5CB
100
AcDbEntity
  8
0
100
AcDbVertex
100
AcDbPolygonMeshVertex
 10
4.6
 20
-2.013
 30
1.11
 70
    64
  0
VERTEX
  5
5CC
100
AcDbEntity
  8
0
100
AcDbVertex
100
AcDbPolygonMeshVertex
 10
4.6
 20
-2.013
 30
1.11
 70
    64
  0
VERTEX
  5
5CD
100
AcDbEntity
  8
0
100
AcDbVertex
100
AcDbPolygonMeshVertex
 10
0.7
 20
-2.013
 30
1.74
 70
    64
  0
VERTEX
  5
5CE
100
AcDbEntity
  8
0
100
AcDbVertex
100
AcDbPolygonMeshVertex
 10
0.7
 20
-2.013
 30
1.11
 70
    64
  0
VERTEX
  5
5CF
100
AcDbEntity
  8
0
100
AcDbVertex
100
AcDbPolygonMeshVertex
 10
0.7
 20
-2.013
 30
1.11
 70
    64
  0
VERTEX
  5
5D0
100
AcDbEntity
  8
0
100
AcDbVertex
100
AcDbPolygonMeshVertex
 10
0.7
 20
-0.673
 30
1.74
 70
    64
  0
VERTEX
  5
5D1
100
AcDbEntity
  8
0
100
AcDbVertex
100
AcDbPolygonMeshVertex
 10
0.7
 20
-0.673
 30
1.11
 70
    64
  0
VERTEX
  5
5D2
100
AcDbEntity
  8
0
100
AcDbVertex
100
AcDbPolygonMeshVertex
 10
0.7
 20
-2.013
 30
1.11
 70
    64
  0
VERTEX
  5
5D3
100
AcDbEntity
  8
0
100
AcDbVertex
100
AcDbPolygonMeshVertex
 10
4.6
 20
-0.673
 30
1.74
 70
    64
  0
VERTEX
  5
5D4
100
AcDbEntity
  8
0
100
AcDbVertex
100
AcDbPolygonMeshVertex
 10
4.6
 20
-0.673
 30
1.11
 70
    64
  0
VERTEX
  5
5D5
100
AcDbEntity
  8
0
100
AcDbVertex
100
AcDbPolygonMeshVertex
 10
4.6
 20
-2.013
 30
1.11
 70
    64
  0
VERTEX
  5
5D6
100
AcDbEntity
  8
0
100
AcDbVertex
100
AcDbPolygonMeshVertex
 10
4.6
 20
-0.673
 30
1.74
 70
    64
  0
VERTEX
  5
5D7
100
AcDbEntity
  8
0
100
AcDbVertex
100
AcDbPolygonMeshVertex
 10
4.6
 20
-0.673
 30
1.74
 70
    64
  0
VERTEX
  5
5D8
100
AcDbEntity
  8
0
100
AcDbVertex
100
AcDbPolygonMeshVertex
 10
4.6
 20
-2.013
 30
1.74
 70
    64
  0
VERTEX
  5
5D9
100
AcDbEntity
  8
0
100
AcDbVertex
100
AcDbPolygonMeshVertex
 10
0.7
 20
-0.673
 30
1.74
 70
    64
  0
VERTEX
  5
5DA
100
AcDbEntity
  8
0
100
AcDbVertex
100
AcDbPolygonMeshVertex
 10
0.7
 20
-0.673
 30
1.74
 70
    64
  0
VERTEX
  5
5DB
100
AcDbEntity
  8
0
100
AcDbVertex
100
AcDbPolygonMeshVertex
 10
0.7
 20
-2.013
 30
1.74
 70
    64
  0
SEQEND
  5
5DC
100
AcDbEntity
  8
0
  0
POLYLINE
  5
5DD
100
AcDbEntity
  8
0
100
AcDbPolygonMesh
 66
     1
 10
0.0
 20
0.0
 30
0.0
 70
    16
 71
     6
 72
     3
  0
VERTEX
  5
5DE
100
AcDbEntity
  8
0
100
AcDbVertex
100
AcDbPolygonMeshVertex
 10
5.3
 20
0.752
 30
0.7
 70
    64
  0
VERTEX
  5
5DF
100
AcDbEntity
  8
0
100
AcDbVertex
100
AcDbPolygonMeshVertex
 10
5.3
 20
0.552
 30
0.7
 70
    64
  0
VERTEX
  5
5E0
100
AcDbEntity
  8
0
100
AcDbVertex
100
AcDbPolygonMeshVertex
 10
5.3
 20
0.552
 30
0.7
 70
    64
  0
VERTEX
  5
5E1
100
AcDbEntity
  8
0
100
AcDbVertex
100
AcDbPolygonMeshVertex
 10
0.0
 20
0.752
 30
0.7
 70
    64
  0
VERTEX
  5
5E2
100
AcDbEntity
  8
0
100
AcDbVertex
100
AcDbPolygonMeshVertex
 10
0.0
 20
0.552
 30
0.7
 70
    64
  0
VERTEX
  5
5E3
100
AcDbEntity
  8
0
100
AcDbVertex
100
AcDbPolygonMeshVertex
 10
0.0
 20
0.552
 30
0.7
 70
    64
  0
VERTEX
  5
5E4
100
AcDbEntity
  8
0
100
AcDbVertex
100
AcDbPolygonMeshVertex
 10
0.0
 20
0.752
 30
0.7
 70
    64
  0
VERTEX
  5
5E5
100
AcDbEntity
  8
0
100
AcDbVertex
100
AcDbPolygonMeshVertex
 10
0.0
 20
0.552
 30
0.5
 70
    64
  0
VERTEX
  5
5E6
100
AcDbEntity
  8
0
100
AcDbVertex
100
AcDbPolygonMeshVertex
 10
0.0
 20
0.552
 30
0.7
 70
    64
  0
VERTEX
  5
5E7
100
AcDbEntity
  8
0
100
AcDbVertex
100
AcDbPolygonMeshVertex
 10
5.3
 20
0.752
 30
0.7
 70
    64
  0
VERTEX
  5
5E8
100
AcDbEntity
  8
0
100
AcDbVertex
100
AcDbPolygonMeshVertex
 10
5.3
 20
0.552
 30
0.5
 70
    64
  0
VERTEX
  5
5E9
100
AcDbEntity
  8
0
100
AcDbVertex
100
AcDbPolygonMeshVertex
 10
5.3
 20
0.552
 30
0.7
 70
    64
  0
VERTEX
  5
5EA
100
AcDbEntity
  8
0
100
AcDbVertex
100
AcDbPolygonMeshVertex
 10
5.3
 20
0.752
 30
0.7
 70
    64
  0
VERTEX
  5
5EB
100
AcDbEntity
  8
0
100
AcDbVertex
100
AcDbPolygonMeshVertex
 10
5.3
 20
0.752
 30
0.7
 70
    64
  0
VERTEX
  5
5EC
100
AcDbEntity
  8
0
100
AcDbVertex
100
AcDbPolygonMeshVertex
 10
5.3
 20
0.752
 30
0.7
 70
    64
  0
VERTEX
  5
5ED
100
AcDbEntity
  8
0
100
AcDbVertex
100
AcDbPolygonMeshVertex
 10
0.0
 20
0.752
 30
0.7
 70
    64
  0
VERTEX
  5
5EE
100
AcDbEntity
  8
0
100
AcDbVertex
100
AcDbPolygonMeshVertex
 10
0.0
 20
0.752
 30
0.7
 70
    64
  0
VERTEX
  5
5EF
100
AcDbEntity
  8
0
100
AcDbVertex
100
AcDbPolygonMeshVertex
 10
0.0
 20
0.752
 30
0.7
 70
    64
  0
SEQEND
  5
5F0
100
AcDbEntity
  8
0
  0
POLYLINE
  5
5F1
100
AcDbEntity
  8
0
100
AcDbPolygonMesh
 66
     1
 10
0.0
 20
0.0
 30
0.0
 70
    16
 71
     6
 72
     3
  0
VERTEX
  5
5F2
100
AcDbEntity
  8
0
100
AcDbVertex
100
AcDbPolygonMeshVertex
 10
5.3
 20
-1.948
 30
0.7
 70
    64
  0
VERTEX
  5
5F3
100
AcDbEntity
  8
0
100
AcDbVertex
100
AcDbPolygonMeshVertex
 10
5.3
 20
-2.248
 30
0.7
 70
    64
  0
VERTEX
  5
5F4
100
AcDbEntity
  8
0
100
AcDbVertex
100
AcDbPolygonMeshVertex
 10
5.3
 20
-2.248
 30
0.7
 70
    64
  0
VERTEX
  5
5F5
100
AcDbEntity
  8
0
100
AcDbVertex
100
AcDbPolygonMeshVertex
 10
0.0
 20
-1.948
 30
0.7
 70
    64
  0
VERTEX
  5
5F6
100
AcDbEntity
  8
0
100
AcDbVertex
100
AcDbPolygonMeshVertex
 10
0.0
 20
-2.248
 30
0.7
 70
    64
  0
VERTEX
  5
5F7
100
AcDbEntity
  8
0
100
AcDbVertex
100
AcDbPolygonMeshVertex
 10
0.0
 20
-2.248
 30
0.7
 70
    64
  0
VERTEX
  5
5F8
100
AcDbEntity
  8
0
100
AcDbVertex
100
AcDbPolygonMeshVertex
 10
0.0
 20
-1.948
 30
0.7
 70
    64
  0
VERTEX
  5
5F9
100
AcDbEntity
  8
0
100
AcDbVertex
100
AcDbPolygonMeshVertex
 10
0.0
 20
-1.948
 30
0.5
 70
    64
  0
VERTEX
  5
5FA
100
AcDbEntity
  8
0
100
AcDbVertex
100
AcDbPolygonMeshVertex
 10
0.0
 20
-2.248
 30
0.7
 70
    64
  0
VERTEX
  5
5FB
100
AcDbEntity
  8
0
100
AcDbVertex
100
AcDbPolygonMeshVertex
 10
5.3
 20
-1.948
 30
0.7
 70
    64
  0
VERTEX
  5
5FC
100
AcDbEntity
  8
0
100
AcDbVertex
100
AcDbPolygonMeshVertex
 10
5.3
 20
-1.948
 30
0.5
 70
    64
  0
VERTEX
  5
5FD
100
AcDbEntity
  8
0
100
AcDbVertex
100
AcDbPolygonMeshVertex
 10
5.3
 20
-2.248
 30
0.7
 70
    64
  0
VERTEX
  5
5FE
100
AcDbEntity
  8
0
100
AcDbVertex
100
AcDbPolygonMeshVertex
 10
5.3
 20
-1.948
 30
0.7
 70
    64
  0
VERTEX
  5
5FF
100
AcDbEntity
  8
0
100
AcDbVertex
100
AcDbPolygonMeshVertex
 10
5.3
 20
-1.948
 30
0.7
 70
    64
  0
VERTEX
  5
600
100
AcDbEntity
  8
0
100
AcDbVertex
100
AcDbPolygonMeshVertex
 10
5.3
 20
-1.948
 30
0.7
 70
    64
  0
VERTEX
  5
601
100
AcDbEntity
  8
0
100
AcDbVertex
100
AcDbPolygonMeshVertex
 10
0.0
 20
-1.948
 30
0.7
 70
    64
  0
VERTEX
  5
602
100
AcDbEntity
  8
0
100
AcDbVertex
100
AcDbPolygonMeshVertex
 10
0.0
 20
-1.948
 30
0.7
 70
    64
  0
VERTEX
  5
603
100
AcDbEntity
  8
0
100
AcDbVertex
100
AcDbPolygonMeshVertex
 10
0.0
 20
-1.948
 30
0.7
 70
    64
  0
SEQEND
  5
604
100
AcDbEntity
  8
0
  0
POLYLINE
  5
605
100
AcDbEntity
  8
0
100
AcDbPolygonMesh
 66
     1
 10
0.0
 20
0.0
 30
0.0
 70
    16
 71
     6
 72
     3
  0
VERTEX
  5
606
100
AcDbEntity
  8
0
100
AcDbVertex
100
AcDbPolygonMeshVertex
 10
5.3
 20
-1.948
 30
0.7
 70
    64
  0
VERTEX
  5
607
100
AcDbEntity
  8
0
100
AcDbVertex
100
AcDbPolygonMeshVertex
 10
5.3
 20
-1.948
 30
0.5
 70
    64
  0
VERTEX
  5
608
100
AcDbEntity
  8
0
100
AcDbVertex
100
AcDbPolygonMeshVertex
 10
5.3
 20
-1.948
 30
0.5
 70
    64
  0
VERTEX
  5
609
100
AcDbEntity
  8
0
100
AcDbVertex
100
AcDbPolygonMeshVertex
 10
0.0
 20
-1.948
 30
0.7
 70
    64
  0
VERTEX
  5
60A
100
AcDbEntity
  8
0
100
AcDbVertex
100
AcDbPolygonMeshVertex
 10
0.0
 20
-1.948
 30
0.5
 70
    64
  0
VERTEX
  5
60B
100
AcDbEntity
  8
0
100
AcDbVertex
100
AcDbPolygonMeshVertex
 10
0.0
 20
-1.948
 30
0.5
 70
    64
  0
VERTEX
  5
60C
100
AcDbEntity
  8
0
100
AcDbVertex
100
AcDbPolygonMeshVertex
 10
0.0
 20
0.552
 30
0.7
 70
    64
  0
VERTEX
  5
60D
100
AcDbEntity
  8
0
100
AcDbVertex
100
AcDbPolygonMeshVertex
 10
0.0
 20
0.552
 30
0.5
 70
    64
  0
VERTEX
  5
60E
100
AcDbEntity
  8
0
100
AcDbVertex
100
AcDbPolygonMeshVertex
 10
0.0
 20
-1.948
 30
0.5
 70
    64
  0
VERTEX
  5
60F
100
AcDbEntity
  8
0
100
AcDbVertex
100
AcDbPolygonMeshVertex
 10
5.3
 20
0.552
 30
0.7
 70
    64
  0
VERTEX
  5
610
100
AcDbEntity
  8
0
100
AcDbVertex
100
AcDbPolygonMeshVertex
 10
5.3
 20
0.552
 30
0.5
 70
    64
  0
VERTEX
  5
611
100
AcDbEntity
  8
0
100
AcDbVertex
100
AcDbPolygonMeshVertex
 10
5.3
 20
-1.948
 30
0.5
 70
    64
  0
VERTEX
  5
612
100
AcDbEntity
  8
0
100
AcDbVertex
100
AcDbPolygonMeshVertex
 10
5.3
 20
0.552
 30
0.7
 70
    64
  0
VERTEX
  5
613
100
AcDbEntity
  8
0
100
AcDbVertex
100
AcDbPolygonMeshVertex
 10
5.3
 20
0.552
 30
0.7
 70
    64
  0
VERTEX
  5
614
100
AcDbEntity
  8
0
100
AcDbVertex
100
AcDbPolygonMeshVertex
 10
5.3
 20
-1.948
 30
0.7
 70
    64
  0
VERTEX
  5
615
100
AcDbEntity
  8
0
100
AcDbVertex
100
AcDbPolygonMeshVertex
 10
0.0
 20
0.552
 30
0.7
 70
    64
  0
VERTEX
  5
616
100
AcDbEntity
  8
0
100
AcDbVertex
100
AcDbPolygonMeshVertex
 10
0.0
 20
0.552
 30
0.7
 70
    64
  0
VERTEX
  5
617
100
AcDbEntity
  8
0
100
AcDbVertex
100
AcDbPolygonMeshVertex
 10
0.0
 20
-1.948
 30
0.7
 70
    64
  0
SEQEND
  5
618
100
AcDbEntity
  8
0
  0
POLYLINE
  5
619
100
AcDbEntity
  8
0
100
AcDbPolygonMesh
 66
     1
 10
0.0
 20
0.0
 30
0.0
 70
    16
 71
     6
 72
     3
  0
VERTEX
  5
61A
100
AcDbEntity
  8
0
100
AcDbVertex
100
AcDbPolygonMeshVertex
 10
5.3
 20
-2.248
 30
1.11
 70
    64
  0
VERTEX
  5
61B
100
AcDbEntity
  8
0
100
AcDbVertex
100
AcDbPolygonMeshVertex
 10
5.3
 20
-2.248
 30
0.7
 70
    64
  0
VERTEX
  5
61C
100
AcDbEntity
  8
0
100
AcDbVertex
100
AcDbPolygonMeshVertex
 10
5.3
 20
-2.248
 30
0.7
 70
    64
  0
VERTEX
  5
61D
100
AcDbEntity
  8
0
100
AcDbVertex
100
AcDbPolygonMeshVertex
 10
0.0
 20
-2.248
 30
1.11
 70
    64
  0
VERTEX
  5
61E
100
AcDbEntity
  8
0
100
AcDbVertex
100
AcDbPolygonMeshVertex
 10
0.0
 20
-2.248
 30
0.7
 70
    64
  0
VERTEX
  5
61F
100
AcDbEntity
  8
0
100
AcDbVertex
100
AcDbPolygonMeshVertex
 10
0.0
 20
-2.248
 30
0.7
 70
    64
  0
VERTEX
  5
620
100
AcDbEntity
  8
0
100
AcDbVertex
100
AcDbPolygonMeshVertex
 10
0.0
 20
0.752
 30
1.11
 70
    64
  0
VERTEX
  5
621
100
AcDbEntity
  8
0
100
AcDbVertex
100
AcDbPolygonMeshVertex
 10
0.0
 20
0.752
 30
0.7
 70
    64
  0
VERTEX
  5
622
100
AcDbEntity
  8
0
100
AcDbVertex
100
AcDbPolygonMeshVertex
 10
0.0
 20
-2.248
 30
0.7
 70
    64
  0
VERTEX
  5
623
100
AcDbEntity
  8
0
100
AcDbVertex
100
AcDbPolygonMeshVertex
 10
5.3
 20
0.752
 30
1.11
 70
    64
  0
VERTEX
  5
624
100
AcDbEntity
  8
0
100
AcDbVertex
100
AcDbPolygonMeshVertex
 10
5.3
 20
0.752
 30
0.7
 70
    64
  0
VERTEX
  5
625
100
AcDbEntity
  8
0
100
AcDbVertex
100
AcDbPolygonMeshVertex
 10
5.3
 20
-2.248
 30
0.7
 70
    64
  0
VERTEX
  5
626
100
AcDbEntity
  8
0
100
AcDbVertex
100
AcDbPolygonMeshVertex
 10
5.3
 20
0.752
 30
1.11
 70
    64
  0
VERTEX
  5
627
100
AcDbEntity
  8
0
100
AcDbVertex
100
AcDbPolygonMeshVertex
 10
5.3
 20
0.752
 30
1.11
 70
    64
  0
VERTEX
  5
628
100
AcDbEntity
  8
0
100
AcDbVertex
100
AcDbPolygonMeshVertex
 10
5.3
 20
-2.248
 30
1.11
 70
    64
  0
VERTEX
  5
629
100
AcDbEntity
  8
0
100
AcDbVertex
100
AcDbPolygonMeshVertex
 10
0.0
 20
0.752
 30
1.11
 70
    64
  0
VERTEX
  5
62A
100
AcDbEntity
  8
0
100
AcDbVertex
100
AcDbPolygonMeshVertex
 10
0.0
 20
0.752
 30
1.11
 70
    64
  0
VERTEX
  5
62B
100
AcDbEntity
  8
0
100
AcDbVertex
100
AcDbPolygonMeshVertex
 10
0.0
 20
-2.248
 30
1.11
 70
    64
  0
SEQEND
  5
62C
100
AcDbEntity
  8
0
  0
POLYLINE
  5
62D
100
AcDbEntity
  8
0
100
AcDbPolygonMesh
 66
     1
 10
0.0
 20
0.0
 30
0.0
 70
    16
 71
     6
 72
     3
  0
VERTEX
  5
62E
100
AcDbEntity
  8
0
100
AcDbVertex
100
AcDbPolygonMeshVertex
 10
0.78
 20
-1.408
 30
0.5
 70
    64
  0
VERTEX
  5
62F
100
AcDbEntity
  8
0
100
AcDbVertex
100
AcDbPolygonMeshVertex
 10
0.78
 20
-1.408
 30
0.3
 70
    64
  0
VERTEX
  5
630
100
AcDbEntity
  8
0
100
AcDbVertex
100
AcDbPolygonMeshVertex
 10
0.78
 20
-1.408
 30
0.3
 70
    64
  0
VERTEX
  5
631
100
AcDbEntity
  8
0
100
AcDbVertex
100
AcDbPolygonMeshVertex
 10
0.0
 20
-1.408
 30
0.5
 70
    64
  0
VERTEX
  5
632
100
AcDbEntity
  8
0
100
AcDbVertex
100
AcDbPolygonMeshVertex
 10
0.0
 20
-1.408
 30
0.3
 70
    64
  0
VERTEX
  5
633
100
AcDbEntity
  8
0
100
AcDbVertex
100
AcDbPolygonMeshVertex
 10
0.0
 20
-1.408
 30
0.3
 70
    64
  0
VERTEX
  5
634
100
AcDbEntity
  8
0
100
AcDbVertex
100
AcDbPolygonMeshVertex
 10
0.0
 20
0.0
 30
0.5
 70
    64
  0
VERTEX
  5
635
100
AcDbEntity
  8
0
100
AcDbVertex
100
AcDbPolygonMeshVertex
 10
0.0
 20
0.0
 30
0.3
 70
    64
  0
VERTEX
  5
636
100
AcDbEntity
  8
0
100
AcDbVertex
100
AcDbPolygonMeshVertex
 10
0.0
 20
-1.408
 30
0.3
 70
    64
  0
VERTEX
  5
637
100
AcDbEntity
  8
0
100
AcDbVertex
100
AcDbPolygonMeshVertex
 10
0.78
 20
0.0
 30
0.5
 70
    64
  0
VERTEX
  5
638
100
AcDbEntity
  8
0
100
AcDbVertex
100
AcDbPolygonMeshVertex
 10
0.78
 20
0.0
 30
0.3
 70
    64
  0
VERTEX
  5
639
100
AcDbEntity
  8
0
100
AcDbVertex
100
AcDbPolygonMeshVertex
 10
0.78
 20
-1.408
 30
0.3
 70
    64
  0
VERTEX
  5
63A
100
AcDbEntity
  8
0
100
AcDbVertex
100
AcDbPolygonMeshVertex
 10
0.78
 20
0.0
 30
0.5
 70
    64
  0
VERTEX
  5
63B
100
AcDbEntity
  8
0
100
AcDbVertex
100
AcDbPolygonMeshVertex
 10
0.78
 20
0.0
 30
0.5
 70
    64
  0
VERTEX
  5
63C
100
AcDbEntity
  8
0
100
AcDbVertex
100
AcDbPolygonMeshVertex
 10
0.78
 20
-1.408
 30
0.5
 70
    64
  0
VERTEX
  5
63D
100
AcDbEntity
  8
0
100
AcDbVertex
100
AcDbPolygonMeshVertex
 10
0.0
 20
0.0
 30
0.5
 70
    64
  0
VERTEX
  5
63E
100
AcDbEntity
  8
0
100
AcDbVertex
100
AcDbPolygonMeshVertex
 10
0.0
 20
0.0
 30
0.5
 70
    64
  0
VERTEX
  5
63F
100
AcDbEntity
  8
0
100
AcDbVertex
100
AcDbPolygonMeshVertex
 10
0.0
 20
-1.408
 30
0.5
 70
    64
  0
SEQEND
  5
640
100
AcDbEntity
  8
0
  0
POLYLINE
  5
641
100
AcDbEntity
  8
0
100
AcDbPolygonMesh
 66
     1
 10
0.0
 20
0.0
 30
0.0
 70
    16
 71
     6
 72
     3
  0
VERTEX
  5
642
100
AcDbEntity
  8
0
100
AcDbVertex
100
AcDbPolygonMeshVertex
 10
0.78
 20
-1.948
 30
0.5
 70
    64
  0
VERTEX
  5
643
100
AcDbEntity
  8
0
100
AcDbVertex
100
AcDbPolygonMeshVertex
 10
0.78
 20
-1.948
 30
0.0
 70
    64
  0
VERTEX
  5
644
100
AcDbEntity
  8
0
100
AcDbVertex
100
AcDbPolygonMeshVertex
 10
0.78
 20
-1.948
 30
0.0
 70
    64
  0
VERTEX
  5
645
100
AcDbEntity
  8
0
100
AcDbVertex
100
AcDbPolygonMeshVertex
 10
0.0
 20
-1.948
 30
0.5
 70
    64
  0
VERTEX
  5
646
100
AcDbEntity
  8
0
100
AcDbVertex
100
AcDbPolygonMeshVertex
 10
0.0
 20
-1.948
 30
0.0
 70
    64
  0
VERTEX
  5
647
100
AcDbEntity
  8
0
100
AcDbVertex
100
AcDbPolygonMeshVertex
 10
0.0
 20
-1.948
 30
0.0
 70
    64
  0
VERTEX
  5
648
100
AcDbEntity
  8
0
100
AcDbVertex
100
AcDbPolygonMeshVertex
 10
0.0
 20
-1.408
 30
0.5
 70
    64
  0
VERTEX
  5
649
100
AcDbEntity
  8
0
100
AcDbVertex
100
AcDbPolygonMeshVertex
 10
0.0
 20
-1.408
 30
0.0
 70
    64
  0
VERTEX
  5
64A
100
AcDbEntity
  8
0
100
AcDbVertex
100
AcDbPolygonMeshVertex
 10
0.0
 20
-1.948
 30
0.0
 70
    64
  0
VERTEX
  5
64B
100
AcDbEntity
  8
0
100
AcDbVertex
100
AcDbPolygonMeshVertex
 10
0.78
 20
-1.408
 30
0.5
 70
    64
  0
VERTEX
  5
64C
100
AcDbEntity
  8
0
100
AcDbVertex
100
AcDbPolygonMeshVertex
 10
0.78
 20
-1.408
 30
0.0
 70
    64
  0
VERTEX
  5
64D
100
AcDbEntity
  8
0
100
AcDbVertex
100
AcDbPolygonMeshVertex
 10
0.78
 20
-1.948
 30
0.0
 70
    64
  0
VERTEX
  5
64E
100
AcDbEntity
  8
0
100
AcDbVertex
100
AcDbPolygonMeshVertex
 10
0.78
 20
-1.408
 30
0.5
 70
    64
  0
VERTEX
  5
64F
100
AcDbEntity
  8
0
100
AcDbVertex
100
AcDbPolygonMeshVertex
 10
0.78
 20
-1.408
 30
0.5
 70
    64
  0
VERTEX
  5
650
100
AcDbEntity
  8
0
100
AcDbVertex
100
AcDbPolygonMeshVertex
 10
0.78
 20
-1.948
 30
0.5
 70
    64
  0
VERTEX
  5
651
100
AcDbEntity
  8
0
100
AcDbVertex
100
AcDbPolygonMeshVertex
 10
0.0
 20
-1.408
 30
0.5
 70
    64
  0
VERTEX
  5
652
100
AcDbEntity
  8
0
100
AcDbVertex
100
AcDbPolygonMeshVertex
 10
0.0
 20
-1.408
 30
0.5
 70
    64
  0
VERTEX
  5
653
100
AcDbEntity
  8
0
100
AcDbVertex
100
AcDbPolygonMeshVertex
 10
0.0
 20
-1.948
 30
0.5
 70
    64
  0
SEQEND
  5
654
100
AcDbEntity
  8
0
  0
POLYLINE
  5
655
100
AcDbEntity
  8
0
100
AcDbPolygonMesh
 66
     1
 10
0.0
 20
0.0
 30
0.0
 70
    16
 71
     6
 72
     3
  0
VERTEX
  5
656
100
AcDbEntity
  8
0
100
AcDbVertex
100
AcDbPolygonMeshVertex
 10
0.78
 20
-2.248
 30
0.2
 70
    64
  0
VERTEX
  5
657
100
AcDbEntity
  8
0
100
AcDbVertex
100
AcDbPolygonMeshVertex
 10
0.78
 20
-2.248
 30
0.0
 70
    64
  0
VERTEX
  5
658
100
AcDbEntity
  8
0
100
AcDbVertex
100
AcDbPolygonMeshVertex
 10
0.78
 20
-2.248
 30
0.0
 70
    64
  0
VERTEX
  5
659
100
AcDbEntity
  8
0
100
AcDbVertex
100
AcDbPolygonMeshVertex
 10
0.0
 20
-2.248
 30
0.2
 70
    64
  0
VERTEX
  5
65A
100
AcDbEntity
  8
0
100
AcDbVertex
100
AcDbPolygonMeshVertex
 10
0.0
 20
-2.248
 30
0.0
 70
    64
  0
VERTEX
  5
65B
100
AcDbEntity
  8
0
100
AcDbVertex
100
AcDbPolygonMeshVertex
 10
0.0
 20
-2.248
 30
0.0
 70
    64
  0
VERTEX
  5
65C
100
AcDbEntity
  8
0
100
AcDbVertex
100
AcDbPolygonMeshVertex
 10
0.0
 20
-1.948
 30
0.2
 70
    64
  0
VERTEX
  5
65D
100
AcDbEntity
  8
0
100
AcDbVertex
100
AcDbPolygonMeshVertex
 10
0.0
 20
-1.948
 30
0.0
 70
    64
  0
VERTEX
  5
65E
100
AcDbEntity
  8
0
100
AcDbVertex
100
AcDbPolygonMeshVertex
 10
0.0
 20
-2.248
 30
0.0
 70
    64
  0
VERTEX
  5
65F
100
AcDbEntity
  8
0
100
AcDbVertex
100
AcDbPolygonMeshVertex
 10
0.78
 20
-1.948
 30
0.2
 70
    64
  0
VERTEX
  5
660
100
AcDbEntity
  8
0
100
AcDbVertex
100
AcDbPolygonMeshVertex
 10
0.78
 20
-1.948
 30
0.0
 70
    64
  0
VERTEX
  5
661
100
AcDbEntity
  8
0
100
AcDbVertex
100
AcDbPolygonMeshVertex
 10
0.78
 20
-2.248
 30
0.0
 70
    64
  0
VERTEX
  5
662
100
AcDbEntity
  8
0
100
AcDbVertex
100
AcDbPolygonMeshVertex
 10
0.78
 20
-1.948
 30
0.2
 70
    64
  0
VERTEX
  5
663
100
AcDbEntity
  8
0
100
AcDbVertex
100
AcDbPolygonMeshVertex
 10
0.78
 20
-1.948
 30
0.2
 70
    64
  0
VERTEX
  5
664
100
AcDbEntity
  8
0
100
AcDbVertex
100
AcDbPolygonMeshVertex
 10
0.78
 20
-2.248
 30
0.2
 70
    64
  0
VERTEX
  5
665
100
AcDbEntity
  8
0
100
AcDbVertex
100
AcDbPolygonMeshVertex
 10
0.0
 20
-1.948
 30
0.2
 70
    64
  0
VERTEX
  5
666
100
AcDbEntity
  8
0
100
AcDbVertex
100
AcDbPolygonMeshVertex
 10
0.0
 20
-1.948
 30
0.2
 70
    64
  0
VERTEX
  5
667
100
AcDbEntity
  8
0
100
AcDbVertex
100
AcDbPolygonMeshVertex
 10
0.0
 20
-2.248
 30
0.2
 70
    64
  0
SEQEND
  5
668
100
AcDbEntity
  8
0
  0
POLYLINE
  5
669
100
AcDbEntity
  8
0
100
AcDbPolygonMesh
 66
     1
 10
0.0
 20
0.0
 30
0.0
 70
    16
 71
     6
 72
     3
  0
VERTEX
  5
66A
100
AcDbEntity
  8
0
100
AcDbVertex
100
AcDbPolygonMeshVertex
 10
0.78
 20
0.0
 30
0.5
 70
    64
  0
VERTEX
  5
66B
100
AcDbEntity
  8
0
100
AcDbVertex
100
AcDbPolygonMeshVertex
 10
0.78
 20
0.0
 30
0.0
 70
    64
  0
VERTEX
  5
66C
100
AcDbEntity
  8
0
100
AcDbVertex
100
AcDbPolygonMeshVertex
 10
0.78
 20
0.0
 30
0.0
 70
    64
  0
VERTEX
  5
66D
100
AcDbEntity
  8
0
100
AcDbVertex
100
AcDbPolygonMeshVertex
 10
0.0
 20
0.0
 30
0.5
 70
    64
  0
VERTEX
  5
66E
100
AcDbEntity
  8
0
100
AcDbVertex
100
AcDbPolygonMeshVertex
 10
0.0
 20
0.0
 30
0.0
 70
    64
  0
VERTEX
  5
66F
100
AcDbEntity
  8
0
100
AcDbVertex
100
AcDbPolygonMeshVertex
 10
0.0
 20
0.0
 30
0.0
 70
    64
  0
VERTEX
  5
670
100
AcDbEntity
  8
0
100
AcDbVertex
100
AcDbPolygonMeshVertex
 10
0.0
 20
0.215
 30
0.5
 70
    64
  0
VERTEX
  5
671
100
AcDbEntity
  8
0
100
AcDbVertex
100
AcDbPolygonMeshVertex
 10
0.0
 20
0.215
 30
0.0
 70
    64
  0
VERTEX
  5
672
100
AcDbEntity
  8
0
100
AcDbVertex
100
AcDbPolygonMeshVertex
 10
0.0
 20
0.0
 30
0.0
 70
    64
  0
VERTEX
  5
673
100
AcDbEntity
  8
0
100
AcDbVertex
100
AcDbPolygonMeshVertex
 10
0.78
 20
0.215
 30
0.5
 70
    64
  0
VERTEX
  5
674
100
AcDbEntity
  8
0
100
AcDbVertex
100
AcDbPolygonMeshVertex
 10
0.78
 20
0.215
 30
0.0
 70
    64
  0
VERTEX
  5
675
100
AcDbEntity
  8
0
100
AcDbVertex
100
AcDbPolygonMeshVertex
 10
0.78
 20
0.0
 30
0.0
 70
    64
  0
VERTEX
  5
676
100
AcDbEntity
  8
0
100
AcDbVertex
100
AcDbPolygonMeshVertex
 10
0.78
 20
0.215
 30
0.5
 70
    64
  0
VERTEX
  5
677
100
AcDbEntity
  8
0
100
AcDbVertex
100
AcDbPolygonMeshVertex
 10
0.78
 20
0.215
 30
0.5
 70
    64
  0
VERTEX
  5
678
100
AcDbEntity
  8
0
100
AcDbVertex
100
AcDbPolygonMeshVertex
 10
0.78
 20
0.0
 30
0.5
 70
    64
  0
VERTEX
  5
679
100
AcDbEntity
  8
0
100
AcDbVertex
100
AcDbPolygonMeshVertex
 10
0.0
 20
0.215
 30
0.5
 70
    64
  0
VERTEX
  5
67A
100
AcDbEntity
  8
0
100
AcDbVertex
100
AcDbPolygonMeshVertex
 10
0.0
 20
0.215
 30
0.5
 70
    64
  0
VERTEX
  5
67B
100
AcDbEntity
  8
0
100
AcDbVertex
100
AcDbPolygonMeshVertex
 10
0.0
 20
0.0
 30
0.5
 70
    64
  0
SEQEND
  5
67C
100
AcDbEntity
  8
0
  0
POINT
  5
67D
100
AcDbEntity
  8
SNAP_POINTS
100
AcDbPoint
 10
0.0
 20
0.0
 30
0.0
  0
POLYLINE
  5
67E
100
AcDbEntity
  8
0
100
AcDbPolygonMesh
 66
     1
 10
0.0
 20
0.0
 30
0.0
 70
    16
 71
     6
 72
     3
  0
VERTEX
  5
67F
100
AcDbEntity
  8
0
100
AcDbVertex
100
AcDbPolygonMeshVertex
 10
5.3
 20
-1.408
 30
0.5
 70
    64
  0
VERTEX
  5
680
100
AcDbEntity
  8
0
100
AcDbVertex
100
AcDbPolygonMeshVertex
 10
5.3
 20
-1.408
 30
0.3
 70
    64
  0
VERTEX
  5
681
100
AcDbEntity
  8
0
100
AcDbVertex
100
AcDbPolygonMeshVertex
 10
5.3
 20
-1.408
 30
0.3
 70
    64
  0
VERTEX
  5
682
100
AcDbEntity
  8
0
100
AcDbVertex
100
AcDbPolygonMeshVertex
 10
4.52
 20
-1.408
 30
0.5
 70
    64
  0
VERTEX
  5
683
100
AcDbEntity
  8
0
100
AcDbVertex
100
AcDbPolygonMeshVertex
 10
4.52
 20
-1.408
 30
0.3
 70
    64
  0
VERTEX
  5
684
100
AcDbEntity
  8
0
100
AcDbVertex
100
AcDbPolygonMeshVertex
 10
4.52
 20
-1.408
 30
0.3
 70
    64
  0
VERTEX
  5
685
100
AcDbEntity
  8
0
100
AcDbVertex
100
AcDbPolygonMeshVertex
 10
4.52
 20
0.0
 30
0.5
 70
    64
  0
VERTEX
  5
686
100
AcDbEntity
  8
0
100
AcDbVertex
100
AcDbPolygonMeshVertex
 10
4.52
 20
0.0
 30
0.3
 70
    64
  0
VERTEX
  5
687
100
AcDbEntity
  8
0
100
AcDbVertex
100
AcDbPolygonMeshVertex
 10
4.52
 20
-1.408
 30
0.3
 70
    64
  0
VERTEX
  5
688
100
AcDbEntity
  8
0
100
AcDbVertex
100
AcDbPolygonMeshVertex
 10
5.3
 20
0.0
 30
0.5
 70
    64
  0
VERTEX
  5
689
100
AcDbEntity
  8
0
100
AcDbVertex
100
AcDbPolygonMeshVertex
 10
5.3
 20
0.0
 30
0.3
 70
    64
  0
VERTEX
  5
68A
100
AcDbEntity
  8
0
100
AcDbVertex
100
AcDbPolygonMeshVertex
 10
5.3
 20
-1.408
 30
0.3
 70
    64
  0
VERTEX
  5
68B
100
AcDbEntity
  8
0
100
AcDbVertex
100
AcDbPolygonMeshVertex
 10
5.3
 20
0.0
 30
0.5
 70
    64
  0
VERTEX
  5
68C
100
AcDbEntity
  8
0
100
AcDbVertex
100
AcDbPolygonMeshVertex
 10
5.3
 20
0.0
 30
0.5
 70
    64
  0
VERTEX
  5
68D
100
AcDbEntity
  8
0
100
AcDbVertex
100
AcDbPolygonMeshVertex
 10
5.3
 20
-1.408
 30
0.5
 70
    64
  0
VERTEX
  5
68E
100
AcDbEntity
  8
0
100
AcDbVertex
100
AcDbPolygonMeshVertex
 10
4.52
 20
0.0
 30
0.5
 70
    64
  0
VERTEX
  5
68F
100
AcDbEntity
  8
0
100
AcDbVertex
100
AcDbPolygonMeshVertex
 10
4.52
 20
0.0
 30
0.5
 70
    64
  0
VERTEX
  5
690
100
AcDbEntity
  8
0
100
AcDbVertex
100
AcDbPolygonMeshVertex
 10
4.52
 20
-1.408
 30
0.5
 70
    64
  0
SEQEND
  5
691
100
AcDbEntity
  8
0
  0
POLYLINE
  5
692
100
AcDbEntity
  8
0
100
AcDbPolygonMesh
 66
     1
 10
0.0
 20
0.0
 30
0.0
 70
    16
 71
     6
 72
     3
  0
VERTEX
  5
693
100
AcDbEntity
  8
0
100
AcDbVertex
100
AcDbPolygonMeshVertex
 10
5.3
 20
-1.948
 30
0.5
 70
    64
  0
VERTEX
  5
694
100
AcDbEntity
  8
0
100
AcDbVertex
100
AcDbPolygonMeshVertex
 10
5.3
 20
-1.948
 30
0.0
 70
    64
  0
VERTEX
  5
695
100
AcDbEntity
  8
0
100
AcDbVertex
100
AcDbPolygonMeshVertex
 10
5.3
 20
-1.948
 30
0.0
 70
    64
  0
VERTEX
  5
696
100
AcDbEntity
  8
0
100
AcDbVertex
100
AcDbPolygonMeshVertex
 10
4.52
 20
-1.948
 30
0.5
 70
    64
  0
VERTEX
  5
697
100
AcDbEntity
  8
0
100
AcDbVertex
100
AcDbPolygonMeshVertex
 10
4.52
 20
-1.948
 30
0.0
 70
    64
  0
VERTEX
  5
698
100
AcDbEntity
  8
0
100
AcDbVertex
100
AcDbPolygonMeshVertex
 10
4.52
 20
-1.948
 30
0.0
 70
    64
  0
VERTEX
  5
699
100
AcDbEntity
  8
0
100
AcDbVertex
100
AcDbPolygonMeshVertex
 10
4.52
 20
-1.408
 30
0.5
 70
    64
  0
VERTEX
  5
69A
100
AcDbEntity
  8
0
100
AcDbVertex
100
AcDbPolygonMeshVertex
 10
4.52
 20
-1.408
 30
0.0
 70
    64
  0
VERTEX
  5
69B
100
AcDbEntity
  8
0
100
AcDbVertex
100
AcDbPolygonMeshVertex
 10
4.52
 20
-1.948
 30
0.0
 70
    64
  0
VERTEX
  5
69C
100
AcDbEntity
  8
0
100
AcDbVertex
100
AcDbPolygonMeshVertex
 10
5.3
 20
-1.408
 30
0.5
 70
    64
  0
VERTEX
  5
69D
100
AcDbEntity
  8
0
100
AcDbVertex
100
AcDbPolygonMeshVertex
 10
5.3
 20
-1.408
 30
0.0
 70
    64
  0
VERTEX
  5
69E
100
AcDbEntity
  8
0
100
AcDbVertex
100
AcDbPolygonMeshVertex
 10
5.3
 20
-1.948
 30
0.0
 70
    64
  0
VERTEX
  5
69F
100
AcDbEntity
  8
0
100
AcDbVertex
100
AcDbPolygonMeshVertex
 10
5.3
 20
-1.408
 30
0.5
 70
    64
  0
VERTEX
  5
6A0
100
AcDbEntity
  8
0
100
AcDbVertex
100
AcDbPolygonMeshVertex
 10
5.3
 20
-1.408
 30
0.5
 70
    64
  0
VERTEX
  5
6A1
100
AcDbEntity
  8
0
100
AcDbVertex
100
AcDbPolygonMeshVertex
 10
5.3
 20
-1.948
 30
0.5
 70
    64
  0
VERTEX
  5
6A2
100
AcDbEntity
  8
0
100
AcDbVertex
100
AcDbPolygonMeshVertex
 10
4.52
 20
-1.408
 30
0.5
 70
    64
  0
VERTEX
  5
6A3
100
AcDbEntity
  8
0
100
AcDbVertex
100
AcDbPolygonMeshVertex
 10
4.52
 20
-1.408
 30
0.5
 70
    64
  0
VERTEX
  5
6A4
100
AcDbEntity
  8
0
100
AcDbVertex
100
AcDbPolygonMeshVertex
 10
4.52
 20
-1.948
 30
0.5
 70
    64
  0
SEQEND
  5
6A5
100
AcDbEntity
  8
0
  0
POLYLINE
  5
6A6
100
AcDbEntity
  8
0
100
AcDbPolygonMesh
 66
     1
 10
0.0
 20
0.0
 30
0.0
 70
    16
 71
     6
 72
     3
  0
VERTEX
  5
6A7
100
AcDbEntity
  8
0
100
AcDbVertex
100
AcDbPolygonMeshVertex
 10
5.3
 20
-2.248
 30
0.2
 70
    64
  0
VERTEX
  5
6A8
100
AcDbEntity
  8
0
100
AcDbVertex
100
AcDbPolygonMeshVertex
 10
5.3
 20
-2.248
 30
0.0
 70
    64
  0
VERTEX
  5
6A9
100
AcDbEntity
  8
0
100
AcDbVertex
100
AcDbPolygonMeshVertex
 10
5.3
 20
-2.248
 30
0.0
 70
    64
  0
VERTEX
  5
6AA
100
AcDbEntity
  8
0
100
AcDbVertex
100
AcDbPolygonMeshVertex
 10
4.52
 20
-2.248
 30
0.2
 70
    64
  0
VERTEX
  5
6AB
100
AcDbEntity
  8
0
100
AcDbVertex
100
AcDbPolygonMeshVertex
 10
4.52
 20
-2.248
 30
0.0
 70
    64
  0
VERTEX
  5
6AC
100
AcDbEntity
  8
0
100
AcDbVertex
100
AcDbPolygonMeshVertex
 10
4.52
 20
-2.248
 30
0.0
 70
    64
  0
VERTEX
  5
6AD
100
AcDbEntity
  8
0
100
AcDbVertex
100
AcDbPolygonMeshVertex
 10
4.52
 20
-1.948
 30
0.2
 70
    64
  0
VERTEX
  5
6AE
100
AcDbEntity
  8
0
100
AcDbVertex
100
AcDbPolygonMeshVertex
 10
4.52
 20
-1.948
 30
0.0
 70
    64
  0
VERTEX
  5
6AF
100
AcDbEntity
  8
0
100
AcDbVertex
100
AcDbPolygonMeshVertex
 10
4.52
 20
-2.248
 30
0.0
 70
    64
  0
VERTEX
  5
6B0
100
AcDbEntity
  8
0
100
AcDbVertex
100
AcDbPolygonMeshVertex
 10
5.3
 20
-1.948
 30
0.2
 70
    64
  0
VERTEX
  5
6B1
100
AcDbEntity
  8
0
100
AcDbVertex
100
AcDbPolygonMeshVertex
 10
5.3
 20
-1.948
 30
0.0
 70
    64
  0
VERTEX
  5
6B2
100
AcDbEntity
  8
0
100
AcDbVertex
100
AcDbPolygonMeshVertex
 10
5.3
 20
-2.248
 30
0.0
 70
    64
  0
VERTEX
  5
6B3
100
AcDbEntity
  8
0
100
AcDbVertex
100
AcDbPolygonMeshVertex
 10
5.3
 20
-1.948
 30
0.2
 70
    64
  0
VERTEX
  5
6B4
100
AcDbEntity
  8
0
100
AcDbVertex
100
AcDbPolygonMeshVertex
 10
5.3
 20
-1.948
 30
0.2
 70
    64
  0
VERTEX
  5
6B5
100
AcDbEntity
  8
0
100
AcDbVertex
100
AcDbPolygonMeshVertex
 10
5.3
 20
-2.248
 30
0.2
 70
    64
  0
VERTEX
  5
6B6
100
AcDbEntity
  8
0
100
AcDbVertex
100
AcDbPolygonMeshVertex
 10
4.52
 20
-1.948
 30
0.2
 70
    64
  0
VERTEX
  5
6B7
100
AcDbEntity
  8
0
100
AcDbVertex
100
AcDbPolygonMeshVertex
 10
4.52
 20
-1.948
 30
0.2
 70
    64
  0
VERTEX
  5
6B8
100
AcDbEntity
  8
0
100
AcDbVertex
100
AcDbPolygonMeshVertex
 10
4.52
 20
-2.248
 30
0.2
 70
    64
  0
SEQEND
  5
6B9
100
AcDbEntity
  8
0
  0
POLYLINE
  5
6BA
100
AcDbEntity
  8
0
100
AcDbPolygonMesh
 66
     1
 10
0.0
 20
0.0
 30
0.0
 70
    16
 71
     6
 72
     3
  0
VERTEX
  5
6BB
100
AcDbEntity
  8
0
100
AcDbVertex
100
AcDbPolygonMeshVertex
 10
5.3
 20
0.0
 30
0.5
 70
    64
  0
VERTEX
  5
6BC
100
AcDbEntity
  8
0
100
AcDbVertex
100
AcDbPolygonMeshVertex
 10
5.3
 20
0.0
 30
0.0
 70
    64
  0
VERTEX
  5
6BD
100
AcDbEntity
  8
0
100
AcDbVertex
100
AcDbPolygonMeshVertex
 10
5.3
 20
0.0
 30
0.0
 70
    64
  0
VERTEX
  5
6BE
100
AcDbEntity
  8
0
100
AcDbVertex
100
AcDbPolygonMeshVertex
 10
4.52
 20
0.0
 30
0.5
 70
    64
  0
VERTEX
  5
6BF
100
AcDbEntity
  8
0
100
AcDbVertex
100
AcDbPolygonMeshVertex
 10
4.52
 20
0.0
 30
0.0
 70
    64
  0
VERTEX
  5
6C0
100
AcDbEntity
  8
0
100
AcDbVertex
100
AcDbPolygonMeshVertex
 10
4.52
 20
0.0
 30
0.0
 70
    64
  0
VERTEX
  5
6C1
100
AcDbEntity
  8
0
100
AcDbVertex
100
AcDbPolygonMeshVertex
 10
4.52
 20
0.215
 30
0.5
 70
    64
  0
VERTEX
  5
6C2
100
AcDbEntity
  8
0
100
AcDbVertex
100
AcDbPolygonMeshVertex
 10
4.52
 20
0.215
 30
0.0
 70
    64
  0
VERTEX
  5
6C3
100
AcDbEntity
  8
0
100
AcDbVertex
100
AcDbPolygonMeshVertex
 10
4.52
 20
0.0
 30
0.0
 70
    64
  0
VERTEX
  5
6C4
100
AcDbEntity
  8
0
100
AcDbVertex
100
AcDbPolygonMeshVertex
 10
5.3
 20
0.215
 30
0.5
 70
    64
  0
VERTEX
  5
6C5
100
AcDbEntity
  8
0
100
AcDbVertex
100
AcDbPolygonMeshVertex
 10
5.3
 20
0.215
 30
0.0
 70
    64
  0
VERTEX
  5
6C6
100
AcDbEntity
  8
0
100
AcDbVertex
100
AcDbPolygonMeshVertex
 10
5.3
 20
0.0
 30
0.0
 70
    64
  0
VERTEX
  5
6C7
100
AcDbEntity
  8
0
100
AcDbVertex
100
AcDbPolygonMeshVertex
 10
5.3
 20
0.215
 30
0.5
 70
    64
  0
VERTEX
  5
6C8
100
AcDbEntity
  8
0
100
AcDbVertex
100
AcDbPolygonMeshVertex
 10
5.3
 20
0.215
 30
0.5
 70
    64
  0
VERTEX
  5
6C9
100
AcDbEntity
  8
0
100
AcDbVertex
100
AcDbPolygonMeshVertex
 10
5.3
 20
0.0
 30
0.5
 70
    64
  0
VERTEX
  5
6CA
100
AcDbEntity
  8
0
100
AcDbVertex
100
AcDbPolygonMeshVertex
 10
4.52
 20
0.215
 30
0.5
 70
    64
  0
VERTEX
  5
6CB
100
AcDbEntity
  8
0
100
AcDbVertex
100
AcDbPolygonMeshVertex
 10
4.52
 20
0.215
 30
0.5
 70
    64
  0
VERTEX
  5
6CC
100
AcDbEntity
  8
0
100
AcDbVertex
100
AcDbPolygonMeshVertex
 10
4.52
 20
0.0
 30
0.5
 70
    64
  0
SEQEND
  5
6CD
100
AcDbEntity
  8
0
  0
LINE
  5
6CE
100
AcDbEntity
  8
0
100
AcDbLine
 10
2.262
 20
0.146
 30
1.515
 11
2.187
 21
0.446
 31
1.515
  0
LINE
  5
6CF
100
AcDbEntity
  8
0
100
AcDbLine
 10
0.637
 20
0.146
 30
1.515
 11
2.262
 21
0.146
 31
1.515
  0
LINE
  5
6D0
100
AcDbEntity
  8
0
100
AcDbLine
 10
2.24734
 20
-1.417686
 30
2.3
 11
2.181739
 21
-1.548262
 31
2.3
  0
CIRCLE
  5
6D1
100
AcDbEntity
  8
0
100
AcDbCircle
 10
2.199991
 20
-1.475397
 30
2.3
 40
0.075
  0
LINE
  5
6D2
100
AcDbEntity
  8
0
100
AcDbLine
 10
2.221417
 20
-1.403941
 30
2.3
 11
2.155287
 21
-1.536632
 31
2.3
  0
LWPOLYLINE
  5
6D3
100
AcDbEntity
  8
0
100
AcDbPolyline
 90
        4
 70
     1
 43
0.0
 38
-1.673049
 10
-2.264947
 20
1.93002
 10
-2.264947
 20
1.739989
 10
-2.134979
 20
1.739989
 10
-2.134979
 20
1.93002
210
0.0
220
1.0
230
0.0
  0
POLYLINE
  5
6D4
100
AcDbEntity
  8
0
100
AcDbPolygonMesh
 66
     1
 10
0.0
 20
0.0
 30
0.0
 70
    16
 71
     6
 72
     3
  0
VERTEX
  5
6D5
100
AcDbEntity
  8
0
100
AcDbVertex
100
AcDbPolygonMeshVertex
 10
4.6
 20
-1.673
 30
2.03
 70
    64
  0
VERTEX
  5
6D6
100
AcDbEntity
  8
0
100
AcDbVertex
100
AcDbPolygonMeshVertex
 10
4.6
 20
-1.673
 30
1.74
 70
    64
  0
VERTEX
  5
6D7
100
AcDbEntity
  8
0
100
AcDbVertex
100
AcDbPolygonMeshVertex
 10
4.6
 20
-1.673
 30
1.74
 70
    64
  0
VERTEX
  5
6D8
100
AcDbEntity
  8
0
100
AcDbVertex
100
AcDbPolygonMeshVertex
 10
0.7
 20
-1.673
 30
2.03
 70
    64
  0
VERTEX
  5
6D9
100
AcDbEntity
  8
0
100
AcDbVertex
100
AcDbPolygonMeshVertex
 10
0.7
 20
-1.673
 30
1.74
 70
    64
  0
VERTEX
  5
6DA
100
AcDbEntity
  8
0
100
AcDbVertex
100
AcDbPolygonMeshVertex
 10
0.7
 20
-1.673
 30
1.74
 70
    64
  0
VERTEX
  5
6DB
100
AcDbEntity
  8
0
100
AcDbVertex
100
AcDbPolygonMeshVertex
 10
0.7
 20
-1.588
 30
2.03
 70
    64
  0
VERTEX
  5
6DC
100
AcDbEntity
  8
0
100
AcDbVertex
100
AcDbPolygonMeshVertex
 10
0.7
 20
-1.588
 30
1.74
 70
    64
  0
VERTEX
  5
6DD
100
AcDbEntity
  8
0
100
AcDbVertex
100
AcDbPolygonMeshVertex
 10
0.7
 20
-1.673
 30
1.74
 70
    64
  0
VERTEX
  5
6DE
100
AcDbEntity
  8
0
100
AcDbVertex
100
AcDbPolygonMeshVertex
 10
4.6
 20
-1.588
 30
2.03
 70
    64
  0
VERTEX
  5
6DF
100
AcDbEntity
  8
0
100
AcDbVertex
100
AcDbPolygonMeshVertex
 10
4.6
 20
-1.588
 30
1.74
 70
    64
  0
VERTEX
  5
6E0
100
AcDbEntity
  8
0
100
AcDbVertex
100
AcDbPolygonMeshVertex
 10
4.6
 20
-1.673
 30
1.74
 70
    64
  0
VERTEX
  5
6E1
100
AcDbEntity
  8
0
100
AcDbVertex
100
AcDbPolygonMeshVertex
 10
4.6
 20
-1.588
 30
2.03
 70
    64
  0
VERTEX
  5
6E2
100
AcDbEntity
  8
0
100
AcDbVertex
100
AcDbPolygonMeshVertex
 10
4.6
 20
-1.588
 30
2.03
 70
    64
  0
VERTEX
  5
6E3
100
AcDbEntity
  8
0
100
AcDbVertex
100
AcDbPolygonMeshVertex
 10
4.6
 20
-1.673
 30
2.03
 70
    64
  0
VERTEX
  5
6E4
100
AcDbEntity
  8
0
100
AcDbVertex
100
AcDbPolygonMeshVertex
 10
0.7
 20
-1.588
 30
2.03
 70
    64
  0
VERTEX
  5
6E5
100
AcDbEntity
  8
0
100
AcDbVertex
100
AcDbPolygonMeshVertex
 10
0.7
 20
-1.588
 30
2.03
 70
    64
  0
VERTEX
  5
6E6
100
AcDbEntity
  8
0
100
AcDbVertex
100
AcDbPolygonMeshVertex
 10
0.7
 20
-1.673
 30
2.03
 70
    64
  0
SEQEND
  5
6E7
100
AcDbEntity
  8
0
  0
POLYLINE
  5
6E8
100
AcDbEntity
  8
0
100
AcDbPolygonMesh
 66
     1
 10
0.0
 20
0.0
 30
0.0
 70
    16
 71
     6
 72
     3
  0
VERTEX
  5
6E9
100
AcDbEntity
  8
0
100
AcDbVertex
100
AcDbPolygonMeshVertex
 10
4.6
 20
-1.588
 30
2.3
 70
    64
  0
VERTEX
  5
6EA
100
AcDbEntity
  8
0
100
AcDbVertex
100
AcDbPolygonMeshVertex
 10
4.6
 20
-1.673
 30
2.03
 70
    64
  0
VERTEX
  5
6EB
100
AcDbEntity
  8
0
100
AcDbVertex
100
AcDbPolygonMeshVertex
 10
4.6
 20
-1.673
 30
2.03
 70
    64
  0
VERTEX
  5
6EC
100
AcDbEntity
  8
0
100
AcDbVertex
100
AcDbPolygonMeshVertex
 10
0.7
 20
-1.588
 30
2.3
 70
    64
  0
VERTEX
  5
6ED
100
AcDbEntity
  8
0
100
AcDbVertex
100
AcDbPolygonMeshVertex
 10
0.7
 20
-1.673
 30
2.03
 70
    64
  0
VERTEX
  5
6EE
100
AcDbEntity
  8
0
100
AcDbVertex
100
AcDbPolygonMeshVertex
 10
0.7
 20
-1.673
 30
2.03
 70
    64
  0
VERTEX
  5
6EF
100
AcDbEntity
  8
0
100
AcDbVertex
100
AcDbPolygonMeshVertex
 10
0.7
 20
-1.588
 30
2.3
 70
    64
  0
VERTEX
  5
6F0
100
AcDbEntity
  8
0
100
AcDbVertex
100
AcDbPolygonMeshVertex
 10
0.7
 20
-1.588
 30
2.03
 70
    64
  0
VERTEX
  5
6F1
100
AcDbEntity
  8
0
100
AcDbVertex
100
AcDbPolygonMeshVertex
 10
0.7
 20
-1.673
 30
2.03
 70
    64
  0
VERTEX
  5
6F2
100
AcDbEntity
  8
0
100
AcDbVertex
100
AcDbPolygonMeshVertex
 10
4.6
 20
-1.588
 30
2.3
 70
    64
  0
VERTEX
  5
6F3
100
AcDbEntity
  8
0
100
AcDbVertex
100
AcDbPolygonMeshVertex
 10
4.6
 20
-1.588
 30
2.03
 70
    64
  0
VERTEX
  5
6F4
100
AcDbEntity
  8
0
100
AcDbVertex
100
AcDbPolygonMeshVertex
 10
4.6
 20
-1.673
 30
2.03
 70
    64
  0
VERTEX
  5
6F5
100
AcDbEntity
  8
0
100
AcDbVertex
100
AcDbPolygonMeshVertex
 10
4.6
 20
-1.588
 30
2.3
 70
    64
  0
VERTEX
  5
6F6
100
AcDbEntity
  8
0
100
AcDbVertex
100
AcDbPolygonMeshVertex
 10
4.6
 20
-1.588
 30
2.3
 70
    64
  0
VERTEX
  5
6F7
100
AcDbEntity
  8
0
100
AcDbVertex
100
AcDbPolygonMeshVertex
 10
4.6
 20
-1.588
 30
2.3
 70
    64
  0
VERTEX
  5
6F8
100
AcDbEntity
  8
0
100
AcDbVertex
100
AcDbPolygonMeshVertex
 10
0.7
 20
-1.588
 30
2.3
 70
    64
  0
VERTEX
  5
6F9
100
AcDbEntity
  8
0
100
AcDbVertex
100
AcDbPolygonMeshVertex
 10
0.7
 20
-1.588
 30
2.3
 70
    64
  0
VERTEX
  5
6FA
100
AcDbEntity
  8
0
100
AcDbVertex
100
AcDbPolygonMeshVertex
 10
0.7
 20
-1.588
 30
2.3
 70
    64
  0
SEQEND
  5
6FB
100
AcDbEntity
  8
0
  0
POLYLINE
  5
6FC
100
AcDbEntity
  8
0
100
AcDbPolygonMesh
 66
     1
 10
0.0
 20
0.0
 30
0.0
 70
    16
 71
     6
 72
     3
  0
VERTEX
  5
6FD
100
AcDbEntity
  8
0
100
AcDbVertex
100
AcDbPolygonMeshVertex
 10
4.6
 20
-1.588
 30
2.3
 70
    64
  0
VERTEX
  5
6FE
100
AcDbEntity
  8
0
100
AcDbVertex
100
AcDbPolygonMeshVertex
 10
4.6
 20
-1.588
 30
1.74
 70
    64
  0
VERTEX
  5
6FF
100
AcDbEntity
  8
0
100
AcDbVertex
100
AcDbPolygonMeshVertex
 10
4.6
 20
-1.588
 30
1.74
 70
    64
  0
VERTEX
  5
700
100
AcDbEntity
  8
0
100
AcDbVertex
100
AcDbPolygonMeshVertex
 10
0.7
 20
-1.588
 30
2.3
 70
    64
  0
VERTEX
  5
701
100
AcDbEntity
  8
0
100
AcDbVertex
100
AcDbPolygonMeshVertex
 10
0.7
 20
-1.588
 30
1.74
 70
    64
  0
VERTEX
  5
702
100
AcDbEntity
  8
0
100
AcDbVertex
100
AcDbPolygonMeshVertex
 10
0.7
 20
-1.588
 30
1.74
 70
    64
  0
VERTEX
  5
703
100
AcDbEntity
  8
0
100
AcDbVertex
100
AcDbPolygonMeshVertex
 10
0.7
 20
-0.673
 30
2.3
 70
    64
  0
VERTEX
  5
704
100
AcDbEntity
  8
0
100
AcDbVertex
100
AcDbPolygonMeshVertex
 10
0.7
 20
-0.673
 30
1.74
 70
    64
  0
VERTEX
  5
705
100
AcDbEntity
  8
0
100
AcDbVertex
100
AcDbPolygonMeshVertex
 10
0.7
 20
-1.588
 30
1.74
 70
    64
  0
VERTEX
  5
706
100
AcDbEntity
  8
0
100
AcDbVertex
100
AcDbPolygonMeshVertex
 10
4.6
 20
-0.673
 30
2.3
 70
    64
  0
VERTEX
  5
707
100
AcDbEntity
  8
0
100
AcDbVertex
100
AcDbPolygonMeshVertex
 10
4.6
 20
-0.673
 30
1.74
 70
    64
  0
VERTEX
  5
708
100
AcDbEntity
  8
0
100
AcDbVertex
100
AcDbPolygonMeshVertex
 10
4.6
 20
-1.588
 30
1.74
 70
    64
  0
VERTEX
  5
709
100
AcDbEntity
  8
0
100
AcDbVertex
100
AcDbPolygonMeshVertex
 10
4.6
 20
-0.673
 30
2.3
 70
    64
  0
VERTEX
  5
70A
100
AcDbEntity
  8
0
100
AcDbVertex
100
AcDbPolygonMeshVertex
 10
4.6
 20
-0.673
 30
2.3
 70
    64
  0
VERTEX
  5
70B
100
AcDbEntity
  8
0
100
AcDbVertex
100
AcDbPolygonMeshVertex
 10
4.6
 20
-1.588
 30
2.3
 70
    64
  0
VERTEX
  5
70C
100
AcDbEntity
  8
0
100
AcDbVertex
100
AcDbPolygonMeshVertex
 10
0.7
 20
-0.673
 30
2.3
 70
    64
  0
VERTEX
  5
70D
100
AcDbEntity
  8
0
100
AcDbVertex
100
AcDbPolygonMeshVertex
 10
0.7
 20
-0.673
 30
2.3
 70
    64
  0
VERTEX
  5
70E
100
AcDbEntity
  8
0
100
AcDbVertex
100
AcDbPolygonMeshVertex
 10
0.7
 20
-1.588
 30
2.3
 70
    64
  0
SEQEND
  5
70F
100
AcDbEntity
  8
0
  0
POLYLINE
  5
710
100
AcDbEntity
  8
0
100
AcDbPolygonMesh
 66
     1
 10
0.0
 20
0.0
 30
0.0
 70
    16
 71
     6
 72
     3
  0
VERTEX
  5
711
100
AcDbEntity
  8
0
100
AcDbVertex
100
AcDbPolygonMeshVertex
 10
4.6
 20
-2.013
 30
1.74
 70
    64
  0
VERTEX
  5
712
100
AcDbEntity
  8
0
100
AcDbVertex
100
AcDbPolygonMeshVertex
 10
4.6
 20
-2.098
 30
1.47
 70
    64
  0
VERTEX
  5
713
100
AcDbEntity
  8
0
100
AcDbVertex
100
AcDbPolygonMeshVertex
 10
4.6
 20
-2.098
 30
1.47
 70
    64
  0
VERTEX
  5
714
100
AcDbEntity
  8
0
100
AcDbVertex
100
AcDbPolygonMeshVertex
 10
0.7
 20
-2.013
 30
1.74
 70
    64
  0
VERTEX
  5
715
100
AcDbEntity
  8
0
100
AcDbVertex
100
AcDbPolygonMeshVertex
 10
0.7
 20
-2.098
 30
1.47
 70
    64
  0
VERTEX
  5
716
100
AcDbEntity
  8
0
100
AcDbVertex
100
AcDbPolygonMeshVertex
 10
0.7
 20
-2.098
 30
1.47
 70
    64
  0
VERTEX
  5
717
100
AcDbEntity
  8
0
100
AcDbVertex
100
AcDbPolygonMeshVertex
 10
0.7
 20
-2.013
 30
1.74
 70
    64
  0
VERTEX
  5
718
100
AcDbEntity
  8
0
100
AcDbVertex
100
AcDbPolygonMeshVertex
 10
0.7
 20
-2.013
 30
1.47
 70
    64
  0
VERTEX
  5
719
100
AcDbEntity
  8
0
100
AcDbVertex
100
AcDbPolygonMeshVertex
 10
0.7
 20
-2.098
 30
1.47
 70
    64
  0
VERTEX
  5
71A
100
AcDbEntity
  8
0
100
AcDbVertex
100
AcDbPolygonMeshVertex
 10
4.6
 20
-2.013
 30
1.74
 70
    64
  0
VERTEX
  5
71B
100
AcDbEntity
  8
0
100
AcDbVertex
100
AcDbPolygonMeshVertex
 10
4.6
 20
-2.013
 30
1.47
 70
    64
  0
VERTEX
  5
71C
100
AcDbEntity
  8
0
100
AcDbVertex
100
AcDbPolygonMeshVertex
 10
4.6
 20
-2.098
 30
1.47
 70
    64
  0
VERTEX
  5
71D
100
AcDbEntity
  8
0
100
AcDbVertex
100
AcDbPolygonMeshVertex
 10
4.6
 20
-2.013
 30
1.74
 70
    64
  0
VERTEX
  5
71E
100
AcDbEntity
  8
0
100
AcDbVertex
100
AcDbPolygonMeshVertex
 10
4.6
 20
-2.013
 30
1.74
 70
    64
  0
VERTEX
  5
71F
100
AcDbEntity
  8
0
100
AcDbVertex
100
AcDbPolygonMeshVertex
 10
4.6
 20
-2.013
 30
1.74
 70
    64
  0
VERTEX
  5
720
100
AcDbEntity
  8
0
100
AcDbVertex
100
AcDbPolygonMeshVertex
 10
0.7
 20
-2.013
 30
1.74
 70
    64
  0
VERTEX
  5
721
100
AcDbEntity
  8
0
100
AcDbVertex
100
AcDbPolygonMeshVertex
 10
0.7
 20
-2.013
 30
1.74
 70
    64
  0
VERTEX
  5
722
100
AcDbEntity
  8
0
100
AcDbVertex
100
AcDbPolygonMeshVertex
 10
0.7
 20
-2.013
 30
1.74
 70
    64
  0
SEQEND
  5
723
100
AcDbEntity
  8
0
  0
LWPOLYLINE
  5
724
100
AcDbEntity
  8
0
100
AcDbPolyline
 90
        4
 70
     1
 43
0.0
 38
-1.673049
 10
-0.864947
 20
1.93002
 10
-0.864947
 20
1.739989
 10
-0.734979
 20
1.739989
 10
-0.734979
 20
1.93002
210
0.0
220
1.0
230
0.0
  0
LWPOLYLINE
  5
725
100
AcDbEntity
  8
0
100
AcDbPolyline
 90
        4
 70
     1
 43
0.0
 38
-1.673049
 10
-2.064947
 20
1.93002
 10
-2.064947
 20
1.739989
 10
-1.934979
 20
1.739989
 10
-1.934979
 20
1.93002
210
0.0
220
1.0
230
0.0
  0
LWPOLYLINE
  5
726
100
AcDbEntity
  8
0
100
AcDbPolyline
 90
        4
 70
     1
 43
0.0
 38
-1.673049
 10
-1.864947
 20
1.93002
 10
-1.864947
 20
1.739989
 10
-1.734979
 20
1.739989
 10
-1.734979
 20
1.93002
210
0.0
220
1.0
230
0.0
  0
LWPOLYLINE
  5
727
100
AcDbEntity
  8
0
100
AcDbPolyline
 90
        4
 70
     1
 43
0.0
 38
-1.673049
 10
-1.664947
 20
1.93002
 10
-1.664947
 20
1.739989
 10
-1.534979
 20
1.739989
 10
-1.534979
 20
1.93002
210
0.0
220
1.0
230
0.0
  0
LWPOLYLINE
  5
728
100
AcDbEntity
  8
0
100
AcDbPolyline
 90
        4
 70
     1
 43
0.0
 38
-1.673049
 10
-1.464947
 20
1.93002
 10
-1.464947
 20
1.739989
 10
-1.334979
 20
1.739989
 10
-1.334979
 20
1.93002
210
0.0
220
1.0
230
0.0
  0
LWPOLYLINE
  5
729
100
AcDbEntity
  8
0
100
AcDbPolyline
 90
        4
 70
     1
 43
0.0
 38
-1.673049
 10
-1.264947
 20
1.93002
 10
-1.264947
 20
1.739989
 10
-1.134979
 20
1.739989
 10
-1.134979
 20
1.93002
210
0.0
220
1.0
230
0.0
  0
LWPOLYLINE
  5
72A
100
AcDbEntity
  8
0
100
AcDbPolyline
 90
        4
 70
     1
 43
0.0
 38
-1.673049
 10
-1.064947
 20
1.93002
 10
-1.064947
 20
1.739989
 10
-0.934979
 20
1.739989
 10
-0.934979
 20
1.93002
210
0.0
220
1.0
230
0.0
  0
LINE
  5
72B
100
AcDbEntity
  8
0
100
AcDbLine
 10
0.921417
 20
-1.828941
 30
1.74
 11
0.855287
 21
-1.961632
 31
1.74
  0
CIRCLE
  5
72C
100
AcDbEntity
  8
0
100
AcDbCircle
 10
0.899991
 20
-1.900397
 30
1.74
 40
0.075
  0
LINE
  5
72D
100
AcDbEntity
  8
0
100
AcDbLine
 10
0.94734
 20
-1.842686
 30
1.74
 11
0.881739
 21
-1.973262
 31
1.74
  0
CIRCLE
  5
72E
100
AcDbEntity
  8
0
100
AcDbCircle
 10
2.099991
 20
-1.900397
 30
1.74
 40
0.075
  0
LINE
  5
72F
100
AcDbEntity
  8
0
100
AcDbLine
 10
2.14734
 20
-1.842686
 30
1.74
 11
2.081739
 21
-1.973262
 31
1.74
  0
LINE
  5
730
100
AcDbEntity
  8
0
100
AcDbLine
 10
2.121417
 20
-1.828941
 30
1.74
 11
2.055287
 21
-1.961632
 31
1.74
  0
LINE
  5
731
100
AcDbEntity
  8
0
100
AcDbLine
 10
1.94734
 20
-1.842686
 30
1.74
 11
1.881739
 21
-1.973262
 31
1.74
  0
LINE
  5
732
100
AcDbEntity
  8
0
100
AcDbLine
 10
1.921417
 20
-1.828941
 30
1.74
 11
1.855287
 21
-1.961632
 31
1.74
  0
CIRCLE
  5
733
100
AcDbEntity
  8
0
100
AcDbCircle
 10
1.899991
 20
-1.900397
 30
1.74
 40
0.075
  0
LINE
  5
734
100
AcDbEntity
  8
0
100
AcDbLine
 10
1.721417
 20
-1.828941
 30
1.74
 11
1.655287
 21
-1.961632
 31
1.74
  0
LINE
  5
735
100
AcDbEntity
  8
0
100
AcDbLine
 10
1.321417
 20
-1.828941
 30
1.74
 11
1.255287
 21
-1.961632
 31
1.74
  0
LINE
  5
736
100
AcDbEntity
  8
0
100
AcDbLine
 10
1.34734
 20
-1.842686
 30
1.74
 11
1.281739
 21
-1.973262
 31
1.74
  0
LINE
  5
737
100
AcDbEntity
  8
0
100
AcDbLine
 10
1.54734
 20
-1.842686
 30
1.74
 11
1.481739
 21
-1.973262
 31
1.74
  0
LINE
  5
738
100
AcDbEntity
  8
0
100
AcDbLine
 10
1.521417
 20
-1.828941
 30
1.74
 11
1.455287
 21
-1.961632
 31
1.74
  0
CIRCLE
  5
739
100
AcDbEntity
  8
0
100
AcDbCircle
 10
1.499991
 20
-1.900397
 30
1.74
 40
0.075
  0
CIRCLE
  5
73A
100
AcDbEntity
  8
0
100
AcDbCircle
 10
1.699991
 20
-1.900397
 30
1.74
 40
0.075
  0
LINE
  5
73B
100
AcDbEntity
  8
0
100
AcDbLine
 10
1.74734
 20
-1.842686
 30
1.74
 11
1.681739
 21
-1.973262
 31
1.74
  0
CIRCLE
  5
73C
100
AcDbEntity
  8
0
100
AcDbCircle
 10
1.299991
 20
-1.900397
 30
1.74
 40
0.075
  0
LINE
  5
73D
100
AcDbEntity
  8
0
100
AcDbLine
 10
1.121417
 20
-1.828941
 30
1.74
 11
1.055287
 21
-1.961632
 31
1.74
  0
LINE
  5
73E
100
AcDbEntity
  8
0
100
AcDbLine
 10
1.14734
 20
-1.842686
 30
1.74
 11
1.081739
 21
-1.973262
 31
1.74
  0
CIRCLE
  5
73F
100
AcDbEntity
  8
0
100
AcDbCircle
 10
1.099991
 20
-1.900397
 30
1.74
 40
0.075
  0
CIRCLE
  5
740
100
AcDbEntity
  8
0
100
AcDbCircle
 10
1.199991
 20
-1.475397
 30
2.3
 40
0.075
  0
CIRCLE
  5
741
100
AcDbEntity
  8
0
100
AcDbCircle
 10
0.799991
 20
-1.475397
 30
2.3
 40
0.075
  0
LINE
  5
742
100
AcDbEntity
  8
0
100
AcDbLine
 10
0.84734
 20
-1.417686
 30
2.3
 11
0.781739
 21
-1.548262
 31
2.3
  0
LINE
  5
743
100
AcDbEntity
  8
0
100
AcDbLine
 10
0.821417
 20
-1.403941
 30
2.3
 11
0.755287
 21
-1.536632
 31
2.3
  0
LINE
  5
744
100
AcDbEntity
  8
0
100
AcDbLine
 10
1.24734
 20
-1.417686
 30
2.3
 11
1.181739
 21
-1.548262
 31
2.3
  0
LINE
  5
745
100
AcDbEntity
  8
0
100
AcDbLine
 10
1.221417
 20
-1.403941
 30
2.3
 11
1.155287
 21
-1.536632
 31
2.3
  0
LINE
  5
746
100
AcDbEntity
  8
0
100
AcDbLine
 10
1.021417
 20
-1.403941
 30
2.3
 11
0.955287
 21
-1.536632
 31
2.3
  0
LINE
  5
747
100
AcDbEntity
  8
0
100
AcDbLine
 10
1.04734
 20
-1.417686
 30
2.3
 11
0.981739
 21
-1.548262
 31
2.3
  0
CIRCLE
  5
748
100
AcDbEntity
  8
0
100
AcDbCircle
 10
0.999991
 20
-1.475397
 30
2.3
 40
0.075
  0
CIRCLE
  5
749
100
AcDbEntity
  8
0
100
AcDbCircle
 10
1.799991
 20
-1.475397
 30
2.3
 40
0.075
  0
LINE
  5
74A
100
AcDbEntity
  8
0
100
AcDbLine
 10
1.621417
 20
-1.403941
 30
2.3
 11
1.555287
 21
-1.536632
 31
2.3
  0
LINE
  5
74B
100
AcDbEntity
  8
0
100
AcDbLine
 10
1.64734
 20
-1.417686
 30
2.3
 11
1.581739
 21
-1.548262
 31
2.3
  0
LINE
  5
74C
100
AcDbEntity
  8
0
100
AcDbLine
 10
1.421417
 20
-1.403941
 30
2.3
 11
1.355287
 21
-1.536632
 31
2.3
  0
CIRCLE
  5
74D
100
AcDbEntity
  8
0
100
AcDbCircle
 10
1.399991
 20
-1.475397
 30
2.3
 40
0.075
  0
LINE
  5
74E
100
AcDbEntity
  8
0
100
AcDbLine
 10
1.44734
 20
-1.417686
 30
2.3
 11
1.381739
 21
-1.548262
 31
2.3
  0
CIRCLE
  5
74F
100
AcDbEntity
  8
0
100
AcDbCircle
 10
1.599991
 20
-1.475397
 30
2.3
 40
0.075
  0
LINE
  5
750
100
AcDbEntity
  8
0
100
AcDbLine
 10
2.021417
 20
-1.403941
 30
2.3
 11
1.955287
 21
-1.536632
 31
2.3
  0
LINE
  5
751
100
AcDbEntity
  8
0
100
AcDbLine
 10
2.04734
 20
-1.417686
 30
2.3
 11
1.981739
 21
-1.548262
 31
2.3
  0
LINE
  5
752
100
AcDbEntity
  8
0
100
AcDbLine
 10
1.821417
 20
-1.403941
 30
2.3
 11
1.755287
 21
-1.536632
 31
2.3
  0
LINE
  5
753
100
AcDbEntity
  8
0
100
AcDbLine
 10
1.84734
 20
-1.417686
 30
2.3
 11
1.781739
 21
-1.548262
 31
2.3
  0
CIRCLE
  5
754
100
AcDbEntity
  8
0
100
AcDbCircle
 10
1.999991
 20
-1.475397
 30
2.3
 40
0.075
  0
CIRCLE
  5
755
100
AcDbEntity
  8
0
100
AcDbCircle
 10
1.284491
 20
0.351003
 30
1.515
 40
0.035
  0
LINE
  5
756
100
AcDbEntity
  8
0
100
AcDbLine
 10
2.187
 20
0.446
 30
1.515
 11
0.712
 21
0.446
 31
1.515
  0
CIRCLE
  5
757
100
AcDbEntity
  8
0
100
AcDbCircle
 10
0.789491
 20
0.241003
 30
1.515
 40
0.035
  0
LINE
  5
758
100
AcDbEntity
  8
0
100
AcDbLine
 10
0.712
 20
0.446
 30
1.515
 11
0.637
 21
0.146
 31
1.515
  0
CIRCLE
  5
759
100
AcDbEntity
  8
0
100
AcDbCircle
 10
0.499991
 20
0.302003
 30
1.515
 40
0.075
  0
CIRCLE
  5
75A
100
AcDbEntity
  8
0
100
AcDbCircle
 10
1.009491
 20
0.241003
 30
1.515
 40
0.035
  0
CIRCLE
  5
75B
100
AcDbEntity
  8
0
100
AcDbCircle
 10
0.899491
 20
0.241003
 30
1.515
 40
0.035
  0
CIRCLE
  5
75C
100
AcDbEntity
  8
0
100
AcDbCircle
 10
1.119491
 20
0.241003
 30
1.515
 40
0.035
  0
CIRCLE
  5
75D
100
AcDbEntity
  8
0
100
AcDbCircle
 10
1.229491
 20
0.241003
 30
1.515
 40
0.035
  0
CIRCLE
  5
75E
100
AcDbEntity
  8
0
100
AcDbCircle
 10
1.064491
 20
0.351003
 30
1.515
 40
0.035
  0
CIRCLE
  5
75F
100
AcDbEntity
  8
0
100
AcDbCircle
 10
0.954491
 20
0.351003
 30
1.515
 40
0.035
  0
CIRCLE
  5
760
100
AcDbEntity
  8
0
100
AcDbCircle
 10
0.844491
 20
0.351003
 30
1.515
 40
0.035
  0
CIRCLE
  5
761
100
AcDbEntity
  8
0
100
AcDbCircle
 10
1.174491
 20
0.351003
 30
1.515
 40
0.035
  0
CIRCLE
  5
762
100
AcDbEntity
  8
0
100
AcDbCircle
 10
1.724491
 20
0.351003
 30
1.515
 40
0.035
  0
CIRCLE
  5
763
100
AcDbEntity
  8
0
100
AcDbCircle
 10
1.339491
 20
0.241003
 30
1.515
 40
0.035
  0
CIRCLE
  5
764
100
AcDbEntity
  8
0
100
AcDbCircle
 10
1.449491
 20
0.241003
 30
1.515
 40
0.035
  0
CIRCLE
  5
765
100
AcDbEntity
  8
0
100
AcDbCircle
 10
1.559491
 20
0.241003
 30
1.515
 40
0.035
  0
CIRCLE
  5
766
100
AcDbEntity
  8
0
100
AcDbCircle
 10
1.669491
 20
0.241003
 30
1.515
 40
0.035
  0
CIRCLE
  5
767
100
AcDbEntity
  8
0
100
AcDbCircle
 10
1.504491
 20
0.351003
 30
1.515
 40
0.035
  0
CIRCLE
  5
768
100
AcDbEntity
  8
0
100
AcDbCircle
 10
1.394491
 20
0.351003
 30
1.515
 40
0.035
  0
CIRCLE
  5
769
100
AcDbEntity
  8
0
100
AcDbCircle
 10
1.614491
 20
0.351003
 30
1.515
 40
0.035
  0
CIRCLE
  5
76A
100
AcDbEntity
  8
0
100
AcDbCircle
 10
1.999491
 20
0.241003
 30
1.515
 40
0.035
  0
CIRCLE
  5
76B
100
AcDbEntity
  8
0
100
AcDbCircle
 10
1.889491
 20
0.241003
 30
1.515
 40
0.035
  0
CIRCLE
  5
76C
100
AcDbEntity
  8
0
100
AcDbCircle
 10
1.779491
 20
0.241003
 30
1.515
 40
0.035
  0
CIRCLE
  5
76D
100
AcDbEntity
  8
0
100
AcDbCircle
 10
2.109491
 20
0.241003
 30
1.515
 40
0.035
  0
CIRCLE
  5
76E
100
AcDbEntity
  8
0
100
AcDbCircle
 10
1.944491
 20
0.351003
 30
1.515
 40
0.035
  0
CIRCLE
  5
76F
100
AcDbEntity
  8
0
100
AcDbCircle
 10
1.834491
 20
0.351003
 30
1.515
 40
0.035
  0
CIRCLE
  5
770
100
AcDbEntity
  8
0
100
AcDbCircle
 10
2.054491
 20
0.351003
 30
1.515
 40
0.035
  0
LWPOLYLINE
  5
771
100
AcDbEntity
  8
0
100
AcDbPolyline
 90
        4
 70
     1
 43
0.0
 38
-1.673049
 10
-4.464947
 20
1.93002
 10
-4.464947
 20
1.739989
 10
-4.334979
 20
1.739989
 10
-4.334979
 20
1.93002
210
0.0
220
1.0
230
0.0
  0
LWPOLYLINE
  5
772
100
AcDbEntity
  8
0
100
AcDbPolyline
 90
        4
 70
     1
 43
0.0
 38
-1.673049
 10
-4.264947
 20
1.93002
 10
-4.264947
 20
1.739989
 10
-4.134979
 20
1.739989
 10
-4.134979
 20
1.93002
210
0.0
220
1.0
230
0.0
  0
LWPOLYLINE
  5
773
100
AcDbEntity
  8
0
100
AcDbPolyline
 90
        4
 70
     1
 43
0.0
 38
-1.673049
 10
-2.864947
 20
1.93002
 10
-2.864947
 20
1.739989
 10
-2.734979
 20
1.739989
 10
-2.734979
 20
1.93002
210
0.0
220
1.0
230
0.0
  0
LWPOLYLINE
  5
774
100
AcDbEntity
  8
0
100
AcDbPolyline
 90
        4
 70
     1
 43
0.0
 38
-1.673049
 10
-2.664947
 20
1.93002
 10
-2.664947
 20
1.739989
 10
-2.534979
 20
1.739989
 10
-2.534979
 20
1.93002
210
0.0
220
1.0
230
0.0
  0
LWPOLYLINE
  5
775
100
AcDbEntity
  8
0
100
AcDbPolyline
 90
        4
 70
     1
 43
0.0
 38
-1.673049
 10
-3.264947
 20
1.93002
 10
-3.264947
 20
1.739989
 10
-3.134979
 20
1.739989
 10
-3.134979
 20
1.93002
210
0.0
220
1.0
230
0.0
  0
LWPOLYLINE
  5
776
100
AcDbEntity
  8
0
100
AcDbPolyline
 90
        4
 70
     1
 43
0.0
 38
-1.673049
 10
-3.064947
 20
1.93002
 10
-3.064947
 20
1.739989
 10
-2.934979
 20
1.739989
 10
-2.934979
 20
1.93002
210
0.0
220
1.0
230
0.0
  0
LWPOLYLINE
  5
777
100
AcDbEntity
  8
0
100
AcDbPolyline
 90
        4
 70
     1
 43
0.0
 38
-1.673049
 10
-4.064947
 20
1.93002
 10
-4.064947
 20
1.739989
 10
-3.934979
 20
1.739989
 10
-3.934979
 20
1.93002
210
0.0
220
1.0
230
0.0
  0
LWPOLYLINE
  5
778
100
AcDbEntity
  8
0
100
AcDbPolyline
 90
        4
 70
     1
 43
0.0
 38
-1.673049
 10
-3.464947
 20
1.93002
 10
-3.464947
 20
1.739989
 10
-3.334979
 20
1.739989
 10
-3.334979
 20
1.93002
210
0.0
220
1.0
230
0.0
  0
LWPOLYLINE
  5
779
100
AcDbEntity
  8
0
100
AcDbPolyline
 90
        4
 70
     1
 43
0.0
 38
-1.673049
 10
-3.664947
 20
1.93002
 10
-3.664947
 20
1.739989
 10
-3.534979
 20
1.739989
 10
-3.534979
 20
1.93002
210
0.0
220
1.0
230
0.0
  0
LWPOLYLINE
  5
77A
100
AcDbEntity
  8
0
100
AcDbPolyline
 90
        4
 70
     1
 43
0.0
 38
-1.673049
 10
-3.864947
 20
1.93002
 10
-3.864947
 20
1.739989
 10
-3.734979
 20
1.739989
 10
-3.734979
 20
1.93002
210
0.0
220
1.0
230
0.0
  0
LWPOLYLINE
  5
77B
100
AcDbEntity
  8
0
100
AcDbPolyline
 90
        4
 70
     1
 43
0.0
 38
-1.673049
 10
-2.464947
 20
1.93002
 10
-2.464947
 20
1.739989
 10
-2.334979
 20
1.739989
 10
-2.334979
 20
1.93002
210
0.0
220
1.0
230
0.0
  0
LINE
  5
77C
100
AcDbEntity
  8
0
100
AcDbLine
 10
4.121417
 20
-1.828941
 30
1.74
 11
4.055287
 21
-1.961632
 31
1.74
  0
CIRCLE
  5
77D
100
AcDbEntity
  8
0
100
AcDbCircle
 10
4.099991
 20
-1.900397
 30
1.74
 40
0.075
  0
LINE
  5
77E
100
AcDbEntity
  8
0
100
AcDbLine
 10
4.14734
 20
-1.842686
 30
1.74
 11
4.081739
 21
-1.973262
 31
1.74
  0
LINE
  5
77F
100
AcDbEntity
  8
0
100
AcDbLine
 10
3.94734
 20
-1.842686
 30
1.74
 11
3.881739
 21
-1.973262
 31
1.74
  0
LINE
  5
780
100
AcDbEntity
  8
0
100
AcDbLine
 10
3.921417
 20
-1.828941
 30
1.74
 11
3.855287
 21
-1.961632
 31
1.74
  0
CIRCLE
  5
781
100
AcDbEntity
  8
0
100
AcDbCircle
 10
3.899991
 20
-1.900397
 30
1.74
 40
0.075
  0
LINE
  5
782
100
AcDbEntity
  8
0
100
AcDbLine
 10
3.54734
 20
-1.842686
 30
1.74
 11
3.481739
 21
-1.973262
 31
1.74
  0
LINE
  5
783
100
AcDbEntity
  8
0
100
AcDbLine
 10
3.34734
 20
-1.842686
 30
1.74
 11
3.281739
 21
-1.973262
 31
1.74
  0
CIRCLE
  5
784
100
AcDbEntity
  8
0
100
AcDbCircle
 10
3.299991
 20
-1.900397
 30
1.74
 40
0.075
  0
LINE
  5
785
100
AcDbEntity
  8
0
100
AcDbLine
 10
3.321417
 20
-1.828941
 30
1.74
 11
3.255287
 21
-1.961632
 31
1.74
  0
CIRCLE
  5
786
100
AcDbEntity
  8
0
100
AcDbCircle
 10
3.499991
 20
-1.900397
 30
1.74
 40
0.075
  0
LINE
  5
787
100
AcDbEntity
  8
0
100
AcDbLine
 10
3.521417
 20
-1.828941
 30
1.74
 11
3.455287
 21
-1.961632
 31
1.74
  0
LINE
  5
788
100
AcDbEntity
  8
0
100
AcDbLine
 10
3.721417
 20
-1.828941
 30
1.74
 11
3.655287
 21
-1.961632
 31
1.74
  0
LINE
  5
789
100
AcDbEntity
  8
0
100
AcDbLine
 10
3.74734
 20
-1.842686
 30
1.74
 11
3.681739
 21
-1.973262
 31
1.74
  0
CIRCLE
  5
78A
100
AcDbEntity
  8
0
100
AcDbCircle
 10
3.699991
 20
-1.900397
 30
1.74
 40
0.075
  0
CIRCLE
  5
78B
100
AcDbEntity
  8
0
100
AcDbCircle
 10
3.099991
 20
-1.900397
 30
1.74
 40
0.075
  0
LINE
  5
78C
100
AcDbEntity
  8
0
100
AcDbLine
 10
3.121417
 20
-1.828941
 30
1.74
 11
3.055287
 21
-1.961632
 31
1.74
  0
LINE
  5
78D
100
AcDbEntity
  8
0
100
AcDbLine
 10
3.14734
 20
-1.842686
 30
1.74
 11
3.081739
 21
-1.973262
 31
1.74
  0
LINE
  5
78E
100
AcDbEntity
  8
0
100
AcDbLine
 10
2.94734
 20
-1.842686
 30
1.74
 11
2.881739
 21
-1.973262
 31
1.74
  0
LINE
  5
78F
100
AcDbEntity
  8
0
100
AcDbLine
 10
2.921417
 20
-1.828941
 30
1.74
 11
2.855287
 21
-1.961632
 31
1.74
  0
CIRCLE
  5
790
100
AcDbEntity
  8
0
100
AcDbCircle
 10
2.899991
 20
-1.900397
 30
1.74
 40
0.075
  0
LINE
  5
791
100
AcDbEntity
  8
0
100
AcDbLine
 10
2.54734
 20
-1.842686
 30
1.74
 11
2.481739
 21
-1.973262
 31
1.74
  0
LINE
  5
792
100
AcDbEntity
  8
0
100
AcDbLine
 10
2.721417
 20
-1.828941
 30
1.74
 11
2.655287
 21
-1.961632
 31
1.74
  0
LINE
  5
793
100
AcDbEntity
  8
0
100
AcDbLine
 10
2.321417
 20
-1.828941
 30
1.74
 11
2.255287
 21
-1.961632
 31
1.74
  0
LINE
  5
794
100
AcDbEntity
  8
0
100
AcDbLine
 10
2.34734
 20
-1.842686
 30
1.74
 11
2.281739
 21
-1.973262
 31
1.74
  0
CIRCLE
  5
795
100
AcDbEntity
  8
0
100
AcDbCircle
 10
2.499991
 20
-1.900397
 30
1.74
 40
0.075
  0
LINE
  5
796
100
AcDbEntity
  8
0
100
AcDbLine
 10
2.521417
 20
-1.828941
 30
1.74
 11
2.455287
 21
-1.961632
 31
1.74
  0
LINE
  5
797
100
AcDbEntity
  8
0
100
AcDbLine
 10
2.74734
 20
-1.842686
 30
1.74
 11
2.681739
 21
-1.973262
 31
1.74
  0
CIRCLE
  5
798
100
AcDbEntity
  8
0
100
AcDbCircle
 10
2.699991
 20
-1.900397
 30
1.74
 40
0.075
  0
CIRCLE
  5
799
100
AcDbEntity
  8
0
100
AcDbCircle
 10
2.299991
 20
-1.900397
 30
1.74
 40
0.075
  0
LINE
  5
79A
100
AcDbEntity
  8
0
100
AcDbLine
 10
4.34734
 20
-1.842686
 30
1.74
 11
4.281739
 21
-1.973262
 31
1.74
  0
LINE
  5
79B
100
AcDbEntity
  8
0
100
AcDbLine
 10
4.321417
 20
-1.828941
 30
1.74
 11
4.255287
 21
-1.961632
 31
1.74
  0
CIRCLE
  5
79C
100
AcDbEntity
  8
0
100
AcDbCircle
 10
4.299991
 20
-1.900397
 30
1.74
 40
0.075
  0
LINE
  5
79D
100
AcDbEntity
  8
0
100
AcDbLine
 10
4.54734
 20
-1.842686
 30
1.74
 11
4.481739
 21
-1.973262
 31
1.74
  0
LINE
  5
79E
100
AcDbEntity
  8
0
100
AcDbLine
 10
4.521417
 20
-1.828941
 30
1.74
 11
4.455287
 21
-1.961632
 31
1.74
  0
CIRCLE
  5
79F
100
AcDbEntity
  8
0
100
AcDbCircle
 10
4.499991
 20
-1.900397
 30
1.74
 40
0.075
  0
CIRCLE
  5
7A0
100
AcDbEntity
  8
0
100
AcDbCircle
 10
3.199991
 20
-1.475397
 30
2.3
 40
0.075
  0
LINE
  5
7A1
100
AcDbEntity
  8
0
100
AcDbLine
 10
2.621417
 20
-1.403941
 30
2.3
 11
2.555287
 21
-1.536632
 31
2.3
  0
CIRCLE
  5
7A2
100
AcDbEntity
  8
0
100
AcDbCircle
 10
2.599991
 20
-1.475397
 30
2.3
 40
0.075
  0
LINE
  5
7A3
100
AcDbEntity
  8
0
100
AcDbLine
 10
2.64734
 20
-1.417686
 30
2.3
 11
2.581739
 21
-1.548262
 31
2.3
  0
CIRCLE
  5
7A4
100
AcDbEntity
  8
0
100
AcDbCircle
 10
2.399991
 20
-1.475397
 30
2.3
 40
0.075
  0
LINE
  5
7A5
100
AcDbEntity
  8
0
100
AcDbLine
 10
2.44734
 20
-1.417686
 30
2.3
 11
2.381739
 21
-1.548262
 31
2.3
  0
LINE
  5
7A6
100
AcDbEntity
  8
0
100
AcDbLine
 10
2.421417
 20
-1.403941
 30
2.3
 11
2.355287
 21
-1.536632
 31
2.3
  0
LINE
  5
7A7
100
AcDbEntity
  8
0
100
AcDbLine
 10
3.04734
 20
-1.417686
 30
2.3
 11
2.981739
 21
-1.548262
 31
2.3
  0
CIRCLE
  5
7A8
100
AcDbEntity
  8
0
100
AcDbCircle
 10
2.999991
 20
-1.475397
 30
2.3
 40
0.075
  0
LINE
  5
7A9
100
AcDbEntity
  8
0
100
AcDbLine
 10
3.021417
 20
-1.403941
 30
2.3
 11
2.955287
 21
-1.536632
 31
2.3
  0
LINE
  5
7AA
100
AcDbEntity
  8
0
100
AcDbLine
 10
2.821417
 20
-1.403941
 30
2.3
 11
2.755287
 21
-1.536632
 31
2.3
  0
LINE
  5
7AB
100
AcDbEntity
  8
0
100
AcDbLine
 10
2.84734
 20
-1.417686
 30
2.3
 11
2.781739
 21
-1.548262
 31
2.3
  0
CIRCLE
  5
7AC
100
AcDbEntity
  8
0
100
AcDbCircle
 10
2.799991
 20
-1.475397
 30
2.3
 40
0.075
  0
CIRCLE
  5
7AD
100
AcDbEntity
  8
0
100
AcDbCircle
 10
3.599991
 20
-1.475397
 30
2.3
 40
0.075
  0
LINE
  5
7AE
100
AcDbEntity
  8
0
100
AcDbLine
 10
3.64734
 20
-1.417686
 30
2.3
 11
3.581739
 21
-1.548262
 31
2.3
  0
LINE
  5
7AF
100
AcDbEntity
  8
0
100
AcDbLine
 10
3.44734
 20
-1.417686
 30
2.3
 11
3.381739
 21
-1.548262
 31
2.3
  0
LINE
  5
7B0
100
AcDbEntity
  8
0
100
AcDbLine
 10
3.421417
 20
-1.403941
 30
2.3
 11
3.355287
 21
-1.536632
 31
2.3
  0
LINE
  5
7B1
100
AcDbEntity
  8
0
100
AcDbLine
 10
3.621417
 20
-1.403941
 30
2.3
 11
3.555287
 21
-1.536632
 31
2.3
  0
LINE
  5
7B2
100
AcDbEntity
  8
0
100
AcDbLine
 10
3.24734
 20
-1.417686
 30
2.3
 11
3.181739
 21
-1.548262
 31
2.3
  0
LINE
  5
7B3
100
AcDbEntity
  8
0
100
AcDbLine
 10
3.221417
 20
-1.403941
 30
2.3
 11
3.155287
 21
-1.536632
 31
2.3
  0
CIRCLE
  5
7B4
100
AcDbEntity
  8
0
100
AcDbCircle
 10
3.399991
 20
-1.475397
 30
2.3
 40
0.075
  0
LINE
  5
7B5
100
AcDbEntity
  8
0
100
AcDbLine
 10
4.021417
 20
-1.403941
 30
2.3
 11
3.955287
 21
-1.536632
 31
2.3
  0
LINE
  5
7B6
100
AcDbEntity
  8
0
100
AcDbLine
 10
4.04734
 20
-1.417686
 30
2.3
 11
3.981739
 21
-1.548262
 31
2.3
  0
CIRCLE
  5
7B7
100
AcDbEntity
  8
0
100
AcDbCircle
 10
3.999991
 20
-1.475397
 30
2.3
 40
0.075
  0
LINE
  5
7B8
100
AcDbEntity
  8
0
100
AcDbLine
 10
3.821417
 20
-1.403941
 30
2.3
 11
3.755287
 21
-1.536632
 31
2.3
  0
CIRCLE
  5
7B9
100
AcDbEntity
  8
0
100
AcDbCircle
 10
3.799991
 20
-1.475397
 30
2.3
 40
0.075
  0
LINE
  5
7BA
100
AcDbEntity
  8
0
100
AcDbLine
 10
3.84734
 20
-1.417686
 30
2.3
 11
3.781739
 21
-1.548262
 31
2.3
  0
LINE
  5
7BB
100
AcDbEntity
  8
0
100
AcDbLine
 10
4.44734
 20
-1.417686
 30
2.3
 11
4.381739
 21
-1.548262
 31
2.3
  0
LINE
  5
7BC
100
AcDbEntity
  8
0
100
AcDbLine
 10
4.24734
 20
-1.417686
 30
2.3
 11
4.181739
 21
-1.548262
 31
2.3
  0
CIRCLE
  5
7BD
100
AcDbEntity
  8
0
100
AcDbCircle
 10
4.199991
 20
-1.475397
 30
2.3
 40
0.075
  0
LINE
  5
7BE
100
AcDbEntity
  8
0
100
AcDbLine
 10
4.221417
 20
-1.403941
 30
2.3
 11
4.155287
 21
-1.536632
 31
2.3
  0
CIRCLE
  5
7BF
100
AcDbEntity
  8
0
100
AcDbCircle
 10
4.399991
 20
-1.475397
 30
2.3
 40
0.075
  0
LINE
  5
7C0
100
AcDbEntity
  8
0
100
AcDbLine
 10
4.421417
 20
-1.403941
 30
2.3
 11
4.355287
 21
-1.536632
 31
2.3
  0
CIRCLE
  5
7C1
100
AcDbEntity
  8
0
100
AcDbCircle
 10
4.129491
 20
0.241003
 30
1.515
 40
0.035
  0
CIRCLE
  5
7C2
100
AcDbEntity
  8
0
100
AcDbCircle
 10
4.074491
 20
0.351003
 30
1.515
 40
0.035
  0
LINE
  5
7C3
100
AcDbEntity
  8
0
100
AcDbLine
 10
4.537
 20
0.446
 30
1.515
 11
3.062
 21
0.446
 31
1.515
  0
LINE
  5
7C4
100
AcDbEntity
  8
0
100
AcDbLine
 10
2.987
 20
0.146
 30
1.515
 11
4.612
 21
0.146
 31
1.515
  0
CIRCLE
  5
7C5
100
AcDbEntity
  8
0
100
AcDbCircle
 10
3.139491
 20
0.241003
 30
1.515
 40
0.035
  0
CIRCLE
  5
7C6
100
AcDbEntity
  8
0
100
AcDbCircle
 10
2.399991
 20
0.302003
 30
1.515
 40
0.075
  0
LINE
  5
7C7
100
AcDbEntity
  8
0
100
AcDbLine
 10
3.062
 20
0.446
 30
1.515
 11
2.987
 21
0.146
 31
1.515
  0
CIRCLE
  5
7C8
100
AcDbEntity
  8
0
100
AcDbCircle
 10
2.849991
 20
0.302003
 30
1.515
 40
0.075
  0
CIRCLE
  5
7C9
100
AcDbEntity
  8
0
100
AcDbCircle
 10
3.634491
 20
0.351003
 30
1.515
 40
0.035
  0
CIRCLE
  5
7CA
100
AcDbEntity
  8
0
100
AcDbCircle
 10
3.359491
 20
0.241003
 30
1.515
 40
0.035
  0
CIRCLE
  5
7CB
100
AcDbEntity
  8
0
100
AcDbCircle
 10
3.249491
 20
0.241003
 30
1.515
 40
0.035
  0
CIRCLE
  5
7CC
100
AcDbEntity
  8
0
100
AcDbCircle
 10
3.469491
 20
0.241003
 30
1.515
 40
0.035
  0
CIRCLE
  5
7CD
100
AcDbEntity
  8
0
100
AcDbCircle
 10
3.579491
 20
0.241003
 30
1.515
 40
0.035
  0
CIRCLE
  5
7CE
100
AcDbEntity
  8
0
100
AcDbCircle
 10
3.414491
 20
0.351003
 30
1.515
 40
0.035
  0
CIRCLE
  5
7CF
100
AcDbEntity
  8
0
100
AcDbCircle
 10
3.304491
 20
0.351003
 30
1.515
 40
0.035
  0
CIRCLE
  5
7D0
100
AcDbEntity
  8
0
100
AcDbCircle
 10
3.194491
 20
0.351003
 30
1.515
 40
0.035
  0
CIRCLE
  5
7D1
100
AcDbEntity
  8
0
100
AcDbCircle
 10
3.524491
 20
0.351003
 30
1.515
 40
0.035
  0
CIRCLE
  5
7D2
100
AcDbEntity
  8
0
100
AcDbCircle
 10
3.689491
 20
0.241003
 30
1.515
 40
0.035
  0
CIRCLE
  5
7D3
100
AcDbEntity
  8
0
100
AcDbCircle
 10
3.799491
 20
0.241003
 30
1.515
 40
0.035
  0
CIRCLE
  5
7D4
100
AcDbEntity
  8
0
100
AcDbCircle
 10
3.909491
 20
0.241003
 30
1.515
 40
0.035
  0
CIRCLE
  5
7D5
100
AcDbEntity
  8
0
100
AcDbCircle
 10
4.019491
 20
0.241003
 30
1.515
 40
0.035
  0
CIRCLE
  5
7D6
100
AcDbEntity
  8
0
100
AcDbCircle
 10
3.854491
 20
0.351003
 30
1.515
 40
0.035
  0
CIRCLE
  5
7D7
100
AcDbEntity
  8
0
100
AcDbCircle
 10
3.744491
 20
0.351003
 30
1.515
 40
0.035
  0
CIRCLE
  5
7D8
100
AcDbEntity
  8
0
100
AcDbCircle
 10
3.964491
 20
0.351003
 30
1.515
 40
0.035
  0
LINE
  5
7D9
100
AcDbEntity
  8
0
100
AcDbLine
 10
4.612
 20
0.146
 30
1.515
 11
4.537
 21
0.446
 31
1.515
  0
CIRCLE
  5
7DA
100
AcDbEntity
  8
0
100
AcDbCircle
 10
4.349491
 20
0.241003
 30
1.515
 40
0.035
  0
CIRCLE
  5
7DB
100
AcDbEntity
  8
0
100
AcDbCircle
 10
4.239491
 20
0.241003
 30
1.515
 40
0.035
  0
CIRCLE
  5
7DC
100
AcDbEntity
  8
0
100
AcDbCircle
 10
4.459491
 20
0.241003
 30
1.515
 40
0.035
  0
CIRCLE
  5
7DD
100
AcDbEntity
  8
0
100
AcDbCircle
 10
4.184491
 20
0.351003
 30
1.515
 40
0.035
  0
CIRCLE
  5
7DE
100
AcDbEntity
  8
0
100
AcDbCircle
 10
4.294491
 20
0.351003
 30
1.515
 40
0.035
  0
CIRCLE
  5
7DF
100
AcDbEntity
  8
0
100
AcDbCircle
 10
4.404491
 20
0.351003
 30
1.515
 40
0.035
  0
CIRCLE
  5
7E0
100
AcDbEntity
  8
0
100
AcDbCircle
 10
4.749991
 20
0.302003
 30
1.515
 40
0.075
  0
DIMENSION
  5
7E1
100
AcDbEntity
  8
AREA1
100
AcDbDimension
  2
*D1
 10
6.078703
 20
-2.248
 30
0.0
 11
6.078703
 21
-0.748
 31
0.0
 70
    32
  3
ABECAD_3D
100
AcDbAlignedDimension
 13
5.3
 23
0.752
 33
0.7
 14
5.3
 24
-2.248
 34
0.0
 50
90.0
100
AcDbRotatedDimension
  0
DIMENSION
  5
7E2
100
AcDbEntity
  8
AREA1
100
AcDbDimension
  2
*D2
 10
5.3
 20
1.44068
 30
0.0
 11
2.65
 21
1.44068
 31
0.0
 70
    32
  3
ABECAD_3D
100
AcDbAlignedDimension
 13
0.0
 23
0.752
 33
0.7
 14
5.3
 24
0.752
 34
0.7
100
AcDbRotatedDimension
  0
ENDBLK
  5
7E4
100
AcDbEntity
  8
0
100
AcDbBlockEnd
  0
BLOCK
  5
7FC
100
AcDbEntity
  8
0
100
AcDbBlockBegin
  2
*D4
 70
     1
 10
0.0
 20
0.0
 30
0.0
  3
*D4
  1

  0
LINE
  5
7F2
100
AcDbEntity
  8
AREA2
 62
     0
100
AcDbLine
 10
0.6375
 20
2.3
 30
0.0
 11
-0.92553
 21
2.3
 31
0.0
1001
ACAD
1000
RTLwPs
1070
   158
  0
LINE
  5
7F3
100
AcDbEntity
  8
AREA2
 62
     0
100
AcDbLine
 10
-0.0625
 20
0.0
 30
0.0
 11
-0.92553
 21
0.0
 31
0.0
1001
ACAD
1000
RTLwPs
1070
   158
  0
LINE
  5
7F4
100
AcDbEntity
  8
AREA2
 62
     0
100
AcDbLine
 10
-0.745843
 20
2.120313
 30
0.0
 11
-0.745843
 21
1.99375
 31
0.0
1001
ACAD
1000
RTLwPs
1070
   158
  0
LINE
  5
7F5
100
AcDbEntity
  8
AREA2
 62
     0
100
AcDbLine
 10
-0.745843
 20
0.179688
 30
0.0
 11
-0.745843
 21
0.30625
 31
0.0
1001
ACAD
1000
RTLwPs
1070
   158
  0
SOLID
  5
7F6
100
AcDbEntity
  8
AREA2
 62
     0
100
AcDbTrace
 10
-0.775791
 20
2.120313
 30
0.0
 11
-0.715895
 21
2.120313
 31
0.0
 12
-0.745843
 22
2.3
 32
0.0
 13
-0.745843
 23
2.3
 33
0.0
  0
SOLID
  5
7F7
100
AcDbEntity
  8
AREA2
 62
     0
100
AcDbTrace
 10
-0.775791
 20
0.179688
 30
0.0
 11
-0.715895
 21
0.179688
 31
0.0
 12
-0.745843
 22
0.0
 32
0.0
 13
-0.745843
 23
0.0
 33
0.0
  0
MTEXT
  5
7F8
100
AcDbEntity
  8
AREA2
 62
     0
100
AcDbMText
 10
-0.745843
 20
1.15
 30
0.0
 40
0.125
 41
0.0
 71
     5
 72
     1
  1
\A1;2 19/64 [58.4]
 11
0.0
 21
1.0
 31
0.0
1001
ACAD
1000
MTEXTBEGIN
1070
    73
1070
     1
1070
    44
1040
1.0
1070
    74
1070
     0
1000
MTEXTEND
1000
MTEXTBEGIN
1070
    73
1070
     1
1070
    44
1040
1.0
1070
    74
1070
     0
1000
MTEXTEND
  0
POINT
  5
7F9
100
AcDbEntity
  8
DEFPOINTS
 62
     0
100
AcDbPoint
 10
0.7
 20
2.3
 30
0.673
  0
POINT
  5
7FA
100
AcDbEntity
  8
DEFPOINTS
 62
     0
100
AcDbPoint
 10
0.0
 20
0.0
 30
0.0
  0
POINT
  5
7FB
100
AcDbEntity
  8
DEFPOINTS
 62
     0
100
AcDbPoint
 10
-0.745843
 20
0.0
 30
0.0
  0
ENDBLK
  5
7FD
100
AcDbEntity
  8
0
100
AcDbBlockEnd
  0
ENDSEC
  0
SECTION
  2
ENTITIES
  0
INSERT
  5
7E5
100
AcDbEntity
  8
0
100
AcDbBlockReference
 66
     1
  2
ABCHD060
 10
0.0
 20
0.0
 30
0.0
  0
ATTRIB
  5
7E6
100
AcDbEntity
  8
ATTRIBUTES
100
AcDbText
 10
0.115855
 20
-0.261833
 30
0.0
 40
0.1125
  1
ALLEN-BRADLEY
100
AcDbAttribute
  2
AC_VND_LABEL
 70
     1
  0
ATTRIB
  5
7E7
100
AcDbEntity
  8
ATTRIBUTES
100
AcDbText
 10
0.115855
 20
-0.496208
 30
0.0
 40
0.1125
  1
1771-RTP1
100
AcDbAttribute
  2
AC_PART_NO
 70
     1
  0
ATTRIB
  5
7E8
100
AcDbEntity
  8
ATTRIBUTES
100
AcDbText
 10
0.115855
 20
-0.730583
 30
0.0
 40
0.1125
  1
1771-RTP1: REMOTE TERMINATION PANEL
100
AcDbAttribute
  2
AC_DESCRIPTION
 70
     1
  0
ATTRIB
  5
7E9
100
AcDbEntity
  8
ATTRIBUTES
100
AcDbText
 10
0.115855
 20
-0.964958
 30
0.0
 40
0.1125
  1

100
AcDbAttribute
  2
DEVICE_ID
 70
     1
  0
ATTRIB
  5
7EA
100
AcDbEntity
  8
ATTRIBUTES
100
AcDbText
 10
0.115855
 20
-1.199333
 30
0.0
 40
0.1125
  1

100
AcDbAttribute
  2
AC_CPART_NO
 70
     1
  0
ATTRIB
  5
7EB
100
AcDbEntity
  8
ATTRIBUTES
100
AcDbText
 10
0.115855
 20
-1.433708
 30
0.0
 40
0.1125
  1

100
AcDbAttribute
  2
AC_NOTE
 70
     1
  0
ATTRIB
  5
7EC
100
AcDbEntity
  8
ATTRIBUTES
100
AcDbText
 10
0.115855
 20
-1.668083
 30
0.0
 40
0.1125
  1

100
AcDbAttribute
  2
FASTENER
 70
     1
  0
ATTRIB
  5
7ED
100
AcDbEntity
  8
ATTRIBUTES
100
AcDbText
 10
0.115855
 20
-1.902458
 30
0.0
 40
0.1125
  1
INCH
100
AcDbAttribute
  2
AC_SCALE_UNIT
 70
     1
  0
ATTRIB
  5
7EE
100
AcDbEntity
  8
ATTRIBUTES
100
AcDbText
 10
0.115855
 20
-2.136833
 30
0.0
 40
0.1125
  1
0
100
AcDbAttribute
  2
AC_VIEW_CODE
 70
     1
  0
SEQEND
  5
7EF
100
AcDbEntity
  8
0
  0
DIMENSION
  5
7F0
100
AcDbEntity
  8
AREA2
100
AcDbDimension
  2
*D4
 10
-0.745843
 20
0.0
 30
0.0
 11
-0.745843
 21
1.15
 31
0.0
 70
    32
210
0.0
220
-1.0
230
0.0
  3
ABECAD_3V
100
AcDbAlignedDimension
 13
0.7
 23
-0.673
 33
2.3
 14
0.0
 24
0.0
 34
0.0
 50
90.0
100
AcDbRotatedDimension
1001
ACAD
1000
DSTYLE
1002
{
1070
    40
1040
1.0
1002
}
  0
VIEWPORT
  5
2C
102
{ACAD_XDICTIONARY
360
864
102
}
100
AcDbEntity
 67
     1
  8
0
100
AcDbViewport
 10
4.999964
 20
3.750155
 30
0.0
 40
15.434
 41
7.617554
 68
     1
 69
     1
1001
ACAD
1000
MVIEW
1002
{
1070
    16
1010
0.0
1020
0.0
1030
0.0
1010
0.0
1020
0.0
1030
1.0
1040
0.0
1040
7.617554
1040
4.999964
1040
3.750155
1040
50.0
1040
0.0
1040
0.0
1070
     0
1070
   100
1070
     1
1070
     1
1070
     0
1070
     0
1070
     0
1070
     0
1040
0.0
1040
0.0
1040
0.0
1040
1.0
1040
1.0
1040
0.0
1040
0.0
1070
     0
1002
{
1002
}
1002
}
  0
VIEWPORT
  5
2D
102
{ACAD_XDICTIONARY
360
866
102
}
100
AcDbEntity
 67
     1
  8
0
100
AcDbViewport
 10
2.5
 20
5.625
 30
0.0
 40
5.0
 41
3.75
 68
     4
 69
     2
1001
ACAD
1000
MVIEW
1002
{
1070
    16
1010
0.0
1020
0.0
1030
0.0
1010
0.0
1020
0.0
1030
1.0
1040
0.0
1040
5.577234
1040
2.666587
1040
-0.82879
1040
50.0
1040
0.0
1040
0.0
1070
     0
1070
   100
1070
     1
1070
     0
1070
     0
1070
     0
1070
     0
1070
     0
1040
0.0
1040
0.0
1040
0.0
1040
1.0
1040
1.0
1040
0.0
1040
0.0
1070
     0
1002
{
1003
AREA2
1002
}
1002
}
  0
VIEWPORT
  5
2E
102
{ACAD_XDICTIONARY
360
868
102
}
100
AcDbEntity
 67
     1
  8
0
100
AcDbViewport
 10
2.5
 20
1.875
 30
0.0
 40
5.0
 41
3.75
 68
     3
 69
     3
1001
ACAD
1000
MVIEW
1002
{
1070
    16
1010
0.0
1020
0.0
1030
0.0
1010
0.0
1020
-1.0
1030
0.0
1040
0.0
1040
5.577234
1040
2.666587
1040
1.15
1040
50.0
1040
0.0
1040
0.0
1070
     0
1070
   100
1070
     1
1070
     0
1070
     0
1070
     0
1070
     0
1070
     0
1040
0.0
1040
0.0
1040
0.0
1040
1.0
1040
1.0
1040
0.0
1040
0.0
1070
     0
1002
{
1003
AREA1
1002
}
1002
}
  0
VIEWPORT
  5
2F
102
{ACAD_XDICTIONARY
360
86A
102
}
100
AcDbEntity
 67
     1
  8
0
100
AcDbViewport
 10
7.5
 20
3.75
 30
0.0
 40
5.0
 41
7.5
 68
     2
 69
     4
1001
ACAD
1000
MVIEW
1002
{
1070
    16
1010
0.0
1020
0.0
1030
0.0
1010
-1.0
1020
-1.0
1030
1.0
1040
0.0
1040
9.919074
1040
2.352252
1040
2.833922
1040
50.0
1040
0.0
1040
0.0
1070
     0
1070
   100
1070
     1
1070
     0
1070
     0
1070
     0
1070
     0
1070
     0
1040
0.0
1040
0.0
1040
0.0
1040
1.0
1040
1.0
1040
0.0
1040
0.0
1070
     0
1002
{
1003
AREA1
1003
AREA2
1002
}
1002
}
  0
TEXT
  5
42D
100
AcDbEntity
 67
     1
  8
0
100
AcDbText
 10
5.253785
 20
7.092701
 30
0.0
 40
0.2
  1
1771-RTP1
100
AcDbText
  0
TEXT
  5
431
100
AcDbEntity
 67
     1
  8
0
100
AcDbText
 10
5.253785
 20
6.759368
 30
0.0
 40
0.2
  1
1771-RTP1: REMOTE
100
AcDbText
1001
ACAD
1000
R13OBJECT
1002
{
1005
42D
1002
}
  0
TEXT
  5
52E
100
AcDbEntity
 67
     1
  8
0
100
AcDbText
 10
5.240015
 20
6.436423
 30
0.0
 40
0.2
  1
TERMINATION PANEL
100
AcDbText
  0
TEXT
  5
52F
100
AcDbEntity
 67
     1
  8
0
100
AcDbText
 10
5.240015
 20
6.10309
 30
0.0
 40
0.2
  1

100
AcDbText
  0
TEXT
  5
530
100
AcDbEntity
 67
     1
  8
0
100
AcDbText
 10
5.240015
 20
5.769757
 30
0.0
 40
0.2
  1

100
AcDbText
  0
ENDSEC
  0
SECTION
  2
OBJECTS
  0
DICTIONARY
  5
46D
100
AcDbDictionary
  3
ACAD_GROUP
350
46E
  3
ACAD_LAYOUT
350
49E
  3
ACAD_MLINESTYLE
350
47B
  3
ACAD_PLOTSETTINGS
350
49F
  3
ACAD_PLOTSTYLENAME
350
49C
  3
ACDBHEADERROUNDTRIPXREC
350
843
  3
ACDBVARIABLEDICTIONARY
350
48D
  0
DICTIONARY
  5
841
100
AcDbDictionary
280
     1
  3
ACAD_XREC_ROUNDTRIP
360
842
  0
DICTIONARY
  5
86E
100
AcDbDictionary
280
     1
  3
ACAD_XREC_ROUNDTRIP
360
86F
  0
DICTIONARY
  5
870
100
AcDbDictionary
280
     1
  3
ACAD_XREC_ROUNDTRIP
360
871
  0
DICTIONARY
  5
872
100
AcDbDictionary
280
     1
  3
ACAD_XREC_ROUNDTRIP
360
873
  0
DICTIONARY
  5
876
100
AcDbDictionary
280
     1
  3
ACAD_XREC_ROUNDTRIP
360
877
  0
DICTIONARY
  5
4D2
100
AcDbDictionary
280
     1
  3
ACAD_LAYOUTSELFREF
360
86D
  0
DICTIONARY
  5
4D0
100
AcDbDictionary
280
     1
  3
ACAD_LAYOUTSELFREF
360
86C
  0
DICTIONARY
  5
83D
100
AcDbDictionary
280
     1
  3
ACAD_XREC_ROUNDTRIP
360
83E
  0
DICTIONARY
  5
83F
100
AcDbDictionary
280
     1
  3
ACAD_XREC_ROUNDTRIP
360
840
  0
DICTIONARY
  5
864
100
AcDbDictionary
280
     1
  3
ACAD_XREC_ROUNDTRIP
360
865
  0
DICTIONARY
  5
866
100
AcDbDictionary
280
     1
  3
ACAD_XREC_ROUNDTRIP
360
867
  0
DICTIONARY
  5
868
100
AcDbDictionary
280
     1
  3
ACAD_XREC_ROUNDTRIP
360
869
  0
DICTIONARY
  5
86A
100
AcDbDictionary
280
     1
  3
ACAD_XREC_ROUNDTRIP
360
86B
  0
DICTIONARY
  5
46E
102
{ACAD_REACTORS
330
46D
102
}
100
AcDbDictionary
  0
DICTIONARY
  5
49E
102
{ACAD_XDICTIONARY
360
874
102
}
102
{ACAD_REACTORS
330
46D
102
}
100
AcDbDictionary
  3
LAYOUT1
350
4A1
  3
MODEL
350
4A0
  0
DICTIONARY
  5
47B
102
{ACAD_REACTORS
330
46D
102
}
100
AcDbDictionary
  3
STANDARD
350
47C
  0
DICTIONARY
  5
49F
102
{ACAD_REACTORS
330
46D
102
}
100
AcDbDictionary
  0
ACAD_PROXY_OBJECT
  5
49C
102
{ACAD_REACTORS
330
46D
102
}
100
AcDbProxyObject
 90
      499
 91
      501
 93
       86
310
405010041939BDC9B585B0
350
49D
340
49D
 94
        0
  0
DICTIONARY
  5
843
102
{ACAD_REACTORS
330
46D
102
}
100
AcDbDictionary
  3
CEPSNTYPE
350
84D
  3
DIMSTYLEDATA
350
851
  3
FINGERPRINTGUID
350
84E
  3
HYPERLINKBASE
350
846
  3
INSUNITS
350
84C
  3
LAYOUTDICT
350
848
  3
LWETCUNION
350
84B
  3
PLOTSETDICT
350
849
  3
PLOTSTYLNAMDICT
350
84A
  3
PSVPSCALE
350
850
  3
PUCSBASE
350
854
  3
PUCSORGBACK
350
85A
  3
PUCSORGBOTTOM
350
856
  3
PUCSORGFRONT
350
859
  3
PUCSORGLEFT
350
857
  3
PUCSORGRIGHT
350
858
  3
PUCSORGTOP
350
855
  3
PUCSORTHOREF
350
852
  3
PUCSORTHOVIEW
350
853
  3
STYLESHEET
350
847
  3
TSTACKALIGN
350
844
  3
TSTACKSIZE
350
845
  3
UCSBASE
350
85D
  3
UCSORGBACK
350
863
  3
UCSORGBOTTOM
350
85F
  3
UCSORGFRONT
350
862
  3
UCSORGLEFT
350
860
  3
UCSORGRIGHT
350
861
  3
UCSORGTOP
350
85E
  3
UCSORTHOREF
350
85B
  3
UCSORTHOVIEW
350
85C
  3
VERSIONGUID
350
84F
  0
DICTIONARY
  5
48D
102
{ACAD_REACTORS
330
46D
102
}
100
AcDbDictionary
  3
DIMADEC
350
48E
  0
XRECORD
  5
842
102
{ACAD_REACTORS
330
841
102
}
100
AcDbXrecord
102
EXTNAMES
  1
*ACTIVE
  2
*Active
102
UCS
 74
     0
 71
     1
 10
0.0
 20
0.0
 30
0.0
 10
1.0
 20
0.0
 30
0.0
 10
0.0
 20
1.0
 30
0.0
146
0.0
 79
     1
102
VIEW
281
     0
  0
XRECORD
  5
86F
102
{ACAD_REACTORS
330
86E
102
}
100
AcDbXrecord
102
PLOTBIT
280
     0
  0
XRECORD
  5
871
102
{ACAD_REACTORS
330
870
102
}
100
AcDbXrecord
102
ACADR14ROUNDTRIP
1000
DSTYLE
1002
{
1070
   276
 70
     2
1070
   277
 70
     5
1070
   279
 70
     2
1002
}
  0
XRECORD
  5
873
102
{ACAD_REACTORS
330
872
102
}
100
AcDbXrecord
102
ACADR14ROUNDTRIP
1000
DSTYLE
1002
{
1070
   276
 70
     2
1070
   277
 70
     5
1070
   279
 70
     2
1002
}
  0
XRECORD
  5
877
102
{ACAD_REACTORS
330
876
102
}
100
AcDbXrecord
102
ACADR14ROUNDTRIP
1000
DSTYLE
1002
{
1070
   276
 70
     2
1070
   277
 70
     5
1002
}
  0
XRECORD
  5
86D
102
{ACAD_REACTORS
330
4D2
102
}
100
AcDbXrecord
340
478
  0
XRECORD
  5
86C
102
{ACAD_REACTORS
330
4D0
102
}
100
AcDbXrecord
340
475
  0
XRECORD
  5
83E
102
{ACAD_REACTORS
330
83D
102
}
100
AcDbXrecord
102
EXTNAMES
  1
SCALE
  2
scale
  0
XRECORD
  5
840
102
{ACAD_REACTORS
330
83F
102
}
100
AcDbXrecord
102
EXTNAMES
  1
ABCHD060
  2
Abchd060
  0
XRECORD
  5
865
102
{ACAD_REACTORS
330
864
102
}
100
AcDbXrecord
102
UCS
 74
     0
 71
     1
 10
0.0
 20
0.0
 30
0.0
 10
1.0
 20
0.0
 30
0.0
 10
0.0
 20
1.0
 30
0.0
146
0.0
 79
     0
102
VIEW
281
     0
102
NEWVIEWCONTROL
280
     4
  0
XRECORD
  5
867
102
{ACAD_REACTORS
330
866
102
}
100
AcDbXrecord
102
UCS
 74
     0
 71
     1
 10
0.0
 20
0.0
 30
0.0
 10
1.0
 20
0.0
 30
0.0
 10
0.0
 20
1.0
 30
0.0
146
0.0
 79
     1
102
VIEW
281
     0
102
NEWVIEWCONTROL
280
     4
  0
XRECORD
  5
869
102
{ACAD_REACTORS
330
868
102
}
100
AcDbXrecord
102
UCS
 74
     0
 71
     1
 10
0.0
 20
0.0
 30
0.0
 10
1.0
 20
0.0
 30
0.0
 10
0.0
 20
0.0
 30
1.0
146
0.0
 79
     3
102
VIEW
281
     0
102
NEWVIEWCONTROL
280
     4
  0
XRECORD
  5
86B
102
{ACAD_REACTORS
330
86A
102
}
100
AcDbXrecord
102
UCS
 74
     0
 71
     1
 10
0.0
 20
0.0
 30
0.0
 10
1.0
 20
0.0
 30
0.0
 10
0.0
 20
1.0
 30
0.0
146
0.0
 79
     0
102
VIEW
281
     0
102
NEWVIEWCONTROL
280
     4
  0
DICTIONARY
  5
874
100
AcDbDictionary
280
     1
  3
ACAD_XREC_ROUNDTRIP
360
875
  0
ACAD_PROXY_OBJECT
  5
4A1
102
{ACAD_REACTORS
330
49E
102
}
100
AcDbProxyObject
 90
      499
 91
      503
 93
     2044
310
91D4850204C617365724A65742035303030205365726965732050434C20362C008000000C0BB1B1440000000102F06C510000000000BC1B1440000000002E06C5100000000C0CCFC6A4000000018199D9C501064C6574746572A901406AA427D84144352EEE3F47D11959985D5B1D08148C4D081C195B88185CDCDA59DB9B5
310
95B9D1CCB98DD18A30EDE3B1BBFDBC0FC1D572C8D6D0C833F1A2B3054E9249F0FD074C61796F75743140501A97D7DB4AA43C31EFF91E46EBA53B71EFD1B32A15809809100B2537F8EAD447D02A6A6A00003729484F0C2FC0000F06EE366FABE00201F20307FD62FC08B65BF116002440160B7F435600079000000004000C06
310
23E0
330
475
330
2C
340
0
340
0
 94
        0
  0
ACAD_PROXY_OBJECT
  5
4A0
102
{ACAD_REACTORS
330
49E
102
}
100
AcDbProxyObject
 90
      499
 91
      503
 93
      924
310
91D4850204C617365724A65742035303030205365726965732050434C20362C01AAAAAAAAA547D11959985D5B1D08148C4D081C195B88185CDCDA59DB9B595B9D1CCB98DD18A69054D6F64656C901A800000000000000000000000000000000000000000000A1000000000000008902A6A6AAAA0
330
478
330
0
340
0
340
0
 94
        0
  0
MLINESTYLE
  5
47C
102
{ACAD_REACTORS
330
47B
102
}
100
AcDbMlineStyle
  2
STANDARD
 70
     0
  3

 62
   256
 51
90.0
 52
90.0
 71
     2
 49
0.5
 62
   256
  6
BYLAYER
 49
-0.5
 62
   256
  6
BYLAYER
  0
ACAD_PROXY_OBJECT
  5
49D
102
{ACAD_REACTORS
330
49C
102
}
100
AcDbProxyObject
 90
      499
 91
      502
 93
        0
 94
        0
  0
XRECORD
  5
84D
102
{ACAD_REACTORS
330
843
102
}
100
AcDbXrecord
 90
        0
  0
XRECORD
  5
851
102
{ACAD_REACTORS
330
843
102
}
100
AcDbXrecord
1000
DSTYLE
1002
{
1070
   276
 70
     2
1070
   277
 70
     5
1070
   279
 70
     2
1002
}
  0
XRECORD
  5
84E
102
{ACAD_REACTORS
330
843
102
}
100
AcDbXrecord
  1
{6E0CF4B5-225E-11D4-A150-00A0CC3303EC}
  0
XRECORD
  5
846
102
{ACAD_REACTORS
330
843
102
}
100
AcDbXrecord
  1

  0
XRECORD
  5
84C
102
{ACAD_REACTORS
330
843
102
}
100
AcDbXrecord
 90
        0
  0
XRECORD
  5
848
102
{ACAD_REACTORS
330
843
102
}
100
AcDbXrecord
340
49E
  0
XRECORD
  5
84B
102
{ACAD_REACTORS
330
843
102
}
100
AcDbXrecord
 90
    14877
  0
XRECORD
  5
849
102
{ACAD_REACTORS
330
843
102
}
100
AcDbXrecord
340
49F
  0
XRECORD
  5
84A
102
{ACAD_REACTORS
330
843
102
}
100
AcDbXrecord
340
49C
  0
XRECORD
  5
850
102
{ACAD_REACTORS
330
843
102
}
100
AcDbXrecord
 40
0.0
  0
XRECORD
  5
854
102
{ACAD_REACTORS
330
843
102
}
100
AcDbXrecord
340
0
  0
XRECORD
  5
85A
102
{ACAD_REACTORS
330
843
102
}
100
AcDbXrecord
 10
0.0
 20
0.0
 30
0.0
  0
XRECORD
  5
856
102
{ACAD_REACTORS
330
843
102
}
100
AcDbXrecord
 10
0.0
 20
0.0
 30
0.0
  0
XRECORD
  5
859
102
{ACAD_REACTORS
330
843
102
}
100
AcDbXrecord
 10
0.0
 20
0.0
 30
0.0
  0
XRECORD
  5
857
102
{ACAD_REACTORS
330
843
102
}
100
AcDbXrecord
 10
0.0
 20
0.0
 30
0.0
  0
XRECORD
  5
858
102
{ACAD_REACTORS
330
843
102
}
100
AcDbXrecord
 10
0.0
 20
0.0
 30
0.0
  0
XRECORD
  5
855
102
{ACAD_REACTORS
330
843
102
}
100
AcDbXrecord
 10
0.0
 20
0.0
 30
0.0
  0
XRECORD
  5
852
102
{ACAD_REACTORS
330
843
102
}
100
AcDbXrecord
340
0
  0
XRECORD
  5
853
102
{ACAD_REACTORS
330
843
102
}
100
AcDbXrecord
 70
     0
  0
XRECORD
  5
847
102
{ACAD_REACTORS
330
843
102
}
100
AcDbXrecord
  1

  0
XRECORD
  5
844
102
{ACAD_REACTORS
330
843
102
}
100
AcDbXrecord
 90
        1
  0
XRECORD
  5
845
102
{ACAD_REACTORS
330
843
102
}
100
AcDbXrecord
 90
       70
  0
XRECORD
  5
85D
102
{ACAD_REACTORS
330
843
102
}
100
AcDbXrecord
340
0
  0
XRECORD
  5
863
102
{ACAD_REACTORS
330
843
102
}
100
AcDbXrecord
 10
0.0
 20
0.0
 30
0.0
  0
XRECORD
  5
85F
102
{ACAD_REACTORS
330
843
102
}
100
AcDbXrecord
 10
0.0
 20
0.0
 30
0.0
  0
XRECORD
  5
862
102
{ACAD_REACTORS
330
843
102
}
100
AcDbXrecord
 10
0.0
 20
0.0
 30
0.0
  0
XRECORD
  5
860
102
{ACAD_REACTORS
330
843
102
}
100
AcDbXrecord
 10
0.0
 20
0.0
 30
0.0
  0
XRECORD
  5
861
102
{ACAD_REACTORS
330
843
102
}
100
AcDbXrecord
 10
0.0
 20
0.0
 30
0.0
  0
XRECORD
  5
85E
102
{ACAD_REACTORS
330
843
102
}
100
AcDbXrecord
 10
0.0
 20
0.0
 30
0.0
  0
XRECORD
  5
85B
102
{ACAD_REACTORS
330
843
102
}
100
AcDbXrecord
340
0
  0
XRECORD
  5
85C
102
{ACAD_REACTORS
330
843
102
}
100
AcDbXrecord
 70
     0
  0
XRECORD
  5
84F
102
{ACAD_REACTORS
330
843
102
}
100
AcDbXrecord
  1
{B292F68C-679C-4C65-8873-5EC79767F5F8}
  0
DICTIONARYVAR
  5
48E
102
{ACAD_REACTORS
330
48D
102
}
100
DictionaryVariables
280
     0
  1
0
  0
XRECORD
  5
875
102
{ACAD_REACTORS
330
874
102
}
100
AcDbXrecord
102
EXTNAMES
  1
LAYOUT1
  2
Layout1
  1
MODEL
  2
Model
  0
ENDSEC
  0
EOF
