  0
SECTION
  2
HEADER
  9
$ACADVER
  1
AC1014
  9
$ACADMAINTVER
 70
     8
  9
$DWGCODEPAGE
  3
ANSI_1252
  9
$INSBASE
 10
0.0
 20
0.0
 30
0.0
  9
$EXTMIN
 10
-1.764716
 20
-13.204634
 30
0.0
  9
$EXTMAX
 10
4.707342
 20
2.072534
 30
6.2355
  9
$LIMMIN
 10
0.0
 20
0.0
  9
$LIMMAX
 10
12.0
 20
9.0
  9
$ORTHOMODE
 70
     0
  9
$REGENMODE
 70
     1
  9
$FILLMODE
 70
     1
  9
$QTEXTMODE
 70
     0
  9
$MIRRTEXT
 70
     1
  9
$DRAGMODE
 70
     2
  9
$LTSCALE
 40
1.0
  9
$OSMODE
 70
    37
  9
$ATTMODE
 70
     1
  9
$TEXTSIZE
 40
0.12
  9
$TRACEWID
 40
0.05
  9
$TEXTSTYLE
  7
STANDARD
  9
$CLAYER
  8
0
  9
$CELTYPE
  6
BYLAYER
  9
$CECOLOR
 62
   256
  9
$CELTSCALE
 40
1.0
  9
$DELOBJ
 70
     1
  9
$DISPSILH
 70
     0
  9
$DIMSCALE
 40
1.0
  9
$DIMASZ
 40
0.18
  9
$DIMEXO
 40
0.0625
  9
$DIMDLI
 40
0.375
  9
$DIMRND
 40
0.0
  9
$DIMDLE
 40
0.0
  9
$DIMEXE
 40
0.18
  9
$DIMTP
 40
0.0
  9
$DIMTM
 40
0.0
  9
$DIMTXT
 40
0.18
  9
$DIMCEN
 40
0.09
  9
$DIMTSZ
 40
0.0
  9
$DIMTOL
 70
     0
  9
$DIMLIM
 70
     0
  9
$DIMTIH
 70
     0
  9
$DIMTOH
 70
     1
  9
$DIMSE1
 70
     0
  9
$DIMSE2
 70
     0
  9
$DIMTAD
 70
     0
  9
$DIMZIN
 70
     4
  9
$DIMBLK
  1

  9
$DIMASO
 70
     1
  9
$DIMSHO
 70
     1
  9
$DIMPOST
  1

  9
$DIMAPOST
  1

  9
$DIMALT
 70
     1
  9
$DIMALTD
 70
     1
  9
$DIMALTF
 40
25.4
  9
$DIMLFAC
 40
1.0
  9
$DIMTOFL
 70
     0
  9
$DIMTVP
 40
0.0
  9
$DIMTIX
 70
     0
  9
$DIMSOXD
 70
     0
  9
$DIMSAH
 70
     0
  9
$DIMBLK1
  1

  9
$DIMBLK2
  1

  9
$DIMSTYLE
  2
ABECAD_3D
  9
$DIMCLRD
 70
     0
  9
$DIMCLRE
 70
     0
  9
$DIMCLRT
 70
     0
  9
$DIMTFAC
 40
1.5
  9
$DIMGAP
 40
0.09
  9
$DIMJUST
 70
     0
  9
$DIMSD1
 70
     0
  9
$DIMSD2
 70
     0
  9
$DIMTOLJ
 70
     1
  9
$DIMTZIN
 70
     4
  9
$DIMALTZ
 70
     4
  9
$DIMALTTZ
 70
     4
  9
$DIMFIT
 70
     3
  9
$DIMUPT
 70
     0
  9
$DIMUNIT
 70
     7
  9
$DIMDEC
 70
     6
  9
$DIMTDEC
 70
     6
  9
$DIMALTU
 70
     2
  9
$DIMALTTD
 70
     1
  9
$DIMTXSTY
  7
STANDARD
  9
$DIMAUNIT
 70
     0
  9
$LUNITS
 70
     2
  9
$LUPREC
 70
     4
  9
$SKETCHINC
 40
0.1
  9
$FILLETRAD
 40
0.0
  9
$AUNITS
 70
     0
  9
$AUPREC
 70
     0
  9
$MENU
  1
ACAD
  9
$ELEVATION
 40
0.0
  9
$PELEVATION
 40
0.0
  9
$THICKNESS
 40
0.0
  9
$LIMCHECK
 70
     0
  9
$BLIPMODE
 70
     0
  9
$CHAMFERA
 40
0.0
  9
$CHAMFERB
 40
0.0
  9
$CHAMFERC
 40
0.0
  9
$CHAMFERD
 40
0.0
  9
$SKPOLY
 70
     0
  9
$TDCREATE
 40
2451670.444776967
  9
$TDUPDATE
 40
2452010.483901851
  9
$TDINDWG
 40
0.0079583333
  9
$TDUSRTIMER
 40
0.0079583333
  9
$USRTIMER
 70
     1
  9
$ANGBASE
 50
0.0
  9
$ANGDIR
 70
     0
  9
$PDMODE
 70
     3
  9
$PDSIZE
 40
0.09
  9
$PLINEWID
 40
0.0
  9
$COORDS
 70
     1
  9
$SPLFRAME
 70
     1
  9
$SPLINETYPE
 70
     6
  9
$SPLINESEGS
 70
     8
  9
$ATTDIA
 70
     0
  9
$ATTREQ
 70
     1
  9
$HANDLING
 70
     1
  9
$HANDSEED
  5
45BCF
  9
$SURFTAB1
 70
     6
  9
$SURFTAB2
 70
     6
  9
$SURFTYPE
 70
     6
  9
$SURFU
 70
     6
  9
$SURFV
 70
     6
  9
$UCSNAME
  2

  9
$UCSORG
 10
0.0
 20
0.0
 30
0.0
  9
$UCSXDIR
 10
1.0
 20
0.0
 30
0.0
  9
$UCSYDIR
 10
0.0
 20
1.0
 30
0.0
  9
$PUCSNAME
  2

  9
$PUCSORG
 10
0.0
 20
0.0
 30
0.0
  9
$PUCSXDIR
 10
1.0
 20
0.0
 30
0.0
  9
$PUCSYDIR
 10
0.0
 20
1.0
 30
0.0
  9
$USERI1
 70
     0
  9
$USERI2
 70
     0
  9
$USERI3
 70
     0
  9
$USERI4
 70
     0
  9
$USERI5
 70
     0
  9
$USERR1
 40
0.0
  9
$USERR2
 40
0.0
  9
$USERR3
 40
0.0
  9
$USERR4
 40
0.0
  9
$USERR5
 40
0.0
  9
$WORLDVIEW
 70
     1
  9
$SHADEDGE
 70
     3
  9
$SHADEDIF
 70
    70
  9
$TILEMODE
 70
     1
  9
$MAXACTVP
 70
    16
  9
$PINSBASE
 10
0.0
 20
0.0
 30
0.0
  9
$PLIMCHECK
 70
     0
  9
$PEXTMIN
 10
1.000000E+20
 20
1.000000E+20
 30
1.000000E+20
  9
$PEXTMAX
 10
-1.000000E+20
 20
-1.000000E+20
 30
-1.000000E+20
  9
$PLIMMIN
 10
0.0
 20
0.0
  9
$PLIMMAX
 10
12.0
 20
9.0
  9
$UNITMODE
 70
     0
  9
$VISRETAIN
 70
     0
  9
$PLINEGEN
 70
     0
  9
$PSLTSCALE
 70
     1
  9
$TREEDEPTH
 70
  3020
  9
$PICKSTYLE
 70
     1
  9
$CMLSTYLE
  2
STANDARD
  9
$CMLJUST
 70
     0
  9
$CMLSCALE
 40
1.0
  9
$PROXYGRAPHICS
 70
     1
  9
$MEASUREMENT
 70
     0
  0
ENDSEC
  0
SECTION
  2
CLASSES
  0
CLASS
  1
DICTIONARYVAR
  2
AcDbDictionaryVar
  3
"AutoCAD"
 90
        0
280
     0
281
     0
  0
CLASS
  1
ACDBDICTIONARYWDFLT
  2
AcDbDictionaryWithDefault
  3
AutoCAD 2000
 90
        0
280
     0
281
     0
  0
CLASS
  1
ACDBPLACEHOLDER
  2
AcDbPlaceHolder
  3
AutoCAD 2000
 90
        0
280
     0
281
     0
  0
CLASS
  1
LAYOUT
  2
AcDbLayout
  3
AutoCAD 2000
 90
        0
280
     0
281
     0
  0
CLASS
  1
LONG_TRANSACTION
  2
AcDbLongTransaction
  3
AutoCAD 2000
 90
        0
280
     0
281
     0
  0
CLASS
  1
LWPOLYLINE
  2
AcDbPolyline
  3
"AutoCAD"
 90
        0
280
     0
281
     1
  0
CLASS
  1
HATCH
  2
AcDbHatch
  3
"ACAD_SEDONA"
 90
        0
280
     0
281
     1
  0
CLASS
  1
XRECORD
  2
AcDbXrecord
  3
"<Built In>"
 90
        0
280
     0
281
     0
  0
CLASS
  1
LONG_TRANSACTION
  2
AcDbLongTransaction
  3
AutoCAD 2000
 90
        0
280
     0
281
     0
  0
CLASS
  1
LWPOLYLINE
  2
AcDbPolyline
  3
"AutoCAD"
 90
        0
280
     0
281
     1
  0
CLASS
  1
HATCH
  2
AcDbHatch
  3
"ACAD_SEDONA"
 90
        0
280
     0
281
     1
  0
CLASS
  1
XRECORD
  2
AcDbXrecord
  3
"<Built In>"
 90
        0
280
     0
281
     0
  0
CLASS
  1
LONG_TRANSACTION
  2
AcDbLongTransaction
  3
AutoCAD 2000
 90
        0
280
     0
281
     0
  0
CLASS
  1
LWPOLYLINE
  2
AcDbPolyline
  3
"AutoCAD"
 90
        0
280
     0
281
     1
  0
CLASS
  1
HATCH
  2
AcDbHatch
  3
"ACAD_SEDONA"
 90
        0
280
     0
281
     1
  0
CLASS
  1
XRECORD
  2
AcDbXrecord
  3
"<Built In>"
 90
        0
280
     0
281
     0
  0
CLASS
  1
LONG_TRANSACTION
  2
AcDbLongTransaction
  3
AutoCAD 2000
 90
        0
280
     0
281
     0
  0
CLASS
  1
LWPOLYLINE
  2
AcDbPolyline
  3
"AutoCAD"
 90
        0
280
     0
281
     1
  0
CLASS
  1
HATCH
  2
AcDbHatch
  3
"ACAD_SEDONA"
 90
        0
280
     0
281
     1
  0
CLASS
  1
XRECORD
  2
AcDbXrecord
  3
"<Built In>"
 90
        0
280
     0
281
     0
  0
CLASS
  1
LONG_TRANSACTION
  2
AcDbLongTransaction
  3
AutoCAD 2000
 90
        0
280
     0
281
     0
  0
CLASS
  1
LWPOLYLINE
  2
AcDbPolyline
  3
"AutoCAD"
 90
        0
280
     0
281
     1
  0
CLASS
  1
HATCH
  2
AcDbHatch
  3
"ACAD_SEDONA"
 90
        0
280
     0
281
     1
  0
CLASS
  1
XRECORD
  2
AcDbXrecord
  3
"<Built In>"
 90
        0
280
     0
281
     0
  0
ENDSEC
  0
SECTION
  2
TABLES
  0
TABLE
  2
VPORT
  5
458C7
100
AcDbSymbolTable
 70
     1
  0
VPORT
  5
45B9A
102
{ACAD_XDICTIONARY
360
45B9F
102
}
100
AcDbSymbolTableRecord
100
AcDbViewportTableRecord
  2
*ACTIVE
 70
     0
 10
0.0
 20
0.0
 11
1.0
 21
1.0
 12
1.471471
 22
-5.565861
 13
0.0
 23
0.0
 14
0.25
 24
0.25
 15
0.25
 25
0.25
 16
0.0
 26
0.0
 36
1.0
 17
0.0
 27
0.0
 37
0.0
 40
15.535688
 41
1.960674
 42
50.0
 43
0.0
 44
0.0
 50
0.0
 51
0.0
 71
     0
 72
 20000
 73
     1
 74
     1
 75
     0
 76
     0
 77
     0
 78
     0
  0
ENDTAB
  0
TABLE
  2
LTYPE
  5
458C4
100
AcDbSymbolTable
 70
     1
  0
LTYPE
  5
458D0
100
AcDbSymbolTableRecord
100
AcDbLinetypeTableRecord
  2
BYBLOCK
 70
     0
  3

 72
    65
 73
     0
 40
0.0
  0
LTYPE
  5
458D1
100
AcDbSymbolTableRecord
100
AcDbLinetypeTableRecord
  2
BYLAYER
 70
     0
  3

 72
    65
 73
     0
 40
0.0
  0
LTYPE
  5
458D2
100
AcDbSymbolTableRecord
100
AcDbLinetypeTableRecord
  2
CONTINUOUS
 70
     0
  3
Solid line
 72
    65
 73
     0
 40
0.0
  0
ENDTAB
  0
TABLE
  2
LAYER
  5
458C1
100
AcDbSymbolTable
 70
     7
  0
LAYER
  5
458CD
100
AcDbSymbolTableRecord
100
AcDbLayerTableRecord
  2
0
 70
     0
 62
     7
  6
CONTINUOUS
  0
LAYER
  5
458EA
100
AcDbSymbolTableRecord
100
AcDbLayerTableRecord
  2
DIMS-MTG-HOLES
 70
     0
 62
     1
  6
CONTINUOUS
  0
LAYER
  5
458EB
100
AcDbSymbolTableRecord
100
AcDbLayerTableRecord
  2
ATTRIBUTES
 70
     0
 62
     7
  6
CONTINUOUS
  0
LAYER
  5
45949
102
{ACAD_XDICTIONARY
360
45BCA
102
}
100
AcDbSymbolTableRecord
100
AcDbLayerTableRecord
  2
AREA1
 70
     0
 62
    -7
  6
CONTINUOUS
  0
LAYER
  5
4594A
100
AcDbSymbolTableRecord
100
AcDbLayerTableRecord
  2
SCALE
 70
     0
 62
    -7
  6
CONTINUOUS
  0
LAYER
  5
45ADE
102
{ACAD_XDICTIONARY
360
45B9D
102
}
100
AcDbSymbolTableRecord
100
AcDbLayerTableRecord
  2
DEFPOINTS
 70
     0
 62
    -7
  6
CONTINUOUS
  0
LAYER
  5
45B2F
100
AcDbSymbolTableRecord
100
AcDbLayerTableRecord
  2
SNAP_POINTS
 70
     0
 62
    -1
  6
CONTINUOUS
  0
ENDTAB
  0
TABLE
  2
STYLE
  5
458C2
100
AcDbSymbolTable
 70
     1
  0
STYLE
  5
458CE
100
AcDbSymbolTableRecord
100
AcDbTextStyleTableRecord
  2
STANDARD
 70
     0
 40
0.0
 41
1.0
 50
0.0
 71
     0
 42
0.12
  3
txt
  4

  0
ENDTAB
  0
TABLE
  2
VIEW
  5
458C5
100
AcDbSymbolTable
 70
     0
  0
ENDTAB
  0
TABLE
  2
UCS
  5
458C6
100
AcDbSymbolTable
 70
     0
  0
ENDTAB
  0
TABLE
  2
APPID
  5
458C8
100
AcDbSymbolTable
 70
     2
  0
APPID
  5
458CF
100
AcDbSymbolTableRecord
100
AcDbRegAppTableRecord
  2
ACAD
 70
     0
  0
APPID
  5
4597B
100
AcDbSymbolTableRecord
100
AcDbRegAppTableRecord
  2
AME_SOL
 70
     0
  0
ENDTAB
  0
TABLE
  2
DIMSTYLE
  5
458C9
100
AcDbSymbolTable
 70
     2
  0
DIMSTYLE
105
458F1
102
{ACAD_XDICTIONARY
360
45BC4
102
}
100
AcDbSymbolTableRecord
100
AcDbDimStyleTableRecord
  2
ABECAD
 70
     0
  3

  4

  5

  6

  7

 40
1.0
 41
0.18
 42
0.0625
 43
0.375
 44
0.18
 45
0.0
 46
0.0
 47
0.0
 48
0.0
140
0.18
141
0.09
142
0.0
143
25.4
144
1.0
145
0.0
146
1.5
147
0.09
 71
     0
 72
     0
 73
     0
 74
     1
 75
     0
 76
     0
 77
     0
 78
     4
170
     1
171
     1
172
     0
173
     0
174
     0
175
     0
176
     0
177
     0
178
     0
270
     7
271
     6
272
     6
273
     2
274
     1
340
458CE
275
     0
280
     0
281
     0
282
     0
283
     1
284
     4
285
     4
286
     4
287
     3
288
     0
  0
DIMSTYLE
105
458F6
102
{ACAD_XDICTIONARY
360
45BC6
102
}
102
{ACAD_REACTORS
330
45ADD
330
45AEC
102
}
100
AcDbSymbolTableRecord
100
AcDbDimStyleTableRecord
  2
ABECAD_3D
 70
     0
  3

  4

  5

  6

  7

 40
1.0
 41
0.18
 42
0.0625
 43
0.375
 44
0.18
 45
0.0
 46
0.0
 47
0.0
 48
0.0
140
0.18
141
0.09
142
0.0
143
25.4
144
1.0
145
0.0
146
1.5
147
0.09
 71
     0
 72
     0
 73
     0
 74
     1
 75
     0
 76
     0
 77
     0
 78
     4
170
     1
171
     1
172
     0
173
     0
174
     0
175
     0
176
     0
177
     0
178
     0
270
     7
271
     6
272
     6
273
     2
274
     1
340
458CE
275
     0
280
     0
281
     0
282
     0
283
     1
284
     4
285
     4
286
     4
287
     3
288
     0
  0
ENDTAB
  0
TABLE
  2
BLOCK_RECORD
  5
458C0
100
AcDbSymbolTable
 70
     3
  0
BLOCK_RECORD
  5
458D6
102
{ACAD_XDICTIONARY
360
4592C
102
}
100
AcDbSymbolTableRecord
100
AcDbBlockTableRecord
  2
*MODEL_SPACE
  0
BLOCK_RECORD
  5
458D3
102
{ACAD_XDICTIONARY
360
4592A
102
}
100
AcDbSymbolTableRecord
100
AcDbBlockTableRecord
  2
*PAPER_SPACE
  0
BLOCK_RECORD
  5
4593B
102
{ACAD_XDICTIONARY
360
45B9B
102
}
100
AcDbSymbolTableRecord
100
AcDbBlockTableRecord
  2
SCALE
  0
BLOCK_RECORD
  5
45ADF
100
AcDbSymbolTableRecord
100
AcDbBlockTableRecord
  2
*D1
  0
BLOCK_RECORD
  5
45AED
100
AcDbSymbolTableRecord
100
AcDbBlockTableRecord
  2
*D2
  0
ENDTAB
  0
ENDSEC
  0
SECTION
  2
BLOCKS
  0
BLOCK
  5
458DF
100
AcDbEntity
  8
0
100
AcDbBlockBegin
  2
*MODEL_SPACE
 70
     0
 10
0.0
 20
0.0
 30
0.0
  3
*MODEL_SPACE
  1

  0
ENDBLK
  5
458E0
100
AcDbEntity
  8
0
100
AcDbBlockEnd
  0
BLOCK
  5
458DD
100
AcDbEntity
 67
     1
  8
0
100
AcDbBlockBegin
  2
*PAPER_SPACE
 70
     0
 10
0.0
 20
0.0
 30
0.0
  3
*PAPER_SPACE
  1

  0
ENDBLK
  5
458DE
100
AcDbEntity
 67
     1
  8
0
100
AcDbBlockEnd
  0
BLOCK
  5
45947
100
AcDbEntity
  8
0
100
AcDbBlockBegin
  2
SCALE
 70
     0
 10
0.0
 20
0.0
 30
0.0
  3
SCALE
  1

  0
LWPOLYLINE
  5
4595C
100
AcDbEntity
  8
SCALE
100
AcDbPolyline
 90
        4
 70
     1
 43
0.0
 10
0.0
 20
0.0
 10
1.135629
 20
0.0
 10
1.135629
 20
-0.84161
 10
0.0
 20
-0.84161
  0
LINE
  5
4595D
100
AcDbEntity
  8
SCALE
100
AcDbLine
 10
0.057999
 20
-0.380078
 30
0.0
 11
1.057999
 21
-0.380078
 31
0.0
  0
LINE
  5
4595E
100
AcDbEntity
  8
SCALE
100
AcDbLine
 10
0.057999
 20
-0.480078
 30
0.0
 11
0.057999
 21
-0.280078
 31
0.0
  0
TEXT
  5
4595F
100
AcDbEntity
  8
SCALE
100
AcDbText
 10
0.117421
 20
-0.634339
 30
0.0
 40
0.0625
  1
[10mm]
100
AcDbText
  0
LINE
  5
45960
100
AcDbEntity
  8
SCALE
100
AcDbLine
 10
0.057999
 20
-0.680078
 30
0.0
 11
0.451699
 21
-0.680078
 31
0.0
  0
LINE
  5
45961
100
AcDbEntity
  8
SCALE
100
AcDbLine
 10
0.057999
 20
-0.780078
 30
0.0
 11
0.057999
 21
-0.580078
 31
0.0
  0
LINE
  5
45962
100
AcDbEntity
  8
SCALE
100
AcDbLine
 10
0.451699
 20
-0.780078
 30
0.0
 11
0.451699
 21
-0.580078
 31
0.0
  0
TEXT
  5
45963
100
AcDbEntity
  8
SCALE
100
AcDbText
 10
0.059529
 20
-0.105201
 30
0.0
 40
0.0625
  1
SCALE:
100
AcDbText
  0
TEXT
  5
45964
100
AcDbEntity
  8
SCALE
100
AcDbText
 10
0.421282
 20
-0.31103
 30
0.0
 40
0.0625
  1
1 Inch
100
AcDbText
  0
LINE
  5
45965
100
AcDbEntity
  8
SCALE
100
AcDbLine
 10
1.057999
 20
-0.480078
 30
0.0
 11
1.057999
 21
-0.280078
 31
0.0
  0
LINE
  5
45966
100
AcDbEntity
  8
SCALE
100
AcDbLine
 10
1.057999
 20
-0.380078
 30
0.0
 11
1.057999
 21
-0.480078
 31
0.0
  0
ENDBLK
  5
45948
100
AcDbEntity
  8
0
100
AcDbBlockEnd
  0
BLOCK
  5
45AEA
100
AcDbEntity
  8
0
100
AcDbBlockBegin
  2
*D1
 70
     1
 10
0.0
 20
0.0
 30
0.0
  3
*D1
  1

  0
LINE
  5
45AE0
100
AcDbEntity
  8
AREA1
 62
     0
100
AcDbLine
 10
1.8613
 20
-11.96
 30
0.0
 11
4.707342
 21
-11.96
 31
0.0
1001
ACAD
1000
RTLwPs
1070
   158
  0
LINE
  5
45AE1
100
AcDbEntity
  8
AREA1
 62
     0
100
AcDbLine
 10
1.8613
 20
0.4439
 30
0.0
 11
4.707342
 21
0.4439
 31
0.0
1001
ACAD
1000
RTLwPs
1070
   158
  0
LINE
  5
45AE2
100
AcDbEntity
  8
AREA1
 62
     0
100
AcDbLine
 10
4.527342
 20
-11.78
 30
0.0
 11
4.527342
 21
-7.01805
 31
0.0
1001
ACAD
1000
RTLwPs
1070
   158
  0
LINE
  5
45AE3
100
AcDbEntity
  8
AREA1
 62
     0
100
AcDbLine
 10
4.527342
 20
0.2639
 30
0.0
 11
4.527342
 21
-4.49805
 31
0.0
1001
ACAD
1000
RTLwPs
1070
   158
  0
SOLID
  5
45AE4
100
AcDbEntity
  8
AREA1
 62
     0
100
AcDbTrace
 10
4.497342
 20
-11.78
 30
0.0
 11
4.557342
 21
-11.78
 31
0.0
 12
4.527342
 22
-11.96
 32
0.0
 13
4.527342
 23
-11.96
 33
0.0
  0
SOLID
  5
45AE5
100
AcDbEntity
  8
AREA1
 62
     0
100
AcDbTrace
 10
4.497342
 20
0.2639
 30
0.0
 11
4.557342
 21
0.2639
 31
0.0
 12
4.527342
 22
0.4439
 32
0.0
 13
4.527342
 23
0.4439
 33
0.0
  0
MTEXT
  5
45AE6
100
AcDbEntity
  8
AREA1
 62
     0
100
AcDbMText
 10
4.527342
 20
-5.75805
 30
0.0
 40
0.18
 41
0.0
 71
     5
 72
     1
  1
\A1;12 13/32 [315.1]
 11
0.0
 21
1.0
 31
0.0
1001
ACAD
1000
MTEXTBEGIN
1070
    73
1070
     1
1070
    44
1040
1.0
1070
    74
1070
     0
1000
MTEXTEND
1000
MTEXTBEGIN
1070
    73
1070
     1
1070
    44
1040
1.0
1070
    74
1070
     0
1000
MTEXTEND
1000
MTEXTBEGIN
1070
    73
1070
     1
1070
    44
1040
1.0
1070
    74
1070
     0
1000
MTEXTEND
1000
MTEXTBEGIN
1070
    73
1070
     1
1070
    44
1040
1.0
1070
    74
1070
     0
1000
MTEXTEND
  0
POINT
  5
45AE7
100
AcDbEntity
  8
DEFPOINTS
 62
     0
100
AcDbPoint
 10
1.7988
 20
-11.96
 30
0.0
  0
POINT
  5
45AE8
100
AcDbEntity
  8
DEFPOINTS
 62
     0
100
AcDbPoint
 10
1.7988
 20
0.4439
 30
0.0
  0
POINT
  5
45AE9
100
AcDbEntity
  8
DEFPOINTS
 62
     0
100
AcDbPoint
 10
4.527342
 20
0.4439
 30
0.0
  0
ENDBLK
  5
45AEB
100
AcDbEntity
  8
0
100
AcDbBlockEnd
  0
BLOCK
  5
45AF8
100
AcDbEntity
  8
0
100
AcDbBlockBegin
  2
*D2
 70
     1
 10
0.0
 20
0.0
 30
0.0
  3
*D2
  1

  0
LINE
  5
45AEE
100
AcDbEntity
  8
AREA1
 62
     0
100
AcDbLine
 10
2.7588
 20
-0.3595
 30
0.0
 11
2.7588
 21
2.072534
 31
0.0
1001
ACAD
1000
RTLwPs
1070
   158
  0
LINE
  5
45AEF
100
AcDbEntity
  8
AREA1
 62
     0
100
AcDbLine
 10
-1.7512
 20
0.5064
 30
0.0
 11
-1.7512
 21
2.072534
 31
0.0
1001
ACAD
1000
RTLwPs
1070
   158
  0
LINE
  5
45AF0
100
AcDbEntity
  8
AREA1
 62
     0
100
AcDbLine
 10
2.5788
 20
1.892534
 30
0.0
 11
1.7338
 21
1.892534
 31
0.0
1001
ACAD
1000
RTLwPs
1070
   158
  0
LINE
  5
45AF1
100
AcDbEntity
  8
AREA1
 62
     0
100
AcDbLine
 10
-1.5712
 20
1.892534
 30
0.0
 11
-0.7262
 21
1.892534
 31
0.0
1001
ACAD
1000
RTLwPs
1070
   158
  0
SOLID
  5
45AF2
100
AcDbEntity
  8
AREA1
 62
     0
100
AcDbTrace
 10
2.5788
 20
1.922534
 30
0.0
 11
2.5788
 21
1.862534
 31
0.0
 12
2.7588
 22
1.892534
 32
0.0
 13
2.7588
 23
1.892534
 33
0.0
  0
SOLID
  5
45AF3
100
AcDbEntity
  8
AREA1
 62
     0
100
AcDbTrace
 10
-1.5712
 20
1.922534
 30
0.0
 11
-1.5712
 21
1.862534
 31
0.0
 12
-1.7512
 22
1.892534
 32
0.0
 13
-1.7512
 23
1.892534
 33
0.0
  0
MTEXT
  5
45AF4
100
AcDbEntity
  8
AREA1
 62
     0
100
AcDbMText
 10
0.5038
 20
1.892534
 30
0.0
 40
0.18
 41
0.0
 71
     5
 72
     1
  1
\A1;4 33/64 [114.6]
1001
ACAD
1000
MTEXTBEGIN
1070
    73
1070
     1
1070
    44
1040
1.0
1070
    74
1070
     0
1000
MTEXTEND
1000
MTEXTBEGIN
1070
    73
1070
     1
1070
    44
1040
1.0
1070
    74
1070
     0
1000
MTEXTEND
1000
MTEXTBEGIN
1070
    73
1070
     1
1070
    44
1040
1.0
1070
    74
1070
     0
1000
MTEXTEND
1000
MTEXTBEGIN
1070
    73
1070
     1
1070
    44
1040
1.0
1070
    74
1070
     0
1000
MTEXTEND
  0
POINT
  5
45AF5
100
AcDbEntity
  8
DEFPOINTS
 62
     0
100
AcDbPoint
 10
2.7588
 20
-0.422
 30
0.126
  0
POINT
  5
45AF6
100
AcDbEntity
  8
DEFPOINTS
 62
     0
100
AcDbPoint
 10
-1.7512
 20
0.4439
 30
0.0
  0
POINT
  5
45AF7
100
AcDbEntity
  8
DEFPOINTS
 62
     0
100
AcDbPoint
 10
-1.7512
 20
1.892534
 30
0.0
  0
ENDBLK
  5
45AF9
100
AcDbEntity
  8
0
100
AcDbBlockEnd
  0
ENDSEC
  0
SECTION
  2
ENTITIES
  0
ATTDEF
  5
1
100
AcDbEntity
  8
ATTRIBUTES
100
AcDbText
 10
-1.592099
 20
-8.765385
 30
0.0
 40
0.18
  1
ALLEN-BRADLEY
100
AcDbAttributeDefinition
  3
MANUFACTURER NAME?
  2
AC_VND_LABEL
 70
     1
  0
ATTDEF
  5
2
100
AcDbEntity
  8
ATTRIBUTES
100
AcDbText
 10
-1.592099
 20
-9.140385
 30
0.0
 40
0.18
  1
1771-P7
100
AcDbAttributeDefinition
  3
CATALOG NUMBER?
  2
AC_PART_NO
 70
     1
  0
ATTDEF
  5
3
100
AcDbEntity
  8
ATTRIBUTES
100
AcDbText
 10
-1.592099
 20
-9.515385
 30
0.0
 40
0.18
  1
1771-P7: POWER SUPPLY, STAND-ALONE, 16A, 120/220V AC
100
AcDbAttributeDefinition
  3
PART DESCRIPTION?
  2
AC_DESCRIPTION
 70
     1
  0
ATTDEF
  5
4
100
AcDbEntity
  8
ATTRIBUTES
100
AcDbText
 10
-1.592099
 20
-9.890385
 30
0.0
 40
0.18
  1

100
AcDbAttributeDefinition
  3
DEVICE ID?
  2
DEVICE_ID
 70
     1
  0
ATTDEF
  5
5
100
AcDbEntity
  8
ATTRIBUTES
100
AcDbText
 10
-1.592099
 20
-10.265385
 30
0.0
 40
0.18
  1

100
AcDbAttributeDefinition
  3
CUSTOMER PART NUMBER?
  2
AC_CPART_NO
 70
     1
  0
ATTDEF
  5
6
100
AcDbEntity
  8
ATTRIBUTES
100
AcDbText
 10
-1.592099
 20
-10.640385
 30
0.0
 40
0.18
  1

100
AcDbAttributeDefinition
  3
CUSTOMER NOTE?
  2
AC_NOTE
 70
     1
  0
ATTDEF
  5
7
100
AcDbEntity
  8
ATTRIBUTES
100
AcDbText
 10
-1.592099
 20
-11.015385
 30
0.0
 40
0.18
  1

100
AcDbAttributeDefinition
  3
FASTENER DATA?
  2
FASTENER
 70
     1
  0
ATTDEF
  5
8
100
AcDbEntity
  8
ATTRIBUTES
100
AcDbText
 10
-1.592099
 20
-11.390385
 30
0.0
 40
0.18
  1
INCH
100
AcDbAttributeDefinition
  3
UNIT OF SCALE?
  2
AC_SCALE_UNIT
 70
     1
  0
ATTDEF
  5
9
100
AcDbEntity
  8
ATTRIBUTES
100
AcDbText
 10
-1.592099
 20
-11.765385
 30
0.0
 40
0.18
  1
0
100
AcDbAttributeDefinition
  3
VIEW CODE?
  2
AC_VIEW_CODE
 70
     1
  0
INSERT
  5
45967
100
AcDbEntity
  8
SCALE
100
AcDbBlockReference
  2
SCALE
 10
-1.764716
 20
-12.363024
 30
0.0
  0
POLYLINE
  5
45A2D
100
AcDbEntity
  8
0
100
AcDbPolygonMesh
 66
     1
 10
0.0
 20
0.0
 30
0.0
 70
    16
 71
     6
 72
     3
  0
VERTEX
  5
45A2E
100
AcDbEntity
  8
0
100
AcDbVertex
100
AcDbPolygonMeshVertex
 10
2.7588
 20
-0.422
 30
4.477
 70
    64
  0
VERTEX
  5
45A2F
100
AcDbEntity
  8
0
100
AcDbVertex
100
AcDbPolygonMeshVertex
 10
2.7588
 20
-0.422
 30
0.126
 70
    64
  0
VERTEX
  5
45A30
100
AcDbEntity
  8
0
100
AcDbVertex
100
AcDbPolygonMeshVertex
 10
2.7588
 20
-0.422
 30
0.126
 70
    64
  0
VERTEX
  5
45A31
100
AcDbEntity
  8
0
100
AcDbVertex
100
AcDbPolygonMeshVertex
 10
2.759193
 20
-11.045
 30
4.477
 70
    64
  0
VERTEX
  5
45A32
100
AcDbEntity
  8
0
100
AcDbVertex
100
AcDbPolygonMeshVertex
 10
2.759193
 20
-11.045
 30
0.126
 70
    64
  0
VERTEX
  5
45A33
100
AcDbEntity
  8
0
100
AcDbVertex
100
AcDbPolygonMeshVertex
 10
2.759193
 20
-11.045
 30
0.126
 70
    64
  0
VERTEX
  5
45A34
100
AcDbEntity
  8
0
100
AcDbVertex
100
AcDbPolygonMeshVertex
 10
0.9188
 20
-11.045068
 30
4.477
 70
    64
  0
VERTEX
  5
45A35
100
AcDbEntity
  8
0
100
AcDbVertex
100
AcDbPolygonMeshVertex
 10
0.9188
 20
-11.045068
 30
0.126
 70
    64
  0
VERTEX
  5
45A36
100
AcDbEntity
  8
0
100
AcDbVertex
100
AcDbPolygonMeshVertex
 10
2.759193
 20
-11.045
 30
0.126
 70
    64
  0
VERTEX
  5
45A37
100
AcDbEntity
  8
0
100
AcDbVertex
100
AcDbPolygonMeshVertex
 10
0.918407
 20
-0.422068
 30
4.477
 70
    64
  0
VERTEX
  5
45A38
100
AcDbEntity
  8
0
100
AcDbVertex
100
AcDbPolygonMeshVertex
 10
0.918407
 20
-0.422068
 30
0.126
 70
    64
  0
VERTEX
  5
45A39
100
AcDbEntity
  8
0
100
AcDbVertex
100
AcDbPolygonMeshVertex
 10
2.7588
 20
-0.422
 30
0.126
 70
    64
  0
VERTEX
  5
45A3A
100
AcDbEntity
  8
0
100
AcDbVertex
100
AcDbPolygonMeshVertex
 10
0.918407
 20
-0.422068
 30
4.477
 70
    64
  0
VERTEX
  5
45A3B
100
AcDbEntity
  8
0
100
AcDbVertex
100
AcDbPolygonMeshVertex
 10
0.918407
 20
-0.422068
 30
4.477
 70
    64
  0
VERTEX
  5
45A3C
100
AcDbEntity
  8
0
100
AcDbVertex
100
AcDbPolygonMeshVertex
 10
2.7588
 20
-0.422
 30
4.477
 70
    64
  0
VERTEX
  5
45A3D
100
AcDbEntity
  8
0
100
AcDbVertex
100
AcDbPolygonMeshVertex
 10
0.9188
 20
-11.045068
 30
4.477
 70
    64
  0
VERTEX
  5
45A3E
100
AcDbEntity
  8
0
100
AcDbVertex
100
AcDbPolygonMeshVertex
 10
0.9188
 20
-11.045068
 30
4.477
 70
    64
  0
VERTEX
  5
45A3F
100
AcDbEntity
  8
0
100
AcDbVertex
100
AcDbPolygonMeshVertex
 10
2.759193
 20
-11.045
 30
4.477
 70
    64
  0
SEQEND
  5
45A40
100
AcDbEntity
  8
0
  0
POLYLINE
  5
45A41
100
AcDbEntity
  8
0
100
AcDbPolygonMesh
 66
     1
 10
0.0
 20
0.0
 30
0.0
 70
    16
 71
     6
 72
     3
  0
VERTEX
  5
45A42
100
AcDbEntity
  8
0
100
AcDbVertex
100
AcDbPolygonMeshVertex
 10
0.918801
 20
-11.17
 30
6.035542
 70
    64
  0
VERTEX
  5
45A43
100
AcDbEntity
  8
0
100
AcDbVertex
100
AcDbPolygonMeshVertex
 10
0.918801
 20
-11.17
 30
0.125
 70
    64
  0
VERTEX
  5
45A44
100
AcDbEntity
  8
0
100
AcDbVertex
100
AcDbPolygonMeshVertex
 10
0.918801
 20
-11.17
 30
0.125
 70
    64
  0
VERTEX
  5
45A45
100
AcDbEntity
  8
0
100
AcDbVertex
100
AcDbPolygonMeshVertex
 10
-1.7512
 20
-11.17
 30
6.035542
 70
    64
  0
VERTEX
  5
45A46
100
AcDbEntity
  8
0
100
AcDbVertex
100
AcDbPolygonMeshVertex
 10
-1.7512
 20
-11.17
 30
0.125
 70
    64
  0
VERTEX
  5
45A47
100
AcDbEntity
  8
0
100
AcDbVertex
100
AcDbPolygonMeshVertex
 10
-1.7512
 20
-11.17
 30
0.125
 70
    64
  0
VERTEX
  5
45A48
100
AcDbEntity
  8
0
100
AcDbVertex
100
AcDbPolygonMeshVertex
 10
-1.7512
 20
-0.421702
 30
6.035542
 70
    64
  0
VERTEX
  5
45A49
100
AcDbEntity
  8
0
100
AcDbVertex
100
AcDbPolygonMeshVertex
 10
-1.7512
 20
-0.421702
 30
0.125
 70
    64
  0
VERTEX
  5
45A4A
100
AcDbEntity
  8
0
100
AcDbVertex
100
AcDbPolygonMeshVertex
 10
-1.7512
 20
-11.17
 30
0.125
 70
    64
  0
VERTEX
  5
45A4B
100
AcDbEntity
  8
0
100
AcDbVertex
100
AcDbPolygonMeshVertex
 10
0.918801
 20
-0.421702
 30
6.035542
 70
    64
  0
VERTEX
  5
45A4C
100
AcDbEntity
  8
0
100
AcDbVertex
100
AcDbPolygonMeshVertex
 10
0.918801
 20
-0.421702
 30
0.125
 70
    64
  0
VERTEX
  5
45A4D
100
AcDbEntity
  8
0
100
AcDbVertex
100
AcDbPolygonMeshVertex
 10
0.918801
 20
-11.17
 30
0.125
 70
    64
  0
VERTEX
  5
45A4E
100
AcDbEntity
  8
0
100
AcDbVertex
100
AcDbPolygonMeshVertex
 10
0.918801
 20
-0.421702
 30
6.035542
 70
    64
  0
VERTEX
  5
45A4F
100
AcDbEntity
  8
0
100
AcDbVertex
100
AcDbPolygonMeshVertex
 10
0.918801
 20
-0.421702
 30
6.035542
 70
    64
  0
VERTEX
  5
45A50
100
AcDbEntity
  8
0
100
AcDbVertex
100
AcDbPolygonMeshVertex
 10
0.918801
 20
-11.17
 30
6.035542
 70
    64
  0
VERTEX
  5
45A51
100
AcDbEntity
  8
0
100
AcDbVertex
100
AcDbPolygonMeshVertex
 10
-1.7512
 20
-0.421702
 30
6.035542
 70
    64
  0
VERTEX
  5
45A52
100
AcDbEntity
  8
0
100
AcDbVertex
100
AcDbPolygonMeshVertex
 10
-1.7512
 20
-0.421702
 30
6.035542
 70
    64
  0
VERTEX
  5
45A53
100
AcDbEntity
  8
0
100
AcDbVertex
100
AcDbPolygonMeshVertex
 10
-1.7512
 20
-11.17
 30
6.035542
 70
    64
  0
SEQEND
  5
45A54
100
AcDbEntity
  8
0
  0
POLYLINE
  5
45A55
100
AcDbEntity
  8
0
100
AcDbPolygonMesh
 66
     1
 10
0.0
 20
0.0
 30
0.0
 70
    16
 71
     6
 72
     3
  0
VERTEX
  5
45A56
100
AcDbEntity
  8
0
100
AcDbVertex
100
AcDbPolygonMeshVertex
 10
1.7988
 20
-11.96
 30
0.125
 70
    64
  0
VERTEX
  5
45A57
100
AcDbEntity
  8
0
100
AcDbVertex
100
AcDbPolygonMeshVertex
 10
1.7988
 20
-11.96
 30
0.0
 70
    64
  0
VERTEX
  5
45A58
100
AcDbEntity
  8
0
100
AcDbVertex
100
AcDbPolygonMeshVertex
 10
1.7988
 20
-11.96
 30
0.0
 70
    64
  0
VERTEX
  5
45A59
100
AcDbEntity
  8
0
100
AcDbVertex
100
AcDbPolygonMeshVertex
 10
-1.7512
 20
-11.96
 30
0.125
 70
    64
  0
VERTEX
  5
45A5A
100
AcDbEntity
  8
0
100
AcDbVertex
100
AcDbPolygonMeshVertex
 10
-1.7512
 20
-11.96
 30
0.0
 70
    64
  0
VERTEX
  5
45A5B
100
AcDbEntity
  8
0
100
AcDbVertex
100
AcDbPolygonMeshVertex
 10
-1.7512
 20
-11.96
 30
0.0
 70
    64
  0
VERTEX
  5
45A5C
100
AcDbEntity
  8
0
100
AcDbVertex
100
AcDbPolygonMeshVertex
 10
-1.7512
 20
0.4439
 30
0.125
 70
    64
  0
VERTEX
  5
45A5D
100
AcDbEntity
  8
0
100
AcDbVertex
100
AcDbPolygonMeshVertex
 10
-1.7512
 20
0.4439
 30
0.0
 70
    64
  0
VERTEX
  5
45A5E
100
AcDbEntity
  8
0
100
AcDbVertex
100
AcDbPolygonMeshVertex
 10
-1.7512
 20
-11.96
 30
0.0
 70
    64
  0
VERTEX
  5
45A5F
100
AcDbEntity
  8
0
100
AcDbVertex
100
AcDbPolygonMeshVertex
 10
1.7988
 20
0.4439
 30
0.125
 70
    64
  0
VERTEX
  5
45A60
100
AcDbEntity
  8
0
100
AcDbVertex
100
AcDbPolygonMeshVertex
 10
1.7988
 20
0.4439
 30
0.0
 70
    64
  0
VERTEX
  5
45A61
100
AcDbEntity
  8
0
100
AcDbVertex
100
AcDbPolygonMeshVertex
 10
1.7988
 20
-11.96
 30
0.0
 70
    64
  0
VERTEX
  5
45A62
100
AcDbEntity
  8
0
100
AcDbVertex
100
AcDbPolygonMeshVertex
 10
1.7988
 20
0.4439
 30
0.125
 70
    64
  0
VERTEX
  5
45A63
100
AcDbEntity
  8
0
100
AcDbVertex
100
AcDbPolygonMeshVertex
 10
1.7988
 20
0.4439
 30
0.125
 70
    64
  0
VERTEX
  5
45A64
100
AcDbEntity
  8
0
100
AcDbVertex
100
AcDbPolygonMeshVertex
 10
1.7988
 20
-11.96
 30
0.125
 70
    64
  0
VERTEX
  5
45A65
100
AcDbEntity
  8
0
100
AcDbVertex
100
AcDbPolygonMeshVertex
 10
-1.7512
 20
0.4439
 30
0.125
 70
    64
  0
VERTEX
  5
45A66
100
AcDbEntity
  8
0
100
AcDbVertex
100
AcDbPolygonMeshVertex
 10
-1.7512
 20
0.4439
 30
0.125
 70
    64
  0
VERTEX
  5
45A67
100
AcDbEntity
  8
0
100
AcDbVertex
100
AcDbPolygonMeshVertex
 10
-1.7512
 20
-11.96
 30
0.125
 70
    64
  0
SEQEND
  5
45A68
100
AcDbEntity
  8
0
  0
LINE
  5
45A69
100
AcDbEntity
  8
0
100
AcDbLine
 39
0.001
 10
-1.5912
 20
-3.175
 30
6.0355
 11
-1.5912
 21
-1.155
 31
6.0355
  0
LINE
  5
45A6A
100
AcDbEntity
  8
0
100
AcDbLine
 39
0.001
 10
-0.7912
 20
-1.155
 30
6.0355
 11
-0.7912
 21
-3.175
 31
6.0355
  0
ARC
  5
45A6B
100
AcDbEntity
  8
0
100
AcDbCircle
 10
-0.872623
 20
3.077904
 30
11.172853
 40
0.1
210
0.0
220
-1.0
230
0.0
100
AcDbArc
 50
0.0
 51
110.427396
  0
LINE
  5
45A6C
100
AcDbEntity
  8
0
100
AcDbLine
 10
-1.244523
 20
-11.172853
 30
3.046104
 11
-0.907525
 21
-11.172853
 31
3.171616
210
0.0
220
-1.0
230
0.0
  0
LINE
  5
45A6D
100
AcDbEntity
  8
0
100
AcDbLine
 10
0.6168
 20
-11.171994
 30
5.4441
 11
0.6168
 21
-11.171994
 31
0.7169
  0
LINE
  5
45A6E
100
AcDbEntity
  8
0
100
AcDbLine
 10
-1.5592
 20
-11.171994
 30
0.7169
 11
-1.5592
 21
-11.171994
 31
5.4441
  0
LINE
  5
45A6F
100
AcDbEntity
  8
0
100
AcDbLine
 10
0.6168
 20
-11.171994
 30
0.7169
 11
-1.5592
 21
-11.171994
 31
0.7169
  0
LINE
  5
45A70
100
AcDbEntity
  8
0
100
AcDbLine
 10
-1.309621
 20
-11.172853
 30
1.68977
 11
-1.309621
 21
-11.172853
 31
2.952393
210
0.0
220
-1.0
230
0.0
  0
LINE
  5
45A71
100
AcDbEntity
  8
0
100
AcDbLine
 10
-0.772623
 20
-11.172853
 30
3.077904
 11
-0.772623
 21
-11.172853
 31
1.563042
210
0.0
220
-1.0
230
0.0
  0
LINE
  5
45A72
100
AcDbEntity
  8
0
100
AcDbLine
 10
-0.907822
 20
-11.172853
 30
1.469442
 11
-1.244819
 21
-11.172853
 31
1.59617
210
0.0
220
-1.0
230
0.0
  0
ARC
  5
45A73
100
AcDbEntity
  8
0
100
AcDbCircle
 10
-1.209621
 20
1.68977
 30
11.172853
 40
0.1
210
0.0
220
-1.0
230
0.0
100
AcDbArc
 50
180.0
 51
249.391249
  0
ARC
  5
45A74
100
AcDbEntity
  8
0
100
AcDbCircle
 10
-0.872623
 20
1.563042
 30
11.172853
 40
0.1
210
0.0
220
-1.0
230
0.0
100
AcDbArc
 50
249.391249
 51
0.0
  0
ARC
  5
45A75
100
AcDbEntity
  8
0
100
AcDbCircle
 10
-1.209621
 20
2.952393
 30
11.172853
 40
0.1
210
0.0
220
-1.0
230
0.0
100
AcDbArc
 50
110.427396
 51
180.0
  0
ARC
  5
45A76
100
AcDbEntity
  8
0
100
AcDbCircle
 39
0.125
 10
-0.0012
 20
-11.5
 30
0.0
 40
0.165
100
AcDbArc
 50
0.0
 51
180.0
  0
LINE
  5
45A78
100
AcDbEntity
  8
0
100
AcDbLine
 39
0.125
 10
-0.1662
 20
-11.5
 30
0.0
 11
-0.1662
 21
-11.96
 31
0.0
  0
LINE
  5
45A79
100
AcDbEntity
  8
0
100
AcDbLine
 39
0.125
 10
0.1638
 20
-11.5
 30
0.0
 11
0.1638
 21
-11.96
 31
0.0
  0
LINE
  5
45A7B
100
AcDbEntity
  8
0
100
AcDbLine
 10
-1.5592
 20
-11.171994
 30
5.4441
 11
0.6168
 21
-11.171994
 31
5.4441
  0
TEXT
  5
45A7C
100
AcDbEntity
  8
0
100
AcDbText
 39
0.001
 10
-0.6912
 20
-5.03
 30
6.0355
 40
0.2
  1
FUSE
100
AcDbText
  0
TEXT
  5
45A7D
100
AcDbEntity
  8
0
100
AcDbText
 39
0.001
 10
-0.568569
 20
-2.78
 30
6.0355
 40
0.2
  1
GND
100
AcDbText
  0
TEXT
  5
45A7E
100
AcDbEntity
  8
0
100
AcDbText
 39
0.001
 10
-1.004254
 20
-7.993718
 30
6.0355
 40
0.2
  1
ACTIVE
100
AcDbText
  0
CIRCLE
  5
45A7F
100
AcDbEntity
  8
0
100
AcDbCircle
 39
0.1
 10
1.374254
 20
-7.643718
 30
-6.138184
 40
0.125
210
0.0
220
-0.0000000000000001
230
-1.0
1001
AME_SOL
1070
     1
1071
       33
  0
LINE
  5
45A80
100
AcDbEntity
  8
0
100
AcDbLine
 10
-1.30814
 20
-6.467681
 30
6.0355
 11
-0.90814
 21
-6.467681
 31
6.0355
  0
LINE
  5
45A81
100
AcDbEntity
  8
0
100
AcDbLine
 10
-0.841998
 20
-6.518448
 30
6.0355
 11
-1.341998
 21
-6.518448
 31
6.0355
  0
LINE
  5
45A82
100
AcDbEntity
  8
0
100
AcDbLine
 10
-0.90814
 20
-6.078837
 30
6.0355
 11
-1.30814
 21
-6.078837
 31
6.0355
  0
LINE
  5
45A83
100
AcDbEntity
  8
0
100
AcDbLine
 10
-1.341998
 20
-6.018448
 30
6.0355
 11
-0.841998
 21
-6.018448
 31
6.0355
  0
LINE
  5
45A84
100
AcDbEntity
  8
0
100
AcDbLine
 10
-1.18814
 20
-6.178837
 30
6.0355
 11
-1.18814
 21
-6.367681
 31
6.0355
  0
LINE
  5
45A85
100
AcDbEntity
  8
0
100
AcDbLine
 10
-1.341998
 20
-6.518448
 30
6.0355
 11
-1.341998
 21
-6.018448
 31
6.0355
  0
LINE
  5
45A86
100
AcDbEntity
  8
0
100
AcDbLine
 10
-1.18814
 20
-6.367681
 30
6.0355
 11
-1.307553
 21
-6.367681
 31
6.0355
  0
LINE
  5
45A87
100
AcDbEntity
  8
0
100
AcDbLine
 10
-1.307553
 20
-6.367681
 30
6.0355
 11
-1.30814
 21
-6.467681
 31
6.0355
  0
LINE
  5
45A88
100
AcDbEntity
  8
0
100
AcDbLine
 10
-1.30814
 20
-6.178837
 30
6.0355
 11
-1.18814
 21
-6.178837
 31
6.0355
  0
LINE
  5
45A89
100
AcDbEntity
  8
0
100
AcDbLine
 10
-1.30814
 20
-6.078837
 30
6.0355
 11
-1.30814
 21
-6.178837
 31
6.0355
  0
TEXT
  5
45A8A
100
AcDbEntity
  8
0
100
AcDbText
 39
0.001
 10
-1.004254
 20
-7.618718
 30
6.0355
 40
0.2
  1
p/s
100
AcDbText
  0
LINE
  5
45A8B
100
AcDbEntity
  8
0
100
AcDbLine
 10
-0.841998
 20
-6.018448
 30
6.0355
 11
-0.841998
 21
-6.518448
 31
6.0355
  0
LINE
  5
45A8C
100
AcDbEntity
  8
0
100
AcDbLine
 10
-1.00814
 20
-6.367681
 30
6.0355
 11
-1.00814
 21
-6.178837
 31
6.0355
  0
LINE
  5
45A8D
100
AcDbEntity
  8
0
100
AcDbLine
 10
-0.90814
 20
-6.367681
 30
6.0355
 11
-1.00814
 21
-6.367681
 31
6.0355
  0
LINE
  5
45A8E
100
AcDbEntity
  8
0
100
AcDbLine
 10
-0.90814
 20
-6.467681
 30
6.0355
 11
-0.90814
 21
-6.367681
 31
6.0355
  0
LINE
  5
45A8F
100
AcDbEntity
  8
0
100
AcDbLine
 10
-1.00814
 20
-6.178837
 30
6.0355
 11
-0.90814
 21
-6.178837
 31
6.0355
  0
LINE
  5
45A90
100
AcDbEntity
  8
0
100
AcDbLine
 10
-0.90814
 20
-6.178837
 30
6.0355
 11
-0.90814
 21
-6.078837
 31
6.0355
  0
CIRCLE
  5
45A91
100
AcDbEntity
  8
0
100
AcDbCircle
 39
0.12
 10
-1.1912
 20
-2.655
 30
6.0355
 40
0.125
  0
CIRCLE
  5
45A92
100
AcDbEntity
  8
0
100
AcDbCircle
 39
0.2
 10
-1.1912
 20
-4.905
 30
6.0355
 40
0.279508
  0
CIRCLE
  5
45A93
100
AcDbEntity
  8
0
100
AcDbCircle
 39
0.124
 10
-1.3212
 20
-4.03
 30
6.0355
 40
0.25
  0
LINE
  5
45A94
100
AcDbEntity
  8
0
100
AcDbLine
 39
0.001
 10
-0.7912
 20
-3.175
 30
6.0355
 11
-1.5912
 21
-3.175
 31
6.0355
  0
LINE
  5
45A95
100
AcDbEntity
  8
0
100
AcDbLine
 10
-1.108455
 20
-2.748693
 30
6.0355
 11
-1.222359
 21
-2.533946
 31
6.0355
1001
AME_SOL
1070
     1
1071
       10
  0
LINE
  5
45A96
100
AcDbEntity
  8
0
100
AcDbLine
 10
-1.273945
 20
-2.561307
 30
6.0355
 11
-1.160041
 21
-2.776054
 31
6.0355
1001
AME_SOL
1070
     1
1071
       14
  0
TEXT
  5
45A97
100
AcDbEntity
  8
0
100
AcDbText
 39
0.001
 10
-0.9512
 20
-4.005
 30
6.0355
 40
0.2
  1
ON
100
AcDbText
  0
TEXT
  5
45A98
100
AcDbEntity
  8
0
100
AcDbText
 39
0.001
 10
-0.9512
 20
-4.38
 30
6.0355
 40
0.2
  1
OFF
100
AcDbText
  0
ARC
  5
45A9A
100
AcDbEntity
  8
0
100
AcDbCircle
 39
0.125
 10
0.0
 20
-0.5
 30
0.0
 40
0.28
100
AcDbArc
 50
126.106337
 51
53.893663
  0
ARC
  5
45A9B
100
AcDbEntity
  8
0
100
AcDbCircle
 39
0.125
 10
0.0
 20
0.0
 30
0.0
 40
0.165
100
AcDbArc
 50
0.0
 51
180.0
  0
LINE
  5
45A9C
100
AcDbEntity
  8
0
100
AcDbLine
 39
0.125
 10
-0.165
 20
0.0
 30
0.0
 11
-0.165
 21
-0.273781
 31
0.0
  0
LINE
  5
45A9E
100
AcDbEntity
  8
0
100
AcDbLine
 39
0.125
 10
0.165
 20
0.0
 30
0.0
 11
0.165
 21
-0.273781
 31
0.0
  0
TEXT
  5
45A9F
100
AcDbEntity
  8
0
100
AcDbText
 39
0.001
 10
-0.558569
 20
-1.78
 30
6.0355
 40
0.2
  1
L1
100
AcDbText
  0
TEXT
  5
45AA0
100
AcDbEntity
  8
0
100
AcDbText
 39
0.001
 10
-0.568569
 20
-2.28
 30
6.0355
 40
0.2
  1
L2/N
100
AcDbText
  0
CIRCLE
  5
45AA1
100
AcDbEntity
  8
0
100
AcDbCircle
 39
0.12
 10
-1.1912
 20
-2.155
 30
6.0355
 40
0.125
  0
CIRCLE
  5
45AA2
100
AcDbEntity
  8
0
100
AcDbCircle
 39
0.12
 10
-1.1912
 20
-1.655
 30
6.0355
 40
0.125
  0
LINE
  5
45AA3
100
AcDbEntity
  8
0
100
AcDbLine
 39
0.001
 10
-1.5912
 20
-1.155
 30
6.0355
 11
-0.7912
 21
-1.155
 31
6.0355
  0
LINE
  5
45AA4
100
AcDbEntity
  8
0
100
AcDbLine
 10
-1.273945
 20
-2.061307
 30
6.0355
 11
-1.160041
 21
-2.276054
 31
6.0355
1001
AME_SOL
1070
     1
1071
       14
  0
LINE
  5
45AA5
100
AcDbEntity
  8
0
100
AcDbLine
 10
-1.108455
 20
-2.248693
 30
6.0355
 11
-1.222359
 21
-2.033946
 31
6.0355
1001
AME_SOL
1070
     1
1071
       10
  0
LINE
  5
45AA6
100
AcDbEntity
  8
0
100
AcDbLine
 10
-1.273945
 20
-1.561307
 30
6.0355
 11
-1.160041
 21
-1.776054
 31
6.0355
1001
AME_SOL
1070
     1
1071
       14
  0
LINE
  5
45AA7
100
AcDbEntity
  8
0
100
AcDbLine
 10
-1.108455
 20
-1.748693
 30
6.0355
 11
-1.222359
 21
-1.533946
 31
6.0355
1001
AME_SOL
1070
     1
1071
       10
  0
POLYLINE
  5
45AA8
100
AcDbEntity
  8
0
100
AcDbPolygonMesh
 66
     1
 10
0.0
 20
0.0
 30
0.0
 70
    16
 71
     6
 72
     3
  0
VERTEX
  5
45AA9
100
AcDbEntity
  8
0
100
AcDbVertex
100
AcDbPolygonMeshVertex
 10
2.6988
 20
-11.045
 30
1.848663
 70
    64
  0
VERTEX
  5
45AAA
100
AcDbEntity
  8
0
100
AcDbVertex
100
AcDbPolygonMeshVertex
 10
2.6988
 20
-11.045
 30
0.848663
 70
    64
  0
VERTEX
  5
45AAB
100
AcDbEntity
  8
0
100
AcDbVertex
100
AcDbPolygonMeshVertex
 10
2.6988
 20
-11.045
 30
0.848663
 70
    64
  0
VERTEX
  5
45AAC
100
AcDbEntity
  8
0
100
AcDbVertex
100
AcDbPolygonMeshVertex
 10
2.6988
 20
-11.771056
 30
1.848663
 70
    64
  0
VERTEX
  5
45AAD
100
AcDbEntity
  8
0
100
AcDbVertex
100
AcDbPolygonMeshVertex
 10
2.6988
 20
-11.771056
 30
0.848663
 70
    64
  0
VERTEX
  5
45AAE
100
AcDbEntity
  8
0
100
AcDbVertex
100
AcDbPolygonMeshVertex
 10
2.6988
 20
-11.771056
 30
0.848663
 70
    64
  0
VERTEX
  5
45AAF
100
AcDbEntity
  8
0
100
AcDbVertex
100
AcDbPolygonMeshVertex
 10
2.5738
 20
-11.771056
 30
1.848663
 70
    64
  0
VERTEX
  5
45AB0
100
AcDbEntity
  8
0
100
AcDbVertex
100
AcDbPolygonMeshVertex
 10
2.5738
 20
-11.771056
 30
0.848663
 70
    64
  0
VERTEX
  5
45AB1
100
AcDbEntity
  8
0
100
AcDbVertex
100
AcDbPolygonMeshVertex
 10
2.6988
 20
-11.771056
 30
0.848663
 70
    64
  0
VERTEX
  5
45AB2
100
AcDbEntity
  8
0
100
AcDbVertex
100
AcDbPolygonMeshVertex
 10
2.5738
 20
-11.045
 30
1.848663
 70
    64
  0
VERTEX
  5
45AB3
100
AcDbEntity
  8
0
100
AcDbVertex
100
AcDbPolygonMeshVertex
 10
2.5738
 20
-11.045
 30
0.848663
 70
    64
  0
VERTEX
  5
45AB4
100
AcDbEntity
  8
0
100
AcDbVertex
100
AcDbPolygonMeshVertex
 10
2.6988
 20
-11.045
 30
0.848663
 70
    64
  0
VERTEX
  5
45AB5
100
AcDbEntity
  8
0
100
AcDbVertex
100
AcDbPolygonMeshVertex
 10
2.5738
 20
-11.045
 30
1.848663
 70
    64
  0
VERTEX
  5
45AB6
100
AcDbEntity
  8
0
100
AcDbVertex
100
AcDbPolygonMeshVertex
 10
2.5738
 20
-11.045
 30
1.848663
 70
    64
  0
VERTEX
  5
45AB7
100
AcDbEntity
  8
0
100
AcDbVertex
100
AcDbPolygonMeshVertex
 10
2.6988
 20
-11.045
 30
1.848663
 70
    64
  0
VERTEX
  5
45AB8
100
AcDbEntity
  8
0
100
AcDbVertex
100
AcDbPolygonMeshVertex
 10
2.5738
 20
-11.771056
 30
1.848663
 70
    64
  0
VERTEX
  5
45AB9
100
AcDbEntity
  8
0
100
AcDbVertex
100
AcDbPolygonMeshVertex
 10
2.5738
 20
-11.771056
 30
1.848663
 70
    64
  0
VERTEX
  5
45ABA
100
AcDbEntity
  8
0
100
AcDbVertex
100
AcDbPolygonMeshVertex
 10
2.6988
 20
-11.771056
 30
1.848663
 70
    64
  0
SEQEND
  5
45ABB
100
AcDbEntity
  8
0
  0
ARC
  5
45ABC
100
AcDbEntity
  8
0
100
AcDbCircle
 39
0.125
 10
-11.53003
 20
1.348663
 30
2.5738
 40
0.125
210
1.0
220
0.0
230
0.0
100
AcDbArc
 50
270.0
 51
90.0
  0
LINE
  5
45ABD
100
AcDbEntity
  8
0
100
AcDbLine
 39
0.125
 10
2.5738
 20
-11.53003
 30
1.223663
 11
2.5738
 21
-11.771056
 31
1.223663
210
1.0
220
0.0
230
0.0
  0
LINE
  5
45ABE
100
AcDbEntity
  8
0
100
AcDbLine
 39
0.125
 10
2.5738
 20
-11.53003
 30
1.473663
 11
2.5738
 21
-11.771056
 31
1.473663
210
1.0
220
0.0
230
0.0
  0
POLYLINE
  5
45ABF
100
AcDbEntity
  8
0
100
AcDbPolygonMesh
 66
     1
 10
0.0
 20
0.0
 30
0.0
 70
    16
 71
     6
 72
     3
  0
VERTEX
  5
45AC0
100
AcDbEntity
  8
0
100
AcDbVertex
100
AcDbPolygonMeshVertex
 10
2.6978
 20
-11.045
 30
4.476
 70
    64
  0
VERTEX
  5
45AC1
100
AcDbEntity
  8
0
100
AcDbVertex
100
AcDbPolygonMeshVertex
 10
2.6978
 20
-11.045
 30
3.476
 70
    64
  0
VERTEX
  5
45AC2
100
AcDbEntity
  8
0
100
AcDbVertex
100
AcDbPolygonMeshVertex
 10
2.6978
 20
-11.045
 30
3.476
 70
    64
  0
VERTEX
  5
45AC3
100
AcDbEntity
  8
0
100
AcDbVertex
100
AcDbPolygonMeshVertex
 10
2.6978
 20
-11.771056
 30
4.476
 70
    64
  0
VERTEX
  5
45AC4
100
AcDbEntity
  8
0
100
AcDbVertex
100
AcDbPolygonMeshVertex
 10
2.6978
 20
-11.771056
 30
3.476
 70
    64
  0
VERTEX
  5
45AC5
100
AcDbEntity
  8
0
100
AcDbVertex
100
AcDbPolygonMeshVertex
 10
2.6978
 20
-11.771056
 30
3.476
 70
    64
  0
VERTEX
  5
45AC6
100
AcDbEntity
  8
0
100
AcDbVertex
100
AcDbPolygonMeshVertex
 10
2.5728
 20
-11.771056
 30
4.476
 70
    64
  0
VERTEX
  5
45AC7
100
AcDbEntity
  8
0
100
AcDbVertex
100
AcDbPolygonMeshVertex
 10
2.5728
 20
-11.771056
 30
3.476
 70
    64
  0
VERTEX
  5
45AC8
100
AcDbEntity
  8
0
100
AcDbVertex
100
AcDbPolygonMeshVertex
 10
2.6978
 20
-11.771056
 30
3.476
 70
    64
  0
VERTEX
  5
45AC9
100
AcDbEntity
  8
0
100
AcDbVertex
100
AcDbPolygonMeshVertex
 10
2.5728
 20
-11.045
 30
4.476
 70
    64
  0
VERTEX
  5
45ACA
100
AcDbEntity
  8
0
100
AcDbVertex
100
AcDbPolygonMeshVertex
 10
2.5728
 20
-11.045
 30
3.476
 70
    64
  0
VERTEX
  5
45ACB
100
AcDbEntity
  8
0
100
AcDbVertex
100
AcDbPolygonMeshVertex
 10
2.6978
 20
-11.045
 30
3.476
 70
    64
  0
VERTEX
  5
45ACC
100
AcDbEntity
  8
0
100
AcDbVertex
100
AcDbPolygonMeshVertex
 10
2.5728
 20
-11.045
 30
4.476
 70
    64
  0
VERTEX
  5
45ACD
100
AcDbEntity
  8
0
100
AcDbVertex
100
AcDbPolygonMeshVertex
 10
2.5728
 20
-11.045
 30
4.476
 70
    64
  0
VERTEX
  5
45ACE
100
AcDbEntity
  8
0
100
AcDbVertex
100
AcDbPolygonMeshVertex
 10
2.6978
 20
-11.045
 30
4.476
 70
    64
  0
VERTEX
  5
45ACF
100
AcDbEntity
  8
0
100
AcDbVertex
100
AcDbPolygonMeshVertex
 10
2.5728
 20
-11.771056
 30
4.476
 70
    64
  0
VERTEX
  5
45AD0
100
AcDbEntity
  8
0
100
AcDbVertex
100
AcDbPolygonMeshVertex
 10
2.5728
 20
-11.771056
 30
4.476
 70
    64
  0
VERTEX
  5
45AD1
100
AcDbEntity
  8
0
100
AcDbVertex
100
AcDbPolygonMeshVertex
 10
2.6978
 20
-11.771056
 30
4.476
 70
    64
  0
SEQEND
  5
45AD2
100
AcDbEntity
  8
0
  0
ARC
  5
45AD3
100
AcDbEntity
  8
0
100
AcDbCircle
 39
0.125
 10
-11.53003
 20
3.976
 30
2.5728
 40
0.125
210
1.0
220
0.0
230
0.0
100
AcDbArc
 50
270.0
 51
90.0
  0
LINE
  5
45AD4
100
AcDbEntity
  8
0
100
AcDbLine
 39
0.125
 10
2.5728
 20
-11.53003
 30
3.851
 11
2.5728
 21
-11.771056
 31
3.851
210
1.0
220
0.0
230
0.0
  0
LINE
  5
45AD5
100
AcDbEntity
  8
0
100
AcDbLine
 39
0.125
 10
2.5728
 20
-11.53003
 30
4.101
 11
2.5728
 21
-11.771056
 31
4.101
210
1.0
220
0.0
230
0.0
  0
LINE
  5
45AD6
100
AcDbEntity
  8
0
100
AcDbLine
 10
2.7588
 20
-1.030037
 30
0.650994
 11
2.7588
 21
-1.31353
 31
0.650994
210
1.0
220
0.0
230
0.0
  0
LINE
  5
45AD7
100
AcDbEntity
  8
0
100
AcDbLine
 10
2.7588
 20
-1.030037
 30
0.900994
 11
2.7588
 21
-1.31353
 31
0.900994
210
1.0
220
0.0
230
0.0
  0
ARC
  5
45AD8
100
AcDbEntity
  8
0
100
AcDbCircle
 10
-1.530037
 20
0.775994
 30
2.7588
 40
0.25
210
1.0
220
0.0
230
0.0
100
AcDbArc
 50
30.0
 51
330.0
  0
ARC
  5
45AD9
100
AcDbEntity
  8
0
100
AcDbCircle
 10
-1.030037
 20
0.775994
 30
2.7588
 40
0.125
210
1.0
220
0.0
230
0.0
100
AcDbArc
 50
270.0
 51
90.0
  0
POINT
  5
45ADA
100
AcDbEntity
  8
DIMS-MTG-HOLES
100
AcDbPoint
 10
0.0
 20
0.0
 30
0.0
  0
POINT
  5
45ADC
100
AcDbEntity
  8
DIMS-MTG-HOLES
100
AcDbPoint
 10
-0.0012
 20
-11.5
 30
0.0
  0
DIMENSION
  5
45ADD
100
AcDbEntity
  8
AREA1
100
AcDbDimension
  2
*D1
 10
4.527342
 20
0.4439
 30
0.0
 11
4.527342
 21
-5.75805
 31
0.0
 70
    32
  3
ABECAD_3D
100
AcDbAlignedDimension
 13
1.7988
 23
-11.96
 33
0.0
 14
1.7988
 24
0.4439
 34
0.0
 50
90.0
100
AcDbRotatedDimension
  0
DIMENSION
  5
45AEC
100
AcDbEntity
  8
AREA1
100
AcDbDimension
  2
*D2
 10
-1.7512
 20
1.892534
 30
0.0
 11
0.5038
 21
1.892534
 31
0.0
 70
    32
  3
ABECAD_3D
100
AcDbAlignedDimension
 13
2.7588
 23
-0.422
 33
0.126
 14
-1.7512
 24
0.4439
 34
0.0
100
AcDbRotatedDimension
  0
ENDSEC
  0
SECTION
  2
OBJECTS
  0
DICTIONARY
  5
458CB
100
AcDbDictionary
  3
ACAD_GROUP
350
458CC
  3
ACAD_LAYOUT
350
458FB
  3
ACAD_MLINESTYLE
350
458D9
  3
ACAD_PLOTSETTINGS
350
458FC
  3
ACAD_PLOTSTYLENAME
350
458F9
  3
ACDBHEADERROUNDTRIPXREC
350
45BA1
  3
ACDBVARIABLEDICTIONARY
350
458E1
  3
DWGPROPS
350
45901
  0
DICTIONARY
  5
45B9F
100
AcDbDictionary
280
     1
  3
ACAD_XREC_ROUNDTRIP
360
45BA0
  0
DICTIONARY
  5
45BCA
100
AcDbDictionary
280
     1
  3
ACAD_XREC_ROUNDTRIP
360
45BCB
  0
DICTIONARY
  5
45B9D
100
AcDbDictionary
280
     1
  3
ACAD_XREC_ROUNDTRIP
360
45B9E
  0
DICTIONARY
  5
45BC4
100
AcDbDictionary
280
     1
  3
ACAD_XREC_ROUNDTRIP
360
45BC5
  0
DICTIONARY
  5
45BC6
100
AcDbDictionary
280
     1
  3
ACAD_XREC_ROUNDTRIP
360
45BC7
  0
DICTIONARY
  5
4592C
100
AcDbDictionary
280
     1
  3
ACAD_LAYOUTSELFREF
360
45BC3
  0
DICTIONARY
  5
4592A
100
AcDbDictionary
280
     1
  3
ACAD_LAYOUTSELFREF
360
45BC2
  0
DICTIONARY
  5
45B9B
100
AcDbDictionary
280
     1
  3
ACAD_XREC_ROUNDTRIP
360
45B9C
  0
DICTIONARY
  5
458CC
102
{ACAD_REACTORS
330
458CB
102
}
100
AcDbDictionary
  0
DICTIONARY
  5
458FB
102
{ACAD_XDICTIONARY
360
45BC8
102
}
102
{ACAD_REACTORS
330
458CB
102
}
100
AcDbDictionary
  3
LAYOUT1
350
458FE
  3
MODEL
350
458FD
  0
DICTIONARY
  5
458D9
102
{ACAD_REACTORS
330
458CB
102
}
100
AcDbDictionary
  3
STANDARD
350
458DA
  0
DICTIONARY
  5
458FC
102
{ACAD_REACTORS
330
458CB
102
}
100
AcDbDictionary
  0
ACAD_PROXY_OBJECT
  5
458F9
102
{ACAD_REACTORS
330
458CB
102
}
100
AcDbProxyObject
 90
      499
 91
      501
 93
       86
310
405010041939BDC9B585B1
350
458FA
340
458FA
 94
        0
  0
DICTIONARY
  5
45BA1
102
{ACAD_REACTORS
330
458CB
102
}
100
AcDbDictionary
  3
CEPSNTYPE
350
45BAB
  3
DIMSTYLEDATA
350
45BAF
  3
FINGERPRINTGUID
350
45BAC
  3
HYPERLINKBASE
350
45BA4
  3
INSUNITS
350
45BAA
  3
LAYOUTDICT
350
45BA6
  3
LWETCUNION
350
45BA9
  3
PLOTSETDICT
350
45BA7
  3
PLOTSTYLNAMDICT
350
45BA8
  3
PSVPSCALE
350
45BAE
  3
PUCSBASE
350
45BB2
  3
PUCSORGBACK
350
45BB8
  3
PUCSORGBOTTOM
350
45BB4
  3
PUCSORGFRONT
350
45BB7
  3
PUCSORGLEFT
350
45BB5
  3
PUCSORGRIGHT
350
45BB6
  3
PUCSORGTOP
350
45BB3
  3
PUCSORTHOREF
350
45BB0
  3
PUCSORTHOVIEW
350
45BB1
  3
STYLESHEET
350
45BA5
  3
TSTACKALIGN
350
45BA2
  3
TSTACKSIZE
350
45BA3
  3
UCSBASE
350
45BBB
  3
UCSORGBACK
350
45BC1
  3
UCSORGBOTTOM
350
45BBD
  3
UCSORGFRONT
350
45BC0
  3
UCSORGLEFT
350
45BBE
  3
UCSORGRIGHT
350
45BBF
  3
UCSORGTOP
350
45BBC
  3
UCSORTHOREF
350
45BB9
  3
UCSORTHOVIEW
350
45BBA
  3
VERSIONGUID
350
45BAD
  0
DICTIONARY
  5
458E1
102
{ACAD_REACTORS
330
458CB
102
}
100
AcDbDictionary
  3
DIMADEC
350
458E2
  0
XRECORD
  5
45901
102
{ACAD_REACTORS
330
458CB
102
}
100
AcDbXrecord
  1
DWGPROPS COOKIE
  2

  3

  4

  6

  7

  8
colin
  9

300
=
301
=
302
=
303
=
304
=
305
=
306
=
307
=
308
=
309
=
 40
0.000599
 41
2451670.444777
 42
2451670.445376
  1

 90
        0
  0
XRECORD
  5
45BA0
102
{ACAD_REACTORS
330
45B9F
102
}
100
AcDbXrecord
102
EXTNAMES
  1
*ACTIVE
  2
*Active
102
UCS
 74
     0
 71
     1
 10
0.0
 20
0.0
 30
0.0
 10
1.0
 20
0.0
 30
0.0
 10
0.0
 20
1.0
 30
0.0
146
0.0
 79
     1
102
VIEW
281
     0
  0
XRECORD
  5
45BCB
102
{ACAD_REACTORS
330
45BCA
102
}
100
AcDbXrecord
102
PLOTBIT
280
     0
  0
XRECORD
  5
45B9E
102
{ACAD_REACTORS
330
45B9D
102
}
100
AcDbXrecord
102
EXTNAMES
  1
DEFPOINTS
  2
Defpoints
102
PLOTBIT
280
     0
  0
XRECORD
  5
45BC5
102
{ACAD_REACTORS
330
45BC4
102
}
100
AcDbXrecord
102
ACADR14ROUNDTRIP
1000
DSTYLE
1002
{
1070
   276
 70
     2
1070
   277
 70
     5
1002
}
  0
XRECORD
  5
45BC7
102
{ACAD_REACTORS
330
45BC6
102
}
100
AcDbXrecord
102
ACADR14ROUNDTRIP
1000
DSTYLE
1002
{
1070
   276
 70
     2
1070
   277
 70
     5
1002
}
  0
XRECORD
  5
45BC3
102
{ACAD_REACTORS
330
4592C
102
}
100
AcDbXrecord
340
458D6
  0
XRECORD
  5
45BC2
102
{ACAD_REACTORS
330
4592A
102
}
100
AcDbXrecord
340
458D3
  0
XRECORD
  5
45B9C
102
{ACAD_REACTORS
330
45B9B
102
}
100
AcDbXrecord
102
EXTNAMES
  1
SCALE
  2
scale
  0
DICTIONARY
  5
45BC8
100
AcDbDictionary
280
     1
  3
ACAD_XREC_ROUNDTRIP
360
45BC9
  0
ACAD_PROXY_OBJECT
  5
458FE
102
{ACAD_REACTORS
330
458FB
102
}
100
AcDbProxyObject
 90
      499
 91
      503
 93
     1348
310
91D4850204C617365724A65742035303030205365726965732050434C20362C00AAAAAA416AA547D11959985D5B1D08148C4D081C195B88185CDCDA59DB9B595B9D1CCB98DD1891069074C61796F75743140501A800000000000000000000000000000000000000000000A1000000000000008902A6A6A10232D5E076BC551
310
0408CB5781DAF154410232D5E076BC5510408CB5781DAF15C410232D5E076BC5710408CB5781DAF15C40
330
458D3
330
0
340
0
340
0
 94
        0
  0
ACAD_PROXY_OBJECT
  5
458FD
102
{ACAD_REACTORS
330
458FB
102
}
100
AcDbProxyObject
 90
      499
 91
      503
 93
      924
310
91D4850204C617365724A65742035303030205365726965732050434C20362C01AAAAAAAAA547D11959985D5B1D08148C4D081C195B88185CDCDA59DB9B595B9D1CCB98DD18A69054D6F64656C901A800000000000000000000000000000000000000000000A1000000000000008902A6A6AAAA8
330
458D6
330
0
340
0
340
0
 94
        0
  0
MLINESTYLE
  5
458DA
102
{ACAD_REACTORS
330
458D9
102
}
100
AcDbMlineStyle
  2
STANDARD
 70
     0
  3

 62
   256
 51
90.0
 52
90.0
 71
     2
 49
0.5
 62
   256
  6
BYLAYER
 49
-0.5
 62
   256
  6
BYLAYER
  0
ACAD_PROXY_OBJECT
  5
458FA
102
{ACAD_REACTORS
330
458F9
102
}
100
AcDbProxyObject
 90
      499
 91
      502
 93
        0
 94
        0
  0
XRECORD
  5
45BAB
102
{ACAD_REACTORS
330
45BA1
102
}
100
AcDbXrecord
 90
        0
  0
XRECORD
  5
45BAF
102
{ACAD_REACTORS
330
45BA1
102
}
100
AcDbXrecord
1000
DSTYLE
1002
{
1070
   276
 70
     2
1070
   277
 70
     5
1002
}
  0
XRECORD
  5
45BAC
102
{ACAD_REACTORS
330
45BA1
102
}
100
AcDbXrecord
  1
{6E0CF4B8-225E-11D4-A150-00A0CC3303EC}
  0
XRECORD
  5
45BA4
102
{ACAD_REACTORS
330
45BA1
102
}
100
AcDbXrecord
  1

  0
XRECORD
  5
45BAA
102
{ACAD_REACTORS
330
45BA1
102
}
100
AcDbXrecord
 90
        0
  0
XRECORD
  5
45BA6
102
{ACAD_REACTORS
330
45BA1
102
}
100
AcDbXrecord
340
458FB
  0
XRECORD
  5
45BA9
102
{ACAD_REACTORS
330
45BA1
102
}
100
AcDbXrecord
 90
    14877
  0
XRECORD
  5
45BA7
102
{ACAD_REACTORS
330
45BA1
102
}
100
AcDbXrecord
340
458FC
  0
XRECORD
  5
45BA8
102
{ACAD_REACTORS
330
45BA1
102
}
100
AcDbXrecord
340
458F9
  0
XRECORD
  5
45BAE
102
{ACAD_REACTORS
330
45BA1
102
}
100
AcDbXrecord
 40
0.0
  0
XRECORD
  5
45BB2
102
{ACAD_REACTORS
330
45BA1
102
}
100
AcDbXrecord
340
0
  0
XRECORD
  5
45BB8
102
{ACAD_REACTORS
330
45BA1
102
}
100
AcDbXrecord
 10
0.0
 20
0.0
 30
0.0
  0
XRECORD
  5
45BB4
102
{ACAD_REACTORS
330
45BA1
102
}
100
AcDbXrecord
 10
0.0
 20
0.0
 30
0.0
  0
XRECORD
  5
45BB7
102
{ACAD_REACTORS
330
45BA1
102
}
100
AcDbXrecord
 10
0.0
 20
0.0
 30
0.0
  0
XRECORD
  5
45BB5
102
{ACAD_REACTORS
330
45BA1
102
}
100
AcDbXrecord
 10
0.0
 20
0.0
 30
0.0
  0
XRECORD
  5
45BB6
102
{ACAD_REACTORS
330
45BA1
102
}
100
AcDbXrecord
 10
0.0
 20
0.0
 30
0.0
  0
XRECORD
  5
45BB3
102
{ACAD_REACTORS
330
45BA1
102
}
100
AcDbXrecord
 10
0.0
 20
0.0
 30
0.0
  0
XRECORD
  5
45BB0
102
{ACAD_REACTORS
330
45BA1
102
}
100
AcDbXrecord
340
0
  0
XRECORD
  5
45BB1
102
{ACAD_REACTORS
330
45BA1
102
}
100
AcDbXrecord
 70
     0
  0
XRECORD
  5
45BA5
102
{ACAD_REACTORS
330
45BA1
102
}
100
AcDbXrecord
  1

  0
XRECORD
  5
45BA2
102
{ACAD_REACTORS
330
45BA1
102
}
100
AcDbXrecord
 90
        1
  0
XRECORD
  5
45BA3
102
{ACAD_REACTORS
330
45BA1
102
}
100
AcDbXrecord
 90
       70
  0
XRECORD
  5
45BBB
102
{ACAD_REACTORS
330
45BA1
102
}
100
AcDbXrecord
340
0
  0
XRECORD
  5
45BC1
102
{ACAD_REACTORS
330
45BA1
102
}
100
AcDbXrecord
 10
0.0
 20
0.0
 30
0.0
  0
XRECORD
  5
45BBD
102
{ACAD_REACTORS
330
45BA1
102
}
100
AcDbXrecord
 10
0.0
 20
0.0
 30
0.0
  0
XRECORD
  5
45BC0
102
{ACAD_REACTORS
330
45BA1
102
}
100
AcDbXrecord
 10
0.0
 20
0.0
 30
0.0
  0
XRECORD
  5
45BBE
102
{ACAD_REACTORS
330
45BA1
102
}
100
AcDbXrecord
 10
0.0
 20
0.0
 30
0.0
  0
XRECORD
  5
45BBF
102
{ACAD_REACTORS
330
45BA1
102
}
100
AcDbXrecord
 10
0.0
 20
0.0
 30
0.0
  0
XRECORD
  5
45BBC
102
{ACAD_REACTORS
330
45BA1
102
}
100
AcDbXrecord
 10
0.0
 20
0.0
 30
0.0
  0
XRECORD
  5
45BB9
102
{ACAD_REACTORS
330
45BA1
102
}
100
AcDbXrecord
340
0
  0
XRECORD
  5
45BBA
102
{ACAD_REACTORS
330
45BA1
102
}
100
AcDbXrecord
 70
     1
  0
XRECORD
  5
45BAD
102
{ACAD_REACTORS
330
45BA1
102
}
100
AcDbXrecord
  1
{BC57E7B1-A98D-46AB-A82D-C07E52CCAF7F}
  0
DICTIONARYVAR
  5
458E2
102
{ACAD_REACTORS
330
458E1
102
}
100
DictionaryVariables
280
     0
  1
0
  0
XRECORD
  5
45BC9
102
{ACAD_REACTORS
330
45BC8
102
}
100
AcDbXrecord
102
EXTNAMES
  1
LAYOUT1
  2
Layout1
  1
MODEL
  2
Model
  0
ENDSEC
  0
EOF
