  0
SECTION
  2
HEADER
  9
$ACADVER
  1
AC1014
  9
$ACADMAINTVER
 70
     8
  9
$DWGCODEPAGE
  3
ANSI_1252
  9
$INSBASE
 10
0.0
 20
0.0
 30
0.0
  9
$EXTMIN
 10
-2.57
 20
-7.193851
 30
-0.1
  9
$EXTMAX
 10
9.944512
 20
1.435735
 30
5.71
  9
$LIMMIN
 10
0.0
 20
0.0
  9
$LIMMAX
 10
12.0
 20
9.0
  9
$ORTHOMODE
 70
     0
  9
$REGENMODE
 70
     1
  9
$FILLMODE
 70
     1
  9
$QTEXTMODE
 70
     0
  9
$MIRRTEXT
 70
     1
  9
$DRAGMODE
 70
     2
  9
$LTSCALE
 40
1.0
  9
$OSMODE
 70
    37
  9
$ATTMODE
 70
     1
  9
$TEXTSIZE
 40
0.12
  9
$TRACEWID
 40
0.05
  9
$TEXTSTYLE
  7
STANDARD
  9
$CLAYER
  8
0
  9
$CELTYPE
  6
BYLAYER
  9
$CECOLOR
 62
   256
  9
$CELTSCALE
 40
1.0
  9
$DELOBJ
 70
     1
  9
$DISPSILH
 70
     0
  9
$DIMSCALE
 40
1.0
  9
$DIMASZ
 40
0.18
  9
$DIMEXO
 40
0.0625
  9
$DIMDLI
 40
0.375
  9
$DIMRND
 40
0.0
  9
$DIMDLE
 40
0.0
  9
$DIMEXE
 40
0.18
  9
$DIMTP
 40
0.0
  9
$DIMTM
 40
0.0
  9
$DIMTXT
 40
0.18
  9
$DIMCEN
 40
0.09
  9
$DIMTSZ
 40
0.0
  9
$DIMTOL
 70
     0
  9
$DIMLIM
 70
     0
  9
$DIMTIH
 70
     0
  9
$DIMTOH
 70
     1
  9
$DIMSE1
 70
     0
  9
$DIMSE2
 70
     0
  9
$DIMTAD
 70
     0
  9
$DIMZIN
 70
     4
  9
$DIMBLK
  1

  9
$DIMASO
 70
     1
  9
$DIMSHO
 70
     1
  9
$DIMPOST
  1

  9
$DIMAPOST
  1

  9
$DIMALT
 70
     1
  9
$DIMALTD
 70
     1
  9
$DIMALTF
 40
25.4
  9
$DIMLFAC
 40
1.0
  9
$DIMTOFL
 70
     0
  9
$DIMTVP
 40
0.0
  9
$DIMTIX
 70
     0
  9
$DIMSOXD
 70
     0
  9
$DIMSAH
 70
     0
  9
$DIMBLK1
  1

  9
$DIMBLK2
  1

  9
$DIMSTYLE
  2
ABECAD_3D
  9
$DIMCLRD
 70
     0
  9
$DIMCLRE
 70
     0
  9
$DIMCLRT
 70
     0
  9
$DIMTFAC
 40
1.5
  9
$DIMGAP
 40
0.09
  9
$DIMJUST
 70
     0
  9
$DIMSD1
 70
     0
  9
$DIMSD2
 70
     0
  9
$DIMTOLJ
 70
     1
  9
$DIMTZIN
 70
     4
  9
$DIMALTZ
 70
     4
  9
$DIMALTTZ
 70
     4
  9
$DIMFIT
 70
     3
  9
$DIMUPT
 70
     0
  9
$DIMUNIT
 70
     7
  9
$DIMDEC
 70
     6
  9
$DIMTDEC
 70
     6
  9
$DIMALTU
 70
     2
  9
$DIMALTTD
 70
     1
  9
$DIMTXSTY
  7
STANDARD
  9
$DIMAUNIT
 70
     0
  9
$LUNITS
 70
     2
  9
$LUPREC
 70
     4
  9
$SKETCHINC
 40
0.1
  9
$FILLETRAD
 40
0.0
  9
$AUNITS
 70
     0
  9
$AUPREC
 70
     0
  9
$MENU
  1
ACAD
  9
$ELEVATION
 40
0.0
  9
$PELEVATION
 40
0.0
  9
$THICKNESS
 40
0.0
  9
$LIMCHECK
 70
     0
  9
$BLIPMODE
 70
     0
  9
$CHAMFERA
 40
0.0
  9
$CHAMFERB
 40
0.0
  9
$CHAMFERC
 40
0.0
  9
$CHAMFERD
 40
0.0
  9
$SKPOLY
 70
     0
  9
$TDCREATE
 40
2451670.403110301
  9
$TDUPDATE
 40
2452010.483850347
  9
$TDINDWG
 40
0.0198957176
  9
$TDUSRTIMER
 40
0.0198957176
  9
$USRTIMER
 70
     1
  9
$ANGBASE
 50
0.0
  9
$ANGDIR
 70
     0
  9
$PDMODE
 70
     3
  9
$PDSIZE
 40
0.09
  9
$PLINEWID
 40
0.0
  9
$COORDS
 70
     1
  9
$SPLFRAME
 70
     1
  9
$SPLINETYPE
 70
     6
  9
$SPLINESEGS
 70
     8
  9
$ATTDIA
 70
     0
  9
$ATTREQ
 70
     1
  9
$HANDLING
 70
     1
  9
$HANDSEED
  5
465AF
  9
$SURFTAB1
 70
     6
  9
$SURFTAB2
 70
     6
  9
$SURFTYPE
 70
     6
  9
$SURFU
 70
     6
  9
$SURFV
 70
     6
  9
$UCSNAME
  2

  9
$UCSORG
 10
0.0
 20
0.0
 30
0.0
  9
$UCSXDIR
 10
1.0
 20
0.0
 30
0.0
  9
$UCSYDIR
 10
0.0
 20
1.0
 30
0.0
  9
$PUCSNAME
  2

  9
$PUCSORG
 10
0.0
 20
0.0
 30
0.0
  9
$PUCSXDIR
 10
1.0
 20
0.0
 30
0.0
  9
$PUCSYDIR
 10
0.0
 20
1.0
 30
0.0
  9
$USERI1
 70
     0
  9
$USERI2
 70
     0
  9
$USERI3
 70
     0
  9
$USERI4
 70
     0
  9
$USERI5
 70
     0
  9
$USERR1
 40
0.0
  9
$USERR2
 40
0.0
  9
$USERR3
 40
0.0
  9
$USERR4
 40
0.0
  9
$USERR5
 40
0.0
  9
$WORLDVIEW
 70
     1
  9
$SHADEDGE
 70
     3
  9
$SHADEDIF
 70
    70
  9
$TILEMODE
 70
     1
  9
$MAXACTVP
 70
    16
  9
$PINSBASE
 10
0.0
 20
0.0
 30
0.0
  9
$PLIMCHECK
 70
     0
  9
$PEXTMIN
 10
1.000000E+20
 20
1.000000E+20
 30
1.000000E+20
  9
$PEXTMAX
 10
-1.000000E+20
 20
-1.000000E+20
 30
-1.000000E+20
  9
$PLIMMIN
 10
0.0
 20
0.0
  9
$PLIMMAX
 10
12.0
 20
9.0
  9
$UNITMODE
 70
     0
  9
$VISRETAIN
 70
     0
  9
$PLINEGEN
 70
     0
  9
$PSLTSCALE
 70
     1
  9
$TREEDEPTH
 70
  3020
  9
$PICKSTYLE
 70
     1
  9
$CMLSTYLE
  2
STANDARD
  9
$CMLJUST
 70
     0
  9
$CMLSCALE
 40
1.0
  9
$PROXYGRAPHICS
 70
     1
  9
$MEASUREMENT
 70
     0
  0
ENDSEC
  0
SECTION
  2
CLASSES
  0
CLASS
  1
DICTIONARYVAR
  2
AcDbDictionaryVar
  3
"AutoCAD"
 90
        0
280
     0
281
     0
  0
CLASS
  1
ACDBDICTIONARYWDFLT
  2
AcDbDictionaryWithDefault
  3
AutoCAD 2000
 90
        0
280
     0
281
     0
  0
CLASS
  1
ACDBPLACEHOLDER
  2
AcDbPlaceHolder
  3
AutoCAD 2000
 90
        0
280
     0
281
     0
  0
CLASS
  1
LAYOUT
  2
AcDbLayout
  3
AutoCAD 2000
 90
        0
280
     0
281
     0
  0
CLASS
  1
LONG_TRANSACTION
  2
AcDbLongTransaction
  3
AutoCAD 2000
 90
        0
280
     0
281
     0
  0
CLASS
  1
LWPOLYLINE
  2
AcDbPolyline
  3
"AutoCAD"
 90
        0
280
     0
281
     1
  0
CLASS
  1
HATCH
  2
AcDbHatch
  3
"ACAD_SEDONA"
 90
        0
280
     0
281
     1
  0
CLASS
  1
XRECORD
  2
AcDbXrecord
  3
"<Built In>"
 90
        0
280
     0
281
     0
  0
CLASS
  1
LONG_TRANSACTION
  2
AcDbLongTransaction
  3
AutoCAD 2000
 90
        0
280
     0
281
     0
  0
CLASS
  1
LWPOLYLINE
  2
AcDbPolyline
  3
"AutoCAD"
 90
        0
280
     0
281
     1
  0
CLASS
  1
HATCH
  2
AcDbHatch
  3
"ACAD_SEDONA"
 90
        0
280
     0
281
     1
  0
CLASS
  1
XRECORD
  2
AcDbXrecord
  3
"<Built In>"
 90
        0
280
     0
281
     0
  0
CLASS
  1
LONG_TRANSACTION
  2
AcDbLongTransaction
  3
AutoCAD 2000
 90
        0
280
     0
281
     0
  0
CLASS
  1
LWPOLYLINE
  2
AcDbPolyline
  3
"AutoCAD"
 90
        0
280
     0
281
     1
  0
CLASS
  1
HATCH
  2
AcDbHatch
  3
"ACAD_SEDONA"
 90
        0
280
     0
281
     1
  0
CLASS
  1
XRECORD
  2
AcDbXrecord
  3
"<Built In>"
 90
        0
280
     0
281
     0
  0
CLASS
  1
LONG_TRANSACTION
  2
AcDbLongTransaction
  3
AutoCAD 2000
 90
        0
280
     0
281
     0
  0
CLASS
  1
LWPOLYLINE
  2
AcDbPolyline
  3
"AutoCAD"
 90
        0
280
     0
281
     1
  0
CLASS
  1
HATCH
  2
AcDbHatch
  3
"ACAD_SEDONA"
 90
        0
280
     0
281
     1
  0
CLASS
  1
XRECORD
  2
AcDbXrecord
  3
"<Built In>"
 90
        0
280
     0
281
     0
  0
CLASS
  1
LONG_TRANSACTION
  2
AcDbLongTransaction
  3
AutoCAD 2000
 90
        0
280
     0
281
     0
  0
CLASS
  1
LWPOLYLINE
  2
AcDbPolyline
  3
"AutoCAD"
 90
        0
280
     0
281
     1
  0
CLASS
  1
HATCH
  2
AcDbHatch
  3
"ACAD_SEDONA"
 90
        0
280
     0
281
     1
  0
CLASS
  1
XRECORD
  2
AcDbXrecord
  3
"<Built In>"
 90
        0
280
     0
281
     0
  0
CLASS
  1
LONG_TRANSACTION
  2
AcDbLongTransaction
  3
AutoCAD 2000
 90
        0
280
     0
281
     0
  0
CLASS
  1
LWPOLYLINE
  2
AcDbPolyline
  3
"AutoCAD"
 90
        0
280
     0
281
     1
  0
CLASS
  1
HATCH
  2
AcDbHatch
  3
"ACAD_SEDONA"
 90
        0
280
     0
281
     1
  0
CLASS
  1
XRECORD
  2
AcDbXrecord
  3
"<Built In>"
 90
        0
280
     0
281
     0
  0
ENDSEC
  0
SECTION
  2
TABLES
  0
TABLE
  2
VPORT
  5
458C7
100
AcDbSymbolTable
 70
     1
  0
VPORT
  5
4657A
102
{ACAD_XDICTIONARY
360
4657F
102
}
100
AcDbSymbolTableRecord
100
AcDbViewportTableRecord
  2
*ACTIVE
 70
     0
 10
0.0
 20
0.0
 11
1.0
 21
1.0
 12
3.687323
 22
-2.878769
 13
0.0
 23
0.0
 14
0.25
 24
0.25
 15
0.25
 25
0.25
 16
0.0
 26
0.0
 36
1.0
 17
0.0
 27
0.0
 37
0.0
 40
8.776214
 41
1.960674
 42
50.0
 43
0.0
 44
0.0
 50
0.0
 51
0.0
 71
     0
 72
 20000
 73
     1
 74
     1
 75
     0
 76
     0
 77
     0
 78
     0
  0
ENDTAB
  0
TABLE
  2
LTYPE
  5
458C4
100
AcDbSymbolTable
 70
     1
  0
LTYPE
  5
458D0
100
AcDbSymbolTableRecord
100
AcDbLinetypeTableRecord
  2
BYBLOCK
 70
     0
  3

 72
    65
 73
     0
 40
0.0
  0
LTYPE
  5
458D1
100
AcDbSymbolTableRecord
100
AcDbLinetypeTableRecord
  2
BYLAYER
 70
     0
  3

 72
    65
 73
     0
 40
0.0
  0
LTYPE
  5
458D2
100
AcDbSymbolTableRecord
100
AcDbLinetypeTableRecord
  2
CONTINUOUS
 70
     0
  3
Solid line
 72
    65
 73
     0
 40
0.0
  0
ENDTAB
  0
TABLE
  2
LAYER
  5
458C1
100
AcDbSymbolTable
 70
     7
  0
LAYER
  5
458CD
100
AcDbSymbolTableRecord
100
AcDbLayerTableRecord
  2
0
 70
     0
 62
     7
  6
CONTINUOUS
  0
LAYER
  5
458EA
100
AcDbSymbolTableRecord
100
AcDbLayerTableRecord
  2
DIMS-MTG-HOLES
 70
     0
 62
     1
  6
CONTINUOUS
  0
LAYER
  5
458EB
100
AcDbSymbolTableRecord
100
AcDbLayerTableRecord
  2
ATTRIBUTES
 70
     0
 62
     7
  6
CONTINUOUS
  0
LAYER
  5
45949
102
{ACAD_XDICTIONARY
360
465AA
102
}
100
AcDbSymbolTableRecord
100
AcDbLayerTableRecord
  2
AREA1
 70
     0
 62
    -7
  6
CONTINUOUS
  0
LAYER
  5
4594A
100
AcDbSymbolTableRecord
100
AcDbLayerTableRecord
  2
SCALE
 70
     0
 62
    -7
  6
CONTINUOUS
  0
LAYER
  5
46485
102
{ACAD_XDICTIONARY
360
4657D
102
}
100
AcDbSymbolTableRecord
100
AcDbLayerTableRecord
  2
DEFPOINTS
 70
     0
 62
    -7
  6
CONTINUOUS
  0
LAYER
  5
464D6
100
AcDbSymbolTableRecord
100
AcDbLayerTableRecord
  2
SNAP_POINTS
 70
     0
 62
    -1
  6
CONTINUOUS
  0
ENDTAB
  0
TABLE
  2
STYLE
  5
458C2
100
AcDbSymbolTable
 70
     1
  0
STYLE
  5
458CE
100
AcDbSymbolTableRecord
100
AcDbTextStyleTableRecord
  2
STANDARD
 70
     0
 40
0.0
 41
1.0
 50
0.0
 71
     0
 42
0.12
  3
txt
  4

  0
ENDTAB
  0
TABLE
  2
VIEW
  5
458C5
100
AcDbSymbolTable
 70
     0
  0
ENDTAB
  0
TABLE
  2
UCS
  5
458C6
100
AcDbSymbolTable
 70
     0
  0
ENDTAB
  0
TABLE
  2
APPID
  5
458C8
100
AcDbSymbolTable
 70
     1
  0
APPID
  5
458CF
100
AcDbSymbolTableRecord
100
AcDbRegAppTableRecord
  2
ACAD
 70
     0
  0
ENDTAB
  0
TABLE
  2
DIMSTYLE
  5
458C9
100
AcDbSymbolTable
 70
     2
  0
DIMSTYLE
105
458F1
102
{ACAD_XDICTIONARY
360
465A4
102
}
100
AcDbSymbolTableRecord
100
AcDbDimStyleTableRecord
  2
ABECAD
 70
     0
  3

  4

  5

  6

  7

 40
1.0
 41
0.18
 42
0.0625
 43
0.375
 44
0.18
 45
0.0
 46
0.0
 47
0.0
 48
0.0
140
0.18
141
0.09
142
0.0
143
25.4
144
1.0
145
0.0
146
1.5
147
0.09
 71
     0
 72
     0
 73
     0
 74
     1
 75
     0
 76
     0
 77
     0
 78
     4
170
     1
171
     1
172
     0
173
     0
174
     0
175
     0
176
     0
177
     0
178
     0
270
     7
271
     6
272
     6
273
     2
274
     1
340
458CE
275
     0
280
     0
281
     0
282
     0
283
     1
284
     4
285
     4
286
     4
287
     3
288
     0
  0
DIMSTYLE
105
458F6
102
{ACAD_XDICTIONARY
360
465A6
102
}
102
{ACAD_REACTORS
330
46484
330
46493
102
}
100
AcDbSymbolTableRecord
100
AcDbDimStyleTableRecord
  2
ABECAD_3D
 70
     0
  3

  4

  5

  6

  7

 40
1.0
 41
0.18
 42
0.0625
 43
0.375
 44
0.18
 45
0.0
 46
0.0
 47
0.0
 48
0.0
140
0.18
141
0.09
142
0.0
143
25.4
144
1.0
145
0.0
146
1.5
147
0.09
 71
     0
 72
     0
 73
     0
 74
     1
 75
     0
 76
     0
 77
     0
 78
     4
170
     1
171
     1
172
     0
173
     0
174
     0
175
     0
176
     0
177
     0
178
     0
270
     7
271
     6
272
     6
273
     2
274
     1
340
458CE
275
     0
280
     0
281
     0
282
     0
283
     1
284
     4
285
     4
286
     4
287
     3
288
     0
  0
ENDTAB
  0
TABLE
  2
BLOCK_RECORD
  5
458C0
100
AcDbSymbolTable
 70
     3
  0
BLOCK_RECORD
  5
458D6
102
{ACAD_XDICTIONARY
360
4592C
102
}
100
AcDbSymbolTableRecord
100
AcDbBlockTableRecord
  2
*MODEL_SPACE
  0
BLOCK_RECORD
  5
458D3
102
{ACAD_XDICTIONARY
360
4592A
102
}
100
AcDbSymbolTableRecord
100
AcDbBlockTableRecord
  2
*PAPER_SPACE
  0
BLOCK_RECORD
  5
4593B
102
{ACAD_XDICTIONARY
360
4657B
102
}
100
AcDbSymbolTableRecord
100
AcDbBlockTableRecord
  2
SCALE
  0
BLOCK_RECORD
  5
46486
100
AcDbSymbolTableRecord
100
AcDbBlockTableRecord
  2
*D1
  0
BLOCK_RECORD
  5
46494
100
AcDbSymbolTableRecord
100
AcDbBlockTableRecord
  2
*D2
  0
ENDTAB
  0
ENDSEC
  0
SECTION
  2
BLOCKS
  0
BLOCK
  5
458DF
100
AcDbEntity
  8
0
100
AcDbBlockBegin
  2
*MODEL_SPACE
 70
     0
 10
0.0
 20
0.0
 30
0.0
  3
*MODEL_SPACE
  1

  0
ENDBLK
  5
458E0
100
AcDbEntity
  8
0
100
AcDbBlockEnd
  0
BLOCK
  5
458DD
100
AcDbEntity
 67
     1
  8
0
100
AcDbBlockBegin
  2
*PAPER_SPACE
 70
     0
 10
0.0
 20
0.0
 30
0.0
  3
*PAPER_SPACE
  1

  0
ENDBLK
  5
458DE
100
AcDbEntity
 67
     1
  8
0
100
AcDbBlockEnd
  0
BLOCK
  5
45947
100
AcDbEntity
  8
0
100
AcDbBlockBegin
  2
SCALE
 70
     0
 10
0.0
 20
0.0
 30
0.0
  3
SCALE
  1

  0
LWPOLYLINE
  5
4595C
100
AcDbEntity
  8
SCALE
100
AcDbPolyline
 90
        4
 70
     1
 43
0.0
 10
0.0
 20
0.0
 10
1.135629
 20
0.0
 10
1.135629
 20
-0.84161
 10
0.0
 20
-0.84161
  0
LINE
  5
4595D
100
AcDbEntity
  8
SCALE
100
AcDbLine
 10
0.057999
 20
-0.380078
 30
0.0
 11
1.057999
 21
-0.380078
 31
0.0
  0
LINE
  5
4595E
100
AcDbEntity
  8
SCALE
100
AcDbLine
 10
0.057999
 20
-0.480078
 30
0.0
 11
0.057999
 21
-0.280078
 31
0.0
  0
TEXT
  5
4595F
100
AcDbEntity
  8
SCALE
100
AcDbText
 10
0.117421
 20
-0.634339
 30
0.0
 40
0.0625
  1
[10mm]
100
AcDbText
  0
LINE
  5
45960
100
AcDbEntity
  8
SCALE
100
AcDbLine
 10
0.057999
 20
-0.680078
 30
0.0
 11
0.451699
 21
-0.680078
 31
0.0
  0
LINE
  5
45961
100
AcDbEntity
  8
SCALE
100
AcDbLine
 10
0.057999
 20
-0.780078
 30
0.0
 11
0.057999
 21
-0.580078
 31
0.0
  0
LINE
  5
45962
100
AcDbEntity
  8
SCALE
100
AcDbLine
 10
0.451699
 20
-0.780078
 30
0.0
 11
0.451699
 21
-0.580078
 31
0.0
  0
TEXT
  5
45963
100
AcDbEntity
  8
SCALE
100
AcDbText
 10
0.059529
 20
-0.105201
 30
0.0
 40
0.0625
  1
SCALE:
100
AcDbText
  0
TEXT
  5
45964
100
AcDbEntity
  8
SCALE
100
AcDbText
 10
0.421282
 20
-0.31103
 30
0.0
 40
0.0625
  1
1 Inch
100
AcDbText
  0
LINE
  5
45965
100
AcDbEntity
  8
SCALE
100
AcDbLine
 10
1.057999
 20
-0.480078
 30
0.0
 11
1.057999
 21
-0.280078
 31
0.0
  0
LINE
  5
45966
100
AcDbEntity
  8
SCALE
100
AcDbLine
 10
1.057999
 20
-0.380078
 30
0.0
 11
1.057999
 21
-0.480078
 31
0.0
  0
ENDBLK
  5
45948
100
AcDbEntity
  8
0
100
AcDbBlockEnd
  0
BLOCK
  5
46491
100
AcDbEntity
  8
0
100
AcDbBlockBegin
  2
*D1
 70
     1
 10
0.0
 20
0.0
 30
0.0
  3
*D1
  1

  0
LINE
  5
46487
100
AcDbEntity
  8
AREA1
 62
     0
100
AcDbLine
 10
7.1695
 20
-6.47
 30
0.0
 11
9.944512
 21
-6.47
 31
0.0
1001
ACAD
1000
RTLwPs
1070
   158
  0
LINE
  5
46488
100
AcDbEntity
  8
AREA1
 62
     0
100
AcDbLine
 10
7.1695
 20
0.26
 30
0.0
 11
9.944512
 21
0.26
 31
0.0
1001
ACAD
1000
RTLwPs
1070
   158
  0
LINE
  5
46489
100
AcDbEntity
  8
AREA1
 62
     0
100
AcDbLine
 10
9.764512
 20
-6.29
 30
0.0
 11
9.764512
 21
-4.35
 31
0.0
1001
ACAD
1000
RTLwPs
1070
   158
  0
LINE
  5
4648A
100
AcDbEntity
  8
AREA1
 62
     0
100
AcDbLine
 10
9.764512
 20
0.08
 30
0.0
 11
9.764512
 21
-1.86
 31
0.0
1001
ACAD
1000
RTLwPs
1070
   158
  0
SOLID
  5
4648B
100
AcDbEntity
  8
AREA1
 62
     0
100
AcDbTrace
 10
9.734512
 20
-6.29
 30
0.0
 11
9.794512
 21
-6.29
 31
0.0
 12
9.764512
 22
-6.47
 32
0.0
 13
9.764512
 23
-6.47
 33
0.0
  0
SOLID
  5
4648C
100
AcDbEntity
  8
AREA1
 62
     0
100
AcDbTrace
 10
9.734512
 20
0.08
 30
0.0
 11
9.794512
 21
0.08
 31
0.0
 12
9.764512
 22
0.26
 32
0.0
 13
9.764512
 23
0.26
 33
0.0
  0
MTEXT
  5
4648D
100
AcDbEntity
  8
AREA1
 62
     0
100
AcDbMText
 10
9.764512
 20
-3.105
 30
0.0
 40
0.18
 41
0.0
 71
     5
 72
     1
  1
\A1;6 47/64 [170.9]
 11
0.0
 21
1.0
 31
0.0
1001
ACAD
1000
MTEXTBEGIN
1070
    73
1070
     1
1070
    44
1040
1.0
1070
    74
1070
     0
1000
MTEXTEND
1000
MTEXTBEGIN
1070
    73
1070
     1
1070
    44
1040
1.0
1070
    74
1070
     0
1000
MTEXTEND
1000
MTEXTBEGIN
1070
    73
1070
     1
1070
    44
1040
1.0
1070
    74
1070
     0
1000
MTEXTEND
1000
MTEXTBEGIN
1070
    73
1070
     1
1070
    44
1040
1.0
1070
    74
1070
     0
1000
MTEXTEND
1000
MTEXTBEGIN
1070
    73
1070
     1
1070
    44
1040
1.0
1070
    74
1070
     0
1000
MTEXTEND
  0
POINT
  5
4648E
100
AcDbEntity
  8
DEFPOINTS
 62
     0
100
AcDbPoint
 10
7.107
 20
-6.47
 30
0.0
  0
POINT
  5
4648F
100
AcDbEntity
  8
DEFPOINTS
 62
     0
100
AcDbPoint
 10
7.107
 20
0.26
 30
0.0
  0
POINT
  5
46490
100
AcDbEntity
  8
DEFPOINTS
 62
     0
100
AcDbPoint
 10
9.764512
 20
0.26
 30
0.0
  0
ENDBLK
  5
46492
100
AcDbEntity
  8
0
100
AcDbBlockEnd
  0
BLOCK
  5
4649F
100
AcDbEntity
  8
0
100
AcDbBlockBegin
  2
*D2
 70
     1
 10
0.0
 20
0.0
 30
0.0
  3
*D2
  1

  0
LINE
  5
46495
100
AcDbEntity
  8
AREA1
 62
     0
100
AcDbLine
 10
-2.57
 20
-0.3875
 30
0.0
 11
-2.57
 21
1.435735
 31
0.0
1001
ACAD
1000
RTLwPs
1070
   158
  0
LINE
  5
46496
100
AcDbEntity
  8
AREA1
 62
     0
100
AcDbLine
 10
8.66
 20
-0.3475
 30
0.0
 11
8.66
 21
1.435735
 31
0.0
1001
ACAD
1000
RTLwPs
1070
   158
  0
LINE
  5
46497
100
AcDbEntity
  8
AREA1
 62
     0
100
AcDbLine
 10
-2.39
 20
1.255735
 30
0.0
 11
1.755
 21
1.255735
 31
0.0
1001
ACAD
1000
RTLwPs
1070
   158
  0
LINE
  5
46498
100
AcDbEntity
  8
AREA1
 62
     0
100
AcDbLine
 10
8.48
 20
1.255735
 30
0.0
 11
4.335
 21
1.255735
 31
0.0
1001
ACAD
1000
RTLwPs
1070
   158
  0
SOLID
  5
46499
100
AcDbEntity
  8
AREA1
 62
     0
100
AcDbTrace
 10
-2.39
 20
1.285735
 30
0.0
 11
-2.39
 21
1.225735
 31
0.0
 12
-2.57
 22
1.255735
 32
0.0
 13
-2.57
 23
1.255735
 33
0.0
  0
SOLID
  5
4649A
100
AcDbEntity
  8
AREA1
 62
     0
100
AcDbTrace
 10
8.48
 20
1.285735
 30
0.0
 11
8.48
 21
1.225735
 31
0.0
 12
8.66
 22
1.255735
 32
0.0
 13
8.66
 23
1.255735
 33
0.0
  0
MTEXT
  5
4649B
100
AcDbEntity
  8
AREA1
 62
     0
100
AcDbMText
 10
3.045
 20
1.255735
 30
0.0
 40
0.18
 41
0.0
 71
     5
 72
     1
  1
\A1;11 15/64 [285.2]
1001
ACAD
1000
MTEXTBEGIN
1070
    73
1070
     1
1070
    44
1040
1.0
1070
    74
1070
     0
1000
MTEXTEND
1000
MTEXTBEGIN
1070
    73
1070
     1
1070
    44
1040
1.0
1070
    74
1070
     0
1000
MTEXTEND
1000
MTEXTBEGIN
1070
    73
1070
     1
1070
    44
1040
1.0
1070
    74
1070
     0
1000
MTEXTEND
1000
MTEXTBEGIN
1070
    73
1070
     1
1070
    44
1040
1.0
1070
    74
1070
     0
1000
MTEXTEND
1000
MTEXTBEGIN
1070
    73
1070
     1
1070
    44
1040
1.0
1070
    74
1070
     0
1000
MTEXTEND
  0
POINT
  5
4649C
100
AcDbEntity
  8
DEFPOINTS
 62
     0
100
AcDbPoint
 10
-2.57
 20
-0.45
 30
0.0
  0
POINT
  5
4649D
100
AcDbEntity
  8
DEFPOINTS
 62
     0
100
AcDbPoint
 10
8.66
 20
-0.41
 30
0.0
  0
POINT
  5
4649E
100
AcDbEntity
  8
DEFPOINTS
 62
     0
100
AcDbPoint
 10
8.66
 20
1.255735
 30
0.0
  0
ENDBLK
  5
464A0
100
AcDbEntity
  8
0
100
AcDbBlockEnd
  0
ENDSEC
  0
SECTION
  2
ENTITIES
  0
ATTDEF
  5
1
100
AcDbEntity
  8
ATTRIBUTES
100
AcDbText
 10
-2.435123
 20
-2.672556
 30
-0.1
 40
0.18
  1
ALLEN-BRADLEY
100
AcDbAttributeDefinition
  3
MANUFACTURER NAME?
  2
AC_VND_LABEL
 70
     1
  0
ATTDEF
  5
2
100
AcDbEntity
  8
ATTRIBUTES
100
AcDbText
 10
-2.435123
 20
-3.047556
 30
-0.1
 40
0.18
  1
1746-A7
100
AcDbAttributeDefinition
  3
CATALOG NUMBER?
  2
AC_PART_NO
 70
     1
  0
ATTDEF
  5
3
100
AcDbEntity
  8
ATTRIBUTES
100
AcDbText
 10
-2.435123
 20
-3.422556
 30
-0.1
 40
0.18
  1
1746-A7:7-SLOT RACK, MODULAR HARDWARE STYLE
100
AcDbAttributeDefinition
  3
PART DESCRIPTION?
  2
AC_DESCRIPTION
 70
     1
  0
ATTDEF
  5
4
100
AcDbEntity
  8
ATTRIBUTES
100
AcDbText
 10
-2.435123
 20
-3.797556
 30
-0.1
 40
0.18
  1

100
AcDbAttributeDefinition
  3
DEVICE ID?
  2
DEVICE_ID
 70
     1
  0
ATTDEF
  5
5
100
AcDbEntity
  8
ATTRIBUTES
100
AcDbText
 10
-2.435123
 20
-4.172556
 30
-0.1
 40
0.18
  1

100
AcDbAttributeDefinition
  3
CUSTOMER PART NUMBER?
  2
AC_CPART_NO
 70
     1
  0
ATTDEF
  5
6
100
AcDbEntity
  8
ATTRIBUTES
100
AcDbText
 10
-2.435123
 20
-4.547556
 30
-0.1
 40
0.18
  1

100
AcDbAttributeDefinition
  3
CUSTOMER NOTE?
  2
AC_NOTE
 70
     1
  0
ATTDEF
  5
7
100
AcDbEntity
  8
ATTRIBUTES
100
AcDbText
 10
-2.435123
 20
-4.922556
 30
-0.1
 40
0.18
  1

100
AcDbAttributeDefinition
  3
FASTENER DATA?
  2
FASTENER
 70
     1
  0
ATTDEF
  5
8
100
AcDbEntity
  8
ATTRIBUTES
100
AcDbText
 10
-2.435123
 20
-5.297556
 30
-0.1
 40
0.18
  1
INCH
100
AcDbAttributeDefinition
  3
UNIT OF SCALE?
  2
AC_SCALE_UNIT
 70
     1
  0
ATTDEF
  5
9
100
AcDbEntity
  8
ATTRIBUTES
100
AcDbText
 10
-2.435123
 20
-5.672556
 30
-0.1
 40
0.18
  1
0
100
AcDbAttributeDefinition
  3
VIEW CODE?
  2
AC_VIEW_CODE
 70
     1
  0
INSERT
  5
45967
100
AcDbEntity
  8
SCALE
100
AcDbBlockReference
  2
SCALE
 10
-2.519197
 20
-6.352241
 30
0.0
  0
POLYLINE
  5
45EFF
100
AcDbEntity
  8
0
100
AcDbPolygonMesh
 66
     1
 10
0.0
 20
0.0
 30
0.0
 70
    16
 71
     6
 72
     3
  0
VERTEX
  5
45F00
100
AcDbEntity
  8
0
100
AcDbVertex
100
AcDbPolygonMeshVertex
 10
8.26
 20
-5.879709
 30
0.040001
 70
    64
  0
VERTEX
  5
45F01
100
AcDbEntity
  8
0
100
AcDbVertex
100
AcDbPolygonMeshVertex
 10
8.26
 20
-5.879709
 30
0.0
 70
    64
  0
VERTEX
  5
45F02
100
AcDbEntity
  8
0
100
AcDbVertex
100
AcDbPolygonMeshVertex
 10
8.26
 20
-5.879709
 30
0.0
 70
    64
  0
VERTEX
  5
45F03
100
AcDbEntity
  8
0
100
AcDbVertex
100
AcDbPolygonMeshVertex
 10
-2.57
 20
-5.879709
 30
0.040001
 70
    64
  0
VERTEX
  5
45F04
100
AcDbEntity
  8
0
100
AcDbVertex
100
AcDbPolygonMeshVertex
 10
-2.57
 20
-5.879709
 30
0.0
 70
    64
  0
VERTEX
  5
45F05
100
AcDbEntity
  8
0
100
AcDbVertex
100
AcDbPolygonMeshVertex
 10
-2.57
 20
-5.879709
 30
0.0
 70
    64
  0
VERTEX
  5
45F06
100
AcDbEntity
  8
0
100
AcDbVertex
100
AcDbPolygonMeshVertex
 10
-2.57
 20
-0.45
 30
0.040001
 70
    64
  0
VERTEX
  5
45F07
100
AcDbEntity
  8
0
100
AcDbVertex
100
AcDbPolygonMeshVertex
 10
-2.57
 20
-0.45
 30
0.0
 70
    64
  0
VERTEX
  5
45F08
100
AcDbEntity
  8
0
100
AcDbVertex
100
AcDbPolygonMeshVertex
 10
-2.57
 20
-5.879709
 30
0.0
 70
    64
  0
VERTEX
  5
45F09
100
AcDbEntity
  8
0
100
AcDbVertex
100
AcDbPolygonMeshVertex
 10
8.26
 20
-0.45
 30
0.040001
 70
    64
  0
VERTEX
  5
45F0A
100
AcDbEntity
  8
0
100
AcDbVertex
100
AcDbPolygonMeshVertex
 10
8.26
 20
-0.45
 30
0.0
 70
    64
  0
VERTEX
  5
45F0B
100
AcDbEntity
  8
0
100
AcDbVertex
100
AcDbPolygonMeshVertex
 10
8.26
 20
-5.879709
 30
0.0
 70
    64
  0
VERTEX
  5
45F0C
100
AcDbEntity
  8
0
100
AcDbVertex
100
AcDbPolygonMeshVertex
 10
8.26
 20
-0.45
 30
0.040001
 70
    64
  0
VERTEX
  5
45F0D
100
AcDbEntity
  8
0
100
AcDbVertex
100
AcDbPolygonMeshVertex
 10
8.26
 20
-0.45
 30
0.040001
 70
    64
  0
VERTEX
  5
45F0E
100
AcDbEntity
  8
0
100
AcDbVertex
100
AcDbPolygonMeshVertex
 10
8.26
 20
-5.879709
 30
0.040001
 70
    64
  0
VERTEX
  5
45F0F
100
AcDbEntity
  8
0
100
AcDbVertex
100
AcDbPolygonMeshVertex
 10
-2.57
 20
-0.45
 30
0.040001
 70
    64
  0
VERTEX
  5
45F10
100
AcDbEntity
  8
0
100
AcDbVertex
100
AcDbPolygonMeshVertex
 10
-2.57
 20
-0.45
 30
0.040001
 70
    64
  0
VERTEX
  5
45F11
100
AcDbEntity
  8
0
100
AcDbVertex
100
AcDbPolygonMeshVertex
 10
-2.57
 20
-5.879709
 30
0.040001
 70
    64
  0
SEQEND
  5
45F12
100
AcDbEntity
  8
0
  0
POLYLINE
  5
45F13
100
AcDbEntity
  8
0
100
AcDbPolygonMesh
 66
     1
 10
0.0
 20
0.0
 30
0.0
 70
    16
 71
     6
 72
     3
  0
VERTEX
  5
45F14
100
AcDbEntity
  8
0
100
AcDbVertex
100
AcDbPolygonMeshVertex
 10
8.26
 20
-0.41
 30
3.85
 70
    64
  0
VERTEX
  5
45F15
100
AcDbEntity
  8
0
100
AcDbVertex
100
AcDbPolygonMeshVertex
 10
8.26
 20
-0.41
 30
0.0
 70
    64
  0
VERTEX
  5
45F16
100
AcDbEntity
  8
0
100
AcDbVertex
100
AcDbPolygonMeshVertex
 10
8.26
 20
-0.41
 30
0.0
 70
    64
  0
VERTEX
  5
45F17
100
AcDbEntity
  8
0
100
AcDbVertex
100
AcDbPolygonMeshVertex
 10
-2.57
 20
-0.41
 30
3.85
 70
    64
  0
VERTEX
  5
45F18
100
AcDbEntity
  8
0
100
AcDbVertex
100
AcDbPolygonMeshVertex
 10
-2.57
 20
-0.41
 30
0.0
 70
    64
  0
VERTEX
  5
45F19
100
AcDbEntity
  8
0
100
AcDbVertex
100
AcDbPolygonMeshVertex
 10
-2.57
 20
-0.41
 30
0.0
 70
    64
  0
VERTEX
  5
45F1A
100
AcDbEntity
  8
0
100
AcDbVertex
100
AcDbPolygonMeshVertex
 10
-2.57
 20
-0.450291
 30
3.85
 70
    64
  0
VERTEX
  5
45F1B
100
AcDbEntity
  8
0
100
AcDbVertex
100
AcDbPolygonMeshVertex
 10
-2.57
 20
-0.450291
 30
0.0
 70
    64
  0
VERTEX
  5
45F1C
100
AcDbEntity
  8
0
100
AcDbVertex
100
AcDbPolygonMeshVertex
 10
-2.57
 20
-0.41
 30
0.0
 70
    64
  0
VERTEX
  5
45F1D
100
AcDbEntity
  8
0
100
AcDbVertex
100
AcDbPolygonMeshVertex
 10
8.26
 20
-0.450291
 30
3.85
 70
    64
  0
VERTEX
  5
45F1E
100
AcDbEntity
  8
0
100
AcDbVertex
100
AcDbPolygonMeshVertex
 10
8.26
 20
-0.450291
 30
0.0
 70
    64
  0
VERTEX
  5
45F1F
100
AcDbEntity
  8
0
100
AcDbVertex
100
AcDbPolygonMeshVertex
 10
8.26
 20
-0.41
 30
0.0
 70
    64
  0
VERTEX
  5
45F20
100
AcDbEntity
  8
0
100
AcDbVertex
100
AcDbPolygonMeshVertex
 10
8.26
 20
-0.450291
 30
3.85
 70
    64
  0
VERTEX
  5
45F21
100
AcDbEntity
  8
0
100
AcDbVertex
100
AcDbPolygonMeshVertex
 10
8.26
 20
-0.450291
 30
3.85
 70
    64
  0
VERTEX
  5
45F22
100
AcDbEntity
  8
0
100
AcDbVertex
100
AcDbPolygonMeshVertex
 10
8.26
 20
-0.41
 30
3.85
 70
    64
  0
VERTEX
  5
45F23
100
AcDbEntity
  8
0
100
AcDbVertex
100
AcDbPolygonMeshVertex
 10
-2.57
 20
-0.450291
 30
3.85
 70
    64
  0
VERTEX
  5
45F24
100
AcDbEntity
  8
0
100
AcDbVertex
100
AcDbPolygonMeshVertex
 10
-2.57
 20
-0.450291
 30
3.85
 70
    64
  0
VERTEX
  5
45F25
100
AcDbEntity
  8
0
100
AcDbVertex
100
AcDbPolygonMeshVertex
 10
-2.57
 20
-0.41
 30
3.85
 70
    64
  0
SEQEND
  5
45F26
100
AcDbEntity
  8
0
  0
POLYLINE
  5
45F27
100
AcDbEntity
  8
0
100
AcDbPolygonMesh
 66
     1
 10
0.0
 20
0.0
 30
0.0
 70
    16
 71
     6
 72
     3
  0
VERTEX
  5
45F28
100
AcDbEntity
  8
0
100
AcDbVertex
100
AcDbPolygonMeshVertex
 10
8.26
 20
-5.92
 30
3.85
 70
    64
  0
VERTEX
  5
45F29
100
AcDbEntity
  8
0
100
AcDbVertex
100
AcDbPolygonMeshVertex
 10
8.26
 20
-5.92
 30
0.0
 70
    64
  0
VERTEX
  5
45F2A
100
AcDbEntity
  8
0
100
AcDbVertex
100
AcDbPolygonMeshVertex
 10
8.26
 20
-5.92
 30
0.0
 70
    64
  0
VERTEX
  5
45F2B
100
AcDbEntity
  8
0
100
AcDbVertex
100
AcDbPolygonMeshVertex
 10
-2.57
 20
-5.92
 30
3.85
 70
    64
  0
VERTEX
  5
45F2C
100
AcDbEntity
  8
0
100
AcDbVertex
100
AcDbPolygonMeshVertex
 10
-2.57
 20
-5.92
 30
0.0
 70
    64
  0
VERTEX
  5
45F2D
100
AcDbEntity
  8
0
100
AcDbVertex
100
AcDbPolygonMeshVertex
 10
-2.57
 20
-5.92
 30
0.0
 70
    64
  0
VERTEX
  5
45F2E
100
AcDbEntity
  8
0
100
AcDbVertex
100
AcDbPolygonMeshVertex
 10
-2.57
 20
-5.879709
 30
3.85
 70
    64
  0
VERTEX
  5
45F2F
100
AcDbEntity
  8
0
100
AcDbVertex
100
AcDbPolygonMeshVertex
 10
-2.57
 20
-5.879709
 30
0.0
 70
    64
  0
VERTEX
  5
45F30
100
AcDbEntity
  8
0
100
AcDbVertex
100
AcDbPolygonMeshVertex
 10
-2.57
 20
-5.92
 30
0.0
 70
    64
  0
VERTEX
  5
45F31
100
AcDbEntity
  8
0
100
AcDbVertex
100
AcDbPolygonMeshVertex
 10
8.26
 20
-5.879709
 30
3.85
 70
    64
  0
VERTEX
  5
45F32
100
AcDbEntity
  8
0
100
AcDbVertex
100
AcDbPolygonMeshVertex
 10
8.26
 20
-5.879709
 30
0.0
 70
    64
  0
VERTEX
  5
45F33
100
AcDbEntity
  8
0
100
AcDbVertex
100
AcDbPolygonMeshVertex
 10
8.26
 20
-5.92
 30
0.0
 70
    64
  0
VERTEX
  5
45F34
100
AcDbEntity
  8
0
100
AcDbVertex
100
AcDbPolygonMeshVertex
 10
8.26
 20
-5.879709
 30
3.85
 70
    64
  0
VERTEX
  5
45F35
100
AcDbEntity
  8
0
100
AcDbVertex
100
AcDbPolygonMeshVertex
 10
8.26
 20
-5.879709
 30
3.85
 70
    64
  0
VERTEX
  5
45F36
100
AcDbEntity
  8
0
100
AcDbVertex
100
AcDbPolygonMeshVertex
 10
8.26
 20
-5.92
 30
3.85
 70
    64
  0
VERTEX
  5
45F37
100
AcDbEntity
  8
0
100
AcDbVertex
100
AcDbPolygonMeshVertex
 10
-2.57
 20
-5.879709
 30
3.85
 70
    64
  0
VERTEX
  5
45F38
100
AcDbEntity
  8
0
100
AcDbVertex
100
AcDbPolygonMeshVertex
 10
-2.57
 20
-5.879709
 30
3.85
 70
    64
  0
VERTEX
  5
45F39
100
AcDbEntity
  8
0
100
AcDbVertex
100
AcDbPolygonMeshVertex
 10
-2.57
 20
-5.92
 30
3.85
 70
    64
  0
SEQEND
  5
45F3A
100
AcDbEntity
  8
0
  0
POLYLINE
  5
45F3B
100
AcDbEntity
  8
0
100
AcDbPolygonMesh
 66
     1
 10
0.0
 20
0.0
 30
0.0
 70
    16
 71
     6
 72
     3
  0
VERTEX
  5
45F3C
100
AcDbEntity
  8
0
100
AcDbVertex
100
AcDbPolygonMeshVertex
 10
4.13
 20
-0.41
 30
3.85
 70
    64
  0
VERTEX
  5
45F3D
100
AcDbEntity
  8
0
100
AcDbVertex
100
AcDbPolygonMeshVertex
 10
4.13
 20
-0.41
 30
0.0
 70
    64
  0
VERTEX
  5
45F3E
100
AcDbEntity
  8
0
100
AcDbVertex
100
AcDbPolygonMeshVertex
 10
4.13
 20
-0.41
 30
0.0
 70
    64
  0
VERTEX
  5
45F3F
100
AcDbEntity
  8
0
100
AcDbVertex
100
AcDbPolygonMeshVertex
 10
-2.57
 20
-0.41
 30
3.85
 70
    64
  0
VERTEX
  5
45F40
100
AcDbEntity
  8
0
100
AcDbVertex
100
AcDbPolygonMeshVertex
 10
-2.57
 20
-0.41
 30
0.0
 70
    64
  0
VERTEX
  5
45F41
100
AcDbEntity
  8
0
100
AcDbVertex
100
AcDbPolygonMeshVertex
 10
-2.57
 20
-0.41
 30
0.0
 70
    64
  0
VERTEX
  5
45F42
100
AcDbEntity
  8
0
100
AcDbVertex
100
AcDbPolygonMeshVertex
 10
-2.57
 20
-0.450291
 30
3.85
 70
    64
  0
VERTEX
  5
45F43
100
AcDbEntity
  8
0
100
AcDbVertex
100
AcDbPolygonMeshVertex
 10
-2.57
 20
-0.450291
 30
0.0
 70
    64
  0
VERTEX
  5
45F44
100
AcDbEntity
  8
0
100
AcDbVertex
100
AcDbPolygonMeshVertex
 10
-2.57
 20
-0.41
 30
0.0
 70
    64
  0
VERTEX
  5
45F45
100
AcDbEntity
  8
0
100
AcDbVertex
100
AcDbPolygonMeshVertex
 10
4.13
 20
-0.450291
 30
3.85
 70
    64
  0
VERTEX
  5
45F46
100
AcDbEntity
  8
0
100
AcDbVertex
100
AcDbPolygonMeshVertex
 10
4.13
 20
-0.450291
 30
0.0
 70
    64
  0
VERTEX
  5
45F47
100
AcDbEntity
  8
0
100
AcDbVertex
100
AcDbPolygonMeshVertex
 10
4.13
 20
-0.41
 30
0.0
 70
    64
  0
VERTEX
  5
45F48
100
AcDbEntity
  8
0
100
AcDbVertex
100
AcDbPolygonMeshVertex
 10
4.13
 20
-0.450291
 30
3.85
 70
    64
  0
VERTEX
  5
45F49
100
AcDbEntity
  8
0
100
AcDbVertex
100
AcDbPolygonMeshVertex
 10
4.13
 20
-0.450291
 30
3.85
 70
    64
  0
VERTEX
  5
45F4A
100
AcDbEntity
  8
0
100
AcDbVertex
100
AcDbPolygonMeshVertex
 10
4.13
 20
-0.41
 30
3.85
 70
    64
  0
VERTEX
  5
45F4B
100
AcDbEntity
  8
0
100
AcDbVertex
100
AcDbPolygonMeshVertex
 10
-2.57
 20
-0.450291
 30
3.85
 70
    64
  0
VERTEX
  5
45F4C
100
AcDbEntity
  8
0
100
AcDbVertex
100
AcDbPolygonMeshVertex
 10
-2.57
 20
-0.450291
 30
3.85
 70
    64
  0
VERTEX
  5
45F4D
100
AcDbEntity
  8
0
100
AcDbVertex
100
AcDbPolygonMeshVertex
 10
-2.57
 20
-0.41
 30
3.85
 70
    64
  0
SEQEND
  5
45F4E
100
AcDbEntity
  8
0
  0
POLYLINE
  5
45F4F
100
AcDbEntity
  8
0
100
AcDbPolygonMesh
 66
     1
 10
0.0
 20
0.0
 30
0.0
 70
    16
 71
     6
 72
     3
  0
VERTEX
  5
45F50
100
AcDbEntity
  8
0
100
AcDbVertex
100
AcDbPolygonMeshVertex
 10
8.26
 20
-0.41
 30
3.85
 70
    64
  0
VERTEX
  5
45F51
100
AcDbEntity
  8
0
100
AcDbVertex
100
AcDbPolygonMeshVertex
 10
8.26
 20
-0.41
 30
0.0
 70
    64
  0
VERTEX
  5
45F52
100
AcDbEntity
  8
0
100
AcDbVertex
100
AcDbPolygonMeshVertex
 10
8.26
 20
-0.41
 30
0.0
 70
    64
  0
VERTEX
  5
45F53
100
AcDbEntity
  8
0
100
AcDbVertex
100
AcDbPolygonMeshVertex
 10
1.56
 20
-0.41
 30
3.85
 70
    64
  0
VERTEX
  5
45F54
100
AcDbEntity
  8
0
100
AcDbVertex
100
AcDbPolygonMeshVertex
 10
1.56
 20
-0.41
 30
0.0
 70
    64
  0
VERTEX
  5
45F55
100
AcDbEntity
  8
0
100
AcDbVertex
100
AcDbPolygonMeshVertex
 10
1.56
 20
-0.41
 30
0.0
 70
    64
  0
VERTEX
  5
45F56
100
AcDbEntity
  8
0
100
AcDbVertex
100
AcDbPolygonMeshVertex
 10
1.56
 20
-0.450291
 30
3.85
 70
    64
  0
VERTEX
  5
45F57
100
AcDbEntity
  8
0
100
AcDbVertex
100
AcDbPolygonMeshVertex
 10
1.56
 20
-0.450291
 30
0.0
 70
    64
  0
VERTEX
  5
45F58
100
AcDbEntity
  8
0
100
AcDbVertex
100
AcDbPolygonMeshVertex
 10
1.56
 20
-0.41
 30
0.0
 70
    64
  0
VERTEX
  5
45F59
100
AcDbEntity
  8
0
100
AcDbVertex
100
AcDbPolygonMeshVertex
 10
8.26
 20
-0.450291
 30
3.85
 70
    64
  0
VERTEX
  5
45F5A
100
AcDbEntity
  8
0
100
AcDbVertex
100
AcDbPolygonMeshVertex
 10
8.26
 20
-0.450291
 30
0.0
 70
    64
  0
VERTEX
  5
45F5B
100
AcDbEntity
  8
0
100
AcDbVertex
100
AcDbPolygonMeshVertex
 10
8.26
 20
-0.41
 30
0.0
 70
    64
  0
VERTEX
  5
45F5C
100
AcDbEntity
  8
0
100
AcDbVertex
100
AcDbPolygonMeshVertex
 10
8.26
 20
-0.450291
 30
3.85
 70
    64
  0
VERTEX
  5
45F5D
100
AcDbEntity
  8
0
100
AcDbVertex
100
AcDbPolygonMeshVertex
 10
8.26
 20
-0.450291
 30
3.85
 70
    64
  0
VERTEX
  5
45F5E
100
AcDbEntity
  8
0
100
AcDbVertex
100
AcDbPolygonMeshVertex
 10
8.26
 20
-0.41
 30
3.85
 70
    64
  0
VERTEX
  5
45F5F
100
AcDbEntity
  8
0
100
AcDbVertex
100
AcDbPolygonMeshVertex
 10
1.56
 20
-0.450291
 30
3.85
 70
    64
  0
VERTEX
  5
45F60
100
AcDbEntity
  8
0
100
AcDbVertex
100
AcDbPolygonMeshVertex
 10
1.56
 20
-0.450291
 30
3.85
 70
    64
  0
VERTEX
  5
45F61
100
AcDbEntity
  8
0
100
AcDbVertex
100
AcDbPolygonMeshVertex
 10
1.56
 20
-0.41
 30
3.85
 70
    64
  0
SEQEND
  5
45F62
100
AcDbEntity
  8
0
  0
POLYLINE
  5
45F63
100
AcDbEntity
  8
0
100
AcDbPolygonMesh
 66
     1
 10
0.0
 20
0.0
 30
0.0
 70
    16
 71
     6
 72
     3
  0
VERTEX
  5
45F64
100
AcDbEntity
  8
0
100
AcDbVertex
100
AcDbPolygonMeshVertex
 10
-0.317
 20
-0.41
 30
0.04
 70
    64
  0
VERTEX
  5
45F65
100
AcDbEntity
  8
0
100
AcDbVertex
100
AcDbPolygonMeshVertex
 10
-0.317
 20
-0.41
 30
0.0
 70
    64
  0
VERTEX
  5
45F66
100
AcDbEntity
  8
0
100
AcDbVertex
100
AcDbPolygonMeshVertex
 10
-0.317
 20
-0.41
 30
0.0
 70
    64
  0
VERTEX
  5
45F67
100
AcDbEntity
  8
0
100
AcDbVertex
100
AcDbPolygonMeshVertex
 10
-0.317
 20
0.26
 30
0.04
 70
    64
  0
VERTEX
  5
45F68
100
AcDbEntity
  8
0
100
AcDbVertex
100
AcDbPolygonMeshVertex
 10
-0.317
 20
0.26
 30
0.0
 70
    64
  0
VERTEX
  5
45F69
100
AcDbEntity
  8
0
100
AcDbVertex
100
AcDbPolygonMeshVertex
 10
-0.317
 20
0.26
 30
0.0
 70
    64
  0
VERTEX
  5
45F6A
100
AcDbEntity
  8
0
100
AcDbVertex
100
AcDbPolygonMeshVertex
 10
0.317
 20
0.26
 30
0.04
 70
    64
  0
VERTEX
  5
45F6B
100
AcDbEntity
  8
0
100
AcDbVertex
100
AcDbPolygonMeshVertex
 10
0.317
 20
0.26
 30
0.0
 70
    64
  0
VERTEX
  5
45F6C
100
AcDbEntity
  8
0
100
AcDbVertex
100
AcDbPolygonMeshVertex
 10
-0.317
 20
0.26
 30
0.0
 70
    64
  0
VERTEX
  5
45F6D
100
AcDbEntity
  8
0
100
AcDbVertex
100
AcDbPolygonMeshVertex
 10
0.317
 20
-0.41
 30
0.04
 70
    64
  0
VERTEX
  5
45F6E
100
AcDbEntity
  8
0
100
AcDbVertex
100
AcDbPolygonMeshVertex
 10
0.317
 20
-0.41
 30
0.0
 70
    64
  0
VERTEX
  5
45F6F
100
AcDbEntity
  8
0
100
AcDbVertex
100
AcDbPolygonMeshVertex
 10
-0.317
 20
-0.41
 30
0.0
 70
    64
  0
VERTEX
  5
45F70
100
AcDbEntity
  8
0
100
AcDbVertex
100
AcDbPolygonMeshVertex
 10
0.317
 20
-0.41
 30
0.04
 70
    64
  0
VERTEX
  5
45F71
100
AcDbEntity
  8
0
100
AcDbVertex
100
AcDbPolygonMeshVertex
 10
0.317
 20
-0.41
 30
0.04
 70
    64
  0
VERTEX
  5
45F72
100
AcDbEntity
  8
0
100
AcDbVertex
100
AcDbPolygonMeshVertex
 10
-0.317
 20
-0.41
 30
0.04
 70
    64
  0
VERTEX
  5
45F73
100
AcDbEntity
  8
0
100
AcDbVertex
100
AcDbPolygonMeshVertex
 10
0.317
 20
0.26
 30
0.04
 70
    64
  0
VERTEX
  5
45F74
100
AcDbEntity
  8
0
100
AcDbVertex
100
AcDbPolygonMeshVertex
 10
0.317
 20
0.26
 30
0.04
 70
    64
  0
VERTEX
  5
45F75
100
AcDbEntity
  8
0
100
AcDbVertex
100
AcDbPolygonMeshVertex
 10
-0.317
 20
0.26
 30
0.04
 70
    64
  0
SEQEND
  5
45F76
100
AcDbEntity
  8
0
  0
POLYLINE
  5
45F77
100
AcDbEntity
  8
0
100
AcDbPolygonMesh
 66
     1
 10
0.0
 20
0.0
 30
0.0
 70
    16
 71
     6
 72
     3
  0
VERTEX
  5
45F78
100
AcDbEntity
  8
0
100
AcDbVertex
100
AcDbPolygonMeshVertex
 10
-2.20252
 20
-5.847975
 30
3.05
 70
    64
  0
VERTEX
  5
45F79
100
AcDbEntity
  8
0
100
AcDbVertex
100
AcDbPolygonMeshVertex
 10
-2.20252
 20
-5.847975
 30
0.05
 70
    64
  0
VERTEX
  5
45F7A
100
AcDbEntity
  8
0
100
AcDbVertex
100
AcDbPolygonMeshVertex
 10
-2.20252
 20
-5.847975
 30
0.05
 70
    64
  0
VERTEX
  5
45F7B
100
AcDbEntity
  8
0
100
AcDbVertex
100
AcDbPolygonMeshVertex
 10
-2.30252
 20
-5.847975
 30
3.05
 70
    64
  0
VERTEX
  5
45F7C
100
AcDbEntity
  8
0
100
AcDbVertex
100
AcDbPolygonMeshVertex
 10
-2.30252
 20
-5.847975
 30
0.05
 70
    64
  0
VERTEX
  5
45F7D
100
AcDbEntity
  8
0
100
AcDbVertex
100
AcDbPolygonMeshVertex
 10
-2.30252
 20
-5.847975
 30
0.05
 70
    64
  0
VERTEX
  5
45F7E
100
AcDbEntity
  8
0
100
AcDbVertex
100
AcDbPolygonMeshVertex
 10
-2.30252
 20
-5.647975
 30
3.05
 70
    64
  0
VERTEX
  5
45F7F
100
AcDbEntity
  8
0
100
AcDbVertex
100
AcDbPolygonMeshVertex
 10
-2.30252
 20
-5.647975
 30
0.05
 70
    64
  0
VERTEX
  5
45F80
100
AcDbEntity
  8
0
100
AcDbVertex
100
AcDbPolygonMeshVertex
 10
-2.30252
 20
-5.847975
 30
0.05
 70
    64
  0
VERTEX
  5
45F81
100
AcDbEntity
  8
0
100
AcDbVertex
100
AcDbPolygonMeshVertex
 10
-2.20252
 20
-5.647975
 30
3.05
 70
    64
  0
VERTEX
  5
45F82
100
AcDbEntity
  8
0
100
AcDbVertex
100
AcDbPolygonMeshVertex
 10
-2.20252
 20
-5.647975
 30
0.05
 70
    64
  0
VERTEX
  5
45F83
100
AcDbEntity
  8
0
100
AcDbVertex
100
AcDbPolygonMeshVertex
 10
-2.20252
 20
-5.847975
 30
0.05
 70
    64
  0
VERTEX
  5
45F84
100
AcDbEntity
  8
0
100
AcDbVertex
100
AcDbPolygonMeshVertex
 10
-2.20252
 20
-5.647975
 30
3.05
 70
    64
  0
VERTEX
  5
45F85
100
AcDbEntity
  8
0
100
AcDbVertex
100
AcDbPolygonMeshVertex
 10
-2.20252
 20
-5.647975
 30
3.05
 70
    64
  0
VERTEX
  5
45F86
100
AcDbEntity
  8
0
100
AcDbVertex
100
AcDbPolygonMeshVertex
 10
-2.20252
 20
-5.847975
 30
3.05
 70
    64
  0
VERTEX
  5
45F87
100
AcDbEntity
  8
0
100
AcDbVertex
100
AcDbPolygonMeshVertex
 10
-2.30252
 20
-5.647975
 30
3.05
 70
    64
  0
VERTEX
  5
45F88
100
AcDbEntity
  8
0
100
AcDbVertex
100
AcDbPolygonMeshVertex
 10
-2.30252
 20
-5.647975
 30
3.05
 70
    64
  0
VERTEX
  5
45F89
100
AcDbEntity
  8
0
100
AcDbVertex
100
AcDbPolygonMeshVertex
 10
-2.30252
 20
-5.847975
 30
3.05
 70
    64
  0
SEQEND
  5
45F8A
100
AcDbEntity
  8
0
  0
POLYLINE
  5
45F8B
100
AcDbEntity
  8
0
100
AcDbPolygonMesh
 66
     1
 10
0.0
 20
0.0
 30
0.0
 70
    16
 71
     6
 72
     3
  0
VERTEX
  5
45F8C
100
AcDbEntity
  8
0
100
AcDbVertex
100
AcDbPolygonMeshVertex
 10
-2.01252
 20
-5.847975
 30
3.05
 70
    64
  0
VERTEX
  5
45F8D
100
AcDbEntity
  8
0
100
AcDbVertex
100
AcDbPolygonMeshVertex
 10
-2.01252
 20
-5.847975
 30
0.05
 70
    64
  0
VERTEX
  5
45F8E
100
AcDbEntity
  8
0
100
AcDbVertex
100
AcDbPolygonMeshVertex
 10
-2.01252
 20
-5.847975
 30
0.05
 70
    64
  0
VERTEX
  5
45F8F
100
AcDbEntity
  8
0
100
AcDbVertex
100
AcDbPolygonMeshVertex
 10
-2.11252
 20
-5.847975
 30
3.05
 70
    64
  0
VERTEX
  5
45F90
100
AcDbEntity
  8
0
100
AcDbVertex
100
AcDbPolygonMeshVertex
 10
-2.11252
 20
-5.847975
 30
0.05
 70
    64
  0
VERTEX
  5
45F91
100
AcDbEntity
  8
0
100
AcDbVertex
100
AcDbPolygonMeshVertex
 10
-2.11252
 20
-5.847975
 30
0.05
 70
    64
  0
VERTEX
  5
45F92
100
AcDbEntity
  8
0
100
AcDbVertex
100
AcDbPolygonMeshVertex
 10
-2.11252
 20
-5.647975
 30
3.05
 70
    64
  0
VERTEX
  5
45F93
100
AcDbEntity
  8
0
100
AcDbVertex
100
AcDbPolygonMeshVertex
 10
-2.11252
 20
-5.647975
 30
0.05
 70
    64
  0
VERTEX
  5
45F94
100
AcDbEntity
  8
0
100
AcDbVertex
100
AcDbPolygonMeshVertex
 10
-2.11252
 20
-5.847975
 30
0.05
 70
    64
  0
VERTEX
  5
45F95
100
AcDbEntity
  8
0
100
AcDbVertex
100
AcDbPolygonMeshVertex
 10
-2.01252
 20
-5.647975
 30
3.05
 70
    64
  0
VERTEX
  5
45F96
100
AcDbEntity
  8
0
100
AcDbVertex
100
AcDbPolygonMeshVertex
 10
-2.01252
 20
-5.647975
 30
0.05
 70
    64
  0
VERTEX
  5
45F97
100
AcDbEntity
  8
0
100
AcDbVertex
100
AcDbPolygonMeshVertex
 10
-2.01252
 20
-5.847975
 30
0.05
 70
    64
  0
VERTEX
  5
45F98
100
AcDbEntity
  8
0
100
AcDbVertex
100
AcDbPolygonMeshVertex
 10
-2.01252
 20
-5.647975
 30
3.05
 70
    64
  0
VERTEX
  5
45F99
100
AcDbEntity
  8
0
100
AcDbVertex
100
AcDbPolygonMeshVertex
 10
-2.01252
 20
-5.647975
 30
3.05
 70
    64
  0
VERTEX
  5
45F9A
100
AcDbEntity
  8
0
100
AcDbVertex
100
AcDbPolygonMeshVertex
 10
-2.01252
 20
-5.847975
 30
3.05
 70
    64
  0
VERTEX
  5
45F9B
100
AcDbEntity
  8
0
100
AcDbVertex
100
AcDbPolygonMeshVertex
 10
-2.11252
 20
-5.647975
 30
3.05
 70
    64
  0
VERTEX
  5
45F9C
100
AcDbEntity
  8
0
100
AcDbVertex
100
AcDbPolygonMeshVertex
 10
-2.11252
 20
-5.647975
 30
3.05
 70
    64
  0
VERTEX
  5
45F9D
100
AcDbEntity
  8
0
100
AcDbVertex
100
AcDbPolygonMeshVertex
 10
-2.11252
 20
-5.847975
 30
3.05
 70
    64
  0
SEQEND
  5
45F9E
100
AcDbEntity
  8
0
  0
POLYLINE
  5
45F9F
100
AcDbEntity
  8
0
100
AcDbPolygonMesh
 66
     1
 10
0.0
 20
0.0
 30
0.0
 70
    16
 71
     6
 72
     3
  0
VERTEX
  5
45FA0
100
AcDbEntity
  8
0
100
AcDbVertex
100
AcDbPolygonMeshVertex
 10
-2.11252
 20
-5.847975
 30
3.05
 70
    64
  0
VERTEX
  5
45FA1
100
AcDbEntity
  8
0
100
AcDbVertex
100
AcDbPolygonMeshVertex
 10
-2.11252
 20
-5.847975
 30
0.05
 70
    64
  0
VERTEX
  5
45FA2
100
AcDbEntity
  8
0
100
AcDbVertex
100
AcDbPolygonMeshVertex
 10
-2.11252
 20
-5.847975
 30
0.05
 70
    64
  0
VERTEX
  5
45FA3
100
AcDbEntity
  8
0
100
AcDbVertex
100
AcDbPolygonMeshVertex
 10
-2.20252
 20
-5.847975
 30
3.05
 70
    64
  0
VERTEX
  5
45FA4
100
AcDbEntity
  8
0
100
AcDbVertex
100
AcDbPolygonMeshVertex
 10
-2.20252
 20
-5.847975
 30
0.05
 70
    64
  0
VERTEX
  5
45FA5
100
AcDbEntity
  8
0
100
AcDbVertex
100
AcDbPolygonMeshVertex
 10
-2.20252
 20
-5.847975
 30
0.05
 70
    64
  0
VERTEX
  5
45FA6
100
AcDbEntity
  8
0
100
AcDbVertex
100
AcDbPolygonMeshVertex
 10
-2.20252
 20
-5.772975
 30
3.05
 70
    64
  0
VERTEX
  5
45FA7
100
AcDbEntity
  8
0
100
AcDbVertex
100
AcDbPolygonMeshVertex
 10
-2.20252
 20
-5.772975
 30
0.05
 70
    64
  0
VERTEX
  5
45FA8
100
AcDbEntity
  8
0
100
AcDbVertex
100
AcDbPolygonMeshVertex
 10
-2.20252
 20
-5.847975
 30
0.05
 70
    64
  0
VERTEX
  5
45FA9
100
AcDbEntity
  8
0
100
AcDbVertex
100
AcDbPolygonMeshVertex
 10
-2.11252
 20
-5.772975
 30
3.05
 70
    64
  0
VERTEX
  5
45FAA
100
AcDbEntity
  8
0
100
AcDbVertex
100
AcDbPolygonMeshVertex
 10
-2.11252
 20
-5.772975
 30
0.05
 70
    64
  0
VERTEX
  5
45FAB
100
AcDbEntity
  8
0
100
AcDbVertex
100
AcDbPolygonMeshVertex
 10
-2.11252
 20
-5.847975
 30
0.05
 70
    64
  0
VERTEX
  5
45FAC
100
AcDbEntity
  8
0
100
AcDbVertex
100
AcDbPolygonMeshVertex
 10
-2.11252
 20
-5.772975
 30
3.05
 70
    64
  0
VERTEX
  5
45FAD
100
AcDbEntity
  8
0
100
AcDbVertex
100
AcDbPolygonMeshVertex
 10
-2.11252
 20
-5.772975
 30
3.05
 70
    64
  0
VERTEX
  5
45FAE
100
AcDbEntity
  8
0
100
AcDbVertex
100
AcDbPolygonMeshVertex
 10
-2.11252
 20
-5.847975
 30
3.05
 70
    64
  0
VERTEX
  5
45FAF
100
AcDbEntity
  8
0
100
AcDbVertex
100
AcDbPolygonMeshVertex
 10
-2.20252
 20
-5.772975
 30
3.05
 70
    64
  0
VERTEX
  5
45FB0
100
AcDbEntity
  8
0
100
AcDbVertex
100
AcDbPolygonMeshVertex
 10
-2.20252
 20
-5.772975
 30
3.05
 70
    64
  0
VERTEX
  5
45FB1
100
AcDbEntity
  8
0
100
AcDbVertex
100
AcDbPolygonMeshVertex
 10
-2.20252
 20
-5.847975
 30
3.05
 70
    64
  0
SEQEND
  5
45FB2
100
AcDbEntity
  8
0
  0
POLYLINE
  5
45FB3
100
AcDbEntity
  8
0
100
AcDbPolygonMesh
 66
     1
 10
0.0
 20
0.0
 30
0.0
 70
    16
 71
     6
 72
     3
  0
VERTEX
  5
45FB4
100
AcDbEntity
  8
0
100
AcDbVertex
100
AcDbPolygonMeshVertex
 10
-0.430006
 20
-5.847975
 30
3.05
 70
    64
  0
VERTEX
  5
45FB5
100
AcDbEntity
  8
0
100
AcDbVertex
100
AcDbPolygonMeshVertex
 10
-0.430006
 20
-5.847975
 30
0.05
 70
    64
  0
VERTEX
  5
45FB6
100
AcDbEntity
  8
0
100
AcDbVertex
100
AcDbPolygonMeshVertex
 10
-0.430006
 20
-5.847975
 30
0.05
 70
    64
  0
VERTEX
  5
45FB7
100
AcDbEntity
  8
0
100
AcDbVertex
100
AcDbPolygonMeshVertex
 10
-0.530006
 20
-5.847975
 30
3.05
 70
    64
  0
VERTEX
  5
45FB8
100
AcDbEntity
  8
0
100
AcDbVertex
100
AcDbPolygonMeshVertex
 10
-0.530006
 20
-5.847975
 30
0.05
 70
    64
  0
VERTEX
  5
45FB9
100
AcDbEntity
  8
0
100
AcDbVertex
100
AcDbPolygonMeshVertex
 10
-0.530006
 20
-5.847975
 30
0.05
 70
    64
  0
VERTEX
  5
45FBA
100
AcDbEntity
  8
0
100
AcDbVertex
100
AcDbPolygonMeshVertex
 10
-0.530006
 20
-5.647975
 30
3.05
 70
    64
  0
VERTEX
  5
45FBB
100
AcDbEntity
  8
0
100
AcDbVertex
100
AcDbPolygonMeshVertex
 10
-0.530006
 20
-5.647975
 30
0.05
 70
    64
  0
VERTEX
  5
45FBC
100
AcDbEntity
  8
0
100
AcDbVertex
100
AcDbPolygonMeshVertex
 10
-0.530006
 20
-5.847975
 30
0.05
 70
    64
  0
VERTEX
  5
45FBD
100
AcDbEntity
  8
0
100
AcDbVertex
100
AcDbPolygonMeshVertex
 10
-0.430006
 20
-5.647975
 30
3.05
 70
    64
  0
VERTEX
  5
45FBE
100
AcDbEntity
  8
0
100
AcDbVertex
100
AcDbPolygonMeshVertex
 10
-0.430006
 20
-5.647975
 30
0.05
 70
    64
  0
VERTEX
  5
45FBF
100
AcDbEntity
  8
0
100
AcDbVertex
100
AcDbPolygonMeshVertex
 10
-0.430006
 20
-5.847975
 30
0.05
 70
    64
  0
VERTEX
  5
45FC0
100
AcDbEntity
  8
0
100
AcDbVertex
100
AcDbPolygonMeshVertex
 10
-0.430006
 20
-5.647975
 30
3.05
 70
    64
  0
VERTEX
  5
45FC1
100
AcDbEntity
  8
0
100
AcDbVertex
100
AcDbPolygonMeshVertex
 10
-0.430006
 20
-5.647975
 30
3.05
 70
    64
  0
VERTEX
  5
45FC2
100
AcDbEntity
  8
0
100
AcDbVertex
100
AcDbPolygonMeshVertex
 10
-0.430006
 20
-5.847975
 30
3.05
 70
    64
  0
VERTEX
  5
45FC3
100
AcDbEntity
  8
0
100
AcDbVertex
100
AcDbPolygonMeshVertex
 10
-0.530006
 20
-5.647975
 30
3.05
 70
    64
  0
VERTEX
  5
45FC4
100
AcDbEntity
  8
0
100
AcDbVertex
100
AcDbPolygonMeshVertex
 10
-0.530006
 20
-5.647975
 30
3.05
 70
    64
  0
VERTEX
  5
45FC5
100
AcDbEntity
  8
0
100
AcDbVertex
100
AcDbPolygonMeshVertex
 10
-0.530006
 20
-5.847975
 30
3.05
 70
    64
  0
SEQEND
  5
45FC6
100
AcDbEntity
  8
0
  0
POLYLINE
  5
45FC7
100
AcDbEntity
  8
0
100
AcDbPolygonMesh
 66
     1
 10
0.0
 20
0.0
 30
0.0
 70
    16
 71
     6
 72
     3
  0
VERTEX
  5
45FC8
100
AcDbEntity
  8
0
100
AcDbVertex
100
AcDbPolygonMeshVertex
 10
-0.240006
 20
-5.847975
 30
3.05
 70
    64
  0
VERTEX
  5
45FC9
100
AcDbEntity
  8
0
100
AcDbVertex
100
AcDbPolygonMeshVertex
 10
-0.240006
 20
-5.847975
 30
0.05
 70
    64
  0
VERTEX
  5
45FCA
100
AcDbEntity
  8
0
100
AcDbVertex
100
AcDbPolygonMeshVertex
 10
-0.240006
 20
-5.847975
 30
0.05
 70
    64
  0
VERTEX
  5
45FCB
100
AcDbEntity
  8
0
100
AcDbVertex
100
AcDbPolygonMeshVertex
 10
-0.340006
 20
-5.847975
 30
3.05
 70
    64
  0
VERTEX
  5
45FCC
100
AcDbEntity
  8
0
100
AcDbVertex
100
AcDbPolygonMeshVertex
 10
-0.340006
 20
-5.847975
 30
0.05
 70
    64
  0
VERTEX
  5
45FCD
100
AcDbEntity
  8
0
100
AcDbVertex
100
AcDbPolygonMeshVertex
 10
-0.340006
 20
-5.847975
 30
0.05
 70
    64
  0
VERTEX
  5
45FCE
100
AcDbEntity
  8
0
100
AcDbVertex
100
AcDbPolygonMeshVertex
 10
-0.340006
 20
-5.647975
 30
3.05
 70
    64
  0
VERTEX
  5
45FCF
100
AcDbEntity
  8
0
100
AcDbVertex
100
AcDbPolygonMeshVertex
 10
-0.340006
 20
-5.647975
 30
0.05
 70
    64
  0
VERTEX
  5
45FD0
100
AcDbEntity
  8
0
100
AcDbVertex
100
AcDbPolygonMeshVertex
 10
-0.340006
 20
-5.847975
 30
0.05
 70
    64
  0
VERTEX
  5
45FD1
100
AcDbEntity
  8
0
100
AcDbVertex
100
AcDbPolygonMeshVertex
 10
-0.240006
 20
-5.647975
 30
3.05
 70
    64
  0
VERTEX
  5
45FD2
100
AcDbEntity
  8
0
100
AcDbVertex
100
AcDbPolygonMeshVertex
 10
-0.240006
 20
-5.647975
 30
0.05
 70
    64
  0
VERTEX
  5
45FD3
100
AcDbEntity
  8
0
100
AcDbVertex
100
AcDbPolygonMeshVertex
 10
-0.240006
 20
-5.847975
 30
0.05
 70
    64
  0
VERTEX
  5
45FD4
100
AcDbEntity
  8
0
100
AcDbVertex
100
AcDbPolygonMeshVertex
 10
-0.240006
 20
-5.647975
 30
3.05
 70
    64
  0
VERTEX
  5
45FD5
100
AcDbEntity
  8
0
100
AcDbVertex
100
AcDbPolygonMeshVertex
 10
-0.240006
 20
-5.647975
 30
3.05
 70
    64
  0
VERTEX
  5
45FD6
100
AcDbEntity
  8
0
100
AcDbVertex
100
AcDbPolygonMeshVertex
 10
-0.240006
 20
-5.847975
 30
3.05
 70
    64
  0
VERTEX
  5
45FD7
100
AcDbEntity
  8
0
100
AcDbVertex
100
AcDbPolygonMeshVertex
 10
-0.340006
 20
-5.647975
 30
3.05
 70
    64
  0
VERTEX
  5
45FD8
100
AcDbEntity
  8
0
100
AcDbVertex
100
AcDbPolygonMeshVertex
 10
-0.340006
 20
-5.647975
 30
3.05
 70
    64
  0
VERTEX
  5
45FD9
100
AcDbEntity
  8
0
100
AcDbVertex
100
AcDbPolygonMeshVertex
 10
-0.340006
 20
-5.847975
 30
3.05
 70
    64
  0
SEQEND
  5
45FDA
100
AcDbEntity
  8
0
  0
POLYLINE
  5
45FDB
100
AcDbEntity
  8
0
100
AcDbPolygonMesh
 66
     1
 10
0.0
 20
0.0
 30
0.0
 70
    16
 71
     6
 72
     3
  0
VERTEX
  5
45FDC
100
AcDbEntity
  8
0
100
AcDbVertex
100
AcDbPolygonMeshVertex
 10
-0.340006
 20
-5.847975
 30
3.05
 70
    64
  0
VERTEX
  5
45FDD
100
AcDbEntity
  8
0
100
AcDbVertex
100
AcDbPolygonMeshVertex
 10
-0.340006
 20
-5.847975
 30
0.05
 70
    64
  0
VERTEX
  5
45FDE
100
AcDbEntity
  8
0
100
AcDbVertex
100
AcDbPolygonMeshVertex
 10
-0.340006
 20
-5.847975
 30
0.05
 70
    64
  0
VERTEX
  5
45FDF
100
AcDbEntity
  8
0
100
AcDbVertex
100
AcDbPolygonMeshVertex
 10
-0.430006
 20
-5.847975
 30
3.05
 70
    64
  0
VERTEX
  5
45FE0
100
AcDbEntity
  8
0
100
AcDbVertex
100
AcDbPolygonMeshVertex
 10
-0.430006
 20
-5.847975
 30
0.05
 70
    64
  0
VERTEX
  5
45FE1
100
AcDbEntity
  8
0
100
AcDbVertex
100
AcDbPolygonMeshVertex
 10
-0.430006
 20
-5.847975
 30
0.05
 70
    64
  0
VERTEX
  5
45FE2
100
AcDbEntity
  8
0
100
AcDbVertex
100
AcDbPolygonMeshVertex
 10
-0.430006
 20
-5.772975
 30
3.05
 70
    64
  0
VERTEX
  5
45FE3
100
AcDbEntity
  8
0
100
AcDbVertex
100
AcDbPolygonMeshVertex
 10
-0.430006
 20
-5.772975
 30
0.05
 70
    64
  0
VERTEX
  5
45FE4
100
AcDbEntity
  8
0
100
AcDbVertex
100
AcDbPolygonMeshVertex
 10
-0.430006
 20
-5.847975
 30
0.05
 70
    64
  0
VERTEX
  5
45FE5
100
AcDbEntity
  8
0
100
AcDbVertex
100
AcDbPolygonMeshVertex
 10
-0.340006
 20
-5.772975
 30
3.05
 70
    64
  0
VERTEX
  5
45FE6
100
AcDbEntity
  8
0
100
AcDbVertex
100
AcDbPolygonMeshVertex
 10
-0.340006
 20
-5.772975
 30
0.05
 70
    64
  0
VERTEX
  5
45FE7
100
AcDbEntity
  8
0
100
AcDbVertex
100
AcDbPolygonMeshVertex
 10
-0.340006
 20
-5.847975
 30
0.05
 70
    64
  0
VERTEX
  5
45FE8
100
AcDbEntity
  8
0
100
AcDbVertex
100
AcDbPolygonMeshVertex
 10
-0.340006
 20
-5.772975
 30
3.05
 70
    64
  0
VERTEX
  5
45FE9
100
AcDbEntity
  8
0
100
AcDbVertex
100
AcDbPolygonMeshVertex
 10
-0.340006
 20
-5.772975
 30
3.05
 70
    64
  0
VERTEX
  5
45FEA
100
AcDbEntity
  8
0
100
AcDbVertex
100
AcDbPolygonMeshVertex
 10
-0.340006
 20
-5.847975
 30
3.05
 70
    64
  0
VERTEX
  5
45FEB
100
AcDbEntity
  8
0
100
AcDbVertex
100
AcDbPolygonMeshVertex
 10
-0.430006
 20
-5.772975
 30
3.05
 70
    64
  0
VERTEX
  5
45FEC
100
AcDbEntity
  8
0
100
AcDbVertex
100
AcDbPolygonMeshVertex
 10
-0.430006
 20
-5.772975
 30
3.05
 70
    64
  0
VERTEX
  5
45FED
100
AcDbEntity
  8
0
100
AcDbVertex
100
AcDbPolygonMeshVertex
 10
-0.430006
 20
-5.847975
 30
3.05
 70
    64
  0
SEQEND
  5
45FEE
100
AcDbEntity
  8
0
  0
POLYLINE
  5
45FEF
100
AcDbEntity
  8
0
100
AcDbPolygonMesh
 66
     1
 10
0.0
 20
0.0
 30
0.0
 70
    16
 71
     6
 72
     3
  0
VERTEX
  5
45FF0
100
AcDbEntity
  8
0
100
AcDbVertex
100
AcDbPolygonMeshVertex
 10
0.944994
 20
-5.847975
 30
3.05
 70
    64
  0
VERTEX
  5
45FF1
100
AcDbEntity
  8
0
100
AcDbVertex
100
AcDbPolygonMeshVertex
 10
0.944994
 20
-5.847975
 30
0.05
 70
    64
  0
VERTEX
  5
45FF2
100
AcDbEntity
  8
0
100
AcDbVertex
100
AcDbPolygonMeshVertex
 10
0.944994
 20
-5.847975
 30
0.05
 70
    64
  0
VERTEX
  5
45FF3
100
AcDbEntity
  8
0
100
AcDbVertex
100
AcDbPolygonMeshVertex
 10
0.844994
 20
-5.847975
 30
3.05
 70
    64
  0
VERTEX
  5
45FF4
100
AcDbEntity
  8
0
100
AcDbVertex
100
AcDbPolygonMeshVertex
 10
0.844994
 20
-5.847975
 30
0.05
 70
    64
  0
VERTEX
  5
45FF5
100
AcDbEntity
  8
0
100
AcDbVertex
100
AcDbPolygonMeshVertex
 10
0.844994
 20
-5.847975
 30
0.05
 70
    64
  0
VERTEX
  5
45FF6
100
AcDbEntity
  8
0
100
AcDbVertex
100
AcDbPolygonMeshVertex
 10
0.844994
 20
-5.647975
 30
3.05
 70
    64
  0
VERTEX
  5
45FF7
100
AcDbEntity
  8
0
100
AcDbVertex
100
AcDbPolygonMeshVertex
 10
0.844994
 20
-5.647975
 30
0.05
 70
    64
  0
VERTEX
  5
45FF8
100
AcDbEntity
  8
0
100
AcDbVertex
100
AcDbPolygonMeshVertex
 10
0.844994
 20
-5.847975
 30
0.05
 70
    64
  0
VERTEX
  5
45FF9
100
AcDbEntity
  8
0
100
AcDbVertex
100
AcDbPolygonMeshVertex
 10
0.944994
 20
-5.647975
 30
3.05
 70
    64
  0
VERTEX
  5
45FFA
100
AcDbEntity
  8
0
100
AcDbVertex
100
AcDbPolygonMeshVertex
 10
0.944994
 20
-5.647975
 30
0.05
 70
    64
  0
VERTEX
  5
45FFB
100
AcDbEntity
  8
0
100
AcDbVertex
100
AcDbPolygonMeshVertex
 10
0.944994
 20
-5.847975
 30
0.05
 70
    64
  0
VERTEX
  5
45FFC
100
AcDbEntity
  8
0
100
AcDbVertex
100
AcDbPolygonMeshVertex
 10
0.944994
 20
-5.647975
 30
3.05
 70
    64
  0
VERTEX
  5
45FFD
100
AcDbEntity
  8
0
100
AcDbVertex
100
AcDbPolygonMeshVertex
 10
0.944994
 20
-5.647975
 30
3.05
 70
    64
  0
VERTEX
  5
45FFE
100
AcDbEntity
  8
0
100
AcDbVertex
100
AcDbPolygonMeshVertex
 10
0.944994
 20
-5.847975
 30
3.05
 70
    64
  0
VERTEX
  5
45FFF
100
AcDbEntity
  8
0
100
AcDbVertex
100
AcDbPolygonMeshVertex
 10
0.844994
 20
-5.647975
 30
3.05
 70
    64
  0
VERTEX
  5
46000
100
AcDbEntity
  8
0
100
AcDbVertex
100
AcDbPolygonMeshVertex
 10
0.844994
 20
-5.647975
 30
3.05
 70
    64
  0
VERTEX
  5
46001
100
AcDbEntity
  8
0
100
AcDbVertex
100
AcDbPolygonMeshVertex
 10
0.844994
 20
-5.847975
 30
3.05
 70
    64
  0
SEQEND
  5
46002
100
AcDbEntity
  8
0
  0
POLYLINE
  5
46003
100
AcDbEntity
  8
0
100
AcDbPolygonMesh
 66
     1
 10
0.0
 20
0.0
 30
0.0
 70
    16
 71
     6
 72
     3
  0
VERTEX
  5
46004
100
AcDbEntity
  8
0
100
AcDbVertex
100
AcDbPolygonMeshVertex
 10
1.134994
 20
-5.847975
 30
3.05
 70
    64
  0
VERTEX
  5
46005
100
AcDbEntity
  8
0
100
AcDbVertex
100
AcDbPolygonMeshVertex
 10
1.134994
 20
-5.847975
 30
0.05
 70
    64
  0
VERTEX
  5
46006
100
AcDbEntity
  8
0
100
AcDbVertex
100
AcDbPolygonMeshVertex
 10
1.134994
 20
-5.847975
 30
0.05
 70
    64
  0
VERTEX
  5
46007
100
AcDbEntity
  8
0
100
AcDbVertex
100
AcDbPolygonMeshVertex
 10
1.034994
 20
-5.847975
 30
3.05
 70
    64
  0
VERTEX
  5
46008
100
AcDbEntity
  8
0
100
AcDbVertex
100
AcDbPolygonMeshVertex
 10
1.034994
 20
-5.847975
 30
0.05
 70
    64
  0
VERTEX
  5
46009
100
AcDbEntity
  8
0
100
AcDbVertex
100
AcDbPolygonMeshVertex
 10
1.034994
 20
-5.847975
 30
0.05
 70
    64
  0
VERTEX
  5
4600A
100
AcDbEntity
  8
0
100
AcDbVertex
100
AcDbPolygonMeshVertex
 10
1.034994
 20
-5.647975
 30
3.05
 70
    64
  0
VERTEX
  5
4600B
100
AcDbEntity
  8
0
100
AcDbVertex
100
AcDbPolygonMeshVertex
 10
1.034994
 20
-5.647975
 30
0.05
 70
    64
  0
VERTEX
  5
4600C
100
AcDbEntity
  8
0
100
AcDbVertex
100
AcDbPolygonMeshVertex
 10
1.034994
 20
-5.847975
 30
0.05
 70
    64
  0
VERTEX
  5
4600D
100
AcDbEntity
  8
0
100
AcDbVertex
100
AcDbPolygonMeshVertex
 10
1.134994
 20
-5.647975
 30
3.05
 70
    64
  0
VERTEX
  5
4600E
100
AcDbEntity
  8
0
100
AcDbVertex
100
AcDbPolygonMeshVertex
 10
1.134994
 20
-5.647975
 30
0.05
 70
    64
  0
VERTEX
  5
4600F
100
AcDbEntity
  8
0
100
AcDbVertex
100
AcDbPolygonMeshVertex
 10
1.134994
 20
-5.847975
 30
0.05
 70
    64
  0
VERTEX
  5
46010
100
AcDbEntity
  8
0
100
AcDbVertex
100
AcDbPolygonMeshVertex
 10
1.134994
 20
-5.647975
 30
3.05
 70
    64
  0
VERTEX
  5
46011
100
AcDbEntity
  8
0
100
AcDbVertex
100
AcDbPolygonMeshVertex
 10
1.134994
 20
-5.647975
 30
3.05
 70
    64
  0
VERTEX
  5
46012
100
AcDbEntity
  8
0
100
AcDbVertex
100
AcDbPolygonMeshVertex
 10
1.134994
 20
-5.847975
 30
3.05
 70
    64
  0
VERTEX
  5
46013
100
AcDbEntity
  8
0
100
AcDbVertex
100
AcDbPolygonMeshVertex
 10
1.034994
 20
-5.647975
 30
3.05
 70
    64
  0
VERTEX
  5
46014
100
AcDbEntity
  8
0
100
AcDbVertex
100
AcDbPolygonMeshVertex
 10
1.034994
 20
-5.647975
 30
3.05
 70
    64
  0
VERTEX
  5
46015
100
AcDbEntity
  8
0
100
AcDbVertex
100
AcDbPolygonMeshVertex
 10
1.034994
 20
-5.847975
 30
3.05
 70
    64
  0
SEQEND
  5
46016
100
AcDbEntity
  8
0
  0
POLYLINE
  5
46017
100
AcDbEntity
  8
0
100
AcDbPolygonMesh
 66
     1
 10
0.0
 20
0.0
 30
0.0
 70
    16
 71
     6
 72
     3
  0
VERTEX
  5
46018
100
AcDbEntity
  8
0
100
AcDbVertex
100
AcDbPolygonMeshVertex
 10
1.034994
 20
-5.847975
 30
3.05
 70
    64
  0
VERTEX
  5
46019
100
AcDbEntity
  8
0
100
AcDbVertex
100
AcDbPolygonMeshVertex
 10
1.034994
 20
-5.847975
 30
0.05
 70
    64
  0
VERTEX
  5
4601A
100
AcDbEntity
  8
0
100
AcDbVertex
100
AcDbPolygonMeshVertex
 10
1.034994
 20
-5.847975
 30
0.05
 70
    64
  0
VERTEX
  5
4601B
100
AcDbEntity
  8
0
100
AcDbVertex
100
AcDbPolygonMeshVertex
 10
0.944994
 20
-5.847975
 30
3.05
 70
    64
  0
VERTEX
  5
4601C
100
AcDbEntity
  8
0
100
AcDbVertex
100
AcDbPolygonMeshVertex
 10
0.944994
 20
-5.847975
 30
0.05
 70
    64
  0
VERTEX
  5
4601D
100
AcDbEntity
  8
0
100
AcDbVertex
100
AcDbPolygonMeshVertex
 10
0.944994
 20
-5.847975
 30
0.05
 70
    64
  0
VERTEX
  5
4601E
100
AcDbEntity
  8
0
100
AcDbVertex
100
AcDbPolygonMeshVertex
 10
0.944994
 20
-5.772975
 30
3.05
 70
    64
  0
VERTEX
  5
4601F
100
AcDbEntity
  8
0
100
AcDbVertex
100
AcDbPolygonMeshVertex
 10
0.944994
 20
-5.772975
 30
0.05
 70
    64
  0
VERTEX
  5
46020
100
AcDbEntity
  8
0
100
AcDbVertex
100
AcDbPolygonMeshVertex
 10
0.944994
 20
-5.847975
 30
0.05
 70
    64
  0
VERTEX
  5
46021
100
AcDbEntity
  8
0
100
AcDbVertex
100
AcDbPolygonMeshVertex
 10
1.034994
 20
-5.772975
 30
3.05
 70
    64
  0
VERTEX
  5
46022
100
AcDbEntity
  8
0
100
AcDbVertex
100
AcDbPolygonMeshVertex
 10
1.034994
 20
-5.772975
 30
0.05
 70
    64
  0
VERTEX
  5
46023
100
AcDbEntity
  8
0
100
AcDbVertex
100
AcDbPolygonMeshVertex
 10
1.034994
 20
-5.847975
 30
0.05
 70
    64
  0
VERTEX
  5
46024
100
AcDbEntity
  8
0
100
AcDbVertex
100
AcDbPolygonMeshVertex
 10
1.034994
 20
-5.772975
 30
3.05
 70
    64
  0
VERTEX
  5
46025
100
AcDbEntity
  8
0
100
AcDbVertex
100
AcDbPolygonMeshVertex
 10
1.034994
 20
-5.772975
 30
3.05
 70
    64
  0
VERTEX
  5
46026
100
AcDbEntity
  8
0
100
AcDbVertex
100
AcDbPolygonMeshVertex
 10
1.034994
 20
-5.847975
 30
3.05
 70
    64
  0
VERTEX
  5
46027
100
AcDbEntity
  8
0
100
AcDbVertex
100
AcDbPolygonMeshVertex
 10
0.944994
 20
-5.772975
 30
3.05
 70
    64
  0
VERTEX
  5
46028
100
AcDbEntity
  8
0
100
AcDbVertex
100
AcDbPolygonMeshVertex
 10
0.944994
 20
-5.772975
 30
3.05
 70
    64
  0
VERTEX
  5
46029
100
AcDbEntity
  8
0
100
AcDbVertex
100
AcDbPolygonMeshVertex
 10
0.944994
 20
-5.847975
 30
3.05
 70
    64
  0
SEQEND
  5
4602A
100
AcDbEntity
  8
0
  0
POLYLINE
  5
4602B
100
AcDbEntity
  8
0
100
AcDbPolygonMesh
 66
     1
 10
0.0
 20
0.0
 30
0.0
 70
    16
 71
     6
 72
     3
  0
VERTEX
  5
4602C
100
AcDbEntity
  8
0
100
AcDbVertex
100
AcDbPolygonMeshVertex
 10
2.320024
 20
-5.848
 30
3.05
 70
    64
  0
VERTEX
  5
4602D
100
AcDbEntity
  8
0
100
AcDbVertex
100
AcDbPolygonMeshVertex
 10
2.320024
 20
-5.848
 30
0.05
 70
    64
  0
VERTEX
  5
4602E
100
AcDbEntity
  8
0
100
AcDbVertex
100
AcDbPolygonMeshVertex
 10
2.320024
 20
-5.848
 30
0.05
 70
    64
  0
VERTEX
  5
4602F
100
AcDbEntity
  8
0
100
AcDbVertex
100
AcDbPolygonMeshVertex
 10
2.220024
 20
-5.848
 30
3.05
 70
    64
  0
VERTEX
  5
46030
100
AcDbEntity
  8
0
100
AcDbVertex
100
AcDbPolygonMeshVertex
 10
2.220024
 20
-5.848
 30
0.05
 70
    64
  0
VERTEX
  5
46031
100
AcDbEntity
  8
0
100
AcDbVertex
100
AcDbPolygonMeshVertex
 10
2.220024
 20
-5.848
 30
0.05
 70
    64
  0
VERTEX
  5
46032
100
AcDbEntity
  8
0
100
AcDbVertex
100
AcDbPolygonMeshVertex
 10
2.220024
 20
-5.648
 30
3.05
 70
    64
  0
VERTEX
  5
46033
100
AcDbEntity
  8
0
100
AcDbVertex
100
AcDbPolygonMeshVertex
 10
2.220024
 20
-5.648
 30
0.05
 70
    64
  0
VERTEX
  5
46034
100
AcDbEntity
  8
0
100
AcDbVertex
100
AcDbPolygonMeshVertex
 10
2.220024
 20
-5.848
 30
0.05
 70
    64
  0
VERTEX
  5
46035
100
AcDbEntity
  8
0
100
AcDbVertex
100
AcDbPolygonMeshVertex
 10
2.320024
 20
-5.648
 30
3.05
 70
    64
  0
VERTEX
  5
46036
100
AcDbEntity
  8
0
100
AcDbVertex
100
AcDbPolygonMeshVertex
 10
2.320024
 20
-5.648
 30
0.05
 70
    64
  0
VERTEX
  5
46037
100
AcDbEntity
  8
0
100
AcDbVertex
100
AcDbPolygonMeshVertex
 10
2.320024
 20
-5.848
 30
0.05
 70
    64
  0
VERTEX
  5
46038
100
AcDbEntity
  8
0
100
AcDbVertex
100
AcDbPolygonMeshVertex
 10
2.320024
 20
-5.648
 30
3.05
 70
    64
  0
VERTEX
  5
46039
100
AcDbEntity
  8
0
100
AcDbVertex
100
AcDbPolygonMeshVertex
 10
2.320024
 20
-5.648
 30
3.05
 70
    64
  0
VERTEX
  5
4603A
100
AcDbEntity
  8
0
100
AcDbVertex
100
AcDbPolygonMeshVertex
 10
2.320024
 20
-5.848
 30
3.05
 70
    64
  0
VERTEX
  5
4603B
100
AcDbEntity
  8
0
100
AcDbVertex
100
AcDbPolygonMeshVertex
 10
2.220024
 20
-5.648
 30
3.05
 70
    64
  0
VERTEX
  5
4603C
100
AcDbEntity
  8
0
100
AcDbVertex
100
AcDbPolygonMeshVertex
 10
2.220024
 20
-5.648
 30
3.05
 70
    64
  0
VERTEX
  5
4603D
100
AcDbEntity
  8
0
100
AcDbVertex
100
AcDbPolygonMeshVertex
 10
2.220024
 20
-5.848
 30
3.05
 70
    64
  0
SEQEND
  5
4603E
100
AcDbEntity
  8
0
  0
POLYLINE
  5
4603F
100
AcDbEntity
  8
0
100
AcDbPolygonMesh
 66
     1
 10
0.0
 20
0.0
 30
0.0
 70
    16
 71
     6
 72
     3
  0
VERTEX
  5
46040
100
AcDbEntity
  8
0
100
AcDbVertex
100
AcDbPolygonMeshVertex
 10
2.510024
 20
-5.848
 30
3.05
 70
    64
  0
VERTEX
  5
46041
100
AcDbEntity
  8
0
100
AcDbVertex
100
AcDbPolygonMeshVertex
 10
2.510024
 20
-5.848
 30
0.05
 70
    64
  0
VERTEX
  5
46042
100
AcDbEntity
  8
0
100
AcDbVertex
100
AcDbPolygonMeshVertex
 10
2.510024
 20
-5.848
 30
0.05
 70
    64
  0
VERTEX
  5
46043
100
AcDbEntity
  8
0
100
AcDbVertex
100
AcDbPolygonMeshVertex
 10
2.410024
 20
-5.848
 30
3.05
 70
    64
  0
VERTEX
  5
46044
100
AcDbEntity
  8
0
100
AcDbVertex
100
AcDbPolygonMeshVertex
 10
2.410024
 20
-5.848
 30
0.05
 70
    64
  0
VERTEX
  5
46045
100
AcDbEntity
  8
0
100
AcDbVertex
100
AcDbPolygonMeshVertex
 10
2.410024
 20
-5.848
 30
0.05
 70
    64
  0
VERTEX
  5
46046
100
AcDbEntity
  8
0
100
AcDbVertex
100
AcDbPolygonMeshVertex
 10
2.410024
 20
-5.648
 30
3.05
 70
    64
  0
VERTEX
  5
46047
100
AcDbEntity
  8
0
100
AcDbVertex
100
AcDbPolygonMeshVertex
 10
2.410024
 20
-5.648
 30
0.05
 70
    64
  0
VERTEX
  5
46048
100
AcDbEntity
  8
0
100
AcDbVertex
100
AcDbPolygonMeshVertex
 10
2.410024
 20
-5.848
 30
0.05
 70
    64
  0
VERTEX
  5
46049
100
AcDbEntity
  8
0
100
AcDbVertex
100
AcDbPolygonMeshVertex
 10
2.510024
 20
-5.648
 30
3.05
 70
    64
  0
VERTEX
  5
4604A
100
AcDbEntity
  8
0
100
AcDbVertex
100
AcDbPolygonMeshVertex
 10
2.510024
 20
-5.648
 30
0.05
 70
    64
  0
VERTEX
  5
4604B
100
AcDbEntity
  8
0
100
AcDbVertex
100
AcDbPolygonMeshVertex
 10
2.510024
 20
-5.848
 30
0.05
 70
    64
  0
VERTEX
  5
4604C
100
AcDbEntity
  8
0
100
AcDbVertex
100
AcDbPolygonMeshVertex
 10
2.510024
 20
-5.648
 30
3.05
 70
    64
  0
VERTEX
  5
4604D
100
AcDbEntity
  8
0
100
AcDbVertex
100
AcDbPolygonMeshVertex
 10
2.510024
 20
-5.648
 30
3.05
 70
    64
  0
VERTEX
  5
4604E
100
AcDbEntity
  8
0
100
AcDbVertex
100
AcDbPolygonMeshVertex
 10
2.510024
 20
-5.848
 30
3.05
 70
    64
  0
VERTEX
  5
4604F
100
AcDbEntity
  8
0
100
AcDbVertex
100
AcDbPolygonMeshVertex
 10
2.410024
 20
-5.648
 30
3.05
 70
    64
  0
VERTEX
  5
46050
100
AcDbEntity
  8
0
100
AcDbVertex
100
AcDbPolygonMeshVertex
 10
2.410024
 20
-5.648
 30
3.05
 70
    64
  0
VERTEX
  5
46051
100
AcDbEntity
  8
0
100
AcDbVertex
100
AcDbPolygonMeshVertex
 10
2.410024
 20
-5.848
 30
3.05
 70
    64
  0
SEQEND
  5
46052
100
AcDbEntity
  8
0
  0
POLYLINE
  5
46053
100
AcDbEntity
  8
0
100
AcDbPolygonMesh
 66
     1
 10
0.0
 20
0.0
 30
0.0
 70
    16
 71
     6
 72
     3
  0
VERTEX
  5
46054
100
AcDbEntity
  8
0
100
AcDbVertex
100
AcDbPolygonMeshVertex
 10
2.410024
 20
-5.848
 30
3.05
 70
    64
  0
VERTEX
  5
46055
100
AcDbEntity
  8
0
100
AcDbVertex
100
AcDbPolygonMeshVertex
 10
2.410024
 20
-5.848
 30
0.05
 70
    64
  0
VERTEX
  5
46056
100
AcDbEntity
  8
0
100
AcDbVertex
100
AcDbPolygonMeshVertex
 10
2.410024
 20
-5.848
 30
0.05
 70
    64
  0
VERTEX
  5
46057
100
AcDbEntity
  8
0
100
AcDbVertex
100
AcDbPolygonMeshVertex
 10
2.320024
 20
-5.848
 30
3.05
 70
    64
  0
VERTEX
  5
46058
100
AcDbEntity
  8
0
100
AcDbVertex
100
AcDbPolygonMeshVertex
 10
2.320024
 20
-5.848
 30
0.05
 70
    64
  0
VERTEX
  5
46059
100
AcDbEntity
  8
0
100
AcDbVertex
100
AcDbPolygonMeshVertex
 10
2.320024
 20
-5.848
 30
0.05
 70
    64
  0
VERTEX
  5
4605A
100
AcDbEntity
  8
0
100
AcDbVertex
100
AcDbPolygonMeshVertex
 10
2.320024
 20
-5.773
 30
3.05
 70
    64
  0
VERTEX
  5
4605B
100
AcDbEntity
  8
0
100
AcDbVertex
100
AcDbPolygonMeshVertex
 10
2.320024
 20
-5.773
 30
0.05
 70
    64
  0
VERTEX
  5
4605C
100
AcDbEntity
  8
0
100
AcDbVertex
100
AcDbPolygonMeshVertex
 10
2.320024
 20
-5.848
 30
0.05
 70
    64
  0
VERTEX
  5
4605D
100
AcDbEntity
  8
0
100
AcDbVertex
100
AcDbPolygonMeshVertex
 10
2.410024
 20
-5.773
 30
3.05
 70
    64
  0
VERTEX
  5
4605E
100
AcDbEntity
  8
0
100
AcDbVertex
100
AcDbPolygonMeshVertex
 10
2.410024
 20
-5.773
 30
0.05
 70
    64
  0
VERTEX
  5
4605F
100
AcDbEntity
  8
0
100
AcDbVertex
100
AcDbPolygonMeshVertex
 10
2.410024
 20
-5.848
 30
0.05
 70
    64
  0
VERTEX
  5
46060
100
AcDbEntity
  8
0
100
AcDbVertex
100
AcDbPolygonMeshVertex
 10
2.410024
 20
-5.773
 30
3.05
 70
    64
  0
VERTEX
  5
46061
100
AcDbEntity
  8
0
100
AcDbVertex
100
AcDbPolygonMeshVertex
 10
2.410024
 20
-5.773
 30
3.05
 70
    64
  0
VERTEX
  5
46062
100
AcDbEntity
  8
0
100
AcDbVertex
100
AcDbPolygonMeshVertex
 10
2.410024
 20
-5.848
 30
3.05
 70
    64
  0
VERTEX
  5
46063
100
AcDbEntity
  8
0
100
AcDbVertex
100
AcDbPolygonMeshVertex
 10
2.320024
 20
-5.773
 30
3.05
 70
    64
  0
VERTEX
  5
46064
100
AcDbEntity
  8
0
100
AcDbVertex
100
AcDbPolygonMeshVertex
 10
2.320024
 20
-5.773
 30
3.05
 70
    64
  0
VERTEX
  5
46065
100
AcDbEntity
  8
0
100
AcDbVertex
100
AcDbPolygonMeshVertex
 10
2.320024
 20
-5.848
 30
3.05
 70
    64
  0
SEQEND
  5
46066
100
AcDbEntity
  8
0
  0
POLYLINE
  5
46067
100
AcDbEntity
  8
0
100
AcDbPolygonMesh
 66
     1
 10
0.0
 20
0.0
 30
0.0
 70
    16
 71
     6
 72
     3
  0
VERTEX
  5
46068
100
AcDbEntity
  8
0
100
AcDbVertex
100
AcDbPolygonMeshVertex
 10
-2.11252
 20
-0.482025
 30
3.05
 70
    64
  0
VERTEX
  5
46069
100
AcDbEntity
  8
0
100
AcDbVertex
100
AcDbPolygonMeshVertex
 10
-2.11252
 20
-0.482025
 30
0.05
 70
    64
  0
VERTEX
  5
4606A
100
AcDbEntity
  8
0
100
AcDbVertex
100
AcDbPolygonMeshVertex
 10
-2.11252
 20
-0.482025
 30
0.05
 70
    64
  0
VERTEX
  5
4606B
100
AcDbEntity
  8
0
100
AcDbVertex
100
AcDbPolygonMeshVertex
 10
-2.20252
 20
-0.482025
 30
3.05
 70
    64
  0
VERTEX
  5
4606C
100
AcDbEntity
  8
0
100
AcDbVertex
100
AcDbPolygonMeshVertex
 10
-2.20252
 20
-0.482025
 30
0.05
 70
    64
  0
VERTEX
  5
4606D
100
AcDbEntity
  8
0
100
AcDbVertex
100
AcDbPolygonMeshVertex
 10
-2.20252
 20
-0.482025
 30
0.05
 70
    64
  0
VERTEX
  5
4606E
100
AcDbEntity
  8
0
100
AcDbVertex
100
AcDbPolygonMeshVertex
 10
-2.20252
 20
-0.557025
 30
3.05
 70
    64
  0
VERTEX
  5
4606F
100
AcDbEntity
  8
0
100
AcDbVertex
100
AcDbPolygonMeshVertex
 10
-2.20252
 20
-0.557025
 30
0.05
 70
    64
  0
VERTEX
  5
46070
100
AcDbEntity
  8
0
100
AcDbVertex
100
AcDbPolygonMeshVertex
 10
-2.20252
 20
-0.482025
 30
0.05
 70
    64
  0
VERTEX
  5
46071
100
AcDbEntity
  8
0
100
AcDbVertex
100
AcDbPolygonMeshVertex
 10
-2.11252
 20
-0.557025
 30
3.05
 70
    64
  0
VERTEX
  5
46072
100
AcDbEntity
  8
0
100
AcDbVertex
100
AcDbPolygonMeshVertex
 10
-2.11252
 20
-0.557025
 30
0.05
 70
    64
  0
VERTEX
  5
46073
100
AcDbEntity
  8
0
100
AcDbVertex
100
AcDbPolygonMeshVertex
 10
-2.11252
 20
-0.482025
 30
0.05
 70
    64
  0
VERTEX
  5
46074
100
AcDbEntity
  8
0
100
AcDbVertex
100
AcDbPolygonMeshVertex
 10
-2.11252
 20
-0.557025
 30
3.05
 70
    64
  0
VERTEX
  5
46075
100
AcDbEntity
  8
0
100
AcDbVertex
100
AcDbPolygonMeshVertex
 10
-2.11252
 20
-0.557025
 30
3.05
 70
    64
  0
VERTEX
  5
46076
100
AcDbEntity
  8
0
100
AcDbVertex
100
AcDbPolygonMeshVertex
 10
-2.11252
 20
-0.482025
 30
3.05
 70
    64
  0
VERTEX
  5
46077
100
AcDbEntity
  8
0
100
AcDbVertex
100
AcDbPolygonMeshVertex
 10
-2.20252
 20
-0.557025
 30
3.05
 70
    64
  0
VERTEX
  5
46078
100
AcDbEntity
  8
0
100
AcDbVertex
100
AcDbPolygonMeshVertex
 10
-2.20252
 20
-0.557025
 30
3.05
 70
    64
  0
VERTEX
  5
46079
100
AcDbEntity
  8
0
100
AcDbVertex
100
AcDbPolygonMeshVertex
 10
-2.20252
 20
-0.482025
 30
3.05
 70
    64
  0
SEQEND
  5
4607A
100
AcDbEntity
  8
0
  0
POLYLINE
  5
4607B
100
AcDbEntity
  8
0
100
AcDbPolygonMesh
 66
     1
 10
0.0
 20
0.0
 30
0.0
 70
    16
 71
     6
 72
     3
  0
VERTEX
  5
4607C
100
AcDbEntity
  8
0
100
AcDbVertex
100
AcDbPolygonMeshVertex
 10
-2.01252
 20
-0.482025
 30
3.05
 70
    64
  0
VERTEX
  5
4607D
100
AcDbEntity
  8
0
100
AcDbVertex
100
AcDbPolygonMeshVertex
 10
-2.01252
 20
-0.482025
 30
0.05
 70
    64
  0
VERTEX
  5
4607E
100
AcDbEntity
  8
0
100
AcDbVertex
100
AcDbPolygonMeshVertex
 10
-2.01252
 20
-0.482025
 30
0.05
 70
    64
  0
VERTEX
  5
4607F
100
AcDbEntity
  8
0
100
AcDbVertex
100
AcDbPolygonMeshVertex
 10
-2.11252
 20
-0.482025
 30
3.05
 70
    64
  0
VERTEX
  5
46080
100
AcDbEntity
  8
0
100
AcDbVertex
100
AcDbPolygonMeshVertex
 10
-2.11252
 20
-0.482025
 30
0.05
 70
    64
  0
VERTEX
  5
46081
100
AcDbEntity
  8
0
100
AcDbVertex
100
AcDbPolygonMeshVertex
 10
-2.11252
 20
-0.482025
 30
0.05
 70
    64
  0
VERTEX
  5
46082
100
AcDbEntity
  8
0
100
AcDbVertex
100
AcDbPolygonMeshVertex
 10
-2.11252
 20
-0.682025
 30
3.05
 70
    64
  0
VERTEX
  5
46083
100
AcDbEntity
  8
0
100
AcDbVertex
100
AcDbPolygonMeshVertex
 10
-2.11252
 20
-0.682025
 30
0.05
 70
    64
  0
VERTEX
  5
46084
100
AcDbEntity
  8
0
100
AcDbVertex
100
AcDbPolygonMeshVertex
 10
-2.11252
 20
-0.482025
 30
0.05
 70
    64
  0
VERTEX
  5
46085
100
AcDbEntity
  8
0
100
AcDbVertex
100
AcDbPolygonMeshVertex
 10
-2.01252
 20
-0.682025
 30
3.05
 70
    64
  0
VERTEX
  5
46086
100
AcDbEntity
  8
0
100
AcDbVertex
100
AcDbPolygonMeshVertex
 10
-2.01252
 20
-0.682025
 30
0.05
 70
    64
  0
VERTEX
  5
46087
100
AcDbEntity
  8
0
100
AcDbVertex
100
AcDbPolygonMeshVertex
 10
-2.01252
 20
-0.482025
 30
0.05
 70
    64
  0
VERTEX
  5
46088
100
AcDbEntity
  8
0
100
AcDbVertex
100
AcDbPolygonMeshVertex
 10
-2.01252
 20
-0.682025
 30
3.05
 70
    64
  0
VERTEX
  5
46089
100
AcDbEntity
  8
0
100
AcDbVertex
100
AcDbPolygonMeshVertex
 10
-2.01252
 20
-0.682025
 30
3.05
 70
    64
  0
VERTEX
  5
4608A
100
AcDbEntity
  8
0
100
AcDbVertex
100
AcDbPolygonMeshVertex
 10
-2.01252
 20
-0.482025
 30
3.05
 70
    64
  0
VERTEX
  5
4608B
100
AcDbEntity
  8
0
100
AcDbVertex
100
AcDbPolygonMeshVertex
 10
-2.11252
 20
-0.682025
 30
3.05
 70
    64
  0
VERTEX
  5
4608C
100
AcDbEntity
  8
0
100
AcDbVertex
100
AcDbPolygonMeshVertex
 10
-2.11252
 20
-0.682025
 30
3.05
 70
    64
  0
VERTEX
  5
4608D
100
AcDbEntity
  8
0
100
AcDbVertex
100
AcDbPolygonMeshVertex
 10
-2.11252
 20
-0.482025
 30
3.05
 70
    64
  0
SEQEND
  5
4608E
100
AcDbEntity
  8
0
  0
POLYLINE
  5
4608F
100
AcDbEntity
  8
0
100
AcDbPolygonMesh
 66
     1
 10
0.0
 20
0.0
 30
0.0
 70
    16
 71
     6
 72
     3
  0
VERTEX
  5
46090
100
AcDbEntity
  8
0
100
AcDbVertex
100
AcDbPolygonMeshVertex
 10
-2.20252
 20
-0.482025
 30
3.05
 70
    64
  0
VERTEX
  5
46091
100
AcDbEntity
  8
0
100
AcDbVertex
100
AcDbPolygonMeshVertex
 10
-2.20252
 20
-0.482025
 30
0.05
 70
    64
  0
VERTEX
  5
46092
100
AcDbEntity
  8
0
100
AcDbVertex
100
AcDbPolygonMeshVertex
 10
-2.20252
 20
-0.482025
 30
0.05
 70
    64
  0
VERTEX
  5
46093
100
AcDbEntity
  8
0
100
AcDbVertex
100
AcDbPolygonMeshVertex
 10
-2.30252
 20
-0.482025
 30
3.05
 70
    64
  0
VERTEX
  5
46094
100
AcDbEntity
  8
0
100
AcDbVertex
100
AcDbPolygonMeshVertex
 10
-2.30252
 20
-0.482025
 30
0.05
 70
    64
  0
VERTEX
  5
46095
100
AcDbEntity
  8
0
100
AcDbVertex
100
AcDbPolygonMeshVertex
 10
-2.30252
 20
-0.482025
 30
0.05
 70
    64
  0
VERTEX
  5
46096
100
AcDbEntity
  8
0
100
AcDbVertex
100
AcDbPolygonMeshVertex
 10
-2.30252
 20
-0.682025
 30
3.05
 70
    64
  0
VERTEX
  5
46097
100
AcDbEntity
  8
0
100
AcDbVertex
100
AcDbPolygonMeshVertex
 10
-2.30252
 20
-0.682025
 30
0.05
 70
    64
  0
VERTEX
  5
46098
100
AcDbEntity
  8
0
100
AcDbVertex
100
AcDbPolygonMeshVertex
 10
-2.30252
 20
-0.482025
 30
0.05
 70
    64
  0
VERTEX
  5
46099
100
AcDbEntity
  8
0
100
AcDbVertex
100
AcDbPolygonMeshVertex
 10
-2.20252
 20
-0.682025
 30
3.05
 70
    64
  0
VERTEX
  5
4609A
100
AcDbEntity
  8
0
100
AcDbVertex
100
AcDbPolygonMeshVertex
 10
-2.20252
 20
-0.682025
 30
0.05
 70
    64
  0
VERTEX
  5
4609B
100
AcDbEntity
  8
0
100
AcDbVertex
100
AcDbPolygonMeshVertex
 10
-2.20252
 20
-0.482025
 30
0.05
 70
    64
  0
VERTEX
  5
4609C
100
AcDbEntity
  8
0
100
AcDbVertex
100
AcDbPolygonMeshVertex
 10
-2.20252
 20
-0.682025
 30
3.05
 70
    64
  0
VERTEX
  5
4609D
100
AcDbEntity
  8
0
100
AcDbVertex
100
AcDbPolygonMeshVertex
 10
-2.20252
 20
-0.682025
 30
3.05
 70
    64
  0
VERTEX
  5
4609E
100
AcDbEntity
  8
0
100
AcDbVertex
100
AcDbPolygonMeshVertex
 10
-2.20252
 20
-0.482025
 30
3.05
 70
    64
  0
VERTEX
  5
4609F
100
AcDbEntity
  8
0
100
AcDbVertex
100
AcDbPolygonMeshVertex
 10
-2.30252
 20
-0.682025
 30
3.05
 70
    64
  0
VERTEX
  5
460A0
100
AcDbEntity
  8
0
100
AcDbVertex
100
AcDbPolygonMeshVertex
 10
-2.30252
 20
-0.682025
 30
3.05
 70
    64
  0
VERTEX
  5
460A1
100
AcDbEntity
  8
0
100
AcDbVertex
100
AcDbPolygonMeshVertex
 10
-2.30252
 20
-0.482025
 30
3.05
 70
    64
  0
SEQEND
  5
460A2
100
AcDbEntity
  8
0
  0
POLYLINE
  5
460A3
100
AcDbEntity
  8
0
100
AcDbPolygonMesh
 66
     1
 10
0.0
 20
0.0
 30
0.0
 70
    16
 71
     6
 72
     3
  0
VERTEX
  5
460A4
100
AcDbEntity
  8
0
100
AcDbVertex
100
AcDbPolygonMeshVertex
 10
-0.340525
 20
-0.482025
 30
3.05
 70
    64
  0
VERTEX
  5
460A5
100
AcDbEntity
  8
0
100
AcDbVertex
100
AcDbPolygonMeshVertex
 10
-0.340525
 20
-0.482025
 30
0.05
 70
    64
  0
VERTEX
  5
460A6
100
AcDbEntity
  8
0
100
AcDbVertex
100
AcDbPolygonMeshVertex
 10
-0.340525
 20
-0.482025
 30
0.05
 70
    64
  0
VERTEX
  5
460A7
100
AcDbEntity
  8
0
100
AcDbVertex
100
AcDbPolygonMeshVertex
 10
-0.430525
 20
-0.482025
 30
3.05
 70
    64
  0
VERTEX
  5
460A8
100
AcDbEntity
  8
0
100
AcDbVertex
100
AcDbPolygonMeshVertex
 10
-0.430525
 20
-0.482025
 30
0.05
 70
    64
  0
VERTEX
  5
460A9
100
AcDbEntity
  8
0
100
AcDbVertex
100
AcDbPolygonMeshVertex
 10
-0.430525
 20
-0.482025
 30
0.05
 70
    64
  0
VERTEX
  5
460AA
100
AcDbEntity
  8
0
100
AcDbVertex
100
AcDbPolygonMeshVertex
 10
-0.430525
 20
-0.557025
 30
3.05
 70
    64
  0
VERTEX
  5
460AB
100
AcDbEntity
  8
0
100
AcDbVertex
100
AcDbPolygonMeshVertex
 10
-0.430525
 20
-0.557025
 30
0.05
 70
    64
  0
VERTEX
  5
460AC
100
AcDbEntity
  8
0
100
AcDbVertex
100
AcDbPolygonMeshVertex
 10
-0.430525
 20
-0.482025
 30
0.05
 70
    64
  0
VERTEX
  5
460AD
100
AcDbEntity
  8
0
100
AcDbVertex
100
AcDbPolygonMeshVertex
 10
-0.340525
 20
-0.557025
 30
3.05
 70
    64
  0
VERTEX
  5
460AE
100
AcDbEntity
  8
0
100
AcDbVertex
100
AcDbPolygonMeshVertex
 10
-0.340525
 20
-0.557025
 30
0.05
 70
    64
  0
VERTEX
  5
460AF
100
AcDbEntity
  8
0
100
AcDbVertex
100
AcDbPolygonMeshVertex
 10
-0.340525
 20
-0.482025
 30
0.05
 70
    64
  0
VERTEX
  5
460B0
100
AcDbEntity
  8
0
100
AcDbVertex
100
AcDbPolygonMeshVertex
 10
-0.340525
 20
-0.557025
 30
3.05
 70
    64
  0
VERTEX
  5
460B1
100
AcDbEntity
  8
0
100
AcDbVertex
100
AcDbPolygonMeshVertex
 10
-0.340525
 20
-0.557025
 30
3.05
 70
    64
  0
VERTEX
  5
460B2
100
AcDbEntity
  8
0
100
AcDbVertex
100
AcDbPolygonMeshVertex
 10
-0.340525
 20
-0.482025
 30
3.05
 70
    64
  0
VERTEX
  5
460B3
100
AcDbEntity
  8
0
100
AcDbVertex
100
AcDbPolygonMeshVertex
 10
-0.430525
 20
-0.557025
 30
3.05
 70
    64
  0
VERTEX
  5
460B4
100
AcDbEntity
  8
0
100
AcDbVertex
100
AcDbPolygonMeshVertex
 10
-0.430525
 20
-0.557025
 30
3.05
 70
    64
  0
VERTEX
  5
460B5
100
AcDbEntity
  8
0
100
AcDbVertex
100
AcDbPolygonMeshVertex
 10
-0.430525
 20
-0.482025
 30
3.05
 70
    64
  0
SEQEND
  5
460B6
100
AcDbEntity
  8
0
  0
POLYLINE
  5
460B7
100
AcDbEntity
  8
0
100
AcDbPolygonMesh
 66
     1
 10
0.0
 20
0.0
 30
0.0
 70
    16
 71
     6
 72
     3
  0
VERTEX
  5
460B8
100
AcDbEntity
  8
0
100
AcDbVertex
100
AcDbPolygonMeshVertex
 10
-0.240525
 20
-0.482025
 30
3.05
 70
    64
  0
VERTEX
  5
460B9
100
AcDbEntity
  8
0
100
AcDbVertex
100
AcDbPolygonMeshVertex
 10
-0.240525
 20
-0.482025
 30
0.05
 70
    64
  0
VERTEX
  5
460BA
100
AcDbEntity
  8
0
100
AcDbVertex
100
AcDbPolygonMeshVertex
 10
-0.240525
 20
-0.482025
 30
0.05
 70
    64
  0
VERTEX
  5
460BB
100
AcDbEntity
  8
0
100
AcDbVertex
100
AcDbPolygonMeshVertex
 10
-0.340525
 20
-0.482025
 30
3.05
 70
    64
  0
VERTEX
  5
460BC
100
AcDbEntity
  8
0
100
AcDbVertex
100
AcDbPolygonMeshVertex
 10
-0.340525
 20
-0.482025
 30
0.05
 70
    64
  0
VERTEX
  5
460BD
100
AcDbEntity
  8
0
100
AcDbVertex
100
AcDbPolygonMeshVertex
 10
-0.340525
 20
-0.482025
 30
0.05
 70
    64
  0
VERTEX
  5
460BE
100
AcDbEntity
  8
0
100
AcDbVertex
100
AcDbPolygonMeshVertex
 10
-0.340525
 20
-0.682025
 30
3.05
 70
    64
  0
VERTEX
  5
460BF
100
AcDbEntity
  8
0
100
AcDbVertex
100
AcDbPolygonMeshVertex
 10
-0.340525
 20
-0.682025
 30
0.05
 70
    64
  0
VERTEX
  5
460C0
100
AcDbEntity
  8
0
100
AcDbVertex
100
AcDbPolygonMeshVertex
 10
-0.340525
 20
-0.482025
 30
0.05
 70
    64
  0
VERTEX
  5
460C1
100
AcDbEntity
  8
0
100
AcDbVertex
100
AcDbPolygonMeshVertex
 10
-0.240525
 20
-0.682025
 30
3.05
 70
    64
  0
VERTEX
  5
460C2
100
AcDbEntity
  8
0
100
AcDbVertex
100
AcDbPolygonMeshVertex
 10
-0.240525
 20
-0.682025
 30
0.05
 70
    64
  0
VERTEX
  5
460C3
100
AcDbEntity
  8
0
100
AcDbVertex
100
AcDbPolygonMeshVertex
 10
-0.240525
 20
-0.482025
 30
0.05
 70
    64
  0
VERTEX
  5
460C4
100
AcDbEntity
  8
0
100
AcDbVertex
100
AcDbPolygonMeshVertex
 10
-0.240525
 20
-0.682025
 30
3.05
 70
    64
  0
VERTEX
  5
460C5
100
AcDbEntity
  8
0
100
AcDbVertex
100
AcDbPolygonMeshVertex
 10
-0.240525
 20
-0.682025
 30
3.05
 70
    64
  0
VERTEX
  5
460C6
100
AcDbEntity
  8
0
100
AcDbVertex
100
AcDbPolygonMeshVertex
 10
-0.240525
 20
-0.482025
 30
3.05
 70
    64
  0
VERTEX
  5
460C7
100
AcDbEntity
  8
0
100
AcDbVertex
100
AcDbPolygonMeshVertex
 10
-0.340525
 20
-0.682025
 30
3.05
 70
    64
  0
VERTEX
  5
460C8
100
AcDbEntity
  8
0
100
AcDbVertex
100
AcDbPolygonMeshVertex
 10
-0.340525
 20
-0.682025
 30
3.05
 70
    64
  0
VERTEX
  5
460C9
100
AcDbEntity
  8
0
100
AcDbVertex
100
AcDbPolygonMeshVertex
 10
-0.340525
 20
-0.482025
 30
3.05
 70
    64
  0
SEQEND
  5
460CA
100
AcDbEntity
  8
0
  0
POLYLINE
  5
460CB
100
AcDbEntity
  8
0
100
AcDbPolygonMesh
 66
     1
 10
0.0
 20
0.0
 30
0.0
 70
    16
 71
     6
 72
     3
  0
VERTEX
  5
460CC
100
AcDbEntity
  8
0
100
AcDbVertex
100
AcDbPolygonMeshVertex
 10
-0.430525
 20
-0.482025
 30
3.05
 70
    64
  0
VERTEX
  5
460CD
100
AcDbEntity
  8
0
100
AcDbVertex
100
AcDbPolygonMeshVertex
 10
-0.430525
 20
-0.482025
 30
0.05
 70
    64
  0
VERTEX
  5
460CE
100
AcDbEntity
  8
0
100
AcDbVertex
100
AcDbPolygonMeshVertex
 10
-0.430525
 20
-0.482025
 30
0.05
 70
    64
  0
VERTEX
  5
460CF
100
AcDbEntity
  8
0
100
AcDbVertex
100
AcDbPolygonMeshVertex
 10
-0.530525
 20
-0.482025
 30
3.05
 70
    64
  0
VERTEX
  5
460D0
100
AcDbEntity
  8
0
100
AcDbVertex
100
AcDbPolygonMeshVertex
 10
-0.530525
 20
-0.482025
 30
0.05
 70
    64
  0
VERTEX
  5
460D1
100
AcDbEntity
  8
0
100
AcDbVertex
100
AcDbPolygonMeshVertex
 10
-0.530525
 20
-0.482025
 30
0.05
 70
    64
  0
VERTEX
  5
460D2
100
AcDbEntity
  8
0
100
AcDbVertex
100
AcDbPolygonMeshVertex
 10
-0.530525
 20
-0.682025
 30
3.05
 70
    64
  0
VERTEX
  5
460D3
100
AcDbEntity
  8
0
100
AcDbVertex
100
AcDbPolygonMeshVertex
 10
-0.530525
 20
-0.682025
 30
0.05
 70
    64
  0
VERTEX
  5
460D4
100
AcDbEntity
  8
0
100
AcDbVertex
100
AcDbPolygonMeshVertex
 10
-0.530525
 20
-0.482025
 30
0.05
 70
    64
  0
VERTEX
  5
460D5
100
AcDbEntity
  8
0
100
AcDbVertex
100
AcDbPolygonMeshVertex
 10
-0.430525
 20
-0.682025
 30
3.05
 70
    64
  0
VERTEX
  5
460D6
100
AcDbEntity
  8
0
100
AcDbVertex
100
AcDbPolygonMeshVertex
 10
-0.430525
 20
-0.682025
 30
0.05
 70
    64
  0
VERTEX
  5
460D7
100
AcDbEntity
  8
0
100
AcDbVertex
100
AcDbPolygonMeshVertex
 10
-0.430525
 20
-0.482025
 30
0.05
 70
    64
  0
VERTEX
  5
460D8
100
AcDbEntity
  8
0
100
AcDbVertex
100
AcDbPolygonMeshVertex
 10
-0.430525
 20
-0.682025
 30
3.05
 70
    64
  0
VERTEX
  5
460D9
100
AcDbEntity
  8
0
100
AcDbVertex
100
AcDbPolygonMeshVertex
 10
-0.430525
 20
-0.682025
 30
3.05
 70
    64
  0
VERTEX
  5
460DA
100
AcDbEntity
  8
0
100
AcDbVertex
100
AcDbPolygonMeshVertex
 10
-0.430525
 20
-0.482025
 30
3.05
 70
    64
  0
VERTEX
  5
460DB
100
AcDbEntity
  8
0
100
AcDbVertex
100
AcDbPolygonMeshVertex
 10
-0.530525
 20
-0.682025
 30
3.05
 70
    64
  0
VERTEX
  5
460DC
100
AcDbEntity
  8
0
100
AcDbVertex
100
AcDbPolygonMeshVertex
 10
-0.530525
 20
-0.682025
 30
3.05
 70
    64
  0
VERTEX
  5
460DD
100
AcDbEntity
  8
0
100
AcDbVertex
100
AcDbPolygonMeshVertex
 10
-0.530525
 20
-0.482025
 30
3.05
 70
    64
  0
SEQEND
  5
460DE
100
AcDbEntity
  8
0
  0
POLYLINE
  5
460DF
100
AcDbEntity
  8
0
100
AcDbPolygonMesh
 66
     1
 10
0.0
 20
0.0
 30
0.0
 70
    16
 71
     6
 72
     3
  0
VERTEX
  5
460E0
100
AcDbEntity
  8
0
100
AcDbVertex
100
AcDbPolygonMeshVertex
 10
1.036366
 20
-0.482025
 30
3.05
 70
    64
  0
VERTEX
  5
460E1
100
AcDbEntity
  8
0
100
AcDbVertex
100
AcDbPolygonMeshVertex
 10
1.036366
 20
-0.482025
 30
0.05
 70
    64
  0
VERTEX
  5
460E2
100
AcDbEntity
  8
0
100
AcDbVertex
100
AcDbPolygonMeshVertex
 10
1.036366
 20
-0.482025
 30
0.05
 70
    64
  0
VERTEX
  5
460E3
100
AcDbEntity
  8
0
100
AcDbVertex
100
AcDbPolygonMeshVertex
 10
0.946366
 20
-0.482025
 30
3.05
 70
    64
  0
VERTEX
  5
460E4
100
AcDbEntity
  8
0
100
AcDbVertex
100
AcDbPolygonMeshVertex
 10
0.946366
 20
-0.482025
 30
0.05
 70
    64
  0
VERTEX
  5
460E5
100
AcDbEntity
  8
0
100
AcDbVertex
100
AcDbPolygonMeshVertex
 10
0.946366
 20
-0.482025
 30
0.05
 70
    64
  0
VERTEX
  5
460E6
100
AcDbEntity
  8
0
100
AcDbVertex
100
AcDbPolygonMeshVertex
 10
0.946366
 20
-0.557025
 30
3.05
 70
    64
  0
VERTEX
  5
460E7
100
AcDbEntity
  8
0
100
AcDbVertex
100
AcDbPolygonMeshVertex
 10
0.946366
 20
-0.557025
 30
0.05
 70
    64
  0
VERTEX
  5
460E8
100
AcDbEntity
  8
0
100
AcDbVertex
100
AcDbPolygonMeshVertex
 10
0.946366
 20
-0.482025
 30
0.05
 70
    64
  0
VERTEX
  5
460E9
100
AcDbEntity
  8
0
100
AcDbVertex
100
AcDbPolygonMeshVertex
 10
1.036366
 20
-0.557025
 30
3.05
 70
    64
  0
VERTEX
  5
460EA
100
AcDbEntity
  8
0
100
AcDbVertex
100
AcDbPolygonMeshVertex
 10
1.036366
 20
-0.557025
 30
0.05
 70
    64
  0
VERTEX
  5
460EB
100
AcDbEntity
  8
0
100
AcDbVertex
100
AcDbPolygonMeshVertex
 10
1.036366
 20
-0.482025
 30
0.05
 70
    64
  0
VERTEX
  5
460EC
100
AcDbEntity
  8
0
100
AcDbVertex
100
AcDbPolygonMeshVertex
 10
1.036366
 20
-0.557025
 30
3.05
 70
    64
  0
VERTEX
  5
460ED
100
AcDbEntity
  8
0
100
AcDbVertex
100
AcDbPolygonMeshVertex
 10
1.036366
 20
-0.557025
 30
3.05
 70
    64
  0
VERTEX
  5
460EE
100
AcDbEntity
  8
0
100
AcDbVertex
100
AcDbPolygonMeshVertex
 10
1.036366
 20
-0.482025
 30
3.05
 70
    64
  0
VERTEX
  5
460EF
100
AcDbEntity
  8
0
100
AcDbVertex
100
AcDbPolygonMeshVertex
 10
0.946366
 20
-0.557025
 30
3.05
 70
    64
  0
VERTEX
  5
460F0
100
AcDbEntity
  8
0
100
AcDbVertex
100
AcDbPolygonMeshVertex
 10
0.946366
 20
-0.557025
 30
3.05
 70
    64
  0
VERTEX
  5
460F1
100
AcDbEntity
  8
0
100
AcDbVertex
100
AcDbPolygonMeshVertex
 10
0.946366
 20
-0.482025
 30
3.05
 70
    64
  0
SEQEND
  5
460F2
100
AcDbEntity
  8
0
  0
POLYLINE
  5
460F3
100
AcDbEntity
  8
0
100
AcDbPolygonMesh
 66
     1
 10
0.0
 20
0.0
 30
0.0
 70
    16
 71
     6
 72
     3
  0
VERTEX
  5
460F4
100
AcDbEntity
  8
0
100
AcDbVertex
100
AcDbPolygonMeshVertex
 10
1.136366
 20
-0.482025
 30
3.05
 70
    64
  0
VERTEX
  5
460F5
100
AcDbEntity
  8
0
100
AcDbVertex
100
AcDbPolygonMeshVertex
 10
1.136366
 20
-0.482025
 30
0.05
 70
    64
  0
VERTEX
  5
460F6
100
AcDbEntity
  8
0
100
AcDbVertex
100
AcDbPolygonMeshVertex
 10
1.136366
 20
-0.482025
 30
0.05
 70
    64
  0
VERTEX
  5
460F7
100
AcDbEntity
  8
0
100
AcDbVertex
100
AcDbPolygonMeshVertex
 10
1.036366
 20
-0.482025
 30
3.05
 70
    64
  0
VERTEX
  5
460F8
100
AcDbEntity
  8
0
100
AcDbVertex
100
AcDbPolygonMeshVertex
 10
1.036366
 20
-0.482025
 30
0.05
 70
    64
  0
VERTEX
  5
460F9
100
AcDbEntity
  8
0
100
AcDbVertex
100
AcDbPolygonMeshVertex
 10
1.036366
 20
-0.482025
 30
0.05
 70
    64
  0
VERTEX
  5
460FA
100
AcDbEntity
  8
0
100
AcDbVertex
100
AcDbPolygonMeshVertex
 10
1.036366
 20
-0.682025
 30
3.05
 70
    64
  0
VERTEX
  5
460FB
100
AcDbEntity
  8
0
100
AcDbVertex
100
AcDbPolygonMeshVertex
 10
1.036366
 20
-0.682025
 30
0.05
 70
    64
  0
VERTEX
  5
460FC
100
AcDbEntity
  8
0
100
AcDbVertex
100
AcDbPolygonMeshVertex
 10
1.036366
 20
-0.482025
 30
0.05
 70
    64
  0
VERTEX
  5
460FD
100
AcDbEntity
  8
0
100
AcDbVertex
100
AcDbPolygonMeshVertex
 10
1.136366
 20
-0.682025
 30
3.05
 70
    64
  0
VERTEX
  5
460FE
100
AcDbEntity
  8
0
100
AcDbVertex
100
AcDbPolygonMeshVertex
 10
1.136366
 20
-0.682025
 30
0.05
 70
    64
  0
VERTEX
  5
460FF
100
AcDbEntity
  8
0
100
AcDbVertex
100
AcDbPolygonMeshVertex
 10
1.136366
 20
-0.482025
 30
0.05
 70
    64
  0
VERTEX
  5
46100
100
AcDbEntity
  8
0
100
AcDbVertex
100
AcDbPolygonMeshVertex
 10
1.136366
 20
-0.682025
 30
3.05
 70
    64
  0
VERTEX
  5
46101
100
AcDbEntity
  8
0
100
AcDbVertex
100
AcDbPolygonMeshVertex
 10
1.136366
 20
-0.682025
 30
3.05
 70
    64
  0
VERTEX
  5
46102
100
AcDbEntity
  8
0
100
AcDbVertex
100
AcDbPolygonMeshVertex
 10
1.136366
 20
-0.482025
 30
3.05
 70
    64
  0
VERTEX
  5
46103
100
AcDbEntity
  8
0
100
AcDbVertex
100
AcDbPolygonMeshVertex
 10
1.036366
 20
-0.682025
 30
3.05
 70
    64
  0
VERTEX
  5
46104
100
AcDbEntity
  8
0
100
AcDbVertex
100
AcDbPolygonMeshVertex
 10
1.036366
 20
-0.682025
 30
3.05
 70
    64
  0
VERTEX
  5
46105
100
AcDbEntity
  8
0
100
AcDbVertex
100
AcDbPolygonMeshVertex
 10
1.036366
 20
-0.482025
 30
3.05
 70
    64
  0
SEQEND
  5
46106
100
AcDbEntity
  8
0
  0
POLYLINE
  5
46107
100
AcDbEntity
  8
0
100
AcDbPolygonMesh
 66
     1
 10
0.0
 20
0.0
 30
0.0
 70
    16
 71
     6
 72
     3
  0
VERTEX
  5
46108
100
AcDbEntity
  8
0
100
AcDbVertex
100
AcDbPolygonMeshVertex
 10
0.946366
 20
-0.482025
 30
3.05
 70
    64
  0
VERTEX
  5
46109
100
AcDbEntity
  8
0
100
AcDbVertex
100
AcDbPolygonMeshVertex
 10
0.946366
 20
-0.482025
 30
0.05
 70
    64
  0
VERTEX
  5
4610A
100
AcDbEntity
  8
0
100
AcDbVertex
100
AcDbPolygonMeshVertex
 10
0.946366
 20
-0.482025
 30
0.05
 70
    64
  0
VERTEX
  5
4610B
100
AcDbEntity
  8
0
100
AcDbVertex
100
AcDbPolygonMeshVertex
 10
0.846366
 20
-0.482025
 30
3.05
 70
    64
  0
VERTEX
  5
4610C
100
AcDbEntity
  8
0
100
AcDbVertex
100
AcDbPolygonMeshVertex
 10
0.846366
 20
-0.482025
 30
0.05
 70
    64
  0
VERTEX
  5
4610D
100
AcDbEntity
  8
0
100
AcDbVertex
100
AcDbPolygonMeshVertex
 10
0.846366
 20
-0.482025
 30
0.05
 70
    64
  0
VERTEX
  5
4610E
100
AcDbEntity
  8
0
100
AcDbVertex
100
AcDbPolygonMeshVertex
 10
0.846366
 20
-0.682025
 30
3.05
 70
    64
  0
VERTEX
  5
4610F
100
AcDbEntity
  8
0
100
AcDbVertex
100
AcDbPolygonMeshVertex
 10
0.846366
 20
-0.682025
 30
0.05
 70
    64
  0
VERTEX
  5
46110
100
AcDbEntity
  8
0
100
AcDbVertex
100
AcDbPolygonMeshVertex
 10
0.846366
 20
-0.482025
 30
0.05
 70
    64
  0
VERTEX
  5
46111
100
AcDbEntity
  8
0
100
AcDbVertex
100
AcDbPolygonMeshVertex
 10
0.946366
 20
-0.682025
 30
3.05
 70
    64
  0
VERTEX
  5
46112
100
AcDbEntity
  8
0
100
AcDbVertex
100
AcDbPolygonMeshVertex
 10
0.946366
 20
-0.682025
 30
0.05
 70
    64
  0
VERTEX
  5
46113
100
AcDbEntity
  8
0
100
AcDbVertex
100
AcDbPolygonMeshVertex
 10
0.946366
 20
-0.482025
 30
0.05
 70
    64
  0
VERTEX
  5
46114
100
AcDbEntity
  8
0
100
AcDbVertex
100
AcDbPolygonMeshVertex
 10
0.946366
 20
-0.682025
 30
3.05
 70
    64
  0
VERTEX
  5
46115
100
AcDbEntity
  8
0
100
AcDbVertex
100
AcDbPolygonMeshVertex
 10
0.946366
 20
-0.682025
 30
3.05
 70
    64
  0
VERTEX
  5
46116
100
AcDbEntity
  8
0
100
AcDbVertex
100
AcDbPolygonMeshVertex
 10
0.946366
 20
-0.482025
 30
3.05
 70
    64
  0
VERTEX
  5
46117
100
AcDbEntity
  8
0
100
AcDbVertex
100
AcDbPolygonMeshVertex
 10
0.846366
 20
-0.682025
 30
3.05
 70
    64
  0
VERTEX
  5
46118
100
AcDbEntity
  8
0
100
AcDbVertex
100
AcDbPolygonMeshVertex
 10
0.846366
 20
-0.682025
 30
3.05
 70
    64
  0
VERTEX
  5
46119
100
AcDbEntity
  8
0
100
AcDbVertex
100
AcDbPolygonMeshVertex
 10
0.846366
 20
-0.482025
 30
3.05
 70
    64
  0
SEQEND
  5
4611A
100
AcDbEntity
  8
0
  0
POLYLINE
  5
4611B
100
AcDbEntity
  8
0
100
AcDbPolygonMesh
 66
     1
 10
0.0
 20
0.0
 30
0.0
 70
    16
 71
     6
 72
     3
  0
VERTEX
  5
4611C
100
AcDbEntity
  8
0
100
AcDbVertex
100
AcDbPolygonMeshVertex
 10
2.411396
 20
-0.48205
 30
3.05
 70
    64
  0
VERTEX
  5
4611D
100
AcDbEntity
  8
0
100
AcDbVertex
100
AcDbPolygonMeshVertex
 10
2.411396
 20
-0.48205
 30
0.05
 70
    64
  0
VERTEX
  5
4611E
100
AcDbEntity
  8
0
100
AcDbVertex
100
AcDbPolygonMeshVertex
 10
2.411396
 20
-0.48205
 30
0.05
 70
    64
  0
VERTEX
  5
4611F
100
AcDbEntity
  8
0
100
AcDbVertex
100
AcDbPolygonMeshVertex
 10
2.321396
 20
-0.48205
 30
3.05
 70
    64
  0
VERTEX
  5
46120
100
AcDbEntity
  8
0
100
AcDbVertex
100
AcDbPolygonMeshVertex
 10
2.321396
 20
-0.48205
 30
0.05
 70
    64
  0
VERTEX
  5
46121
100
AcDbEntity
  8
0
100
AcDbVertex
100
AcDbPolygonMeshVertex
 10
2.321396
 20
-0.48205
 30
0.05
 70
    64
  0
VERTEX
  5
46122
100
AcDbEntity
  8
0
100
AcDbVertex
100
AcDbPolygonMeshVertex
 10
2.321396
 20
-0.55705
 30
3.05
 70
    64
  0
VERTEX
  5
46123
100
AcDbEntity
  8
0
100
AcDbVertex
100
AcDbPolygonMeshVertex
 10
2.321396
 20
-0.55705
 30
0.05
 70
    64
  0
VERTEX
  5
46124
100
AcDbEntity
  8
0
100
AcDbVertex
100
AcDbPolygonMeshVertex
 10
2.321396
 20
-0.48205
 30
0.05
 70
    64
  0
VERTEX
  5
46125
100
AcDbEntity
  8
0
100
AcDbVertex
100
AcDbPolygonMeshVertex
 10
2.411396
 20
-0.55705
 30
3.05
 70
    64
  0
VERTEX
  5
46126
100
AcDbEntity
  8
0
100
AcDbVertex
100
AcDbPolygonMeshVertex
 10
2.411396
 20
-0.55705
 30
0.05
 70
    64
  0
VERTEX
  5
46127
100
AcDbEntity
  8
0
100
AcDbVertex
100
AcDbPolygonMeshVertex
 10
2.411396
 20
-0.48205
 30
0.05
 70
    64
  0
VERTEX
  5
46128
100
AcDbEntity
  8
0
100
AcDbVertex
100
AcDbPolygonMeshVertex
 10
2.411396
 20
-0.55705
 30
3.05
 70
    64
  0
VERTEX
  5
46129
100
AcDbEntity
  8
0
100
AcDbVertex
100
AcDbPolygonMeshVertex
 10
2.411396
 20
-0.55705
 30
3.05
 70
    64
  0
VERTEX
  5
4612A
100
AcDbEntity
  8
0
100
AcDbVertex
100
AcDbPolygonMeshVertex
 10
2.411396
 20
-0.48205
 30
3.05
 70
    64
  0
VERTEX
  5
4612B
100
AcDbEntity
  8
0
100
AcDbVertex
100
AcDbPolygonMeshVertex
 10
2.321396
 20
-0.55705
 30
3.05
 70
    64
  0
VERTEX
  5
4612C
100
AcDbEntity
  8
0
100
AcDbVertex
100
AcDbPolygonMeshVertex
 10
2.321396
 20
-0.55705
 30
3.05
 70
    64
  0
VERTEX
  5
4612D
100
AcDbEntity
  8
0
100
AcDbVertex
100
AcDbPolygonMeshVertex
 10
2.321396
 20
-0.48205
 30
3.05
 70
    64
  0
SEQEND
  5
4612E
100
AcDbEntity
  8
0
  0
POLYLINE
  5
4612F
100
AcDbEntity
  8
0
100
AcDbPolygonMesh
 66
     1
 10
0.0
 20
0.0
 30
0.0
 70
    16
 71
     6
 72
     3
  0
VERTEX
  5
46130
100
AcDbEntity
  8
0
100
AcDbVertex
100
AcDbPolygonMeshVertex
 10
2.511396
 20
-0.48205
 30
3.05
 70
    64
  0
VERTEX
  5
46131
100
AcDbEntity
  8
0
100
AcDbVertex
100
AcDbPolygonMeshVertex
 10
2.511396
 20
-0.48205
 30
0.05
 70
    64
  0
VERTEX
  5
46132
100
AcDbEntity
  8
0
100
AcDbVertex
100
AcDbPolygonMeshVertex
 10
2.511396
 20
-0.48205
 30
0.05
 70
    64
  0
VERTEX
  5
46133
100
AcDbEntity
  8
0
100
AcDbVertex
100
AcDbPolygonMeshVertex
 10
2.411396
 20
-0.48205
 30
3.05
 70
    64
  0
VERTEX
  5
46134
100
AcDbEntity
  8
0
100
AcDbVertex
100
AcDbPolygonMeshVertex
 10
2.411396
 20
-0.48205
 30
0.05
 70
    64
  0
VERTEX
  5
46135
100
AcDbEntity
  8
0
100
AcDbVertex
100
AcDbPolygonMeshVertex
 10
2.411396
 20
-0.48205
 30
0.05
 70
    64
  0
VERTEX
  5
46136
100
AcDbEntity
  8
0
100
AcDbVertex
100
AcDbPolygonMeshVertex
 10
2.411396
 20
-0.68205
 30
3.05
 70
    64
  0
VERTEX
  5
46137
100
AcDbEntity
  8
0
100
AcDbVertex
100
AcDbPolygonMeshVertex
 10
2.411396
 20
-0.68205
 30
0.05
 70
    64
  0
VERTEX
  5
46138
100
AcDbEntity
  8
0
100
AcDbVertex
100
AcDbPolygonMeshVertex
 10
2.411396
 20
-0.48205
 30
0.05
 70
    64
  0
VERTEX
  5
46139
100
AcDbEntity
  8
0
100
AcDbVertex
100
AcDbPolygonMeshVertex
 10
2.511396
 20
-0.68205
 30
3.05
 70
    64
  0
VERTEX
  5
4613A
100
AcDbEntity
  8
0
100
AcDbVertex
100
AcDbPolygonMeshVertex
 10
2.511396
 20
-0.68205
 30
0.05
 70
    64
  0
VERTEX
  5
4613B
100
AcDbEntity
  8
0
100
AcDbVertex
100
AcDbPolygonMeshVertex
 10
2.511396
 20
-0.48205
 30
0.05
 70
    64
  0
VERTEX
  5
4613C
100
AcDbEntity
  8
0
100
AcDbVertex
100
AcDbPolygonMeshVertex
 10
2.511396
 20
-0.68205
 30
3.05
 70
    64
  0
VERTEX
  5
4613D
100
AcDbEntity
  8
0
100
AcDbVertex
100
AcDbPolygonMeshVertex
 10
2.511396
 20
-0.68205
 30
3.05
 70
    64
  0
VERTEX
  5
4613E
100
AcDbEntity
  8
0
100
AcDbVertex
100
AcDbPolygonMeshVertex
 10
2.511396
 20
-0.48205
 30
3.05
 70
    64
  0
VERTEX
  5
4613F
100
AcDbEntity
  8
0
100
AcDbVertex
100
AcDbPolygonMeshVertex
 10
2.411396
 20
-0.68205
 30
3.05
 70
    64
  0
VERTEX
  5
46140
100
AcDbEntity
  8
0
100
AcDbVertex
100
AcDbPolygonMeshVertex
 10
2.411396
 20
-0.68205
 30
3.05
 70
    64
  0
VERTEX
  5
46141
100
AcDbEntity
  8
0
100
AcDbVertex
100
AcDbPolygonMeshVertex
 10
2.411396
 20
-0.48205
 30
3.05
 70
    64
  0
SEQEND
  5
46142
100
AcDbEntity
  8
0
  0
POLYLINE
  5
46143
100
AcDbEntity
  8
0
100
AcDbPolygonMesh
 66
     1
 10
0.0
 20
0.0
 30
0.0
 70
    16
 71
     6
 72
     3
  0
VERTEX
  5
46144
100
AcDbEntity
  8
0
100
AcDbVertex
100
AcDbPolygonMeshVertex
 10
2.321396
 20
-0.48205
 30
3.05
 70
    64
  0
VERTEX
  5
46145
100
AcDbEntity
  8
0
100
AcDbVertex
100
AcDbPolygonMeshVertex
 10
2.321396
 20
-0.48205
 30
0.05
 70
    64
  0
VERTEX
  5
46146
100
AcDbEntity
  8
0
100
AcDbVertex
100
AcDbPolygonMeshVertex
 10
2.321396
 20
-0.48205
 30
0.05
 70
    64
  0
VERTEX
  5
46147
100
AcDbEntity
  8
0
100
AcDbVertex
100
AcDbPolygonMeshVertex
 10
2.221396
 20
-0.48205
 30
3.05
 70
    64
  0
VERTEX
  5
46148
100
AcDbEntity
  8
0
100
AcDbVertex
100
AcDbPolygonMeshVertex
 10
2.221396
 20
-0.48205
 30
0.05
 70
    64
  0
VERTEX
  5
46149
100
AcDbEntity
  8
0
100
AcDbVertex
100
AcDbPolygonMeshVertex
 10
2.221396
 20
-0.48205
 30
0.05
 70
    64
  0
VERTEX
  5
4614A
100
AcDbEntity
  8
0
100
AcDbVertex
100
AcDbPolygonMeshVertex
 10
2.221396
 20
-0.68205
 30
3.05
 70
    64
  0
VERTEX
  5
4614B
100
AcDbEntity
  8
0
100
AcDbVertex
100
AcDbPolygonMeshVertex
 10
2.221396
 20
-0.68205
 30
0.05
 70
    64
  0
VERTEX
  5
4614C
100
AcDbEntity
  8
0
100
AcDbVertex
100
AcDbPolygonMeshVertex
 10
2.221396
 20
-0.48205
 30
0.05
 70
    64
  0
VERTEX
  5
4614D
100
AcDbEntity
  8
0
100
AcDbVertex
100
AcDbPolygonMeshVertex
 10
2.321396
 20
-0.68205
 30
3.05
 70
    64
  0
VERTEX
  5
4614E
100
AcDbEntity
  8
0
100
AcDbVertex
100
AcDbPolygonMeshVertex
 10
2.321396
 20
-0.68205
 30
0.05
 70
    64
  0
VERTEX
  5
4614F
100
AcDbEntity
  8
0
100
AcDbVertex
100
AcDbPolygonMeshVertex
 10
2.321396
 20
-0.48205
 30
0.05
 70
    64
  0
VERTEX
  5
46150
100
AcDbEntity
  8
0
100
AcDbVertex
100
AcDbPolygonMeshVertex
 10
2.321396
 20
-0.68205
 30
3.05
 70
    64
  0
VERTEX
  5
46151
100
AcDbEntity
  8
0
100
AcDbVertex
100
AcDbPolygonMeshVertex
 10
2.321396
 20
-0.68205
 30
3.05
 70
    64
  0
VERTEX
  5
46152
100
AcDbEntity
  8
0
100
AcDbVertex
100
AcDbPolygonMeshVertex
 10
2.321396
 20
-0.48205
 30
3.05
 70
    64
  0
VERTEX
  5
46153
100
AcDbEntity
  8
0
100
AcDbVertex
100
AcDbPolygonMeshVertex
 10
2.221396
 20
-0.68205
 30
3.05
 70
    64
  0
VERTEX
  5
46154
100
AcDbEntity
  8
0
100
AcDbVertex
100
AcDbPolygonMeshVertex
 10
2.221396
 20
-0.68205
 30
3.05
 70
    64
  0
VERTEX
  5
46155
100
AcDbEntity
  8
0
100
AcDbVertex
100
AcDbPolygonMeshVertex
 10
2.221396
 20
-0.48205
 30
3.05
 70
    64
  0
SEQEND
  5
46156
100
AcDbEntity
  8
0
  0
POLYLINE
  5
46157
100
AcDbEntity
  8
0
100
AcDbPolygonMesh
 66
     1
 10
0.0
 20
0.0
 30
0.0
 70
    16
 71
     6
 72
     3
  0
VERTEX
  5
46158
100
AcDbEntity
  8
0
100
AcDbVertex
100
AcDbPolygonMeshVertex
 10
-1.582856
 20
-5.88
 30
3.849968
 70
    64
  0
VERTEX
  5
46159
100
AcDbEntity
  8
0
100
AcDbVertex
100
AcDbPolygonMeshVertex
 10
-1.582856
 20
-5.88
 30
0.05
 70
    64
  0
VERTEX
  5
4615A
100
AcDbEntity
  8
0
100
AcDbVertex
100
AcDbPolygonMeshVertex
 10
-1.582856
 20
-5.88
 30
0.05
 70
    64
  0
VERTEX
  5
4615B
100
AcDbEntity
  8
0
100
AcDbVertex
100
AcDbPolygonMeshVertex
 10
-1.982856
 20
-5.88
 30
3.849968
 70
    64
  0
VERTEX
  5
4615C
100
AcDbEntity
  8
0
100
AcDbVertex
100
AcDbPolygonMeshVertex
 10
-1.982856
 20
-5.88
 30
0.05
 70
    64
  0
VERTEX
  5
4615D
100
AcDbEntity
  8
0
100
AcDbVertex
100
AcDbPolygonMeshVertex
 10
-1.982856
 20
-5.88
 30
0.05
 70
    64
  0
VERTEX
  5
4615E
100
AcDbEntity
  8
0
100
AcDbVertex
100
AcDbPolygonMeshVertex
 10
-1.982856
 20
-0.45
 30
3.849968
 70
    64
  0
VERTEX
  5
4615F
100
AcDbEntity
  8
0
100
AcDbVertex
100
AcDbPolygonMeshVertex
 10
-1.982856
 20
-0.45
 30
0.05
 70
    64
  0
VERTEX
  5
46160
100
AcDbEntity
  8
0
100
AcDbVertex
100
AcDbPolygonMeshVertex
 10
-1.982856
 20
-5.88
 30
0.05
 70
    64
  0
VERTEX
  5
46161
100
AcDbEntity
  8
0
100
AcDbVertex
100
AcDbPolygonMeshVertex
 10
-1.582856
 20
-0.45
 30
3.849968
 70
    64
  0
VERTEX
  5
46162
100
AcDbEntity
  8
0
100
AcDbVertex
100
AcDbPolygonMeshVertex
 10
-1.582856
 20
-0.45
 30
0.05
 70
    64
  0
VERTEX
  5
46163
100
AcDbEntity
  8
0
100
AcDbVertex
100
AcDbPolygonMeshVertex
 10
-1.582856
 20
-5.88
 30
0.05
 70
    64
  0
VERTEX
  5
46164
100
AcDbEntity
  8
0
100
AcDbVertex
100
AcDbPolygonMeshVertex
 10
-1.582856
 20
-0.45
 30
3.849968
 70
    64
  0
VERTEX
  5
46165
100
AcDbEntity
  8
0
100
AcDbVertex
100
AcDbPolygonMeshVertex
 10
-1.582856
 20
-0.45
 30
3.849968
 70
    64
  0
VERTEX
  5
46166
100
AcDbEntity
  8
0
100
AcDbVertex
100
AcDbPolygonMeshVertex
 10
-1.582856
 20
-5.88
 30
3.849968
 70
    64
  0
VERTEX
  5
46167
100
AcDbEntity
  8
0
100
AcDbVertex
100
AcDbPolygonMeshVertex
 10
-1.982856
 20
-0.45
 30
3.849968
 70
    64
  0
VERTEX
  5
46168
100
AcDbEntity
  8
0
100
AcDbVertex
100
AcDbPolygonMeshVertex
 10
-1.982856
 20
-0.45
 30
3.849968
 70
    64
  0
VERTEX
  5
46169
100
AcDbEntity
  8
0
100
AcDbVertex
100
AcDbPolygonMeshVertex
 10
-1.982856
 20
-5.88
 30
3.849968
 70
    64
  0
SEQEND
  5
4616A
100
AcDbEntity
  8
0
  0
POLYLINE
  5
4616B
100
AcDbEntity
  8
0
100
AcDbPolygonMesh
 66
     1
 10
0.0
 20
0.0
 30
0.0
 70
    16
 71
     6
 72
     3
  0
VERTEX
  5
4616C
100
AcDbEntity
  8
0
100
AcDbVertex
100
AcDbPolygonMeshVertex
 10
-0.431118
 20
-4.738964
 30
0.425
 70
    64
  0
VERTEX
  5
4616D
100
AcDbEntity
  8
0
100
AcDbVertex
100
AcDbPolygonMeshVertex
 10
-0.431118
 20
-4.738964
 30
0.05
 70
    64
  0
VERTEX
  5
4616E
100
AcDbEntity
  8
0
100
AcDbVertex
100
AcDbPolygonMeshVertex
 10
-0.431118
 20
-4.738964
 30
0.05
 70
    64
  0
VERTEX
  5
4616F
100
AcDbEntity
  8
0
100
AcDbVertex
100
AcDbPolygonMeshVertex
 10
-0.721693
 20
-4.738964
 30
0.425
 70
    64
  0
VERTEX
  5
46170
100
AcDbEntity
  8
0
100
AcDbVertex
100
AcDbPolygonMeshVertex
 10
-0.721693
 20
-4.738964
 30
0.05
 70
    64
  0
VERTEX
  5
46171
100
AcDbEntity
  8
0
100
AcDbVertex
100
AcDbPolygonMeshVertex
 10
-0.721693
 20
-4.738964
 30
0.05
 70
    64
  0
VERTEX
  5
46172
100
AcDbEntity
  8
0
100
AcDbVertex
100
AcDbPolygonMeshVertex
 10
-0.721693
 20
-4.06121
 30
0.425
 70
    64
  0
VERTEX
  5
46173
100
AcDbEntity
  8
0
100
AcDbVertex
100
AcDbPolygonMeshVertex
 10
-0.721693
 20
-4.06121
 30
0.05
 70
    64
  0
VERTEX
  5
46174
100
AcDbEntity
  8
0
100
AcDbVertex
100
AcDbPolygonMeshVertex
 10
-0.721693
 20
-4.738964
 30
0.05
 70
    64
  0
VERTEX
  5
46175
100
AcDbEntity
  8
0
100
AcDbVertex
100
AcDbPolygonMeshVertex
 10
-0.431118
 20
-4.06121
 30
0.425
 70
    64
  0
VERTEX
  5
46176
100
AcDbEntity
  8
0
100
AcDbVertex
100
AcDbPolygonMeshVertex
 10
-0.431118
 20
-4.06121
 30
0.05
 70
    64
  0
VERTEX
  5
46177
100
AcDbEntity
  8
0
100
AcDbVertex
100
AcDbPolygonMeshVertex
 10
-0.431118
 20
-4.738964
 30
0.05
 70
    64
  0
VERTEX
  5
46178
100
AcDbEntity
  8
0
100
AcDbVertex
100
AcDbPolygonMeshVertex
 10
-0.431118
 20
-4.06121
 30
0.425
 70
    64
  0
VERTEX
  5
46179
100
AcDbEntity
  8
0
100
AcDbVertex
100
AcDbPolygonMeshVertex
 10
-0.431118
 20
-4.06121
 30
0.425
 70
    64
  0
VERTEX
  5
4617A
100
AcDbEntity
  8
0
100
AcDbVertex
100
AcDbPolygonMeshVertex
 10
-0.431118
 20
-4.738964
 30
0.425
 70
    64
  0
VERTEX
  5
4617B
100
AcDbEntity
  8
0
100
AcDbVertex
100
AcDbPolygonMeshVertex
 10
-0.721693
 20
-4.06121
 30
0.425
 70
    64
  0
VERTEX
  5
4617C
100
AcDbEntity
  8
0
100
AcDbVertex
100
AcDbPolygonMeshVertex
 10
-0.721693
 20
-4.06121
 30
0.425
 70
    64
  0
VERTEX
  5
4617D
100
AcDbEntity
  8
0
100
AcDbVertex
100
AcDbPolygonMeshVertex
 10
-0.721693
 20
-4.738964
 30
0.425
 70
    64
  0
SEQEND
  5
4617E
100
AcDbEntity
  8
0
  0
POLYLINE
  5
4617F
100
AcDbEntity
  8
0
100
AcDbPolygonMesh
 66
     1
 10
0.0
 20
0.0
 30
0.0
 70
    16
 71
     6
 72
     3
  0
VERTEX
  5
46180
100
AcDbEntity
  8
0
100
AcDbVertex
100
AcDbPolygonMeshVertex
 10
-0.431118
 20
-4.018178
 30
0.425
 70
    64
  0
VERTEX
  5
46181
100
AcDbEntity
  8
0
100
AcDbVertex
100
AcDbPolygonMeshVertex
 10
-0.431118
 20
-4.018178
 30
0.05
 70
    64
  0
VERTEX
  5
46182
100
AcDbEntity
  8
0
100
AcDbVertex
100
AcDbPolygonMeshVertex
 10
-0.431118
 20
-4.018178
 30
0.05
 70
    64
  0
VERTEX
  5
46183
100
AcDbEntity
  8
0
100
AcDbVertex
100
AcDbPolygonMeshVertex
 10
-0.721693
 20
-4.018178
 30
0.425
 70
    64
  0
VERTEX
  5
46184
100
AcDbEntity
  8
0
100
AcDbVertex
100
AcDbPolygonMeshVertex
 10
-0.721693
 20
-4.018178
 30
0.05
 70
    64
  0
VERTEX
  5
46185
100
AcDbEntity
  8
0
100
AcDbVertex
100
AcDbPolygonMeshVertex
 10
-0.721693
 20
-4.018178
 30
0.05
 70
    64
  0
VERTEX
  5
46186
100
AcDbEntity
  8
0
100
AcDbVertex
100
AcDbPolygonMeshVertex
 10
-0.721693
 20
-3.039199
 30
0.425
 70
    64
  0
VERTEX
  5
46187
100
AcDbEntity
  8
0
100
AcDbVertex
100
AcDbPolygonMeshVertex
 10
-0.721693
 20
-3.039199
 30
0.05
 70
    64
  0
VERTEX
  5
46188
100
AcDbEntity
  8
0
100
AcDbVertex
100
AcDbPolygonMeshVertex
 10
-0.721693
 20
-4.018178
 30
0.05
 70
    64
  0
VERTEX
  5
46189
100
AcDbEntity
  8
0
100
AcDbVertex
100
AcDbPolygonMeshVertex
 10
-0.431118
 20
-3.039199
 30
0.425
 70
    64
  0
VERTEX
  5
4618A
100
AcDbEntity
  8
0
100
AcDbVertex
100
AcDbPolygonMeshVertex
 10
-0.431118
 20
-3.039199
 30
0.05
 70
    64
  0
VERTEX
  5
4618B
100
AcDbEntity
  8
0
100
AcDbVertex
100
AcDbPolygonMeshVertex
 10
-0.431118
 20
-4.018178
 30
0.05
 70
    64
  0
VERTEX
  5
4618C
100
AcDbEntity
  8
0
100
AcDbVertex
100
AcDbPolygonMeshVertex
 10
-0.431118
 20
-3.039199
 30
0.425
 70
    64
  0
VERTEX
  5
4618D
100
AcDbEntity
  8
0
100
AcDbVertex
100
AcDbPolygonMeshVertex
 10
-0.431118
 20
-3.039199
 30
0.425
 70
    64
  0
VERTEX
  5
4618E
100
AcDbEntity
  8
0
100
AcDbVertex
100
AcDbPolygonMeshVertex
 10
-0.431118
 20
-4.018178
 30
0.425
 70
    64
  0
VERTEX
  5
4618F
100
AcDbEntity
  8
0
100
AcDbVertex
100
AcDbPolygonMeshVertex
 10
-0.721693
 20
-3.039199
 30
0.425
 70
    64
  0
VERTEX
  5
46190
100
AcDbEntity
  8
0
100
AcDbVertex
100
AcDbPolygonMeshVertex
 10
-0.721693
 20
-3.039199
 30
0.425
 70
    64
  0
VERTEX
  5
46191
100
AcDbEntity
  8
0
100
AcDbVertex
100
AcDbPolygonMeshVertex
 10
-0.721693
 20
-4.018178
 30
0.425
 70
    64
  0
SEQEND
  5
46192
100
AcDbEntity
  8
0
  0
POLYLINE
  5
46193
100
AcDbEntity
  8
0
100
AcDbPolygonMesh
 66
     1
 10
0.0
 20
0.0
 30
0.0
 70
    16
 71
     6
 72
     3
  0
VERTEX
  5
46194
100
AcDbEntity
  8
0
100
AcDbVertex
100
AcDbPolygonMeshVertex
 10
-1.210458
 20
-4.911092
 30
0.425
 70
    64
  0
VERTEX
  5
46195
100
AcDbEntity
  8
0
100
AcDbVertex
100
AcDbPolygonMeshVertex
 10
-1.210458
 20
-4.911092
 30
0.05
 70
    64
  0
VERTEX
  5
46196
100
AcDbEntity
  8
0
100
AcDbVertex
100
AcDbPolygonMeshVertex
 10
-1.210458
 20
-4.911092
 30
0.05
 70
    64
  0
VERTEX
  5
46197
100
AcDbEntity
  8
0
100
AcDbVertex
100
AcDbPolygonMeshVertex
 10
-1.501034
 20
-4.911092
 30
0.425
 70
    64
  0
VERTEX
  5
46198
100
AcDbEntity
  8
0
100
AcDbVertex
100
AcDbPolygonMeshVertex
 10
-1.501034
 20
-4.911092
 30
0.05
 70
    64
  0
VERTEX
  5
46199
100
AcDbEntity
  8
0
100
AcDbVertex
100
AcDbPolygonMeshVertex
 10
-1.501034
 20
-4.911092
 30
0.05
 70
    64
  0
VERTEX
  5
4619A
100
AcDbEntity
  8
0
100
AcDbVertex
100
AcDbPolygonMeshVertex
 10
-1.501034
 20
-3.523309
 30
0.425
 70
    64
  0
VERTEX
  5
4619B
100
AcDbEntity
  8
0
100
AcDbVertex
100
AcDbPolygonMeshVertex
 10
-1.501034
 20
-3.523309
 30
0.05
 70
    64
  0
VERTEX
  5
4619C
100
AcDbEntity
  8
0
100
AcDbVertex
100
AcDbPolygonMeshVertex
 10
-1.501034
 20
-4.911092
 30
0.05
 70
    64
  0
VERTEX
  5
4619D
100
AcDbEntity
  8
0
100
AcDbVertex
100
AcDbPolygonMeshVertex
 10
-1.210458
 20
-3.523309
 30
0.425
 70
    64
  0
VERTEX
  5
4619E
100
AcDbEntity
  8
0
100
AcDbVertex
100
AcDbPolygonMeshVertex
 10
-1.210458
 20
-3.523309
 30
0.05
 70
    64
  0
VERTEX
  5
4619F
100
AcDbEntity
  8
0
100
AcDbVertex
100
AcDbPolygonMeshVertex
 10
-1.210458
 20
-4.911092
 30
0.05
 70
    64
  0
VERTEX
  5
461A0
100
AcDbEntity
  8
0
100
AcDbVertex
100
AcDbPolygonMeshVertex
 10
-1.210458
 20
-3.523309
 30
0.425
 70
    64
  0
VERTEX
  5
461A1
100
AcDbEntity
  8
0
100
AcDbVertex
100
AcDbPolygonMeshVertex
 10
-1.210458
 20
-3.523309
 30
0.425
 70
    64
  0
VERTEX
  5
461A2
100
AcDbEntity
  8
0
100
AcDbVertex
100
AcDbPolygonMeshVertex
 10
-1.210458
 20
-4.911092
 30
0.425
 70
    64
  0
VERTEX
  5
461A3
100
AcDbEntity
  8
0
100
AcDbVertex
100
AcDbPolygonMeshVertex
 10
-1.501034
 20
-3.523309
 30
0.425
 70
    64
  0
VERTEX
  5
461A4
100
AcDbEntity
  8
0
100
AcDbVertex
100
AcDbPolygonMeshVertex
 10
-1.501034
 20
-3.523309
 30
0.425
 70
    64
  0
VERTEX
  5
461A5
100
AcDbEntity
  8
0
100
AcDbVertex
100
AcDbPolygonMeshVertex
 10
-1.501034
 20
-4.911092
 30
0.425
 70
    64
  0
SEQEND
  5
461A6
100
AcDbEntity
  8
0
  0
POLYLINE
  5
461A7
100
AcDbEntity
  8
0
100
AcDbPolygonMesh
 66
     1
 10
0.0
 20
0.0
 30
0.0
 70
    16
 71
     6
 72
     3
  0
VERTEX
  5
461A8
100
AcDbEntity
  8
0
100
AcDbVertex
100
AcDbPolygonMeshVertex
 10
-2.275903
 20
-4.018178
 30
0.425
 70
    64
  0
VERTEX
  5
461A9
100
AcDbEntity
  8
0
100
AcDbVertex
100
AcDbPolygonMeshVertex
 10
-2.275903
 20
-4.018178
 30
0.05
 70
    64
  0
VERTEX
  5
461AA
100
AcDbEntity
  8
0
100
AcDbVertex
100
AcDbPolygonMeshVertex
 10
-2.275903
 20
-4.018178
 30
0.05
 70
    64
  0
VERTEX
  5
461AB
100
AcDbEntity
  8
0
100
AcDbVertex
100
AcDbPolygonMeshVertex
 10
-2.566479
 20
-4.018178
 30
0.425
 70
    64
  0
VERTEX
  5
461AC
100
AcDbEntity
  8
0
100
AcDbVertex
100
AcDbPolygonMeshVertex
 10
-2.566479
 20
-4.018178
 30
0.05
 70
    64
  0
VERTEX
  5
461AD
100
AcDbEntity
  8
0
100
AcDbVertex
100
AcDbPolygonMeshVertex
 10
-2.566479
 20
-4.018178
 30
0.05
 70
    64
  0
VERTEX
  5
461AE
100
AcDbEntity
  8
0
100
AcDbVertex
100
AcDbPolygonMeshVertex
 10
-2.566479
 20
-3.039199
 30
0.425
 70
    64
  0
VERTEX
  5
461AF
100
AcDbEntity
  8
0
100
AcDbVertex
100
AcDbPolygonMeshVertex
 10
-2.566479
 20
-3.039199
 30
0.05
 70
    64
  0
VERTEX
  5
461B0
100
AcDbEntity
  8
0
100
AcDbVertex
100
AcDbPolygonMeshVertex
 10
-2.566479
 20
-4.018178
 30
0.05
 70
    64
  0
VERTEX
  5
461B1
100
AcDbEntity
  8
0
100
AcDbVertex
100
AcDbPolygonMeshVertex
 10
-2.275903
 20
-3.039199
 30
0.425
 70
    64
  0
VERTEX
  5
461B2
100
AcDbEntity
  8
0
100
AcDbVertex
100
AcDbPolygonMeshVertex
 10
-2.275903
 20
-3.039199
 30
0.05
 70
    64
  0
VERTEX
  5
461B3
100
AcDbEntity
  8
0
100
AcDbVertex
100
AcDbPolygonMeshVertex
 10
-2.275903
 20
-4.018178
 30
0.05
 70
    64
  0
VERTEX
  5
461B4
100
AcDbEntity
  8
0
100
AcDbVertex
100
AcDbPolygonMeshVertex
 10
-2.275903
 20
-3.039199
 30
0.425
 70
    64
  0
VERTEX
  5
461B5
100
AcDbEntity
  8
0
100
AcDbVertex
100
AcDbPolygonMeshVertex
 10
-2.275903
 20
-3.039199
 30
0.425
 70
    64
  0
VERTEX
  5
461B6
100
AcDbEntity
  8
0
100
AcDbVertex
100
AcDbPolygonMeshVertex
 10
-2.275903
 20
-4.018178
 30
0.425
 70
    64
  0
VERTEX
  5
461B7
100
AcDbEntity
  8
0
100
AcDbVertex
100
AcDbPolygonMeshVertex
 10
-2.566479
 20
-3.039199
 30
0.425
 70
    64
  0
VERTEX
  5
461B8
100
AcDbEntity
  8
0
100
AcDbVertex
100
AcDbPolygonMeshVertex
 10
-2.566479
 20
-3.039199
 30
0.425
 70
    64
  0
VERTEX
  5
461B9
100
AcDbEntity
  8
0
100
AcDbVertex
100
AcDbPolygonMeshVertex
 10
-2.566479
 20
-4.018178
 30
0.425
 70
    64
  0
SEQEND
  5
461BA
100
AcDbEntity
  8
0
  0
POINT
  5
461BB
100
AcDbEntity
  8
SNAP_POINTS
100
AcDbPoint
 10
-2.15752
 20
-5.747975
 30
0.05
  0
POLYLINE
  5
461BC
100
AcDbEntity
  8
0
100
AcDbPolygonMesh
 66
     1
 10
0.0
 20
0.0
 30
0.0
 70
    16
 71
     6
 72
     3
  0
VERTEX
  5
461BD
100
AcDbEntity
  8
0
100
AcDbVertex
100
AcDbPolygonMeshVertex
 10
0.978714
 20
-4.018178
 30
0.425
 70
    64
  0
VERTEX
  5
461BE
100
AcDbEntity
  8
0
100
AcDbVertex
100
AcDbPolygonMeshVertex
 10
0.978714
 20
-4.018178
 30
0.05
 70
    64
  0
VERTEX
  5
461BF
100
AcDbEntity
  8
0
100
AcDbVertex
100
AcDbPolygonMeshVertex
 10
0.978714
 20
-4.018178
 30
0.05
 70
    64
  0
VERTEX
  5
461C0
100
AcDbEntity
  8
0
100
AcDbVertex
100
AcDbPolygonMeshVertex
 10
0.688138
 20
-4.018178
 30
0.425
 70
    64
  0
VERTEX
  5
461C1
100
AcDbEntity
  8
0
100
AcDbVertex
100
AcDbPolygonMeshVertex
 10
0.688138
 20
-4.018178
 30
0.05
 70
    64
  0
VERTEX
  5
461C2
100
AcDbEntity
  8
0
100
AcDbVertex
100
AcDbPolygonMeshVertex
 10
0.688138
 20
-4.018178
 30
0.05
 70
    64
  0
VERTEX
  5
461C3
100
AcDbEntity
  8
0
100
AcDbVertex
100
AcDbPolygonMeshVertex
 10
0.688138
 20
-3.039199
 30
0.425
 70
    64
  0
VERTEX
  5
461C4
100
AcDbEntity
  8
0
100
AcDbVertex
100
AcDbPolygonMeshVertex
 10
0.688138
 20
-3.039199
 30
0.05
 70
    64
  0
VERTEX
  5
461C5
100
AcDbEntity
  8
0
100
AcDbVertex
100
AcDbPolygonMeshVertex
 10
0.688138
 20
-4.018178
 30
0.05
 70
    64
  0
VERTEX
  5
461C6
100
AcDbEntity
  8
0
100
AcDbVertex
100
AcDbPolygonMeshVertex
 10
0.978714
 20
-3.039199
 30
0.425
 70
    64
  0
VERTEX
  5
461C7
100
AcDbEntity
  8
0
100
AcDbVertex
100
AcDbPolygonMeshVertex
 10
0.978714
 20
-3.039199
 30
0.05
 70
    64
  0
VERTEX
  5
461C8
100
AcDbEntity
  8
0
100
AcDbVertex
100
AcDbPolygonMeshVertex
 10
0.978714
 20
-4.018178
 30
0.05
 70
    64
  0
VERTEX
  5
461C9
100
AcDbEntity
  8
0
100
AcDbVertex
100
AcDbPolygonMeshVertex
 10
0.978714
 20
-3.039199
 30
0.425
 70
    64
  0
VERTEX
  5
461CA
100
AcDbEntity
  8
0
100
AcDbVertex
100
AcDbPolygonMeshVertex
 10
0.978714
 20
-3.039199
 30
0.425
 70
    64
  0
VERTEX
  5
461CB
100
AcDbEntity
  8
0
100
AcDbVertex
100
AcDbPolygonMeshVertex
 10
0.978714
 20
-4.018178
 30
0.425
 70
    64
  0
VERTEX
  5
461CC
100
AcDbEntity
  8
0
100
AcDbVertex
100
AcDbPolygonMeshVertex
 10
0.688138
 20
-3.039199
 30
0.425
 70
    64
  0
VERTEX
  5
461CD
100
AcDbEntity
  8
0
100
AcDbVertex
100
AcDbPolygonMeshVertex
 10
0.688138
 20
-3.039199
 30
0.425
 70
    64
  0
VERTEX
  5
461CE
100
AcDbEntity
  8
0
100
AcDbVertex
100
AcDbPolygonMeshVertex
 10
0.688138
 20
-4.018178
 30
0.425
 70
    64
  0
SEQEND
  5
461CF
100
AcDbEntity
  8
0
  0
POLYLINE
  5
461D0
100
AcDbEntity
  8
0
100
AcDbPolygonMesh
 66
     1
 10
0.0
 20
0.0
 30
0.0
 70
    16
 71
     6
 72
     3
  0
VERTEX
  5
461D1
100
AcDbEntity
  8
0
100
AcDbVertex
100
AcDbPolygonMeshVertex
 10
2.353744
 20
-4.018202
 30
0.425
 70
    64
  0
VERTEX
  5
461D2
100
AcDbEntity
  8
0
100
AcDbVertex
100
AcDbPolygonMeshVertex
 10
2.353744
 20
-4.018202
 30
0.05
 70
    64
  0
VERTEX
  5
461D3
100
AcDbEntity
  8
0
100
AcDbVertex
100
AcDbPolygonMeshVertex
 10
2.353744
 20
-4.018202
 30
0.05
 70
    64
  0
VERTEX
  5
461D4
100
AcDbEntity
  8
0
100
AcDbVertex
100
AcDbPolygonMeshVertex
 10
2.063168
 20
-4.018202
 30
0.425
 70
    64
  0
VERTEX
  5
461D5
100
AcDbEntity
  8
0
100
AcDbVertex
100
AcDbPolygonMeshVertex
 10
2.063168
 20
-4.018202
 30
0.05
 70
    64
  0
VERTEX
  5
461D6
100
AcDbEntity
  8
0
100
AcDbVertex
100
AcDbPolygonMeshVertex
 10
2.063168
 20
-4.018202
 30
0.05
 70
    64
  0
VERTEX
  5
461D7
100
AcDbEntity
  8
0
100
AcDbVertex
100
AcDbPolygonMeshVertex
 10
2.063168
 20
-3.039224
 30
0.425
 70
    64
  0
VERTEX
  5
461D8
100
AcDbEntity
  8
0
100
AcDbVertex
100
AcDbPolygonMeshVertex
 10
2.063168
 20
-3.039224
 30
0.05
 70
    64
  0
VERTEX
  5
461D9
100
AcDbEntity
  8
0
100
AcDbVertex
100
AcDbPolygonMeshVertex
 10
2.063168
 20
-4.018202
 30
0.05
 70
    64
  0
VERTEX
  5
461DA
100
AcDbEntity
  8
0
100
AcDbVertex
100
AcDbPolygonMeshVertex
 10
2.353744
 20
-3.039224
 30
0.425
 70
    64
  0
VERTEX
  5
461DB
100
AcDbEntity
  8
0
100
AcDbVertex
100
AcDbPolygonMeshVertex
 10
2.353744
 20
-3.039224
 30
0.05
 70
    64
  0
VERTEX
  5
461DC
100
AcDbEntity
  8
0
100
AcDbVertex
100
AcDbPolygonMeshVertex
 10
2.353744
 20
-4.018202
 30
0.05
 70
    64
  0
VERTEX
  5
461DD
100
AcDbEntity
  8
0
100
AcDbVertex
100
AcDbPolygonMeshVertex
 10
2.353744
 20
-3.039224
 30
0.425
 70
    64
  0
VERTEX
  5
461DE
100
AcDbEntity
  8
0
100
AcDbVertex
100
AcDbPolygonMeshVertex
 10
2.353744
 20
-3.039224
 30
0.425
 70
    64
  0
VERTEX
  5
461DF
100
AcDbEntity
  8
0
100
AcDbVertex
100
AcDbPolygonMeshVertex
 10
2.353744
 20
-4.018202
 30
0.425
 70
    64
  0
VERTEX
  5
461E0
100
AcDbEntity
  8
0
100
AcDbVertex
100
AcDbPolygonMeshVertex
 10
2.063168
 20
-3.039224
 30
0.425
 70
    64
  0
VERTEX
  5
461E1
100
AcDbEntity
  8
0
100
AcDbVertex
100
AcDbPolygonMeshVertex
 10
2.063168
 20
-3.039224
 30
0.425
 70
    64
  0
VERTEX
  5
461E2
100
AcDbEntity
  8
0
100
AcDbVertex
100
AcDbPolygonMeshVertex
 10
2.063168
 20
-4.018202
 30
0.425
 70
    64
  0
SEQEND
  5
461E3
100
AcDbEntity
  8
0
  0
POLYLINE
  5
461E4
100
AcDbEntity
  8
0
100
AcDbPolygonMesh
 66
     1
 10
0.0
 20
0.0
 30
0.0
 70
    16
 71
     6
 72
     3
  0
VERTEX
  5
461E5
100
AcDbEntity
  8
0
100
AcDbVertex
100
AcDbPolygonMeshVertex
 10
0.217
 20
-6.47
 30
0.04
 70
    64
  0
VERTEX
  5
461E6
100
AcDbEntity
  8
0
100
AcDbVertex
100
AcDbPolygonMeshVertex
 10
0.217
 20
-6.47
 30
0.0
 70
    64
  0
VERTEX
  5
461E7
100
AcDbEntity
  8
0
100
AcDbVertex
100
AcDbPolygonMeshVertex
 10
0.217
 20
-6.47
 30
0.0
 70
    64
  0
VERTEX
  5
461E8
100
AcDbEntity
  8
0
100
AcDbVertex
100
AcDbPolygonMeshVertex
 10
-0.217
 20
-6.47
 30
0.04
 70
    64
  0
VERTEX
  5
461E9
100
AcDbEntity
  8
0
100
AcDbVertex
100
AcDbPolygonMeshVertex
 10
-0.217
 20
-6.47
 30
0.0
 70
    64
  0
VERTEX
  5
461EA
100
AcDbEntity
  8
0
100
AcDbVertex
100
AcDbPolygonMeshVertex
 10
-0.217
 20
-6.47
 30
0.0
 70
    64
  0
VERTEX
  5
461EB
100
AcDbEntity
  8
0
100
AcDbVertex
100
AcDbPolygonMeshVertex
 10
-0.217
 20
-5.92
 30
0.04
 70
    64
  0
VERTEX
  5
461EC
100
AcDbEntity
  8
0
100
AcDbVertex
100
AcDbPolygonMeshVertex
 10
-0.217
 20
-5.92
 30
0.0
 70
    64
  0
VERTEX
  5
461ED
100
AcDbEntity
  8
0
100
AcDbVertex
100
AcDbPolygonMeshVertex
 10
-0.217
 20
-6.47
 30
0.0
 70
    64
  0
VERTEX
  5
461EE
100
AcDbEntity
  8
0
100
AcDbVertex
100
AcDbPolygonMeshVertex
 10
0.217
 20
-5.92
 30
0.04
 70
    64
  0
VERTEX
  5
461EF
100
AcDbEntity
  8
0
100
AcDbVertex
100
AcDbPolygonMeshVertex
 10
0.217
 20
-5.92
 30
0.0
 70
    64
  0
VERTEX
  5
461F0
100
AcDbEntity
  8
0
100
AcDbVertex
100
AcDbPolygonMeshVertex
 10
0.217
 20
-6.47
 30
0.0
 70
    64
  0
VERTEX
  5
461F1
100
AcDbEntity
  8
0
100
AcDbVertex
100
AcDbPolygonMeshVertex
 10
0.217
 20
-5.92
 30
0.04
 70
    64
  0
VERTEX
  5
461F2
100
AcDbEntity
  8
0
100
AcDbVertex
100
AcDbPolygonMeshVertex
 10
0.217
 20
-5.92
 30
0.04
 70
    64
  0
VERTEX
  5
461F3
100
AcDbEntity
  8
0
100
AcDbVertex
100
AcDbPolygonMeshVertex
 10
0.217
 20
-6.47
 30
0.04
 70
    64
  0
VERTEX
  5
461F4
100
AcDbEntity
  8
0
100
AcDbVertex
100
AcDbPolygonMeshVertex
 10
-0.217
 20
-5.92
 30
0.04
 70
    64
  0
VERTEX
  5
461F5
100
AcDbEntity
  8
0
100
AcDbVertex
100
AcDbPolygonMeshVertex
 10
-0.217
 20
-5.92
 30
0.04
 70
    64
  0
VERTEX
  5
461F6
100
AcDbEntity
  8
0
100
AcDbVertex
100
AcDbPolygonMeshVertex
 10
-0.217
 20
-6.47
 30
0.04
 70
    64
  0
SEQEND
  5
461F7
100
AcDbEntity
  8
0
  0
CIRCLE
  5
461F9
100
AcDbEntity
  8
0
100
AcDbCircle
 39
0.04
 10
0.0
 20
-6.22
 30
0.0
 40
0.1085
  0
POINT
  5
461FB
100
AcDbEntity
  8
SNAP_POINTS
100
AcDbPoint
 10
-0.385006
 20
-5.772975
 30
0.05
  0
POINT
  5
461FC
100
AcDbEntity
  8
SNAP_POINTS
100
AcDbPoint
 10
0.989994
 20
-5.772975
 30
0.05
  0
POINT
  5
461FD
100
AcDbEntity
  8
SNAP_POINTS
100
AcDbPoint
 10
2.365024
 20
-5.773
 30
0.05
  0
ARC
  5
461FF
100
AcDbEntity
  8
0
100
AcDbCircle
 39
0.04
 10
0.0
 20
0.0
 30
0.0
 40
0.1085
100
AcDbArc
 50
356.782733
 51
183.217267
  0
ARC
  5
46200
100
AcDbEntity
  8
0
100
AcDbCircle
 39
0.04
 10
0.0
 20
-0.193538
 30
0.0
 40
0.2165
100
AcDbArc
 50
120.024142
 51
59.975858
  0
POLYLINE
  5
46202
100
AcDbEntity
  8
0
100
AcDbPolygonMesh
 66
     1
 10
0.0
 20
0.0
 30
0.0
 70
    16
 71
     6
 72
     3
  0
VERTEX
  5
46203
100
AcDbEntity
  8
0
100
AcDbVertex
100
AcDbPolygonMeshVertex
 10
6.573
 20
-0.41
 30
0.04
 70
    64
  0
VERTEX
  5
46204
100
AcDbEntity
  8
0
100
AcDbVertex
100
AcDbPolygonMeshVertex
 10
6.573
 20
-0.41
 30
0.0
 70
    64
  0
VERTEX
  5
46205
100
AcDbEntity
  8
0
100
AcDbVertex
100
AcDbPolygonMeshVertex
 10
6.573
 20
-0.41
 30
0.0
 70
    64
  0
VERTEX
  5
46206
100
AcDbEntity
  8
0
100
AcDbVertex
100
AcDbPolygonMeshVertex
 10
6.573
 20
0.26
 30
0.04
 70
    64
  0
VERTEX
  5
46207
100
AcDbEntity
  8
0
100
AcDbVertex
100
AcDbPolygonMeshVertex
 10
6.573
 20
0.26
 30
0.0
 70
    64
  0
VERTEX
  5
46208
100
AcDbEntity
  8
0
100
AcDbVertex
100
AcDbPolygonMeshVertex
 10
6.573
 20
0.26
 30
0.0
 70
    64
  0
VERTEX
  5
46209
100
AcDbEntity
  8
0
100
AcDbVertex
100
AcDbPolygonMeshVertex
 10
7.207
 20
0.26
 30
0.04
 70
    64
  0
VERTEX
  5
4620A
100
AcDbEntity
  8
0
100
AcDbVertex
100
AcDbPolygonMeshVertex
 10
7.207
 20
0.26
 30
0.0
 70
    64
  0
VERTEX
  5
4620B
100
AcDbEntity
  8
0
100
AcDbVertex
100
AcDbPolygonMeshVertex
 10
6.573
 20
0.26
 30
0.0
 70
    64
  0
VERTEX
  5
4620C
100
AcDbEntity
  8
0
100
AcDbVertex
100
AcDbPolygonMeshVertex
 10
7.207
 20
-0.41
 30
0.04
 70
    64
  0
VERTEX
  5
4620D
100
AcDbEntity
  8
0
100
AcDbVertex
100
AcDbPolygonMeshVertex
 10
7.207
 20
-0.41
 30
0.0
 70
    64
  0
VERTEX
  5
4620E
100
AcDbEntity
  8
0
100
AcDbVertex
100
AcDbPolygonMeshVertex
 10
6.573
 20
-0.41
 30
0.0
 70
    64
  0
VERTEX
  5
4620F
100
AcDbEntity
  8
0
100
AcDbVertex
100
AcDbPolygonMeshVertex
 10
7.207
 20
-0.41
 30
0.04
 70
    64
  0
VERTEX
  5
46210
100
AcDbEntity
  8
0
100
AcDbVertex
100
AcDbPolygonMeshVertex
 10
7.207
 20
-0.41
 30
0.04
 70
    64
  0
VERTEX
  5
46211
100
AcDbEntity
  8
0
100
AcDbVertex
100
AcDbPolygonMeshVertex
 10
6.573
 20
-0.41
 30
0.04
 70
    64
  0
VERTEX
  5
46212
100
AcDbEntity
  8
0
100
AcDbVertex
100
AcDbPolygonMeshVertex
 10
7.207
 20
0.26
 30
0.04
 70
    64
  0
VERTEX
  5
46213
100
AcDbEntity
  8
0
100
AcDbVertex
100
AcDbPolygonMeshVertex
 10
7.207
 20
0.26
 30
0.04
 70
    64
  0
VERTEX
  5
46214
100
AcDbEntity
  8
0
100
AcDbVertex
100
AcDbPolygonMeshVertex
 10
6.573
 20
0.26
 30
0.04
 70
    64
  0
SEQEND
  5
46215
100
AcDbEntity
  8
0
  0
POLYLINE
  5
46216
100
AcDbEntity
  8
0
100
AcDbPolygonMesh
 66
     1
 10
0.0
 20
0.0
 30
0.0
 70
    16
 71
     6
 72
     3
  0
VERTEX
  5
46217
100
AcDbEntity
  8
0
100
AcDbVertex
100
AcDbPolygonMeshVertex
 10
3.695033
 20
-5.848034
 30
3.05
 70
    64
  0
VERTEX
  5
46218
100
AcDbEntity
  8
0
100
AcDbVertex
100
AcDbPolygonMeshVertex
 10
3.695033
 20
-5.848034
 30
0.05
 70
    64
  0
VERTEX
  5
46219
100
AcDbEntity
  8
0
100
AcDbVertex
100
AcDbPolygonMeshVertex
 10
3.695033
 20
-5.848034
 30
0.05
 70
    64
  0
VERTEX
  5
4621A
100
AcDbEntity
  8
0
100
AcDbVertex
100
AcDbPolygonMeshVertex
 10
3.595033
 20
-5.848034
 30
3.05
 70
    64
  0
VERTEX
  5
4621B
100
AcDbEntity
  8
0
100
AcDbVertex
100
AcDbPolygonMeshVertex
 10
3.595033
 20
-5.848034
 30
0.05
 70
    64
  0
VERTEX
  5
4621C
100
AcDbEntity
  8
0
100
AcDbVertex
100
AcDbPolygonMeshVertex
 10
3.595033
 20
-5.848034
 30
0.05
 70
    64
  0
VERTEX
  5
4621D
100
AcDbEntity
  8
0
100
AcDbVertex
100
AcDbPolygonMeshVertex
 10
3.595033
 20
-5.648034
 30
3.05
 70
    64
  0
VERTEX
  5
4621E
100
AcDbEntity
  8
0
100
AcDbVertex
100
AcDbPolygonMeshVertex
 10
3.595033
 20
-5.648034
 30
0.05
 70
    64
  0
VERTEX
  5
4621F
100
AcDbEntity
  8
0
100
AcDbVertex
100
AcDbPolygonMeshVertex
 10
3.595033
 20
-5.848034
 30
0.05
 70
    64
  0
VERTEX
  5
46220
100
AcDbEntity
  8
0
100
AcDbVertex
100
AcDbPolygonMeshVertex
 10
3.695033
 20
-5.648034
 30
3.05
 70
    64
  0
VERTEX
  5
46221
100
AcDbEntity
  8
0
100
AcDbVertex
100
AcDbPolygonMeshVertex
 10
3.695033
 20
-5.648034
 30
0.05
 70
    64
  0
VERTEX
  5
46222
100
AcDbEntity
  8
0
100
AcDbVertex
100
AcDbPolygonMeshVertex
 10
3.695033
 20
-5.848034
 30
0.05
 70
    64
  0
VERTEX
  5
46223
100
AcDbEntity
  8
0
100
AcDbVertex
100
AcDbPolygonMeshVertex
 10
3.695033
 20
-5.648034
 30
3.05
 70
    64
  0
VERTEX
  5
46224
100
AcDbEntity
  8
0
100
AcDbVertex
100
AcDbPolygonMeshVertex
 10
3.695033
 20
-5.648034
 30
3.05
 70
    64
  0
VERTEX
  5
46225
100
AcDbEntity
  8
0
100
AcDbVertex
100
AcDbPolygonMeshVertex
 10
3.695033
 20
-5.848034
 30
3.05
 70
    64
  0
VERTEX
  5
46226
100
AcDbEntity
  8
0
100
AcDbVertex
100
AcDbPolygonMeshVertex
 10
3.595033
 20
-5.648034
 30
3.05
 70
    64
  0
VERTEX
  5
46227
100
AcDbEntity
  8
0
100
AcDbVertex
100
AcDbPolygonMeshVertex
 10
3.595033
 20
-5.648034
 30
3.05
 70
    64
  0
VERTEX
  5
46228
100
AcDbEntity
  8
0
100
AcDbVertex
100
AcDbPolygonMeshVertex
 10
3.595033
 20
-5.848034
 30
3.05
 70
    64
  0
SEQEND
  5
46229
100
AcDbEntity
  8
0
  0
POLYLINE
  5
4622A
100
AcDbEntity
  8
0
100
AcDbPolygonMesh
 66
     1
 10
0.0
 20
0.0
 30
0.0
 70
    16
 71
     6
 72
     3
  0
VERTEX
  5
4622B
100
AcDbEntity
  8
0
100
AcDbVertex
100
AcDbPolygonMeshVertex
 10
3.885033
 20
-5.848034
 30
3.05
 70
    64
  0
VERTEX
  5
4622C
100
AcDbEntity
  8
0
100
AcDbVertex
100
AcDbPolygonMeshVertex
 10
3.885033
 20
-5.848034
 30
0.05
 70
    64
  0
VERTEX
  5
4622D
100
AcDbEntity
  8
0
100
AcDbVertex
100
AcDbPolygonMeshVertex
 10
3.885033
 20
-5.848034
 30
0.05
 70
    64
  0
VERTEX
  5
4622E
100
AcDbEntity
  8
0
100
AcDbVertex
100
AcDbPolygonMeshVertex
 10
3.785033
 20
-5.848034
 30
3.05
 70
    64
  0
VERTEX
  5
4622F
100
AcDbEntity
  8
0
100
AcDbVertex
100
AcDbPolygonMeshVertex
 10
3.785033
 20
-5.848034
 30
0.05
 70
    64
  0
VERTEX
  5
46230
100
AcDbEntity
  8
0
100
AcDbVertex
100
AcDbPolygonMeshVertex
 10
3.785033
 20
-5.848034
 30
0.05
 70
    64
  0
VERTEX
  5
46231
100
AcDbEntity
  8
0
100
AcDbVertex
100
AcDbPolygonMeshVertex
 10
3.785033
 20
-5.648034
 30
3.05
 70
    64
  0
VERTEX
  5
46232
100
AcDbEntity
  8
0
100
AcDbVertex
100
AcDbPolygonMeshVertex
 10
3.785033
 20
-5.648034
 30
0.05
 70
    64
  0
VERTEX
  5
46233
100
AcDbEntity
  8
0
100
AcDbVertex
100
AcDbPolygonMeshVertex
 10
3.785033
 20
-5.848034
 30
0.05
 70
    64
  0
VERTEX
  5
46234
100
AcDbEntity
  8
0
100
AcDbVertex
100
AcDbPolygonMeshVertex
 10
3.885033
 20
-5.648034
 30
3.05
 70
    64
  0
VERTEX
  5
46235
100
AcDbEntity
  8
0
100
AcDbVertex
100
AcDbPolygonMeshVertex
 10
3.885033
 20
-5.648034
 30
0.05
 70
    64
  0
VERTEX
  5
46236
100
AcDbEntity
  8
0
100
AcDbVertex
100
AcDbPolygonMeshVertex
 10
3.885033
 20
-5.848034
 30
0.05
 70
    64
  0
VERTEX
  5
46237
100
AcDbEntity
  8
0
100
AcDbVertex
100
AcDbPolygonMeshVertex
 10
3.885033
 20
-5.648034
 30
3.05
 70
    64
  0
VERTEX
  5
46238
100
AcDbEntity
  8
0
100
AcDbVertex
100
AcDbPolygonMeshVertex
 10
3.885033
 20
-5.648034
 30
3.05
 70
    64
  0
VERTEX
  5
46239
100
AcDbEntity
  8
0
100
AcDbVertex
100
AcDbPolygonMeshVertex
 10
3.885033
 20
-5.848034
 30
3.05
 70
    64
  0
VERTEX
  5
4623A
100
AcDbEntity
  8
0
100
AcDbVertex
100
AcDbPolygonMeshVertex
 10
3.785033
 20
-5.648034
 30
3.05
 70
    64
  0
VERTEX
  5
4623B
100
AcDbEntity
  8
0
100
AcDbVertex
100
AcDbPolygonMeshVertex
 10
3.785033
 20
-5.648034
 30
3.05
 70
    64
  0
VERTEX
  5
4623C
100
AcDbEntity
  8
0
100
AcDbVertex
100
AcDbPolygonMeshVertex
 10
3.785033
 20
-5.848034
 30
3.05
 70
    64
  0
SEQEND
  5
4623D
100
AcDbEntity
  8
0
  0
POLYLINE
  5
4623E
100
AcDbEntity
  8
0
100
AcDbPolygonMesh
 66
     1
 10
0.0
 20
0.0
 30
0.0
 70
    16
 71
     6
 72
     3
  0
VERTEX
  5
4623F
100
AcDbEntity
  8
0
100
AcDbVertex
100
AcDbPolygonMeshVertex
 10
3.785033
 20
-5.848034
 30
3.05
 70
    64
  0
VERTEX
  5
46240
100
AcDbEntity
  8
0
100
AcDbVertex
100
AcDbPolygonMeshVertex
 10
3.785033
 20
-5.848034
 30
0.05
 70
    64
  0
VERTEX
  5
46241
100
AcDbEntity
  8
0
100
AcDbVertex
100
AcDbPolygonMeshVertex
 10
3.785033
 20
-5.848034
 30
0.05
 70
    64
  0
VERTEX
  5
46242
100
AcDbEntity
  8
0
100
AcDbVertex
100
AcDbPolygonMeshVertex
 10
3.695033
 20
-5.848034
 30
3.05
 70
    64
  0
VERTEX
  5
46243
100
AcDbEntity
  8
0
100
AcDbVertex
100
AcDbPolygonMeshVertex
 10
3.695033
 20
-5.848034
 30
0.05
 70
    64
  0
VERTEX
  5
46244
100
AcDbEntity
  8
0
100
AcDbVertex
100
AcDbPolygonMeshVertex
 10
3.695033
 20
-5.848034
 30
0.05
 70
    64
  0
VERTEX
  5
46245
100
AcDbEntity
  8
0
100
AcDbVertex
100
AcDbPolygonMeshVertex
 10
3.695033
 20
-5.773034
 30
3.05
 70
    64
  0
VERTEX
  5
46246
100
AcDbEntity
  8
0
100
AcDbVertex
100
AcDbPolygonMeshVertex
 10
3.695033
 20
-5.773034
 30
0.05
 70
    64
  0
VERTEX
  5
46247
100
AcDbEntity
  8
0
100
AcDbVertex
100
AcDbPolygonMeshVertex
 10
3.695033
 20
-5.848034
 30
0.05
 70
    64
  0
VERTEX
  5
46248
100
AcDbEntity
  8
0
100
AcDbVertex
100
AcDbPolygonMeshVertex
 10
3.785033
 20
-5.773034
 30
3.05
 70
    64
  0
VERTEX
  5
46249
100
AcDbEntity
  8
0
100
AcDbVertex
100
AcDbPolygonMeshVertex
 10
3.785033
 20
-5.773034
 30
0.05
 70
    64
  0
VERTEX
  5
4624A
100
AcDbEntity
  8
0
100
AcDbVertex
100
AcDbPolygonMeshVertex
 10
3.785033
 20
-5.848034
 30
0.05
 70
    64
  0
VERTEX
  5
4624B
100
AcDbEntity
  8
0
100
AcDbVertex
100
AcDbPolygonMeshVertex
 10
3.785033
 20
-5.773034
 30
3.05
 70
    64
  0
VERTEX
  5
4624C
100
AcDbEntity
  8
0
100
AcDbVertex
100
AcDbPolygonMeshVertex
 10
3.785033
 20
-5.773034
 30
3.05
 70
    64
  0
VERTEX
  5
4624D
100
AcDbEntity
  8
0
100
AcDbVertex
100
AcDbPolygonMeshVertex
 10
3.785033
 20
-5.848034
 30
3.05
 70
    64
  0
VERTEX
  5
4624E
100
AcDbEntity
  8
0
100
AcDbVertex
100
AcDbPolygonMeshVertex
 10
3.695033
 20
-5.773034
 30
3.05
 70
    64
  0
VERTEX
  5
4624F
100
AcDbEntity
  8
0
100
AcDbVertex
100
AcDbPolygonMeshVertex
 10
3.695033
 20
-5.773034
 30
3.05
 70
    64
  0
VERTEX
  5
46250
100
AcDbEntity
  8
0
100
AcDbVertex
100
AcDbPolygonMeshVertex
 10
3.695033
 20
-5.848034
 30
3.05
 70
    64
  0
SEQEND
  5
46251
100
AcDbEntity
  8
0
  0
POLYLINE
  5
46252
100
AcDbEntity
  8
0
100
AcDbPolygonMesh
 66
     1
 10
0.0
 20
0.0
 30
0.0
 70
    16
 71
     6
 72
     3
  0
VERTEX
  5
46253
100
AcDbEntity
  8
0
100
AcDbVertex
100
AcDbPolygonMeshVertex
 10
5.070184
 20
-5.848003
 30
3.05
 70
    64
  0
VERTEX
  5
46254
100
AcDbEntity
  8
0
100
AcDbVertex
100
AcDbPolygonMeshVertex
 10
5.070184
 20
-5.848003
 30
0.05
 70
    64
  0
VERTEX
  5
46255
100
AcDbEntity
  8
0
100
AcDbVertex
100
AcDbPolygonMeshVertex
 10
5.070184
 20
-5.848003
 30
0.05
 70
    64
  0
VERTEX
  5
46256
100
AcDbEntity
  8
0
100
AcDbVertex
100
AcDbPolygonMeshVertex
 10
4.970184
 20
-5.848003
 30
3.05
 70
    64
  0
VERTEX
  5
46257
100
AcDbEntity
  8
0
100
AcDbVertex
100
AcDbPolygonMeshVertex
 10
4.970184
 20
-5.848003
 30
0.05
 70
    64
  0
VERTEX
  5
46258
100
AcDbEntity
  8
0
100
AcDbVertex
100
AcDbPolygonMeshVertex
 10
4.970184
 20
-5.848003
 30
0.05
 70
    64
  0
VERTEX
  5
46259
100
AcDbEntity
  8
0
100
AcDbVertex
100
AcDbPolygonMeshVertex
 10
4.970184
 20
-5.648003
 30
3.05
 70
    64
  0
VERTEX
  5
4625A
100
AcDbEntity
  8
0
100
AcDbVertex
100
AcDbPolygonMeshVertex
 10
4.970184
 20
-5.648003
 30
0.05
 70
    64
  0
VERTEX
  5
4625B
100
AcDbEntity
  8
0
100
AcDbVertex
100
AcDbPolygonMeshVertex
 10
4.970184
 20
-5.848003
 30
0.05
 70
    64
  0
VERTEX
  5
4625C
100
AcDbEntity
  8
0
100
AcDbVertex
100
AcDbPolygonMeshVertex
 10
5.070184
 20
-5.648003
 30
3.05
 70
    64
  0
VERTEX
  5
4625D
100
AcDbEntity
  8
0
100
AcDbVertex
100
AcDbPolygonMeshVertex
 10
5.070184
 20
-5.648003
 30
0.05
 70
    64
  0
VERTEX
  5
4625E
100
AcDbEntity
  8
0
100
AcDbVertex
100
AcDbPolygonMeshVertex
 10
5.070184
 20
-5.848003
 30
0.05
 70
    64
  0
VERTEX
  5
4625F
100
AcDbEntity
  8
0
100
AcDbVertex
100
AcDbPolygonMeshVertex
 10
5.070184
 20
-5.648003
 30
3.05
 70
    64
  0
VERTEX
  5
46260
100
AcDbEntity
  8
0
100
AcDbVertex
100
AcDbPolygonMeshVertex
 10
5.070184
 20
-5.648003
 30
3.05
 70
    64
  0
VERTEX
  5
46261
100
AcDbEntity
  8
0
100
AcDbVertex
100
AcDbPolygonMeshVertex
 10
5.070184
 20
-5.848003
 30
3.05
 70
    64
  0
VERTEX
  5
46262
100
AcDbEntity
  8
0
100
AcDbVertex
100
AcDbPolygonMeshVertex
 10
4.970184
 20
-5.648003
 30
3.05
 70
    64
  0
VERTEX
  5
46263
100
AcDbEntity
  8
0
100
AcDbVertex
100
AcDbPolygonMeshVertex
 10
4.970184
 20
-5.648003
 30
3.05
 70
    64
  0
VERTEX
  5
46264
100
AcDbEntity
  8
0
100
AcDbVertex
100
AcDbPolygonMeshVertex
 10
4.970184
 20
-5.848003
 30
3.05
 70
    64
  0
SEQEND
  5
46265
100
AcDbEntity
  8
0
  0
POLYLINE
  5
46266
100
AcDbEntity
  8
0
100
AcDbPolygonMesh
 66
     1
 10
0.0
 20
0.0
 30
0.0
 70
    16
 71
     6
 72
     3
  0
VERTEX
  5
46267
100
AcDbEntity
  8
0
100
AcDbVertex
100
AcDbPolygonMeshVertex
 10
5.260184
 20
-5.848003
 30
3.05
 70
    64
  0
VERTEX
  5
46268
100
AcDbEntity
  8
0
100
AcDbVertex
100
AcDbPolygonMeshVertex
 10
5.260184
 20
-5.848003
 30
0.05
 70
    64
  0
VERTEX
  5
46269
100
AcDbEntity
  8
0
100
AcDbVertex
100
AcDbPolygonMeshVertex
 10
5.260184
 20
-5.848003
 30
0.05
 70
    64
  0
VERTEX
  5
4626A
100
AcDbEntity
  8
0
100
AcDbVertex
100
AcDbPolygonMeshVertex
 10
5.160184
 20
-5.848003
 30
3.05
 70
    64
  0
VERTEX
  5
4626B
100
AcDbEntity
  8
0
100
AcDbVertex
100
AcDbPolygonMeshVertex
 10
5.160184
 20
-5.848003
 30
0.05
 70
    64
  0
VERTEX
  5
4626C
100
AcDbEntity
  8
0
100
AcDbVertex
100
AcDbPolygonMeshVertex
 10
5.160184
 20
-5.848003
 30
0.05
 70
    64
  0
VERTEX
  5
4626D
100
AcDbEntity
  8
0
100
AcDbVertex
100
AcDbPolygonMeshVertex
 10
5.160184
 20
-5.648003
 30
3.05
 70
    64
  0
VERTEX
  5
4626E
100
AcDbEntity
  8
0
100
AcDbVertex
100
AcDbPolygonMeshVertex
 10
5.160184
 20
-5.648003
 30
0.05
 70
    64
  0
VERTEX
  5
4626F
100
AcDbEntity
  8
0
100
AcDbVertex
100
AcDbPolygonMeshVertex
 10
5.160184
 20
-5.848003
 30
0.05
 70
    64
  0
VERTEX
  5
46270
100
AcDbEntity
  8
0
100
AcDbVertex
100
AcDbPolygonMeshVertex
 10
5.260184
 20
-5.648003
 30
3.05
 70
    64
  0
VERTEX
  5
46271
100
AcDbEntity
  8
0
100
AcDbVertex
100
AcDbPolygonMeshVertex
 10
5.260184
 20
-5.648003
 30
0.05
 70
    64
  0
VERTEX
  5
46272
100
AcDbEntity
  8
0
100
AcDbVertex
100
AcDbPolygonMeshVertex
 10
5.260184
 20
-5.848003
 30
0.05
 70
    64
  0
VERTEX
  5
46273
100
AcDbEntity
  8
0
100
AcDbVertex
100
AcDbPolygonMeshVertex
 10
5.260184
 20
-5.648003
 30
3.05
 70
    64
  0
VERTEX
  5
46274
100
AcDbEntity
  8
0
100
AcDbVertex
100
AcDbPolygonMeshVertex
 10
5.260184
 20
-5.648003
 30
3.05
 70
    64
  0
VERTEX
  5
46275
100
AcDbEntity
  8
0
100
AcDbVertex
100
AcDbPolygonMeshVertex
 10
5.260184
 20
-5.848003
 30
3.05
 70
    64
  0
VERTEX
  5
46276
100
AcDbEntity
  8
0
100
AcDbVertex
100
AcDbPolygonMeshVertex
 10
5.160184
 20
-5.648003
 30
3.05
 70
    64
  0
VERTEX
  5
46277
100
AcDbEntity
  8
0
100
AcDbVertex
100
AcDbPolygonMeshVertex
 10
5.160184
 20
-5.648003
 30
3.05
 70
    64
  0
VERTEX
  5
46278
100
AcDbEntity
  8
0
100
AcDbVertex
100
AcDbPolygonMeshVertex
 10
5.160184
 20
-5.848003
 30
3.05
 70
    64
  0
SEQEND
  5
46279
100
AcDbEntity
  8
0
  0
POLYLINE
  5
4627A
100
AcDbEntity
  8
0
100
AcDbPolygonMesh
 66
     1
 10
0.0
 20
0.0
 30
0.0
 70
    16
 71
     6
 72
     3
  0
VERTEX
  5
4627B
100
AcDbEntity
  8
0
100
AcDbVertex
100
AcDbPolygonMeshVertex
 10
5.160184
 20
-5.848003
 30
3.05
 70
    64
  0
VERTEX
  5
4627C
100
AcDbEntity
  8
0
100
AcDbVertex
100
AcDbPolygonMeshVertex
 10
5.160184
 20
-5.848003
 30
0.05
 70
    64
  0
VERTEX
  5
4627D
100
AcDbEntity
  8
0
100
AcDbVertex
100
AcDbPolygonMeshVertex
 10
5.160184
 20
-5.848003
 30
0.05
 70
    64
  0
VERTEX
  5
4627E
100
AcDbEntity
  8
0
100
AcDbVertex
100
AcDbPolygonMeshVertex
 10
5.070184
 20
-5.848003
 30
3.05
 70
    64
  0
VERTEX
  5
4627F
100
AcDbEntity
  8
0
100
AcDbVertex
100
AcDbPolygonMeshVertex
 10
5.070184
 20
-5.848003
 30
0.05
 70
    64
  0
VERTEX
  5
46280
100
AcDbEntity
  8
0
100
AcDbVertex
100
AcDbPolygonMeshVertex
 10
5.070184
 20
-5.848003
 30
0.05
 70
    64
  0
VERTEX
  5
46281
100
AcDbEntity
  8
0
100
AcDbVertex
100
AcDbPolygonMeshVertex
 10
5.070184
 20
-5.773003
 30
3.05
 70
    64
  0
VERTEX
  5
46282
100
AcDbEntity
  8
0
100
AcDbVertex
100
AcDbPolygonMeshVertex
 10
5.070184
 20
-5.773003
 30
0.05
 70
    64
  0
VERTEX
  5
46283
100
AcDbEntity
  8
0
100
AcDbVertex
100
AcDbPolygonMeshVertex
 10
5.070184
 20
-5.848003
 30
0.05
 70
    64
  0
VERTEX
  5
46284
100
AcDbEntity
  8
0
100
AcDbVertex
100
AcDbPolygonMeshVertex
 10
5.160184
 20
-5.773003
 30
3.05
 70
    64
  0
VERTEX
  5
46285
100
AcDbEntity
  8
0
100
AcDbVertex
100
AcDbPolygonMeshVertex
 10
5.160184
 20
-5.773003
 30
0.05
 70
    64
  0
VERTEX
  5
46286
100
AcDbEntity
  8
0
100
AcDbVertex
100
AcDbPolygonMeshVertex
 10
5.160184
 20
-5.848003
 30
0.05
 70
    64
  0
VERTEX
  5
46287
100
AcDbEntity
  8
0
100
AcDbVertex
100
AcDbPolygonMeshVertex
 10
5.160184
 20
-5.773003
 30
3.05
 70
    64
  0
VERTEX
  5
46288
100
AcDbEntity
  8
0
100
AcDbVertex
100
AcDbPolygonMeshVertex
 10
5.160184
 20
-5.773003
 30
3.05
 70
    64
  0
VERTEX
  5
46289
100
AcDbEntity
  8
0
100
AcDbVertex
100
AcDbPolygonMeshVertex
 10
5.160184
 20
-5.848003
 30
3.05
 70
    64
  0
VERTEX
  5
4628A
100
AcDbEntity
  8
0
100
AcDbVertex
100
AcDbPolygonMeshVertex
 10
5.070184
 20
-5.773003
 30
3.05
 70
    64
  0
VERTEX
  5
4628B
100
AcDbEntity
  8
0
100
AcDbVertex
100
AcDbPolygonMeshVertex
 10
5.070184
 20
-5.773003
 30
3.05
 70
    64
  0
VERTEX
  5
4628C
100
AcDbEntity
  8
0
100
AcDbVertex
100
AcDbPolygonMeshVertex
 10
5.070184
 20
-5.848003
 30
3.05
 70
    64
  0
SEQEND
  5
4628D
100
AcDbEntity
  8
0
  0
POLYLINE
  5
4628E
100
AcDbEntity
  8
0
100
AcDbPolygonMesh
 66
     1
 10
0.0
 20
0.0
 30
0.0
 70
    16
 71
     6
 72
     3
  0
VERTEX
  5
4628F
100
AcDbEntity
  8
0
100
AcDbVertex
100
AcDbPolygonMeshVertex
 10
6.449994
 20
-5.847975
 30
3.05
 70
    64
  0
VERTEX
  5
46290
100
AcDbEntity
  8
0
100
AcDbVertex
100
AcDbPolygonMeshVertex
 10
6.449994
 20
-5.847975
 30
0.05
 70
    64
  0
VERTEX
  5
46291
100
AcDbEntity
  8
0
100
AcDbVertex
100
AcDbPolygonMeshVertex
 10
6.449994
 20
-5.847975
 30
0.05
 70
    64
  0
VERTEX
  5
46292
100
AcDbEntity
  8
0
100
AcDbVertex
100
AcDbPolygonMeshVertex
 10
6.349994
 20
-5.847975
 30
3.05
 70
    64
  0
VERTEX
  5
46293
100
AcDbEntity
  8
0
100
AcDbVertex
100
AcDbPolygonMeshVertex
 10
6.349994
 20
-5.847975
 30
0.05
 70
    64
  0
VERTEX
  5
46294
100
AcDbEntity
  8
0
100
AcDbVertex
100
AcDbPolygonMeshVertex
 10
6.349994
 20
-5.847975
 30
0.05
 70
    64
  0
VERTEX
  5
46295
100
AcDbEntity
  8
0
100
AcDbVertex
100
AcDbPolygonMeshVertex
 10
6.349994
 20
-5.647975
 30
3.05
 70
    64
  0
VERTEX
  5
46296
100
AcDbEntity
  8
0
100
AcDbVertex
100
AcDbPolygonMeshVertex
 10
6.349994
 20
-5.647975
 30
0.05
 70
    64
  0
VERTEX
  5
46297
100
AcDbEntity
  8
0
100
AcDbVertex
100
AcDbPolygonMeshVertex
 10
6.349994
 20
-5.847975
 30
0.05
 70
    64
  0
VERTEX
  5
46298
100
AcDbEntity
  8
0
100
AcDbVertex
100
AcDbPolygonMeshVertex
 10
6.449994
 20
-5.647975
 30
3.05
 70
    64
  0
VERTEX
  5
46299
100
AcDbEntity
  8
0
100
AcDbVertex
100
AcDbPolygonMeshVertex
 10
6.449994
 20
-5.647975
 30
0.05
 70
    64
  0
VERTEX
  5
4629A
100
AcDbEntity
  8
0
100
AcDbVertex
100
AcDbPolygonMeshVertex
 10
6.449994
 20
-5.847975
 30
0.05
 70
    64
  0
VERTEX
  5
4629B
100
AcDbEntity
  8
0
100
AcDbVertex
100
AcDbPolygonMeshVertex
 10
6.449994
 20
-5.647975
 30
3.05
 70
    64
  0
VERTEX
  5
4629C
100
AcDbEntity
  8
0
100
AcDbVertex
100
AcDbPolygonMeshVertex
 10
6.449994
 20
-5.647975
 30
3.05
 70
    64
  0
VERTEX
  5
4629D
100
AcDbEntity
  8
0
100
AcDbVertex
100
AcDbPolygonMeshVertex
 10
6.449994
 20
-5.847975
 30
3.05
 70
    64
  0
VERTEX
  5
4629E
100
AcDbEntity
  8
0
100
AcDbVertex
100
AcDbPolygonMeshVertex
 10
6.349994
 20
-5.647975
 30
3.05
 70
    64
  0
VERTEX
  5
4629F
100
AcDbEntity
  8
0
100
AcDbVertex
100
AcDbPolygonMeshVertex
 10
6.349994
 20
-5.647975
 30
3.05
 70
    64
  0
VERTEX
  5
462A0
100
AcDbEntity
  8
0
100
AcDbVertex
100
AcDbPolygonMeshVertex
 10
6.349994
 20
-5.847975
 30
3.05
 70
    64
  0
SEQEND
  5
462A1
100
AcDbEntity
  8
0
  0
POLYLINE
  5
462A2
100
AcDbEntity
  8
0
100
AcDbPolygonMesh
 66
     1
 10
0.0
 20
0.0
 30
0.0
 70
    16
 71
     6
 72
     3
  0
VERTEX
  5
462A3
100
AcDbEntity
  8
0
100
AcDbVertex
100
AcDbPolygonMeshVertex
 10
6.639994
 20
-5.847975
 30
3.05
 70
    64
  0
VERTEX
  5
462A4
100
AcDbEntity
  8
0
100
AcDbVertex
100
AcDbPolygonMeshVertex
 10
6.639994
 20
-5.847975
 30
0.05
 70
    64
  0
VERTEX
  5
462A5
100
AcDbEntity
  8
0
100
AcDbVertex
100
AcDbPolygonMeshVertex
 10
6.639994
 20
-5.847975
 30
0.05
 70
    64
  0
VERTEX
  5
462A6
100
AcDbEntity
  8
0
100
AcDbVertex
100
AcDbPolygonMeshVertex
 10
6.539994
 20
-5.847975
 30
3.05
 70
    64
  0
VERTEX
  5
462A7
100
AcDbEntity
  8
0
100
AcDbVertex
100
AcDbPolygonMeshVertex
 10
6.539994
 20
-5.847975
 30
0.05
 70
    64
  0
VERTEX
  5
462A8
100
AcDbEntity
  8
0
100
AcDbVertex
100
AcDbPolygonMeshVertex
 10
6.539994
 20
-5.847975
 30
0.05
 70
    64
  0
VERTEX
  5
462A9
100
AcDbEntity
  8
0
100
AcDbVertex
100
AcDbPolygonMeshVertex
 10
6.539994
 20
-5.647975
 30
3.05
 70
    64
  0
VERTEX
  5
462AA
100
AcDbEntity
  8
0
100
AcDbVertex
100
AcDbPolygonMeshVertex
 10
6.539994
 20
-5.647975
 30
0.05
 70
    64
  0
VERTEX
  5
462AB
100
AcDbEntity
  8
0
100
AcDbVertex
100
AcDbPolygonMeshVertex
 10
6.539994
 20
-5.847975
 30
0.05
 70
    64
  0
VERTEX
  5
462AC
100
AcDbEntity
  8
0
100
AcDbVertex
100
AcDbPolygonMeshVertex
 10
6.639994
 20
-5.647975
 30
3.05
 70
    64
  0
VERTEX
  5
462AD
100
AcDbEntity
  8
0
100
AcDbVertex
100
AcDbPolygonMeshVertex
 10
6.639994
 20
-5.647975
 30
0.05
 70
    64
  0
VERTEX
  5
462AE
100
AcDbEntity
  8
0
100
AcDbVertex
100
AcDbPolygonMeshVertex
 10
6.639994
 20
-5.847975
 30
0.05
 70
    64
  0
VERTEX
  5
462AF
100
AcDbEntity
  8
0
100
AcDbVertex
100
AcDbPolygonMeshVertex
 10
6.639994
 20
-5.647975
 30
3.05
 70
    64
  0
VERTEX
  5
462B0
100
AcDbEntity
  8
0
100
AcDbVertex
100
AcDbPolygonMeshVertex
 10
6.639994
 20
-5.647975
 30
3.05
 70
    64
  0
VERTEX
  5
462B1
100
AcDbEntity
  8
0
100
AcDbVertex
100
AcDbPolygonMeshVertex
 10
6.639994
 20
-5.847975
 30
3.05
 70
    64
  0
VERTEX
  5
462B2
100
AcDbEntity
  8
0
100
AcDbVertex
100
AcDbPolygonMeshVertex
 10
6.539994
 20
-5.647975
 30
3.05
 70
    64
  0
VERTEX
  5
462B3
100
AcDbEntity
  8
0
100
AcDbVertex
100
AcDbPolygonMeshVertex
 10
6.539994
 20
-5.647975
 30
3.05
 70
    64
  0
VERTEX
  5
462B4
100
AcDbEntity
  8
0
100
AcDbVertex
100
AcDbPolygonMeshVertex
 10
6.539994
 20
-5.847975
 30
3.05
 70
    64
  0
SEQEND
  5
462B5
100
AcDbEntity
  8
0
  0
POLYLINE
  5
462B6
100
AcDbEntity
  8
0
100
AcDbPolygonMesh
 66
     1
 10
0.0
 20
0.0
 30
0.0
 70
    16
 71
     6
 72
     3
  0
VERTEX
  5
462B7
100
AcDbEntity
  8
0
100
AcDbVertex
100
AcDbPolygonMeshVertex
 10
6.539994
 20
-5.847975
 30
3.05
 70
    64
  0
VERTEX
  5
462B8
100
AcDbEntity
  8
0
100
AcDbVertex
100
AcDbPolygonMeshVertex
 10
6.539994
 20
-5.847975
 30
0.05
 70
    64
  0
VERTEX
  5
462B9
100
AcDbEntity
  8
0
100
AcDbVertex
100
AcDbPolygonMeshVertex
 10
6.539994
 20
-5.847975
 30
0.05
 70
    64
  0
VERTEX
  5
462BA
100
AcDbEntity
  8
0
100
AcDbVertex
100
AcDbPolygonMeshVertex
 10
6.449994
 20
-5.847975
 30
3.05
 70
    64
  0
VERTEX
  5
462BB
100
AcDbEntity
  8
0
100
AcDbVertex
100
AcDbPolygonMeshVertex
 10
6.449994
 20
-5.847975
 30
0.05
 70
    64
  0
VERTEX
  5
462BC
100
AcDbEntity
  8
0
100
AcDbVertex
100
AcDbPolygonMeshVertex
 10
6.449994
 20
-5.847975
 30
0.05
 70
    64
  0
VERTEX
  5
462BD
100
AcDbEntity
  8
0
100
AcDbVertex
100
AcDbPolygonMeshVertex
 10
6.449994
 20
-5.772975
 30
3.05
 70
    64
  0
VERTEX
  5
462BE
100
AcDbEntity
  8
0
100
AcDbVertex
100
AcDbPolygonMeshVertex
 10
6.449994
 20
-5.772975
 30
0.05
 70
    64
  0
VERTEX
  5
462BF
100
AcDbEntity
  8
0
100
AcDbVertex
100
AcDbPolygonMeshVertex
 10
6.449994
 20
-5.847975
 30
0.05
 70
    64
  0
VERTEX
  5
462C0
100
AcDbEntity
  8
0
100
AcDbVertex
100
AcDbPolygonMeshVertex
 10
6.539994
 20
-5.772975
 30
3.05
 70
    64
  0
VERTEX
  5
462C1
100
AcDbEntity
  8
0
100
AcDbVertex
100
AcDbPolygonMeshVertex
 10
6.539994
 20
-5.772975
 30
0.05
 70
    64
  0
VERTEX
  5
462C2
100
AcDbEntity
  8
0
100
AcDbVertex
100
AcDbPolygonMeshVertex
 10
6.539994
 20
-5.847975
 30
0.05
 70
    64
  0
VERTEX
  5
462C3
100
AcDbEntity
  8
0
100
AcDbVertex
100
AcDbPolygonMeshVertex
 10
6.539994
 20
-5.772975
 30
3.05
 70
    64
  0
VERTEX
  5
462C4
100
AcDbEntity
  8
0
100
AcDbVertex
100
AcDbPolygonMeshVertex
 10
6.539994
 20
-5.772975
 30
3.05
 70
    64
  0
VERTEX
  5
462C5
100
AcDbEntity
  8
0
100
AcDbVertex
100
AcDbPolygonMeshVertex
 10
6.539994
 20
-5.847975
 30
3.05
 70
    64
  0
VERTEX
  5
462C6
100
AcDbEntity
  8
0
100
AcDbVertex
100
AcDbPolygonMeshVertex
 10
6.449994
 20
-5.772975
 30
3.05
 70
    64
  0
VERTEX
  5
462C7
100
AcDbEntity
  8
0
100
AcDbVertex
100
AcDbPolygonMeshVertex
 10
6.449994
 20
-5.772975
 30
3.05
 70
    64
  0
VERTEX
  5
462C8
100
AcDbEntity
  8
0
100
AcDbVertex
100
AcDbPolygonMeshVertex
 10
6.449994
 20
-5.847975
 30
3.05
 70
    64
  0
SEQEND
  5
462C9
100
AcDbEntity
  8
0
  0
POLYLINE
  5
462CA
100
AcDbEntity
  8
0
100
AcDbPolygonMesh
 66
     1
 10
0.0
 20
0.0
 30
0.0
 70
    16
 71
     6
 72
     3
  0
VERTEX
  5
462CB
100
AcDbEntity
  8
0
100
AcDbVertex
100
AcDbPolygonMeshVertex
 10
7.824994
 20
-5.847975
 30
3.05
 70
    64
  0
VERTEX
  5
462CC
100
AcDbEntity
  8
0
100
AcDbVertex
100
AcDbPolygonMeshVertex
 10
7.824994
 20
-5.847975
 30
0.05
 70
    64
  0
VERTEX
  5
462CD
100
AcDbEntity
  8
0
100
AcDbVertex
100
AcDbPolygonMeshVertex
 10
7.824994
 20
-5.847975
 30
0.05
 70
    64
  0
VERTEX
  5
462CE
100
AcDbEntity
  8
0
100
AcDbVertex
100
AcDbPolygonMeshVertex
 10
7.724994
 20
-5.847975
 30
3.05
 70
    64
  0
VERTEX
  5
462CF
100
AcDbEntity
  8
0
100
AcDbVertex
100
AcDbPolygonMeshVertex
 10
7.724994
 20
-5.847975
 30
0.05
 70
    64
  0
VERTEX
  5
462D0
100
AcDbEntity
  8
0
100
AcDbVertex
100
AcDbPolygonMeshVertex
 10
7.724994
 20
-5.847975
 30
0.05
 70
    64
  0
VERTEX
  5
462D1
100
AcDbEntity
  8
0
100
AcDbVertex
100
AcDbPolygonMeshVertex
 10
7.724994
 20
-5.647975
 30
3.05
 70
    64
  0
VERTEX
  5
462D2
100
AcDbEntity
  8
0
100
AcDbVertex
100
AcDbPolygonMeshVertex
 10
7.724994
 20
-5.647975
 30
0.05
 70
    64
  0
VERTEX
  5
462D3
100
AcDbEntity
  8
0
100
AcDbVertex
100
AcDbPolygonMeshVertex
 10
7.724994
 20
-5.847975
 30
0.05
 70
    64
  0
VERTEX
  5
462D4
100
AcDbEntity
  8
0
100
AcDbVertex
100
AcDbPolygonMeshVertex
 10
7.824994
 20
-5.647975
 30
3.05
 70
    64
  0
VERTEX
  5
462D5
100
AcDbEntity
  8
0
100
AcDbVertex
100
AcDbPolygonMeshVertex
 10
7.824994
 20
-5.647975
 30
0.05
 70
    64
  0
VERTEX
  5
462D6
100
AcDbEntity
  8
0
100
AcDbVertex
100
AcDbPolygonMeshVertex
 10
7.824994
 20
-5.847975
 30
0.05
 70
    64
  0
VERTEX
  5
462D7
100
AcDbEntity
  8
0
100
AcDbVertex
100
AcDbPolygonMeshVertex
 10
7.824994
 20
-5.647975
 30
3.05
 70
    64
  0
VERTEX
  5
462D8
100
AcDbEntity
  8
0
100
AcDbVertex
100
AcDbPolygonMeshVertex
 10
7.824994
 20
-5.647975
 30
3.05
 70
    64
  0
VERTEX
  5
462D9
100
AcDbEntity
  8
0
100
AcDbVertex
100
AcDbPolygonMeshVertex
 10
7.824994
 20
-5.847975
 30
3.05
 70
    64
  0
VERTEX
  5
462DA
100
AcDbEntity
  8
0
100
AcDbVertex
100
AcDbPolygonMeshVertex
 10
7.724994
 20
-5.647975
 30
3.05
 70
    64
  0
VERTEX
  5
462DB
100
AcDbEntity
  8
0
100
AcDbVertex
100
AcDbPolygonMeshVertex
 10
7.724994
 20
-5.647975
 30
3.05
 70
    64
  0
VERTEX
  5
462DC
100
AcDbEntity
  8
0
100
AcDbVertex
100
AcDbPolygonMeshVertex
 10
7.724994
 20
-5.847975
 30
3.05
 70
    64
  0
SEQEND
  5
462DD
100
AcDbEntity
  8
0
  0
POLYLINE
  5
462DE
100
AcDbEntity
  8
0
100
AcDbPolygonMesh
 66
     1
 10
0.0
 20
0.0
 30
0.0
 70
    16
 71
     6
 72
     3
  0
VERTEX
  5
462DF
100
AcDbEntity
  8
0
100
AcDbVertex
100
AcDbPolygonMeshVertex
 10
8.014994
 20
-5.847975
 30
3.05
 70
    64
  0
VERTEX
  5
462E0
100
AcDbEntity
  8
0
100
AcDbVertex
100
AcDbPolygonMeshVertex
 10
8.014994
 20
-5.847975
 30
0.05
 70
    64
  0
VERTEX
  5
462E1
100
AcDbEntity
  8
0
100
AcDbVertex
100
AcDbPolygonMeshVertex
 10
8.014994
 20
-5.847975
 30
0.05
 70
    64
  0
VERTEX
  5
462E2
100
AcDbEntity
  8
0
100
AcDbVertex
100
AcDbPolygonMeshVertex
 10
7.914994
 20
-5.847975
 30
3.05
 70
    64
  0
VERTEX
  5
462E3
100
AcDbEntity
  8
0
100
AcDbVertex
100
AcDbPolygonMeshVertex
 10
7.914994
 20
-5.847975
 30
0.05
 70
    64
  0
VERTEX
  5
462E4
100
AcDbEntity
  8
0
100
AcDbVertex
100
AcDbPolygonMeshVertex
 10
7.914994
 20
-5.847975
 30
0.05
 70
    64
  0
VERTEX
  5
462E5
100
AcDbEntity
  8
0
100
AcDbVertex
100
AcDbPolygonMeshVertex
 10
7.914994
 20
-5.647975
 30
3.05
 70
    64
  0
VERTEX
  5
462E6
100
AcDbEntity
  8
0
100
AcDbVertex
100
AcDbPolygonMeshVertex
 10
7.914994
 20
-5.647975
 30
0.05
 70
    64
  0
VERTEX
  5
462E7
100
AcDbEntity
  8
0
100
AcDbVertex
100
AcDbPolygonMeshVertex
 10
7.914994
 20
-5.847975
 30
0.05
 70
    64
  0
VERTEX
  5
462E8
100
AcDbEntity
  8
0
100
AcDbVertex
100
AcDbPolygonMeshVertex
 10
8.014994
 20
-5.647975
 30
3.05
 70
    64
  0
VERTEX
  5
462E9
100
AcDbEntity
  8
0
100
AcDbVertex
100
AcDbPolygonMeshVertex
 10
8.014994
 20
-5.647975
 30
0.05
 70
    64
  0
VERTEX
  5
462EA
100
AcDbEntity
  8
0
100
AcDbVertex
100
AcDbPolygonMeshVertex
 10
8.014994
 20
-5.847975
 30
0.05
 70
    64
  0
VERTEX
  5
462EB
100
AcDbEntity
  8
0
100
AcDbVertex
100
AcDbPolygonMeshVertex
 10
8.014994
 20
-5.647975
 30
3.05
 70
    64
  0
VERTEX
  5
462EC
100
AcDbEntity
  8
0
100
AcDbVertex
100
AcDbPolygonMeshVertex
 10
8.014994
 20
-5.647975
 30
3.05
 70
    64
  0
VERTEX
  5
462ED
100
AcDbEntity
  8
0
100
AcDbVertex
100
AcDbPolygonMeshVertex
 10
8.014994
 20
-5.847975
 30
3.05
 70
    64
  0
VERTEX
  5
462EE
100
AcDbEntity
  8
0
100
AcDbVertex
100
AcDbPolygonMeshVertex
 10
7.914994
 20
-5.647975
 30
3.05
 70
    64
  0
VERTEX
  5
462EF
100
AcDbEntity
  8
0
100
AcDbVertex
100
AcDbPolygonMeshVertex
 10
7.914994
 20
-5.647975
 30
3.05
 70
    64
  0
VERTEX
  5
462F0
100
AcDbEntity
  8
0
100
AcDbVertex
100
AcDbPolygonMeshVertex
 10
7.914994
 20
-5.847975
 30
3.05
 70
    64
  0
SEQEND
  5
462F1
100
AcDbEntity
  8
0
  0
POLYLINE
  5
462F2
100
AcDbEntity
  8
0
100
AcDbPolygonMesh
 66
     1
 10
0.0
 20
0.0
 30
0.0
 70
    16
 71
     6
 72
     3
  0
VERTEX
  5
462F3
100
AcDbEntity
  8
0
100
AcDbVertex
100
AcDbPolygonMeshVertex
 10
7.914994
 20
-5.847975
 30
3.05
 70
    64
  0
VERTEX
  5
462F4
100
AcDbEntity
  8
0
100
AcDbVertex
100
AcDbPolygonMeshVertex
 10
7.914994
 20
-5.847975
 30
0.05
 70
    64
  0
VERTEX
  5
462F5
100
AcDbEntity
  8
0
100
AcDbVertex
100
AcDbPolygonMeshVertex
 10
7.914994
 20
-5.847975
 30
0.05
 70
    64
  0
VERTEX
  5
462F6
100
AcDbEntity
  8
0
100
AcDbVertex
100
AcDbPolygonMeshVertex
 10
7.824994
 20
-5.847975
 30
3.05
 70
    64
  0
VERTEX
  5
462F7
100
AcDbEntity
  8
0
100
AcDbVertex
100
AcDbPolygonMeshVertex
 10
7.824994
 20
-5.847975
 30
0.05
 70
    64
  0
VERTEX
  5
462F8
100
AcDbEntity
  8
0
100
AcDbVertex
100
AcDbPolygonMeshVertex
 10
7.824994
 20
-5.847975
 30
0.05
 70
    64
  0
VERTEX
  5
462F9
100
AcDbEntity
  8
0
100
AcDbVertex
100
AcDbPolygonMeshVertex
 10
7.824994
 20
-5.772975
 30
3.05
 70
    64
  0
VERTEX
  5
462FA
100
AcDbEntity
  8
0
100
AcDbVertex
100
AcDbPolygonMeshVertex
 10
7.824994
 20
-5.772975
 30
0.05
 70
    64
  0
VERTEX
  5
462FB
100
AcDbEntity
  8
0
100
AcDbVertex
100
AcDbPolygonMeshVertex
 10
7.824994
 20
-5.847975
 30
0.05
 70
    64
  0
VERTEX
  5
462FC
100
AcDbEntity
  8
0
100
AcDbVertex
100
AcDbPolygonMeshVertex
 10
7.914994
 20
-5.772975
 30
3.05
 70
    64
  0
VERTEX
  5
462FD
100
AcDbEntity
  8
0
100
AcDbVertex
100
AcDbPolygonMeshVertex
 10
7.914994
 20
-5.772975
 30
0.05
 70
    64
  0
VERTEX
  5
462FE
100
AcDbEntity
  8
0
100
AcDbVertex
100
AcDbPolygonMeshVertex
 10
7.914994
 20
-5.847975
 30
0.05
 70
    64
  0
VERTEX
  5
462FF
100
AcDbEntity
  8
0
100
AcDbVertex
100
AcDbPolygonMeshVertex
 10
7.914994
 20
-5.772975
 30
3.05
 70
    64
  0
VERTEX
  5
46300
100
AcDbEntity
  8
0
100
AcDbVertex
100
AcDbPolygonMeshVertex
 10
7.914994
 20
-5.772975
 30
3.05
 70
    64
  0
VERTEX
  5
46301
100
AcDbEntity
  8
0
100
AcDbVertex
100
AcDbPolygonMeshVertex
 10
7.914994
 20
-5.847975
 30
3.05
 70
    64
  0
VERTEX
  5
46302
100
AcDbEntity
  8
0
100
AcDbVertex
100
AcDbPolygonMeshVertex
 10
7.824994
 20
-5.772975
 30
3.05
 70
    64
  0
VERTEX
  5
46303
100
AcDbEntity
  8
0
100
AcDbVertex
100
AcDbPolygonMeshVertex
 10
7.824994
 20
-5.772975
 30
3.05
 70
    64
  0
VERTEX
  5
46304
100
AcDbEntity
  8
0
100
AcDbVertex
100
AcDbPolygonMeshVertex
 10
7.824994
 20
-5.847975
 30
3.05
 70
    64
  0
SEQEND
  5
46305
100
AcDbEntity
  8
0
  0
POLYLINE
  5
46306
100
AcDbEntity
  8
0
100
AcDbPolygonMesh
 66
     1
 10
0.0
 20
0.0
 30
0.0
 70
    16
 71
     6
 72
     3
  0
VERTEX
  5
46307
100
AcDbEntity
  8
0
100
AcDbVertex
100
AcDbPolygonMeshVertex
 10
3.786405
 20
-0.482084
 30
3.05
 70
    64
  0
VERTEX
  5
46308
100
AcDbEntity
  8
0
100
AcDbVertex
100
AcDbPolygonMeshVertex
 10
3.786405
 20
-0.482084
 30
0.05
 70
    64
  0
VERTEX
  5
46309
100
AcDbEntity
  8
0
100
AcDbVertex
100
AcDbPolygonMeshVertex
 10
3.786405
 20
-0.482084
 30
0.05
 70
    64
  0
VERTEX
  5
4630A
100
AcDbEntity
  8
0
100
AcDbVertex
100
AcDbPolygonMeshVertex
 10
3.696405
 20
-0.482084
 30
3.05
 70
    64
  0
VERTEX
  5
4630B
100
AcDbEntity
  8
0
100
AcDbVertex
100
AcDbPolygonMeshVertex
 10
3.696405
 20
-0.482084
 30
0.05
 70
    64
  0
VERTEX
  5
4630C
100
AcDbEntity
  8
0
100
AcDbVertex
100
AcDbPolygonMeshVertex
 10
3.696405
 20
-0.482084
 30
0.05
 70
    64
  0
VERTEX
  5
4630D
100
AcDbEntity
  8
0
100
AcDbVertex
100
AcDbPolygonMeshVertex
 10
3.696405
 20
-0.557084
 30
3.05
 70
    64
  0
VERTEX
  5
4630E
100
AcDbEntity
  8
0
100
AcDbVertex
100
AcDbPolygonMeshVertex
 10
3.696405
 20
-0.557084
 30
0.05
 70
    64
  0
VERTEX
  5
4630F
100
AcDbEntity
  8
0
100
AcDbVertex
100
AcDbPolygonMeshVertex
 10
3.696405
 20
-0.482084
 30
0.05
 70
    64
  0
VERTEX
  5
46310
100
AcDbEntity
  8
0
100
AcDbVertex
100
AcDbPolygonMeshVertex
 10
3.786405
 20
-0.557084
 30
3.05
 70
    64
  0
VERTEX
  5
46311
100
AcDbEntity
  8
0
100
AcDbVertex
100
AcDbPolygonMeshVertex
 10
3.786405
 20
-0.557084
 30
0.05
 70
    64
  0
VERTEX
  5
46312
100
AcDbEntity
  8
0
100
AcDbVertex
100
AcDbPolygonMeshVertex
 10
3.786405
 20
-0.482084
 30
0.05
 70
    64
  0
VERTEX
  5
46313
100
AcDbEntity
  8
0
100
AcDbVertex
100
AcDbPolygonMeshVertex
 10
3.786405
 20
-0.557084
 30
3.05
 70
    64
  0
VERTEX
  5
46314
100
AcDbEntity
  8
0
100
AcDbVertex
100
AcDbPolygonMeshVertex
 10
3.786405
 20
-0.557084
 30
3.05
 70
    64
  0
VERTEX
  5
46315
100
AcDbEntity
  8
0
100
AcDbVertex
100
AcDbPolygonMeshVertex
 10
3.786405
 20
-0.482084
 30
3.05
 70
    64
  0
VERTEX
  5
46316
100
AcDbEntity
  8
0
100
AcDbVertex
100
AcDbPolygonMeshVertex
 10
3.696405
 20
-0.557084
 30
3.05
 70
    64
  0
VERTEX
  5
46317
100
AcDbEntity
  8
0
100
AcDbVertex
100
AcDbPolygonMeshVertex
 10
3.696405
 20
-0.557084
 30
3.05
 70
    64
  0
VERTEX
  5
46318
100
AcDbEntity
  8
0
100
AcDbVertex
100
AcDbPolygonMeshVertex
 10
3.696405
 20
-0.482084
 30
3.05
 70
    64
  0
SEQEND
  5
46319
100
AcDbEntity
  8
0
  0
POLYLINE
  5
4631A
100
AcDbEntity
  8
0
100
AcDbPolygonMesh
 66
     1
 10
0.0
 20
0.0
 30
0.0
 70
    16
 71
     6
 72
     3
  0
VERTEX
  5
4631B
100
AcDbEntity
  8
0
100
AcDbVertex
100
AcDbPolygonMeshVertex
 10
3.886405
 20
-0.482084
 30
3.05
 70
    64
  0
VERTEX
  5
4631C
100
AcDbEntity
  8
0
100
AcDbVertex
100
AcDbPolygonMeshVertex
 10
3.886405
 20
-0.482084
 30
0.05
 70
    64
  0
VERTEX
  5
4631D
100
AcDbEntity
  8
0
100
AcDbVertex
100
AcDbPolygonMeshVertex
 10
3.886405
 20
-0.482084
 30
0.05
 70
    64
  0
VERTEX
  5
4631E
100
AcDbEntity
  8
0
100
AcDbVertex
100
AcDbPolygonMeshVertex
 10
3.786405
 20
-0.482084
 30
3.05
 70
    64
  0
VERTEX
  5
4631F
100
AcDbEntity
  8
0
100
AcDbVertex
100
AcDbPolygonMeshVertex
 10
3.786405
 20
-0.482084
 30
0.05
 70
    64
  0
VERTEX
  5
46320
100
AcDbEntity
  8
0
100
AcDbVertex
100
AcDbPolygonMeshVertex
 10
3.786405
 20
-0.482084
 30
0.05
 70
    64
  0
VERTEX
  5
46321
100
AcDbEntity
  8
0
100
AcDbVertex
100
AcDbPolygonMeshVertex
 10
3.786405
 20
-0.682084
 30
3.05
 70
    64
  0
VERTEX
  5
46322
100
AcDbEntity
  8
0
100
AcDbVertex
100
AcDbPolygonMeshVertex
 10
3.786405
 20
-0.682084
 30
0.05
 70
    64
  0
VERTEX
  5
46323
100
AcDbEntity
  8
0
100
AcDbVertex
100
AcDbPolygonMeshVertex
 10
3.786405
 20
-0.482084
 30
0.05
 70
    64
  0
VERTEX
  5
46324
100
AcDbEntity
  8
0
100
AcDbVertex
100
AcDbPolygonMeshVertex
 10
3.886405
 20
-0.682084
 30
3.05
 70
    64
  0
VERTEX
  5
46325
100
AcDbEntity
  8
0
100
AcDbVertex
100
AcDbPolygonMeshVertex
 10
3.886405
 20
-0.682084
 30
0.05
 70
    64
  0
VERTEX
  5
46326
100
AcDbEntity
  8
0
100
AcDbVertex
100
AcDbPolygonMeshVertex
 10
3.886405
 20
-0.482084
 30
0.05
 70
    64
  0
VERTEX
  5
46327
100
AcDbEntity
  8
0
100
AcDbVertex
100
AcDbPolygonMeshVertex
 10
3.886405
 20
-0.682084
 30
3.05
 70
    64
  0
VERTEX
  5
46328
100
AcDbEntity
  8
0
100
AcDbVertex
100
AcDbPolygonMeshVertex
 10
3.886405
 20
-0.682084
 30
3.05
 70
    64
  0
VERTEX
  5
46329
100
AcDbEntity
  8
0
100
AcDbVertex
100
AcDbPolygonMeshVertex
 10
3.886405
 20
-0.482084
 30
3.05
 70
    64
  0
VERTEX
  5
4632A
100
AcDbEntity
  8
0
100
AcDbVertex
100
AcDbPolygonMeshVertex
 10
3.786405
 20
-0.682084
 30
3.05
 70
    64
  0
VERTEX
  5
4632B
100
AcDbEntity
  8
0
100
AcDbVertex
100
AcDbPolygonMeshVertex
 10
3.786405
 20
-0.682084
 30
3.05
 70
    64
  0
VERTEX
  5
4632C
100
AcDbEntity
  8
0
100
AcDbVertex
100
AcDbPolygonMeshVertex
 10
3.786405
 20
-0.482084
 30
3.05
 70
    64
  0
SEQEND
  5
4632D
100
AcDbEntity
  8
0
  0
POLYLINE
  5
4632E
100
AcDbEntity
  8
0
100
AcDbPolygonMesh
 66
     1
 10
0.0
 20
0.0
 30
0.0
 70
    16
 71
     6
 72
     3
  0
VERTEX
  5
4632F
100
AcDbEntity
  8
0
100
AcDbVertex
100
AcDbPolygonMeshVertex
 10
3.696405
 20
-0.482084
 30
3.05
 70
    64
  0
VERTEX
  5
46330
100
AcDbEntity
  8
0
100
AcDbVertex
100
AcDbPolygonMeshVertex
 10
3.696405
 20
-0.482084
 30
0.05
 70
    64
  0
VERTEX
  5
46331
100
AcDbEntity
  8
0
100
AcDbVertex
100
AcDbPolygonMeshVertex
 10
3.696405
 20
-0.482084
 30
0.05
 70
    64
  0
VERTEX
  5
46332
100
AcDbEntity
  8
0
100
AcDbVertex
100
AcDbPolygonMeshVertex
 10
3.596405
 20
-0.482084
 30
3.05
 70
    64
  0
VERTEX
  5
46333
100
AcDbEntity
  8
0
100
AcDbVertex
100
AcDbPolygonMeshVertex
 10
3.596405
 20
-0.482084
 30
0.05
 70
    64
  0
VERTEX
  5
46334
100
AcDbEntity
  8
0
100
AcDbVertex
100
AcDbPolygonMeshVertex
 10
3.596405
 20
-0.482084
 30
0.05
 70
    64
  0
VERTEX
  5
46335
100
AcDbEntity
  8
0
100
AcDbVertex
100
AcDbPolygonMeshVertex
 10
3.596405
 20
-0.682084
 30
3.05
 70
    64
  0
VERTEX
  5
46336
100
AcDbEntity
  8
0
100
AcDbVertex
100
AcDbPolygonMeshVertex
 10
3.596405
 20
-0.682084
 30
0.05
 70
    64
  0
VERTEX
  5
46337
100
AcDbEntity
  8
0
100
AcDbVertex
100
AcDbPolygonMeshVertex
 10
3.596405
 20
-0.482084
 30
0.05
 70
    64
  0
VERTEX
  5
46338
100
AcDbEntity
  8
0
100
AcDbVertex
100
AcDbPolygonMeshVertex
 10
3.696405
 20
-0.682084
 30
3.05
 70
    64
  0
VERTEX
  5
46339
100
AcDbEntity
  8
0
100
AcDbVertex
100
AcDbPolygonMeshVertex
 10
3.696405
 20
-0.682084
 30
0.05
 70
    64
  0
VERTEX
  5
4633A
100
AcDbEntity
  8
0
100
AcDbVertex
100
AcDbPolygonMeshVertex
 10
3.696405
 20
-0.482084
 30
0.05
 70
    64
  0
VERTEX
  5
4633B
100
AcDbEntity
  8
0
100
AcDbVertex
100
AcDbPolygonMeshVertex
 10
3.696405
 20
-0.682084
 30
3.05
 70
    64
  0
VERTEX
  5
4633C
100
AcDbEntity
  8
0
100
AcDbVertex
100
AcDbPolygonMeshVertex
 10
3.696405
 20
-0.682084
 30
3.05
 70
    64
  0
VERTEX
  5
4633D
100
AcDbEntity
  8
0
100
AcDbVertex
100
AcDbPolygonMeshVertex
 10
3.696405
 20
-0.482084
 30
3.05
 70
    64
  0
VERTEX
  5
4633E
100
AcDbEntity
  8
0
100
AcDbVertex
100
AcDbPolygonMeshVertex
 10
3.596405
 20
-0.682084
 30
3.05
 70
    64
  0
VERTEX
  5
4633F
100
AcDbEntity
  8
0
100
AcDbVertex
100
AcDbPolygonMeshVertex
 10
3.596405
 20
-0.682084
 30
3.05
 70
    64
  0
VERTEX
  5
46340
100
AcDbEntity
  8
0
100
AcDbVertex
100
AcDbPolygonMeshVertex
 10
3.596405
 20
-0.482084
 30
3.05
 70
    64
  0
SEQEND
  5
46341
100
AcDbEntity
  8
0
  0
POLYLINE
  5
46342
100
AcDbEntity
  8
0
100
AcDbPolygonMesh
 66
     1
 10
0.0
 20
0.0
 30
0.0
 70
    16
 71
     6
 72
     3
  0
VERTEX
  5
46343
100
AcDbEntity
  8
0
100
AcDbVertex
100
AcDbPolygonMeshVertex
 10
5.161556
 20
-0.482052
 30
3.05
 70
    64
  0
VERTEX
  5
46344
100
AcDbEntity
  8
0
100
AcDbVertex
100
AcDbPolygonMeshVertex
 10
5.161556
 20
-0.482052
 30
0.05
 70
    64
  0
VERTEX
  5
46345
100
AcDbEntity
  8
0
100
AcDbVertex
100
AcDbPolygonMeshVertex
 10
5.161556
 20
-0.482052
 30
0.05
 70
    64
  0
VERTEX
  5
46346
100
AcDbEntity
  8
0
100
AcDbVertex
100
AcDbPolygonMeshVertex
 10
5.071556
 20
-0.482052
 30
3.05
 70
    64
  0
VERTEX
  5
46347
100
AcDbEntity
  8
0
100
AcDbVertex
100
AcDbPolygonMeshVertex
 10
5.071556
 20
-0.482052
 30
0.05
 70
    64
  0
VERTEX
  5
46348
100
AcDbEntity
  8
0
100
AcDbVertex
100
AcDbPolygonMeshVertex
 10
5.071556
 20
-0.482052
 30
0.05
 70
    64
  0
VERTEX
  5
46349
100
AcDbEntity
  8
0
100
AcDbVertex
100
AcDbPolygonMeshVertex
 10
5.071556
 20
-0.557052
 30
3.05
 70
    64
  0
VERTEX
  5
4634A
100
AcDbEntity
  8
0
100
AcDbVertex
100
AcDbPolygonMeshVertex
 10
5.071556
 20
-0.557052
 30
0.05
 70
    64
  0
VERTEX
  5
4634B
100
AcDbEntity
  8
0
100
AcDbVertex
100
AcDbPolygonMeshVertex
 10
5.071556
 20
-0.482052
 30
0.05
 70
    64
  0
VERTEX
  5
4634C
100
AcDbEntity
  8
0
100
AcDbVertex
100
AcDbPolygonMeshVertex
 10
5.161556
 20
-0.557052
 30
3.05
 70
    64
  0
VERTEX
  5
4634D
100
AcDbEntity
  8
0
100
AcDbVertex
100
AcDbPolygonMeshVertex
 10
5.161556
 20
-0.557052
 30
0.05
 70
    64
  0
VERTEX
  5
4634E
100
AcDbEntity
  8
0
100
AcDbVertex
100
AcDbPolygonMeshVertex
 10
5.161556
 20
-0.482052
 30
0.05
 70
    64
  0
VERTEX
  5
4634F
100
AcDbEntity
  8
0
100
AcDbVertex
100
AcDbPolygonMeshVertex
 10
5.161556
 20
-0.557052
 30
3.05
 70
    64
  0
VERTEX
  5
46350
100
AcDbEntity
  8
0
100
AcDbVertex
100
AcDbPolygonMeshVertex
 10
5.161556
 20
-0.557052
 30
3.05
 70
    64
  0
VERTEX
  5
46351
100
AcDbEntity
  8
0
100
AcDbVertex
100
AcDbPolygonMeshVertex
 10
5.161556
 20
-0.482052
 30
3.05
 70
    64
  0
VERTEX
  5
46352
100
AcDbEntity
  8
0
100
AcDbVertex
100
AcDbPolygonMeshVertex
 10
5.071556
 20
-0.557052
 30
3.05
 70
    64
  0
VERTEX
  5
46353
100
AcDbEntity
  8
0
100
AcDbVertex
100
AcDbPolygonMeshVertex
 10
5.071556
 20
-0.557052
 30
3.05
 70
    64
  0
VERTEX
  5
46354
100
AcDbEntity
  8
0
100
AcDbVertex
100
AcDbPolygonMeshVertex
 10
5.071556
 20
-0.482052
 30
3.05
 70
    64
  0
SEQEND
  5
46355
100
AcDbEntity
  8
0
  0
POLYLINE
  5
46356
100
AcDbEntity
  8
0
100
AcDbPolygonMesh
 66
     1
 10
0.0
 20
0.0
 30
0.0
 70
    16
 71
     6
 72
     3
  0
VERTEX
  5
46357
100
AcDbEntity
  8
0
100
AcDbVertex
100
AcDbPolygonMeshVertex
 10
5.261556
 20
-0.482052
 30
3.05
 70
    64
  0
VERTEX
  5
46358
100
AcDbEntity
  8
0
100
AcDbVertex
100
AcDbPolygonMeshVertex
 10
5.261556
 20
-0.482052
 30
0.05
 70
    64
  0
VERTEX
  5
46359
100
AcDbEntity
  8
0
100
AcDbVertex
100
AcDbPolygonMeshVertex
 10
5.261556
 20
-0.482052
 30
0.05
 70
    64
  0
VERTEX
  5
4635A
100
AcDbEntity
  8
0
100
AcDbVertex
100
AcDbPolygonMeshVertex
 10
5.161556
 20
-0.482052
 30
3.05
 70
    64
  0
VERTEX
  5
4635B
100
AcDbEntity
  8
0
100
AcDbVertex
100
AcDbPolygonMeshVertex
 10
5.161556
 20
-0.482052
 30
0.05
 70
    64
  0
VERTEX
  5
4635C
100
AcDbEntity
  8
0
100
AcDbVertex
100
AcDbPolygonMeshVertex
 10
5.161556
 20
-0.482052
 30
0.05
 70
    64
  0
VERTEX
  5
4635D
100
AcDbEntity
  8
0
100
AcDbVertex
100
AcDbPolygonMeshVertex
 10
5.161556
 20
-0.682052
 30
3.05
 70
    64
  0
VERTEX
  5
4635E
100
AcDbEntity
  8
0
100
AcDbVertex
100
AcDbPolygonMeshVertex
 10
5.161556
 20
-0.682052
 30
0.05
 70
    64
  0
VERTEX
  5
4635F
100
AcDbEntity
  8
0
100
AcDbVertex
100
AcDbPolygonMeshVertex
 10
5.161556
 20
-0.482052
 30
0.05
 70
    64
  0
VERTEX
  5
46360
100
AcDbEntity
  8
0
100
AcDbVertex
100
AcDbPolygonMeshVertex
 10
5.261556
 20
-0.682052
 30
3.05
 70
    64
  0
VERTEX
  5
46361
100
AcDbEntity
  8
0
100
AcDbVertex
100
AcDbPolygonMeshVertex
 10
5.261556
 20
-0.682052
 30
0.05
 70
    64
  0
VERTEX
  5
46362
100
AcDbEntity
  8
0
100
AcDbVertex
100
AcDbPolygonMeshVertex
 10
5.261556
 20
-0.482052
 30
0.05
 70
    64
  0
VERTEX
  5
46363
100
AcDbEntity
  8
0
100
AcDbVertex
100
AcDbPolygonMeshVertex
 10
5.261556
 20
-0.682052
 30
3.05
 70
    64
  0
VERTEX
  5
46364
100
AcDbEntity
  8
0
100
AcDbVertex
100
AcDbPolygonMeshVertex
 10
5.261556
 20
-0.682052
 30
3.05
 70
    64
  0
VERTEX
  5
46365
100
AcDbEntity
  8
0
100
AcDbVertex
100
AcDbPolygonMeshVertex
 10
5.261556
 20
-0.482052
 30
3.05
 70
    64
  0
VERTEX
  5
46366
100
AcDbEntity
  8
0
100
AcDbVertex
100
AcDbPolygonMeshVertex
 10
5.161556
 20
-0.682052
 30
3.05
 70
    64
  0
VERTEX
  5
46367
100
AcDbEntity
  8
0
100
AcDbVertex
100
AcDbPolygonMeshVertex
 10
5.161556
 20
-0.682052
 30
3.05
 70
    64
  0
VERTEX
  5
46368
100
AcDbEntity
  8
0
100
AcDbVertex
100
AcDbPolygonMeshVertex
 10
5.161556
 20
-0.482052
 30
3.05
 70
    64
  0
SEQEND
  5
46369
100
AcDbEntity
  8
0
  0
POLYLINE
  5
4636A
100
AcDbEntity
  8
0
100
AcDbPolygonMesh
 66
     1
 10
0.0
 20
0.0
 30
0.0
 70
    16
 71
     6
 72
     3
  0
VERTEX
  5
4636B
100
AcDbEntity
  8
0
100
AcDbVertex
100
AcDbPolygonMeshVertex
 10
5.071556
 20
-0.482052
 30
3.05
 70
    64
  0
VERTEX
  5
4636C
100
AcDbEntity
  8
0
100
AcDbVertex
100
AcDbPolygonMeshVertex
 10
5.071556
 20
-0.482052
 30
0.05
 70
    64
  0
VERTEX
  5
4636D
100
AcDbEntity
  8
0
100
AcDbVertex
100
AcDbPolygonMeshVertex
 10
5.071556
 20
-0.482052
 30
0.05
 70
    64
  0
VERTEX
  5
4636E
100
AcDbEntity
  8
0
100
AcDbVertex
100
AcDbPolygonMeshVertex
 10
4.971556
 20
-0.482052
 30
3.05
 70
    64
  0
VERTEX
  5
4636F
100
AcDbEntity
  8
0
100
AcDbVertex
100
AcDbPolygonMeshVertex
 10
4.971556
 20
-0.482052
 30
0.05
 70
    64
  0
VERTEX
  5
46370
100
AcDbEntity
  8
0
100
AcDbVertex
100
AcDbPolygonMeshVertex
 10
4.971556
 20
-0.482052
 30
0.05
 70
    64
  0
VERTEX
  5
46371
100
AcDbEntity
  8
0
100
AcDbVertex
100
AcDbPolygonMeshVertex
 10
4.971556
 20
-0.682052
 30
3.05
 70
    64
  0
VERTEX
  5
46372
100
AcDbEntity
  8
0
100
AcDbVertex
100
AcDbPolygonMeshVertex
 10
4.971556
 20
-0.682052
 30
0.05
 70
    64
  0
VERTEX
  5
46373
100
AcDbEntity
  8
0
100
AcDbVertex
100
AcDbPolygonMeshVertex
 10
4.971556
 20
-0.482052
 30
0.05
 70
    64
  0
VERTEX
  5
46374
100
AcDbEntity
  8
0
100
AcDbVertex
100
AcDbPolygonMeshVertex
 10
5.071556
 20
-0.682052
 30
3.05
 70
    64
  0
VERTEX
  5
46375
100
AcDbEntity
  8
0
100
AcDbVertex
100
AcDbPolygonMeshVertex
 10
5.071556
 20
-0.682052
 30
0.05
 70
    64
  0
VERTEX
  5
46376
100
AcDbEntity
  8
0
100
AcDbVertex
100
AcDbPolygonMeshVertex
 10
5.071556
 20
-0.482052
 30
0.05
 70
    64
  0
VERTEX
  5
46377
100
AcDbEntity
  8
0
100
AcDbVertex
100
AcDbPolygonMeshVertex
 10
5.071556
 20
-0.682052
 30
3.05
 70
    64
  0
VERTEX
  5
46378
100
AcDbEntity
  8
0
100
AcDbVertex
100
AcDbPolygonMeshVertex
 10
5.071556
 20
-0.682052
 30
3.05
 70
    64
  0
VERTEX
  5
46379
100
AcDbEntity
  8
0
100
AcDbVertex
100
AcDbPolygonMeshVertex
 10
5.071556
 20
-0.482052
 30
3.05
 70
    64
  0
VERTEX
  5
4637A
100
AcDbEntity
  8
0
100
AcDbVertex
100
AcDbPolygonMeshVertex
 10
4.971556
 20
-0.682052
 30
3.05
 70
    64
  0
VERTEX
  5
4637B
100
AcDbEntity
  8
0
100
AcDbVertex
100
AcDbPolygonMeshVertex
 10
4.971556
 20
-0.682052
 30
3.05
 70
    64
  0
VERTEX
  5
4637C
100
AcDbEntity
  8
0
100
AcDbVertex
100
AcDbPolygonMeshVertex
 10
4.971556
 20
-0.482052
 30
3.05
 70
    64
  0
SEQEND
  5
4637D
100
AcDbEntity
  8
0
  0
POLYLINE
  5
4637E
100
AcDbEntity
  8
0
100
AcDbPolygonMesh
 66
     1
 10
0.0
 20
0.0
 30
0.0
 70
    16
 71
     6
 72
     3
  0
VERTEX
  5
4637F
100
AcDbEntity
  8
0
100
AcDbVertex
100
AcDbPolygonMeshVertex
 10
6.539265
 20
-0.482025
 30
3.05
 70
    64
  0
VERTEX
  5
46380
100
AcDbEntity
  8
0
100
AcDbVertex
100
AcDbPolygonMeshVertex
 10
6.539265
 20
-0.482025
 30
0.05
 70
    64
  0
VERTEX
  5
46381
100
AcDbEntity
  8
0
100
AcDbVertex
100
AcDbPolygonMeshVertex
 10
6.539265
 20
-0.482025
 30
0.05
 70
    64
  0
VERTEX
  5
46382
100
AcDbEntity
  8
0
100
AcDbVertex
100
AcDbPolygonMeshVertex
 10
6.449265
 20
-0.482025
 30
3.05
 70
    64
  0
VERTEX
  5
46383
100
AcDbEntity
  8
0
100
AcDbVertex
100
AcDbPolygonMeshVertex
 10
6.449265
 20
-0.482025
 30
0.05
 70
    64
  0
VERTEX
  5
46384
100
AcDbEntity
  8
0
100
AcDbVertex
100
AcDbPolygonMeshVertex
 10
6.449265
 20
-0.482025
 30
0.05
 70
    64
  0
VERTEX
  5
46385
100
AcDbEntity
  8
0
100
AcDbVertex
100
AcDbPolygonMeshVertex
 10
6.449265
 20
-0.557025
 30
3.05
 70
    64
  0
VERTEX
  5
46386
100
AcDbEntity
  8
0
100
AcDbVertex
100
AcDbPolygonMeshVertex
 10
6.449265
 20
-0.557025
 30
0.05
 70
    64
  0
VERTEX
  5
46387
100
AcDbEntity
  8
0
100
AcDbVertex
100
AcDbPolygonMeshVertex
 10
6.449265
 20
-0.482025
 30
0.05
 70
    64
  0
VERTEX
  5
46388
100
AcDbEntity
  8
0
100
AcDbVertex
100
AcDbPolygonMeshVertex
 10
6.539265
 20
-0.557025
 30
3.05
 70
    64
  0
VERTEX
  5
46389
100
AcDbEntity
  8
0
100
AcDbVertex
100
AcDbPolygonMeshVertex
 10
6.539265
 20
-0.557025
 30
0.05
 70
    64
  0
VERTEX
  5
4638A
100
AcDbEntity
  8
0
100
AcDbVertex
100
AcDbPolygonMeshVertex
 10
6.539265
 20
-0.482025
 30
0.05
 70
    64
  0
VERTEX
  5
4638B
100
AcDbEntity
  8
0
100
AcDbVertex
100
AcDbPolygonMeshVertex
 10
6.539265
 20
-0.557025
 30
3.05
 70
    64
  0
VERTEX
  5
4638C
100
AcDbEntity
  8
0
100
AcDbVertex
100
AcDbPolygonMeshVertex
 10
6.539265
 20
-0.557025
 30
3.05
 70
    64
  0
VERTEX
  5
4638D
100
AcDbEntity
  8
0
100
AcDbVertex
100
AcDbPolygonMeshVertex
 10
6.539265
 20
-0.482025
 30
3.05
 70
    64
  0
VERTEX
  5
4638E
100
AcDbEntity
  8
0
100
AcDbVertex
100
AcDbPolygonMeshVertex
 10
6.449265
 20
-0.557025
 30
3.05
 70
    64
  0
VERTEX
  5
4638F
100
AcDbEntity
  8
0
100
AcDbVertex
100
AcDbPolygonMeshVertex
 10
6.449265
 20
-0.557025
 30
3.05
 70
    64
  0
VERTEX
  5
46390
100
AcDbEntity
  8
0
100
AcDbVertex
100
AcDbPolygonMeshVertex
 10
6.449265
 20
-0.482025
 30
3.05
 70
    64
  0
SEQEND
  5
46391
100
AcDbEntity
  8
0
  0
POLYLINE
  5
46392
100
AcDbEntity
  8
0
100
AcDbPolygonMesh
 66
     1
 10
0.0
 20
0.0
 30
0.0
 70
    16
 71
     6
 72
     3
  0
VERTEX
  5
46393
100
AcDbEntity
  8
0
100
AcDbVertex
100
AcDbPolygonMeshVertex
 10
6.639265
 20
-0.482025
 30
3.05
 70
    64
  0
VERTEX
  5
46394
100
AcDbEntity
  8
0
100
AcDbVertex
100
AcDbPolygonMeshVertex
 10
6.639265
 20
-0.482025
 30
0.05
 70
    64
  0
VERTEX
  5
46395
100
AcDbEntity
  8
0
100
AcDbVertex
100
AcDbPolygonMeshVertex
 10
6.639265
 20
-0.482025
 30
0.05
 70
    64
  0
VERTEX
  5
46396
100
AcDbEntity
  8
0
100
AcDbVertex
100
AcDbPolygonMeshVertex
 10
6.539265
 20
-0.482025
 30
3.05
 70
    64
  0
VERTEX
  5
46397
100
AcDbEntity
  8
0
100
AcDbVertex
100
AcDbPolygonMeshVertex
 10
6.539265
 20
-0.482025
 30
0.05
 70
    64
  0
VERTEX
  5
46398
100
AcDbEntity
  8
0
100
AcDbVertex
100
AcDbPolygonMeshVertex
 10
6.539265
 20
-0.482025
 30
0.05
 70
    64
  0
VERTEX
  5
46399
100
AcDbEntity
  8
0
100
AcDbVertex
100
AcDbPolygonMeshVertex
 10
6.539265
 20
-0.682025
 30
3.05
 70
    64
  0
VERTEX
  5
4639A
100
AcDbEntity
  8
0
100
AcDbVertex
100
AcDbPolygonMeshVertex
 10
6.539265
 20
-0.682025
 30
0.05
 70
    64
  0
VERTEX
  5
4639B
100
AcDbEntity
  8
0
100
AcDbVertex
100
AcDbPolygonMeshVertex
 10
6.539265
 20
-0.482025
 30
0.05
 70
    64
  0
VERTEX
  5
4639C
100
AcDbEntity
  8
0
100
AcDbVertex
100
AcDbPolygonMeshVertex
 10
6.639265
 20
-0.682025
 30
3.05
 70
    64
  0
VERTEX
  5
4639D
100
AcDbEntity
  8
0
100
AcDbVertex
100
AcDbPolygonMeshVertex
 10
6.639265
 20
-0.682025
 30
0.05
 70
    64
  0
VERTEX
  5
4639E
100
AcDbEntity
  8
0
100
AcDbVertex
100
AcDbPolygonMeshVertex
 10
6.639265
 20
-0.482025
 30
0.05
 70
    64
  0
VERTEX
  5
4639F
100
AcDbEntity
  8
0
100
AcDbVertex
100
AcDbPolygonMeshVertex
 10
6.639265
 20
-0.682025
 30
3.05
 70
    64
  0
VERTEX
  5
463A0
100
AcDbEntity
  8
0
100
AcDbVertex
100
AcDbPolygonMeshVertex
 10
6.639265
 20
-0.682025
 30
3.05
 70
    64
  0
VERTEX
  5
463A1
100
AcDbEntity
  8
0
100
AcDbVertex
100
AcDbPolygonMeshVertex
 10
6.639265
 20
-0.482025
 30
3.05
 70
    64
  0
VERTEX
  5
463A2
100
AcDbEntity
  8
0
100
AcDbVertex
100
AcDbPolygonMeshVertex
 10
6.539265
 20
-0.682025
 30
3.05
 70
    64
  0
VERTEX
  5
463A3
100
AcDbEntity
  8
0
100
AcDbVertex
100
AcDbPolygonMeshVertex
 10
6.539265
 20
-0.682025
 30
3.05
 70
    64
  0
VERTEX
  5
463A4
100
AcDbEntity
  8
0
100
AcDbVertex
100
AcDbPolygonMeshVertex
 10
6.539265
 20
-0.482025
 30
3.05
 70
    64
  0
SEQEND
  5
463A5
100
AcDbEntity
  8
0
  0
POLYLINE
  5
463A6
100
AcDbEntity
  8
0
100
AcDbPolygonMesh
 66
     1
 10
0.0
 20
0.0
 30
0.0
 70
    16
 71
     6
 72
     3
  0
VERTEX
  5
463A7
100
AcDbEntity
  8
0
100
AcDbVertex
100
AcDbPolygonMeshVertex
 10
6.449265
 20
-0.482025
 30
3.05
 70
    64
  0
VERTEX
  5
463A8
100
AcDbEntity
  8
0
100
AcDbVertex
100
AcDbPolygonMeshVertex
 10
6.449265
 20
-0.482025
 30
0.05
 70
    64
  0
VERTEX
  5
463A9
100
AcDbEntity
  8
0
100
AcDbVertex
100
AcDbPolygonMeshVertex
 10
6.449265
 20
-0.482025
 30
0.05
 70
    64
  0
VERTEX
  5
463AA
100
AcDbEntity
  8
0
100
AcDbVertex
100
AcDbPolygonMeshVertex
 10
6.349265
 20
-0.482025
 30
3.05
 70
    64
  0
VERTEX
  5
463AB
100
AcDbEntity
  8
0
100
AcDbVertex
100
AcDbPolygonMeshVertex
 10
6.349265
 20
-0.482025
 30
0.05
 70
    64
  0
VERTEX
  5
463AC
100
AcDbEntity
  8
0
100
AcDbVertex
100
AcDbPolygonMeshVertex
 10
6.349265
 20
-0.482025
 30
0.05
 70
    64
  0
VERTEX
  5
463AD
100
AcDbEntity
  8
0
100
AcDbVertex
100
AcDbPolygonMeshVertex
 10
6.349265
 20
-0.682025
 30
3.05
 70
    64
  0
VERTEX
  5
463AE
100
AcDbEntity
  8
0
100
AcDbVertex
100
AcDbPolygonMeshVertex
 10
6.349265
 20
-0.682025
 30
0.05
 70
    64
  0
VERTEX
  5
463AF
100
AcDbEntity
  8
0
100
AcDbVertex
100
AcDbPolygonMeshVertex
 10
6.349265
 20
-0.482025
 30
0.05
 70
    64
  0
VERTEX
  5
463B0
100
AcDbEntity
  8
0
100
AcDbVertex
100
AcDbPolygonMeshVertex
 10
6.449265
 20
-0.682025
 30
3.05
 70
    64
  0
VERTEX
  5
463B1
100
AcDbEntity
  8
0
100
AcDbVertex
100
AcDbPolygonMeshVertex
 10
6.449265
 20
-0.682025
 30
0.05
 70
    64
  0
VERTEX
  5
463B2
100
AcDbEntity
  8
0
100
AcDbVertex
100
AcDbPolygonMeshVertex
 10
6.449265
 20
-0.482025
 30
0.05
 70
    64
  0
VERTEX
  5
463B3
100
AcDbEntity
  8
0
100
AcDbVertex
100
AcDbPolygonMeshVertex
 10
6.449265
 20
-0.682025
 30
3.05
 70
    64
  0
VERTEX
  5
463B4
100
AcDbEntity
  8
0
100
AcDbVertex
100
AcDbPolygonMeshVertex
 10
6.449265
 20
-0.682025
 30
3.05
 70
    64
  0
VERTEX
  5
463B5
100
AcDbEntity
  8
0
100
AcDbVertex
100
AcDbPolygonMeshVertex
 10
6.449265
 20
-0.482025
 30
3.05
 70
    64
  0
VERTEX
  5
463B6
100
AcDbEntity
  8
0
100
AcDbVertex
100
AcDbPolygonMeshVertex
 10
6.349265
 20
-0.682025
 30
3.05
 70
    64
  0
VERTEX
  5
463B7
100
AcDbEntity
  8
0
100
AcDbVertex
100
AcDbPolygonMeshVertex
 10
6.349265
 20
-0.682025
 30
3.05
 70
    64
  0
VERTEX
  5
463B8
100
AcDbEntity
  8
0
100
AcDbVertex
100
AcDbPolygonMeshVertex
 10
6.349265
 20
-0.482025
 30
3.05
 70
    64
  0
SEQEND
  5
463B9
100
AcDbEntity
  8
0
  0
POLYLINE
  5
463BA
100
AcDbEntity
  8
0
100
AcDbPolygonMesh
 66
     1
 10
0.0
 20
0.0
 30
0.0
 70
    16
 71
     6
 72
     3
  0
VERTEX
  5
463BB
100
AcDbEntity
  8
0
100
AcDbVertex
100
AcDbPolygonMeshVertex
 10
7.915405
 20
-0.482025
 30
3.05
 70
    64
  0
VERTEX
  5
463BC
100
AcDbEntity
  8
0
100
AcDbVertex
100
AcDbPolygonMeshVertex
 10
7.915405
 20
-0.482025
 30
0.05
 70
    64
  0
VERTEX
  5
463BD
100
AcDbEntity
  8
0
100
AcDbVertex
100
AcDbPolygonMeshVertex
 10
7.915405
 20
-0.482025
 30
0.05
 70
    64
  0
VERTEX
  5
463BE
100
AcDbEntity
  8
0
100
AcDbVertex
100
AcDbPolygonMeshVertex
 10
7.825405
 20
-0.482025
 30
3.05
 70
    64
  0
VERTEX
  5
463BF
100
AcDbEntity
  8
0
100
AcDbVertex
100
AcDbPolygonMeshVertex
 10
7.825405
 20
-0.482025
 30
0.05
 70
    64
  0
VERTEX
  5
463C0
100
AcDbEntity
  8
0
100
AcDbVertex
100
AcDbPolygonMeshVertex
 10
7.825405
 20
-0.482025
 30
0.05
 70
    64
  0
VERTEX
  5
463C1
100
AcDbEntity
  8
0
100
AcDbVertex
100
AcDbPolygonMeshVertex
 10
7.825405
 20
-0.557025
 30
3.05
 70
    64
  0
VERTEX
  5
463C2
100
AcDbEntity
  8
0
100
AcDbVertex
100
AcDbPolygonMeshVertex
 10
7.825405
 20
-0.557025
 30
0.05
 70
    64
  0
VERTEX
  5
463C3
100
AcDbEntity
  8
0
100
AcDbVertex
100
AcDbPolygonMeshVertex
 10
7.825405
 20
-0.482025
 30
0.05
 70
    64
  0
VERTEX
  5
463C4
100
AcDbEntity
  8
0
100
AcDbVertex
100
AcDbPolygonMeshVertex
 10
7.915405
 20
-0.557025
 30
3.05
 70
    64
  0
VERTEX
  5
463C5
100
AcDbEntity
  8
0
100
AcDbVertex
100
AcDbPolygonMeshVertex
 10
7.915405
 20
-0.557025
 30
0.05
 70
    64
  0
VERTEX
  5
463C6
100
AcDbEntity
  8
0
100
AcDbVertex
100
AcDbPolygonMeshVertex
 10
7.915405
 20
-0.482025
 30
0.05
 70
    64
  0
VERTEX
  5
463C7
100
AcDbEntity
  8
0
100
AcDbVertex
100
AcDbPolygonMeshVertex
 10
7.915405
 20
-0.557025
 30
3.05
 70
    64
  0
VERTEX
  5
463C8
100
AcDbEntity
  8
0
100
AcDbVertex
100
AcDbPolygonMeshVertex
 10
7.915405
 20
-0.557025
 30
3.05
 70
    64
  0
VERTEX
  5
463C9
100
AcDbEntity
  8
0
100
AcDbVertex
100
AcDbPolygonMeshVertex
 10
7.915405
 20
-0.482025
 30
3.05
 70
    64
  0
VERTEX
  5
463CA
100
AcDbEntity
  8
0
100
AcDbVertex
100
AcDbPolygonMeshVertex
 10
7.825405
 20
-0.557025
 30
3.05
 70
    64
  0
VERTEX
  5
463CB
100
AcDbEntity
  8
0
100
AcDbVertex
100
AcDbPolygonMeshVertex
 10
7.825405
 20
-0.557025
 30
3.05
 70
    64
  0
VERTEX
  5
463CC
100
AcDbEntity
  8
0
100
AcDbVertex
100
AcDbPolygonMeshVertex
 10
7.825405
 20
-0.482025
 30
3.05
 70
    64
  0
SEQEND
  5
463CD
100
AcDbEntity
  8
0
  0
POLYLINE
  5
463CE
100
AcDbEntity
  8
0
100
AcDbPolygonMesh
 66
     1
 10
0.0
 20
0.0
 30
0.0
 70
    16
 71
     6
 72
     3
  0
VERTEX
  5
463CF
100
AcDbEntity
  8
0
100
AcDbVertex
100
AcDbPolygonMeshVertex
 10
8.015405
 20
-0.482025
 30
3.05
 70
    64
  0
VERTEX
  5
463D0
100
AcDbEntity
  8
0
100
AcDbVertex
100
AcDbPolygonMeshVertex
 10
8.015405
 20
-0.482025
 30
0.05
 70
    64
  0
VERTEX
  5
463D1
100
AcDbEntity
  8
0
100
AcDbVertex
100
AcDbPolygonMeshVertex
 10
8.015405
 20
-0.482025
 30
0.05
 70
    64
  0
VERTEX
  5
463D2
100
AcDbEntity
  8
0
100
AcDbVertex
100
AcDbPolygonMeshVertex
 10
7.915405
 20
-0.482025
 30
3.05
 70
    64
  0
VERTEX
  5
463D3
100
AcDbEntity
  8
0
100
AcDbVertex
100
AcDbPolygonMeshVertex
 10
7.915405
 20
-0.482025
 30
0.05
 70
    64
  0
VERTEX
  5
463D4
100
AcDbEntity
  8
0
100
AcDbVertex
100
AcDbPolygonMeshVertex
 10
7.915405
 20
-0.482025
 30
0.05
 70
    64
  0
VERTEX
  5
463D5
100
AcDbEntity
  8
0
100
AcDbVertex
100
AcDbPolygonMeshVertex
 10
7.915405
 20
-0.682025
 30
3.05
 70
    64
  0
VERTEX
  5
463D6
100
AcDbEntity
  8
0
100
AcDbVertex
100
AcDbPolygonMeshVertex
 10
7.915405
 20
-0.682025
 30
0.05
 70
    64
  0
VERTEX
  5
463D7
100
AcDbEntity
  8
0
100
AcDbVertex
100
AcDbPolygonMeshVertex
 10
7.915405
 20
-0.482025
 30
0.05
 70
    64
  0
VERTEX
  5
463D8
100
AcDbEntity
  8
0
100
AcDbVertex
100
AcDbPolygonMeshVertex
 10
8.015405
 20
-0.682025
 30
3.05
 70
    64
  0
VERTEX
  5
463D9
100
AcDbEntity
  8
0
100
AcDbVertex
100
AcDbPolygonMeshVertex
 10
8.015405
 20
-0.682025
 30
0.05
 70
    64
  0
VERTEX
  5
463DA
100
AcDbEntity
  8
0
100
AcDbVertex
100
AcDbPolygonMeshVertex
 10
8.015405
 20
-0.482025
 30
0.05
 70
    64
  0
VERTEX
  5
463DB
100
AcDbEntity
  8
0
100
AcDbVertex
100
AcDbPolygonMeshVertex
 10
8.015405
 20
-0.682025
 30
3.05
 70
    64
  0
VERTEX
  5
463DC
100
AcDbEntity
  8
0
100
AcDbVertex
100
AcDbPolygonMeshVertex
 10
8.015405
 20
-0.682025
 30
3.05
 70
    64
  0
VERTEX
  5
463DD
100
AcDbEntity
  8
0
100
AcDbVertex
100
AcDbPolygonMeshVertex
 10
8.015405
 20
-0.482025
 30
3.05
 70
    64
  0
VERTEX
  5
463DE
100
AcDbEntity
  8
0
100
AcDbVertex
100
AcDbPolygonMeshVertex
 10
7.915405
 20
-0.682025
 30
3.05
 70
    64
  0
VERTEX
  5
463DF
100
AcDbEntity
  8
0
100
AcDbVertex
100
AcDbPolygonMeshVertex
 10
7.915405
 20
-0.682025
 30
3.05
 70
    64
  0
VERTEX
  5
463E0
100
AcDbEntity
  8
0
100
AcDbVertex
100
AcDbPolygonMeshVertex
 10
7.915405
 20
-0.482025
 30
3.05
 70
    64
  0
SEQEND
  5
463E1
100
AcDbEntity
  8
0
  0
POLYLINE
  5
463E2
100
AcDbEntity
  8
0
100
AcDbPolygonMesh
 66
     1
 10
0.0
 20
0.0
 30
0.0
 70
    16
 71
     6
 72
     3
  0
VERTEX
  5
463E3
100
AcDbEntity
  8
0
100
AcDbVertex
100
AcDbPolygonMeshVertex
 10
7.825405
 20
-0.482025
 30
3.05
 70
    64
  0
VERTEX
  5
463E4
100
AcDbEntity
  8
0
100
AcDbVertex
100
AcDbPolygonMeshVertex
 10
7.825405
 20
-0.482025
 30
0.05
 70
    64
  0
VERTEX
  5
463E5
100
AcDbEntity
  8
0
100
AcDbVertex
100
AcDbPolygonMeshVertex
 10
7.825405
 20
-0.482025
 30
0.05
 70
    64
  0
VERTEX
  5
463E6
100
AcDbEntity
  8
0
100
AcDbVertex
100
AcDbPolygonMeshVertex
 10
7.725405
 20
-0.482025
 30
3.05
 70
    64
  0
VERTEX
  5
463E7
100
AcDbEntity
  8
0
100
AcDbVertex
100
AcDbPolygonMeshVertex
 10
7.725405
 20
-0.482025
 30
0.05
 70
    64
  0
VERTEX
  5
463E8
100
AcDbEntity
  8
0
100
AcDbVertex
100
AcDbPolygonMeshVertex
 10
7.725405
 20
-0.482025
 30
0.05
 70
    64
  0
VERTEX
  5
463E9
100
AcDbEntity
  8
0
100
AcDbVertex
100
AcDbPolygonMeshVertex
 10
7.725405
 20
-0.682025
 30
3.05
 70
    64
  0
VERTEX
  5
463EA
100
AcDbEntity
  8
0
100
AcDbVertex
100
AcDbPolygonMeshVertex
 10
7.725405
 20
-0.682025
 30
0.05
 70
    64
  0
VERTEX
  5
463EB
100
AcDbEntity
  8
0
100
AcDbVertex
100
AcDbPolygonMeshVertex
 10
7.725405
 20
-0.482025
 30
0.05
 70
    64
  0
VERTEX
  5
463EC
100
AcDbEntity
  8
0
100
AcDbVertex
100
AcDbPolygonMeshVertex
 10
7.825405
 20
-0.682025
 30
3.05
 70
    64
  0
VERTEX
  5
463ED
100
AcDbEntity
  8
0
100
AcDbVertex
100
AcDbPolygonMeshVertex
 10
7.825405
 20
-0.682025
 30
0.05
 70
    64
  0
VERTEX
  5
463EE
100
AcDbEntity
  8
0
100
AcDbVertex
100
AcDbPolygonMeshVertex
 10
7.825405
 20
-0.482025
 30
0.05
 70
    64
  0
VERTEX
  5
463EF
100
AcDbEntity
  8
0
100
AcDbVertex
100
AcDbPolygonMeshVertex
 10
7.825405
 20
-0.682025
 30
3.05
 70
    64
  0
VERTEX
  5
463F0
100
AcDbEntity
  8
0
100
AcDbVertex
100
AcDbPolygonMeshVertex
 10
7.825405
 20
-0.682025
 30
3.05
 70
    64
  0
VERTEX
  5
463F1
100
AcDbEntity
  8
0
100
AcDbVertex
100
AcDbPolygonMeshVertex
 10
7.825405
 20
-0.482025
 30
3.05
 70
    64
  0
VERTEX
  5
463F2
100
AcDbEntity
  8
0
100
AcDbVertex
100
AcDbPolygonMeshVertex
 10
7.725405
 20
-0.682025
 30
3.05
 70
    64
  0
VERTEX
  5
463F3
100
AcDbEntity
  8
0
100
AcDbVertex
100
AcDbPolygonMeshVertex
 10
7.725405
 20
-0.682025
 30
3.05
 70
    64
  0
VERTEX
  5
463F4
100
AcDbEntity
  8
0
100
AcDbVertex
100
AcDbPolygonMeshVertex
 10
7.725405
 20
-0.482025
 30
3.05
 70
    64
  0
SEQEND
  5
463F5
100
AcDbEntity
  8
0
  0
POLYLINE
  5
463F6
100
AcDbEntity
  8
0
100
AcDbPolygonMesh
 66
     1
 10
0.0
 20
0.0
 30
0.0
 70
    16
 71
     6
 72
     3
  0
VERTEX
  5
463F7
100
AcDbEntity
  8
0
100
AcDbVertex
100
AcDbPolygonMeshVertex
 10
8.66
 20
-5.92
 30
5.71
 70
    64
  0
VERTEX
  5
463F8
100
AcDbEntity
  8
0
100
AcDbVertex
100
AcDbPolygonMeshVertex
 10
8.66
 20
-5.92
 30
0.0
 70
    64
  0
VERTEX
  5
463F9
100
AcDbEntity
  8
0
100
AcDbVertex
100
AcDbPolygonMeshVertex
 10
8.66
 20
-5.92
 30
0.0
 70
    64
  0
VERTEX
  5
463FA
100
AcDbEntity
  8
0
100
AcDbVertex
100
AcDbPolygonMeshVertex
 10
8.26
 20
-5.92
 30
5.71
 70
    64
  0
VERTEX
  5
463FB
100
AcDbEntity
  8
0
100
AcDbVertex
100
AcDbPolygonMeshVertex
 10
8.26
 20
-5.92
 30
0.0
 70
    64
  0
VERTEX
  5
463FC
100
AcDbEntity
  8
0
100
AcDbVertex
100
AcDbPolygonMeshVertex
 10
8.26
 20
-5.92
 30
0.0
 70
    64
  0
VERTEX
  5
463FD
100
AcDbEntity
  8
0
100
AcDbVertex
100
AcDbPolygonMeshVertex
 10
8.26
 20
-0.41
 30
5.71
 70
    64
  0
VERTEX
  5
463FE
100
AcDbEntity
  8
0
100
AcDbVertex
100
AcDbPolygonMeshVertex
 10
8.26
 20
-0.41
 30
0.0
 70
    64
  0
VERTEX
  5
463FF
100
AcDbEntity
  8
0
100
AcDbVertex
100
AcDbPolygonMeshVertex
 10
8.26
 20
-5.92
 30
0.0
 70
    64
  0
VERTEX
  5
46400
100
AcDbEntity
  8
0
100
AcDbVertex
100
AcDbPolygonMeshVertex
 10
8.66
 20
-0.41
 30
5.71
 70
    64
  0
VERTEX
  5
46401
100
AcDbEntity
  8
0
100
AcDbVertex
100
AcDbPolygonMeshVertex
 10
8.66
 20
-0.41
 30
0.0
 70
    64
  0
VERTEX
  5
46402
100
AcDbEntity
  8
0
100
AcDbVertex
100
AcDbPolygonMeshVertex
 10
8.66
 20
-5.92
 30
0.0
 70
    64
  0
VERTEX
  5
46403
100
AcDbEntity
  8
0
100
AcDbVertex
100
AcDbPolygonMeshVertex
 10
8.66
 20
-0.41
 30
5.71
 70
    64
  0
VERTEX
  5
46404
100
AcDbEntity
  8
0
100
AcDbVertex
100
AcDbPolygonMeshVertex
 10
8.66
 20
-0.41
 30
5.71
 70
    64
  0
VERTEX
  5
46405
100
AcDbEntity
  8
0
100
AcDbVertex
100
AcDbPolygonMeshVertex
 10
8.66
 20
-5.92
 30
5.71
 70
    64
  0
VERTEX
  5
46406
100
AcDbEntity
  8
0
100
AcDbVertex
100
AcDbPolygonMeshVertex
 10
8.26
 20
-0.41
 30
5.71
 70
    64
  0
VERTEX
  5
46407
100
AcDbEntity
  8
0
100
AcDbVertex
100
AcDbPolygonMeshVertex
 10
8.26
 20
-0.41
 30
5.71
 70
    64
  0
VERTEX
  5
46408
100
AcDbEntity
  8
0
100
AcDbVertex
100
AcDbPolygonMeshVertex
 10
8.26
 20
-5.92
 30
5.71
 70
    64
  0
SEQEND
  5
46409
100
AcDbEntity
  8
0
  0
POLYLINE
  5
4640A
100
AcDbEntity
  8
0
100
AcDbPolygonMesh
 66
     1
 10
0.0
 20
0.0
 30
0.0
 70
    16
 71
     6
 72
     3
  0
VERTEX
  5
4640B
100
AcDbEntity
  8
0
100
AcDbVertex
100
AcDbPolygonMeshVertex
 10
3.728753
 20
-4.018237
 30
0.425
 70
    64
  0
VERTEX
  5
4640C
100
AcDbEntity
  8
0
100
AcDbVertex
100
AcDbPolygonMeshVertex
 10
3.728753
 20
-4.018237
 30
0.05
 70
    64
  0
VERTEX
  5
4640D
100
AcDbEntity
  8
0
100
AcDbVertex
100
AcDbPolygonMeshVertex
 10
3.728753
 20
-4.018237
 30
0.05
 70
    64
  0
VERTEX
  5
4640E
100
AcDbEntity
  8
0
100
AcDbVertex
100
AcDbPolygonMeshVertex
 10
3.438177
 20
-4.018237
 30
0.425
 70
    64
  0
VERTEX
  5
4640F
100
AcDbEntity
  8
0
100
AcDbVertex
100
AcDbPolygonMeshVertex
 10
3.438177
 20
-4.018237
 30
0.05
 70
    64
  0
VERTEX
  5
46410
100
AcDbEntity
  8
0
100
AcDbVertex
100
AcDbPolygonMeshVertex
 10
3.438177
 20
-4.018237
 30
0.05
 70
    64
  0
VERTEX
  5
46411
100
AcDbEntity
  8
0
100
AcDbVertex
100
AcDbPolygonMeshVertex
 10
3.438177
 20
-3.039258
 30
0.425
 70
    64
  0
VERTEX
  5
46412
100
AcDbEntity
  8
0
100
AcDbVertex
100
AcDbPolygonMeshVertex
 10
3.438177
 20
-3.039258
 30
0.05
 70
    64
  0
VERTEX
  5
46413
100
AcDbEntity
  8
0
100
AcDbVertex
100
AcDbPolygonMeshVertex
 10
3.438177
 20
-4.018237
 30
0.05
 70
    64
  0
VERTEX
  5
46414
100
AcDbEntity
  8
0
100
AcDbVertex
100
AcDbPolygonMeshVertex
 10
3.728753
 20
-3.039258
 30
0.425
 70
    64
  0
VERTEX
  5
46415
100
AcDbEntity
  8
0
100
AcDbVertex
100
AcDbPolygonMeshVertex
 10
3.728753
 20
-3.039258
 30
0.05
 70
    64
  0
VERTEX
  5
46416
100
AcDbEntity
  8
0
100
AcDbVertex
100
AcDbPolygonMeshVertex
 10
3.728753
 20
-4.018237
 30
0.05
 70
    64
  0
VERTEX
  5
46417
100
AcDbEntity
  8
0
100
AcDbVertex
100
AcDbPolygonMeshVertex
 10
3.728753
 20
-3.039258
 30
0.425
 70
    64
  0
VERTEX
  5
46418
100
AcDbEntity
  8
0
100
AcDbVertex
100
AcDbPolygonMeshVertex
 10
3.728753
 20
-3.039258
 30
0.425
 70
    64
  0
VERTEX
  5
46419
100
AcDbEntity
  8
0
100
AcDbVertex
100
AcDbPolygonMeshVertex
 10
3.728753
 20
-4.018237
 30
0.425
 70
    64
  0
VERTEX
  5
4641A
100
AcDbEntity
  8
0
100
AcDbVertex
100
AcDbPolygonMeshVertex
 10
3.438177
 20
-3.039258
 30
0.425
 70
    64
  0
VERTEX
  5
4641B
100
AcDbEntity
  8
0
100
AcDbVertex
100
AcDbPolygonMeshVertex
 10
3.438177
 20
-3.039258
 30
0.425
 70
    64
  0
VERTEX
  5
4641C
100
AcDbEntity
  8
0
100
AcDbVertex
100
AcDbPolygonMeshVertex
 10
3.438177
 20
-4.018237
 30
0.425
 70
    64
  0
SEQEND
  5
4641D
100
AcDbEntity
  8
0
  0
POLYLINE
  5
4641E
100
AcDbEntity
  8
0
100
AcDbPolygonMesh
 66
     1
 10
0.0
 20
0.0
 30
0.0
 70
    16
 71
     6
 72
     3
  0
VERTEX
  5
4641F
100
AcDbEntity
  8
0
100
AcDbVertex
100
AcDbPolygonMeshVertex
 10
5.103904
 20
-4.018205
 30
0.425
 70
    64
  0
VERTEX
  5
46420
100
AcDbEntity
  8
0
100
AcDbVertex
100
AcDbPolygonMeshVertex
 10
5.103904
 20
-4.018205
 30
0.05
 70
    64
  0
VERTEX
  5
46421
100
AcDbEntity
  8
0
100
AcDbVertex
100
AcDbPolygonMeshVertex
 10
5.103904
 20
-4.018205
 30
0.05
 70
    64
  0
VERTEX
  5
46422
100
AcDbEntity
  8
0
100
AcDbVertex
100
AcDbPolygonMeshVertex
 10
4.813328
 20
-4.018205
 30
0.425
 70
    64
  0
VERTEX
  5
46423
100
AcDbEntity
  8
0
100
AcDbVertex
100
AcDbPolygonMeshVertex
 10
4.813328
 20
-4.018205
 30
0.05
 70
    64
  0
VERTEX
  5
46424
100
AcDbEntity
  8
0
100
AcDbVertex
100
AcDbPolygonMeshVertex
 10
4.813328
 20
-4.018205
 30
0.05
 70
    64
  0
VERTEX
  5
46425
100
AcDbEntity
  8
0
100
AcDbVertex
100
AcDbPolygonMeshVertex
 10
4.813328
 20
-3.039227
 30
0.425
 70
    64
  0
VERTEX
  5
46426
100
AcDbEntity
  8
0
100
AcDbVertex
100
AcDbPolygonMeshVertex
 10
4.813328
 20
-3.039227
 30
0.05
 70
    64
  0
VERTEX
  5
46427
100
AcDbEntity
  8
0
100
AcDbVertex
100
AcDbPolygonMeshVertex
 10
4.813328
 20
-4.018205
 30
0.05
 70
    64
  0
VERTEX
  5
46428
100
AcDbEntity
  8
0
100
AcDbVertex
100
AcDbPolygonMeshVertex
 10
5.103904
 20
-3.039227
 30
0.425
 70
    64
  0
VERTEX
  5
46429
100
AcDbEntity
  8
0
100
AcDbVertex
100
AcDbPolygonMeshVertex
 10
5.103904
 20
-3.039227
 30
0.05
 70
    64
  0
VERTEX
  5
4642A
100
AcDbEntity
  8
0
100
AcDbVertex
100
AcDbPolygonMeshVertex
 10
5.103904
 20
-4.018205
 30
0.05
 70
    64
  0
VERTEX
  5
4642B
100
AcDbEntity
  8
0
100
AcDbVertex
100
AcDbPolygonMeshVertex
 10
5.103904
 20
-3.039227
 30
0.425
 70
    64
  0
VERTEX
  5
4642C
100
AcDbEntity
  8
0
100
AcDbVertex
100
AcDbPolygonMeshVertex
 10
5.103904
 20
-3.039227
 30
0.425
 70
    64
  0
VERTEX
  5
4642D
100
AcDbEntity
  8
0
100
AcDbVertex
100
AcDbPolygonMeshVertex
 10
5.103904
 20
-4.018205
 30
0.425
 70
    64
  0
VERTEX
  5
4642E
100
AcDbEntity
  8
0
100
AcDbVertex
100
AcDbPolygonMeshVertex
 10
4.813328
 20
-3.039227
 30
0.425
 70
    64
  0
VERTEX
  5
4642F
100
AcDbEntity
  8
0
100
AcDbVertex
100
AcDbPolygonMeshVertex
 10
4.813328
 20
-3.039227
 30
0.425
 70
    64
  0
VERTEX
  5
46430
100
AcDbEntity
  8
0
100
AcDbVertex
100
AcDbPolygonMeshVertex
 10
4.813328
 20
-4.018205
 30
0.425
 70
    64
  0
SEQEND
  5
46431
100
AcDbEntity
  8
0
  0
POLYLINE
  5
46432
100
AcDbEntity
  8
0
100
AcDbPolygonMesh
 66
     1
 10
0.0
 20
0.0
 30
0.0
 70
    16
 71
     6
 72
     3
  0
VERTEX
  5
46433
100
AcDbEntity
  8
0
100
AcDbVertex
100
AcDbPolygonMeshVertex
 10
6.518545
 20
-4.018178
 30
0.425
 70
    64
  0
VERTEX
  5
46434
100
AcDbEntity
  8
0
100
AcDbVertex
100
AcDbPolygonMeshVertex
 10
6.518545
 20
-4.018178
 30
0.05
 70
    64
  0
VERTEX
  5
46435
100
AcDbEntity
  8
0
100
AcDbVertex
100
AcDbPolygonMeshVertex
 10
6.518545
 20
-4.018178
 30
0.05
 70
    64
  0
VERTEX
  5
46436
100
AcDbEntity
  8
0
100
AcDbVertex
100
AcDbPolygonMeshVertex
 10
6.227969
 20
-4.018178
 30
0.425
 70
    64
  0
VERTEX
  5
46437
100
AcDbEntity
  8
0
100
AcDbVertex
100
AcDbPolygonMeshVertex
 10
6.227969
 20
-4.018178
 30
0.05
 70
    64
  0
VERTEX
  5
46438
100
AcDbEntity
  8
0
100
AcDbVertex
100
AcDbPolygonMeshVertex
 10
6.227969
 20
-4.018178
 30
0.05
 70
    64
  0
VERTEX
  5
46439
100
AcDbEntity
  8
0
100
AcDbVertex
100
AcDbPolygonMeshVertex
 10
6.227969
 20
-3.039199
 30
0.425
 70
    64
  0
VERTEX
  5
4643A
100
AcDbEntity
  8
0
100
AcDbVertex
100
AcDbPolygonMeshVertex
 10
6.227969
 20
-3.039199
 30
0.05
 70
    64
  0
VERTEX
  5
4643B
100
AcDbEntity
  8
0
100
AcDbVertex
100
AcDbPolygonMeshVertex
 10
6.227969
 20
-4.018178
 30
0.05
 70
    64
  0
VERTEX
  5
4643C
100
AcDbEntity
  8
0
100
AcDbVertex
100
AcDbPolygonMeshVertex
 10
6.518545
 20
-3.039199
 30
0.425
 70
    64
  0
VERTEX
  5
4643D
100
AcDbEntity
  8
0
100
AcDbVertex
100
AcDbPolygonMeshVertex
 10
6.518545
 20
-3.039199
 30
0.05
 70
    64
  0
VERTEX
  5
4643E
100
AcDbEntity
  8
0
100
AcDbVertex
100
AcDbPolygonMeshVertex
 10
6.518545
 20
-4.018178
 30
0.05
 70
    64
  0
VERTEX
  5
4643F
100
AcDbEntity
  8
0
100
AcDbVertex
100
AcDbPolygonMeshVertex
 10
6.518545
 20
-3.039199
 30
0.425
 70
    64
  0
VERTEX
  5
46440
100
AcDbEntity
  8
0
100
AcDbVertex
100
AcDbPolygonMeshVertex
 10
6.518545
 20
-3.039199
 30
0.425
 70
    64
  0
VERTEX
  5
46441
100
AcDbEntity
  8
0
100
AcDbVertex
100
AcDbPolygonMeshVertex
 10
6.518545
 20
-4.018178
 30
0.425
 70
    64
  0
VERTEX
  5
46442
100
AcDbEntity
  8
0
100
AcDbVertex
100
AcDbPolygonMeshVertex
 10
6.227969
 20
-3.039199
 30
0.425
 70
    64
  0
VERTEX
  5
46443
100
AcDbEntity
  8
0
100
AcDbVertex
100
AcDbPolygonMeshVertex
 10
6.227969
 20
-3.039199
 30
0.425
 70
    64
  0
VERTEX
  5
46444
100
AcDbEntity
  8
0
100
AcDbVertex
100
AcDbPolygonMeshVertex
 10
6.227969
 20
-4.018178
 30
0.425
 70
    64
  0
SEQEND
  5
46445
100
AcDbEntity
  8
0
  0
POINT
  5
46446
100
AcDbEntity
  8
SNAP_POINTS
100
AcDbPoint
 10
3.740033
 20
-5.773034
 30
0.05
  0
POINT
  5
46447
100
AcDbEntity
  8
SNAP_POINTS
100
AcDbPoint
 10
5.115184
 20
-5.773003
 30
0.05
  0
POINT
  5
46448
100
AcDbEntity
  8
SNAP_POINTS
100
AcDbPoint
 10
6.494994
 20
-5.772975
 30
0.05
  0
POLYLINE
  5
46449
100
AcDbEntity
  8
0
100
AcDbPolygonMesh
 66
     1
 10
0.0
 20
0.0
 30
0.0
 70
    16
 71
     6
 72
     3
  0
VERTEX
  5
4644A
100
AcDbEntity
  8
0
100
AcDbVertex
100
AcDbPolygonMeshVertex
 10
7.832187
 20
-4.018178
 30
0.425
 70
    64
  0
VERTEX
  5
4644B
100
AcDbEntity
  8
0
100
AcDbVertex
100
AcDbPolygonMeshVertex
 10
7.832187
 20
-4.018178
 30
0.05
 70
    64
  0
VERTEX
  5
4644C
100
AcDbEntity
  8
0
100
AcDbVertex
100
AcDbPolygonMeshVertex
 10
7.832187
 20
-4.018178
 30
0.05
 70
    64
  0
VERTEX
  5
4644D
100
AcDbEntity
  8
0
100
AcDbVertex
100
AcDbPolygonMeshVertex
 10
7.541611
 20
-4.018178
 30
0.425
 70
    64
  0
VERTEX
  5
4644E
100
AcDbEntity
  8
0
100
AcDbVertex
100
AcDbPolygonMeshVertex
 10
7.541611
 20
-4.018178
 30
0.05
 70
    64
  0
VERTEX
  5
4644F
100
AcDbEntity
  8
0
100
AcDbVertex
100
AcDbPolygonMeshVertex
 10
7.541611
 20
-4.018178
 30
0.05
 70
    64
  0
VERTEX
  5
46450
100
AcDbEntity
  8
0
100
AcDbVertex
100
AcDbPolygonMeshVertex
 10
7.541611
 20
-3.039199
 30
0.425
 70
    64
  0
VERTEX
  5
46451
100
AcDbEntity
  8
0
100
AcDbVertex
100
AcDbPolygonMeshVertex
 10
7.541611
 20
-3.039199
 30
0.05
 70
    64
  0
VERTEX
  5
46452
100
AcDbEntity
  8
0
100
AcDbVertex
100
AcDbPolygonMeshVertex
 10
7.541611
 20
-4.018178
 30
0.05
 70
    64
  0
VERTEX
  5
46453
100
AcDbEntity
  8
0
100
AcDbVertex
100
AcDbPolygonMeshVertex
 10
7.832187
 20
-3.039199
 30
0.425
 70
    64
  0
VERTEX
  5
46454
100
AcDbEntity
  8
0
100
AcDbVertex
100
AcDbPolygonMeshVertex
 10
7.832187
 20
-3.039199
 30
0.05
 70
    64
  0
VERTEX
  5
46455
100
AcDbEntity
  8
0
100
AcDbVertex
100
AcDbPolygonMeshVertex
 10
7.832187
 20
-4.018178
 30
0.05
 70
    64
  0
VERTEX
  5
46456
100
AcDbEntity
  8
0
100
AcDbVertex
100
AcDbPolygonMeshVertex
 10
7.832187
 20
-3.039199
 30
0.425
 70
    64
  0
VERTEX
  5
46457
100
AcDbEntity
  8
0
100
AcDbVertex
100
AcDbPolygonMeshVertex
 10
7.832187
 20
-3.039199
 30
0.425
 70
    64
  0
VERTEX
  5
46458
100
AcDbEntity
  8
0
100
AcDbVertex
100
AcDbPolygonMeshVertex
 10
7.832187
 20
-4.018178
 30
0.425
 70
    64
  0
VERTEX
  5
46459
100
AcDbEntity
  8
0
100
AcDbVertex
100
AcDbPolygonMeshVertex
 10
7.541611
 20
-3.039199
 30
0.425
 70
    64
  0
VERTEX
  5
4645A
100
AcDbEntity
  8
0
100
AcDbVertex
100
AcDbPolygonMeshVertex
 10
7.541611
 20
-3.039199
 30
0.425
 70
    64
  0
VERTEX
  5
4645B
100
AcDbEntity
  8
0
100
AcDbVertex
100
AcDbPolygonMeshVertex
 10
7.541611
 20
-4.018178
 30
0.425
 70
    64
  0
SEQEND
  5
4645C
100
AcDbEntity
  8
0
  0
POLYLINE
  5
4645D
100
AcDbEntity
  8
0
100
AcDbPolygonMesh
 66
     1
 10
0.0
 20
0.0
 30
0.0
 70
    16
 71
     6
 72
     3
  0
VERTEX
  5
4645E
100
AcDbEntity
  8
0
100
AcDbVertex
100
AcDbPolygonMeshVertex
 10
7.107
 20
-6.47
 30
0.04
 70
    64
  0
VERTEX
  5
4645F
100
AcDbEntity
  8
0
100
AcDbVertex
100
AcDbPolygonMeshVertex
 10
7.107
 20
-6.47
 30
0.0
 70
    64
  0
VERTEX
  5
46460
100
AcDbEntity
  8
0
100
AcDbVertex
100
AcDbPolygonMeshVertex
 10
7.107
 20
-6.47
 30
0.0
 70
    64
  0
VERTEX
  5
46461
100
AcDbEntity
  8
0
100
AcDbVertex
100
AcDbPolygonMeshVertex
 10
6.673
 20
-6.47
 30
0.04
 70
    64
  0
VERTEX
  5
46462
100
AcDbEntity
  8
0
100
AcDbVertex
100
AcDbPolygonMeshVertex
 10
6.673
 20
-6.47
 30
0.0
 70
    64
  0
VERTEX
  5
46463
100
AcDbEntity
  8
0
100
AcDbVertex
100
AcDbPolygonMeshVertex
 10
6.673
 20
-6.47
 30
0.0
 70
    64
  0
VERTEX
  5
46464
100
AcDbEntity
  8
0
100
AcDbVertex
100
AcDbPolygonMeshVertex
 10
6.673
 20
-5.92
 30
0.04
 70
    64
  0
VERTEX
  5
46465
100
AcDbEntity
  8
0
100
AcDbVertex
100
AcDbPolygonMeshVertex
 10
6.673
 20
-5.92
 30
0.0
 70
    64
  0
VERTEX
  5
46466
100
AcDbEntity
  8
0
100
AcDbVertex
100
AcDbPolygonMeshVertex
 10
6.673
 20
-6.47
 30
0.0
 70
    64
  0
VERTEX
  5
46467
100
AcDbEntity
  8
0
100
AcDbVertex
100
AcDbPolygonMeshVertex
 10
7.107
 20
-5.92
 30
0.04
 70
    64
  0
VERTEX
  5
46468
100
AcDbEntity
  8
0
100
AcDbVertex
100
AcDbPolygonMeshVertex
 10
7.107
 20
-5.92
 30
0.0
 70
    64
  0
VERTEX
  5
46469
100
AcDbEntity
  8
0
100
AcDbVertex
100
AcDbPolygonMeshVertex
 10
7.107
 20
-6.47
 30
0.0
 70
    64
  0
VERTEX
  5
4646A
100
AcDbEntity
  8
0
100
AcDbVertex
100
AcDbPolygonMeshVertex
 10
7.107
 20
-5.92
 30
0.04
 70
    64
  0
VERTEX
  5
4646B
100
AcDbEntity
  8
0
100
AcDbVertex
100
AcDbPolygonMeshVertex
 10
7.107
 20
-5.92
 30
0.04
 70
    64
  0
VERTEX
  5
4646C
100
AcDbEntity
  8
0
100
AcDbVertex
100
AcDbPolygonMeshVertex
 10
7.107
 20
-6.47
 30
0.04
 70
    64
  0
VERTEX
  5
4646D
100
AcDbEntity
  8
0
100
AcDbVertex
100
AcDbPolygonMeshVertex
 10
6.673
 20
-5.92
 30
0.04
 70
    64
  0
VERTEX
  5
4646E
100
AcDbEntity
  8
0
100
AcDbVertex
100
AcDbPolygonMeshVertex
 10
6.673
 20
-5.92
 30
0.04
 70
    64
  0
VERTEX
  5
4646F
100
AcDbEntity
  8
0
100
AcDbVertex
100
AcDbPolygonMeshVertex
 10
6.673
 20
-6.47
 30
0.04
 70
    64
  0
SEQEND
  5
46470
100
AcDbEntity
  8
0
  0
CIRCLE
  5
46471
100
AcDbEntity
  8
0
100
AcDbCircle
 39
0.04
 10
6.89
 20
-6.22
 30
0.0
 40
0.1085
  0
POINT
  5
46474
100
AcDbEntity
  8
SNAP_POINTS
100
AcDbPoint
 10
7.869994
 20
-5.772975
 30
0.05
  0
ARC
  5
46475
100
AcDbEntity
  8
0
100
AcDbCircle
 39
0.04
 10
6.89
 20
0.0
 30
0.0
 40
0.1085
100
AcDbArc
 50
356.782733
 51
183.217267
  0
ARC
  5
46476
100
AcDbEntity
  8
0
100
AcDbCircle
 39
0.04
 10
6.89
 20
-0.193538
 30
0.0
 40
0.2165
100
AcDbArc
 50
120.024142
 51
59.975858
  0
LINE
  5
46479
100
AcDbEntity
  8
0
100
AcDbLine
 10
-0.217
 20
0.26
 30
0.0
 11
-0.317
 21
0.26
 31
0.0
  0
LINE
  5
4647A
100
AcDbEntity
  8
0
100
AcDbLine
 10
-0.217
 20
0.26
 30
0.04
 11
-0.317
 21
0.26
 31
0.04
  0
LINE
  5
4647B
100
AcDbEntity
  8
0
100
AcDbLine
 10
0.317
 20
0.26
 30
0.0
 11
0.217
 21
0.26
 31
0.0
  0
LINE
  5
4647C
100
AcDbEntity
  8
0
100
AcDbLine
 10
6.673
 20
0.26
 30
0.0
 11
6.573
 21
0.26
 31
0.0
  0
LINE
  5
4647D
100
AcDbEntity
  8
0
100
AcDbLine
 10
6.673
 20
0.26
 30
0.04
 11
6.573
 21
0.26
 31
0.04
  0
LINE
  5
4647E
100
AcDbEntity
  8
0
100
AcDbLine
 10
7.207
 20
0.26
 30
0.0
 11
7.107
 21
0.26
 31
0.0
  0
POINT
  5
4647F
100
AcDbEntity
  8
DIMS-MTG-HOLES
100
AcDbPoint
 10
0.0
 20
-6.22
 30
0.0
  0
POINT
  5
46480
100
AcDbEntity
  8
DIMS-MTG-HOLES
100
AcDbPoint
 10
0.0
 20
0.0
 30
0.0
  0
POINT
  5
46482
100
AcDbEntity
  8
DIMS-MTG-HOLES
100
AcDbPoint
 10
6.89
 20
0.0
 30
0.0
  0
POINT
  5
46483
100
AcDbEntity
  8
DIMS-MTG-HOLES
100
AcDbPoint
 10
6.89
 20
-6.22
 30
0.0
  0
DIMENSION
  5
46484
100
AcDbEntity
  8
AREA1
100
AcDbDimension
  2
*D1
 10
9.764512
 20
0.26
 30
0.0
 11
9.764512
 21
-3.105
 31
0.0
 70
    32
  3
ABECAD_3D
100
AcDbAlignedDimension
 13
7.107
 23
-6.47
 33
0.0
 14
7.107
 24
0.26
 34
0.0
 50
90.0
100
AcDbRotatedDimension
  0
DIMENSION
  5
46493
100
AcDbEntity
  8
AREA1
100
AcDbDimension
  2
*D2
 10
8.66
 20
1.255735
 30
0.0
 11
3.045
 21
1.255735
 31
0.0
 70
    32
  3
ABECAD_3D
100
AcDbAlignedDimension
 13
-2.57
 23
-0.45
 33
0.0
 14
8.66
 24
-0.41
 34
0.0
100
AcDbRotatedDimension
  0
ENDSEC
  0
SECTION
  2
OBJECTS
  0
DICTIONARY
  5
458CB
100
AcDbDictionary
  3
ACAD_GROUP
350
458CC
  3
ACAD_LAYOUT
350
458FB
  3
ACAD_MLINESTYLE
350
458D9
  3
ACAD_PLOTSETTINGS
350
458FC
  3
ACAD_PLOTSTYLENAME
350
458F9
  3
ACDBHEADERROUNDTRIPXREC
350
46581
  3
ACDBVARIABLEDICTIONARY
350
458E1
  3
DWGPROPS
350
45901
  0
DICTIONARY
  5
4657F
100
AcDbDictionary
280
     1
  3
ACAD_XREC_ROUNDTRIP
360
46580
  0
DICTIONARY
  5
465AA
100
AcDbDictionary
280
     1
  3
ACAD_XREC_ROUNDTRIP
360
465AB
  0
DICTIONARY
  5
4657D
100
AcDbDictionary
280
     1
  3
ACAD_XREC_ROUNDTRIP
360
4657E
  0
DICTIONARY
  5
465A4
100
AcDbDictionary
280
     1
  3
ACAD_XREC_ROUNDTRIP
360
465A5
  0
DICTIONARY
  5
465A6
100
AcDbDictionary
280
     1
  3
ACAD_XREC_ROUNDTRIP
360
465A7
  0
DICTIONARY
  5
4592C
100
AcDbDictionary
280
     1
  3
ACAD_LAYOUTSELFREF
360
465A3
  0
DICTIONARY
  5
4592A
100
AcDbDictionary
280
     1
  3
ACAD_LAYOUTSELFREF
360
465A2
  0
DICTIONARY
  5
4657B
100
AcDbDictionary
280
     1
  3
ACAD_XREC_ROUNDTRIP
360
4657C
  0
DICTIONARY
  5
458CC
102
{ACAD_REACTORS
330
458CB
102
}
100
AcDbDictionary
  0
DICTIONARY
  5
458FB
102
{ACAD_XDICTIONARY
360
465A8
102
}
102
{ACAD_REACTORS
330
458CB
102
}
100
AcDbDictionary
  3
LAYOUT1
350
458FE
  3
MODEL
350
458FD
  0
DICTIONARY
  5
458D9
102
{ACAD_REACTORS
330
458CB
102
}
100
AcDbDictionary
  3
STANDARD
350
458DA
  0
DICTIONARY
  5
458FC
102
{ACAD_REACTORS
330
458CB
102
}
100
AcDbDictionary
  0
ACAD_PROXY_OBJECT
  5
458F9
102
{ACAD_REACTORS
330
458CB
102
}
100
AcDbProxyObject
 90
      499
 91
      501
 93
       86
310
405010041939BDC9B585B0
350
458FA
340
458FA
 94
        0
  0
DICTIONARY
  5
46581
102
{ACAD_REACTORS
330
458CB
102
}
100
AcDbDictionary
  3
CEPSNTYPE
350
4658B
  3
DIMSTYLEDATA
350
4658F
  3
FINGERPRINTGUID
350
4658C
  3
HYPERLINKBASE
350
46584
  3
INSUNITS
350
4658A
  3
LAYOUTDICT
350
46586
  3
LWETCUNION
350
46589
  3
PLOTSETDICT
350
46587
  3
PLOTSTYLNAMDICT
350
46588
  3
PSVPSCALE
350
4658E
  3
PUCSBASE
350
46592
  3
PUCSORGBACK
350
46598
  3
PUCSORGBOTTOM
350
46594
  3
PUCSORGFRONT
350
46597
  3
PUCSORGLEFT
350
46595
  3
PUCSORGRIGHT
350
46596
  3
PUCSORGTOP
350
46593
  3
PUCSORTHOREF
350
46590
  3
PUCSORTHOVIEW
350
46591
  3
STYLESHEET
350
46585
  3
TSTACKALIGN
350
46582
  3
TSTACKSIZE
350
46583
  3
UCSBASE
350
4659B
  3
UCSORGBACK
350
465A1
  3
UCSORGBOTTOM
350
4659D
  3
UCSORGFRONT
350
465A0
  3
UCSORGLEFT
350
4659E
  3
UCSORGRIGHT
350
4659F
  3
UCSORGTOP
350
4659C
  3
UCSORTHOREF
350
46599
  3
UCSORTHOVIEW
350
4659A
  3
VERSIONGUID
350
4658D
  0
DICTIONARY
  5
458E1
102
{ACAD_REACTORS
330
458CB
102
}
100
AcDbDictionary
  3
DIMADEC
350
458E2
  0
XRECORD
  5
45901
102
{ACAD_REACTORS
330
458CB
102
}
100
AcDbXrecord
  1
DWGPROPS COOKIE
  2

  3

  4

  6

  7

  8
colin
  9

300
=
301
=
302
=
303
=
304
=
305
=
306
=
307
=
308
=
309
=
 40
0.000599
 41
2451670.444777
 42
2451670.445376
  1

 90
        0
  0
XRECORD
  5
46580
102
{ACAD_REACTORS
330
4657F
102
}
100
AcDbXrecord
102
EXTNAMES
  1
*ACTIVE
  2
*Active
102
UCS
 74
     0
 71
     1
 10
0.0
 20
0.0
 30
0.0
 10
1.0
 20
0.0
 30
0.0
 10
0.0
 20
1.0
 30
0.0
146
0.0
 79
     1
102
VIEW
281
     0
  0
XRECORD
  5
465AB
102
{ACAD_REACTORS
330
465AA
102
}
100
AcDbXrecord
102
PLOTBIT
280
     0
  0
XRECORD
  5
4657E
102
{ACAD_REACTORS
330
4657D
102
}
100
AcDbXrecord
102
EXTNAMES
  1
DEFPOINTS
  2
Defpoints
102
PLOTBIT
280
     0
  0
XRECORD
  5
465A5
102
{ACAD_REACTORS
330
465A4
102
}
100
AcDbXrecord
102
ACADR14ROUNDTRIP
1000
DSTYLE
1002
{
1070
   276
 70
     2
1070
   277
 70
     5
1002
}
  0
XRECORD
  5
465A7
102
{ACAD_REACTORS
330
465A6
102
}
100
AcDbXrecord
102
ACADR14ROUNDTRIP
1000
DSTYLE
1002
{
1070
   276
 70
     2
1070
   277
 70
     5
1002
}
  0
XRECORD
  5
465A3
102
{ACAD_REACTORS
330
4592C
102
}
100
AcDbXrecord
340
458D6
  0
XRECORD
  5
465A2
102
{ACAD_REACTORS
330
4592A
102
}
100
AcDbXrecord
340
458D3
  0
XRECORD
  5
4657C
102
{ACAD_REACTORS
330
4657B
102
}
100
AcDbXrecord
102
EXTNAMES
  1
SCALE
  2
scale
  0
DICTIONARY
  5
465A8
100
AcDbDictionary
280
     1
  3
ACAD_XREC_ROUNDTRIP
360
465A9
  0
ACAD_PROXY_OBJECT
  5
458FE
102
{ACAD_REACTORS
330
458FB
102
}
100
AcDbProxyObject
 90
      499
 91
      503
 93
     1348
310
91D4850204C617365724A65742035303030205365726965732050434C20362C00AAAAAA416AA547D11959985D5B1D08148C4D081C195B88185CDCDA59DB9B595B9D1CCB98DD1891069074C61796F75743140501A800000000000000000000000000000000000000000000A1000000000000008902A6A6A10232D5E076BC551
310
0408CB5781DAF154410232D5E076BC5510408CB5781DAF15C410232D5E076BC5710408CB5781DAF15C40
330
458D3
330
0
340
0
340
0
 94
        0
  0
ACAD_PROXY_OBJECT
  5
458FD
102
{ACAD_REACTORS
330
458FB
102
}
100
AcDbProxyObject
 90
      499
 91
      503
 93
      924
310
91D4850204C617365724A65742035303030205365726965732050434C20362C01AAAAAAAAA547D11959985D5B1D08148C4D081C195B88185CDCDA59DB9B595B9D1CCB98DD18A69054D6F64656C901A800000000000000000000000000000000000000000000A1000000000000008902A6A6AAAA0
330
458D6
330
0
340
0
340
0
 94
        0
  0
MLINESTYLE
  5
458DA
102
{ACAD_REACTORS
330
458D9
102
}
100
AcDbMlineStyle
  2
STANDARD
 70
     0
  3

 62
   256
 51
90.0
 52
90.0
 71
     2
 49
0.5
 62
   256
  6
BYLAYER
 49
-0.5
 62
   256
  6
BYLAYER
  0
ACAD_PROXY_OBJECT
  5
458FA
102
{ACAD_REACTORS
330
458F9
102
}
100
AcDbProxyObject
 90
      499
 91
      502
 93
        0
 94
        0
  0
XRECORD
  5
4658B
102
{ACAD_REACTORS
330
46581
102
}
100
AcDbXrecord
 90
        0
  0
XRECORD
  5
4658F
102
{ACAD_REACTORS
330
46581
102
}
100
AcDbXrecord
1000
DSTYLE
1002
{
1070
   276
 70
     2
1070
   277
 70
     5
1002
}
  0
XRECORD
  5
4658C
102
{ACAD_REACTORS
330
46581
102
}
100
AcDbXrecord
  1
{6E0CF4B8-225E-11D4-A150-00A0CC3303EC}
  0
XRECORD
  5
46584
102
{ACAD_REACTORS
330
46581
102
}
100
AcDbXrecord
  1

  0
XRECORD
  5
4658A
102
{ACAD_REACTORS
330
46581
102
}
100
AcDbXrecord
 90
        0
  0
XRECORD
  5
46586
102
{ACAD_REACTORS
330
46581
102
}
100
AcDbXrecord
340
458FB
  0
XRECORD
  5
46589
102
{ACAD_REACTORS
330
46581
102
}
100
AcDbXrecord
 90
    14877
  0
XRECORD
  5
46587
102
{ACAD_REACTORS
330
46581
102
}
100
AcDbXrecord
340
458FC
  0
XRECORD
  5
46588
102
{ACAD_REACTORS
330
46581
102
}
100
AcDbXrecord
340
458F9
  0
XRECORD
  5
4658E
102
{ACAD_REACTORS
330
46581
102
}
100
AcDbXrecord
 40
0.0
  0
XRECORD
  5
46592
102
{ACAD_REACTORS
330
46581
102
}
100
AcDbXrecord
340
0
  0
XRECORD
  5
46598
102
{ACAD_REACTORS
330
46581
102
}
100
AcDbXrecord
 10
0.0
 20
0.0
 30
0.0
  0
XRECORD
  5
46594
102
{ACAD_REACTORS
330
46581
102
}
100
AcDbXrecord
 10
0.0
 20
0.0
 30
0.0
  0
XRECORD
  5
46597
102
{ACAD_REACTORS
330
46581
102
}
100
AcDbXrecord
 10
0.0
 20
0.0
 30
0.0
  0
XRECORD
  5
46595
102
{ACAD_REACTORS
330
46581
102
}
100
AcDbXrecord
 10
0.0
 20
0.0
 30
0.0
  0
XRECORD
  5
46596
102
{ACAD_REACTORS
330
46581
102
}
100
AcDbXrecord
 10
0.0
 20
0.0
 30
0.0
  0
XRECORD
  5
46593
102
{ACAD_REACTORS
330
46581
102
}
100
AcDbXrecord
 10
0.0
 20
0.0
 30
0.0
  0
XRECORD
  5
46590
102
{ACAD_REACTORS
330
46581
102
}
100
AcDbXrecord
340
0
  0
XRECORD
  5
46591
102
{ACAD_REACTORS
330
46581
102
}
100
AcDbXrecord
 70
     0
  0
XRECORD
  5
46585
102
{ACAD_REACTORS
330
46581
102
}
100
AcDbXrecord
  1

  0
XRECORD
  5
46582
102
{ACAD_REACTORS
330
46581
102
}
100
AcDbXrecord
 90
        1
  0
XRECORD
  5
46583
102
{ACAD_REACTORS
330
46581
102
}
100
AcDbXrecord
 90
       70
  0
XRECORD
  5
4659B
102
{ACAD_REACTORS
330
46581
102
}
100
AcDbXrecord
340
0
  0
XRECORD
  5
465A1
102
{ACAD_REACTORS
330
46581
102
}
100
AcDbXrecord
 10
0.0
 20
0.0
 30
0.0
  0
XRECORD
  5
4659D
102
{ACAD_REACTORS
330
46581
102
}
100
AcDbXrecord
 10
0.0
 20
0.0
 30
0.0
  0
XRECORD
  5
465A0
102
{ACAD_REACTORS
330
46581
102
}
100
AcDbXrecord
 10
0.0
 20
0.0
 30
0.0
  0
XRECORD
  5
4659E
102
{ACAD_REACTORS
330
46581
102
}
100
AcDbXrecord
 10
0.0
 20
0.0
 30
0.0
  0
XRECORD
  5
4659F
102
{ACAD_REACTORS
330
46581
102
}
100
AcDbXrecord
 10
0.0
 20
0.0
 30
0.0
  0
XRECORD
  5
4659C
102
{ACAD_REACTORS
330
46581
102
}
100
AcDbXrecord
 10
0.0
 20
0.0
 30
0.0
  0
XRECORD
  5
46599
102
{ACAD_REACTORS
330
46581
102
}
100
AcDbXrecord
340
0
  0
XRECORD
  5
4659A
102
{ACAD_REACTORS
330
46581
102
}
100
AcDbXrecord
 70
     1
  0
XRECORD
  5
4658D
102
{ACAD_REACTORS
330
46581
102
}
100
AcDbXrecord
  1
{D886AFB7-6978-46A4-9694-1319AD2A351F}
  0
DICTIONARYVAR
  5
458E2
102
{ACAD_REACTORS
330
458E1
102
}
100
DictionaryVariables
280
     0
  1
0
  0
XRECORD
  5
465A9
102
{ACAD_REACTORS
330
465A8
102
}
100
AcDbXrecord
102
EXTNAMES
  1
LAYOUT1
  2
Layout1
  1
MODEL
  2
Model
  0
ENDSEC
  0
EOF
