  0
SECTION
  2
HEADER
  9
$ACADVER
  1
AC1014
  9
$ACADMAINTVER
 70
     8
  9
$DWGCODEPAGE
  3
ANSI_1252
  9
$INSBASE
 10
0.0
 20
0.0
 30
0.0
  9
$EXTMIN
 10
-0.89665
 20
-1.82111
 30
0.0
  9
$EXTMAX
 10
2.646
 20
10.91942
 30
6.251313
  9
$LIMMIN
 10
0.0
 20
0.0
  9
$LIMMAX
 10
12.0
 20
9.0
  9
$ORTHOMODE
 70
     0
  9
$REGENMODE
 70
     1
  9
$FILLMODE
 70
     1
  9
$QTEXTMODE
 70
     0
  9
$MIRRTEXT
 70
     1
  9
$DRAGMODE
 70
     2
  9
$LTSCALE
 40
1.0
  9
$OSMODE
 70
    37
  9
$ATTMODE
 70
     1
  9
$TEXTSIZE
 40
0.12
  9
$TRACEWID
 40
0.05
  9
$TEXTSTYLE
  7
STANDARD
  9
$CLAYER
  8
0
  9
$CELTYPE
  6
BYLAYER
  9
$CECOLOR
 62
   256
  9
$CELTSCALE
 40
1.0
  9
$DELOBJ
 70
     1
  9
$DISPSILH
 70
     0
  9
$DIMSCALE
 40
1.0
  9
$DIMASZ
 40
0.18
  9
$DIMEXO
 40
0.0625
  9
$DIMDLI
 40
0.375
  9
$DIMRND
 40
0.0
  9
$DIMDLE
 40
0.0
  9
$DIMEXE
 40
0.18
  9
$DIMTP
 40
0.0
  9
$DIMTM
 40
0.0
  9
$DIMTXT
 40
0.18
  9
$DIMCEN
 40
0.09
  9
$DIMTSZ
 40
0.0
  9
$DIMTOL
 70
     0
  9
$DIMLIM
 70
     0
  9
$DIMTIH
 70
     0
  9
$DIMTOH
 70
     1
  9
$DIMSE1
 70
     0
  9
$DIMSE2
 70
     0
  9
$DIMTAD
 70
     0
  9
$DIMZIN
 70
     4
  9
$DIMBLK
  1

  9
$DIMASO
 70
     1
  9
$DIMSHO
 70
     1
  9
$DIMPOST
  1

  9
$DIMAPOST
  1

  9
$DIMALT
 70
     1
  9
$DIMALTD
 70
     1
  9
$DIMALTF
 40
25.4
  9
$DIMLFAC
 40
1.0
  9
$DIMTOFL
 70
     0
  9
$DIMTVP
 40
0.0
  9
$DIMTIX
 70
     0
  9
$DIMSOXD
 70
     0
  9
$DIMSAH
 70
     0
  9
$DIMBLK1
  1

  9
$DIMBLK2
  1

  9
$DIMSTYLE
  2
ABECAD_3D
  9
$DIMCLRD
 70
     0
  9
$DIMCLRE
 70
     0
  9
$DIMCLRT
 70
     0
  9
$DIMTFAC
 40
1.5
  9
$DIMGAP
 40
0.09
  9
$DIMJUST
 70
     0
  9
$DIMSD1
 70
     0
  9
$DIMSD2
 70
     0
  9
$DIMTOLJ
 70
     1
  9
$DIMTZIN
 70
     4
  9
$DIMALTZ
 70
     4
  9
$DIMALTTZ
 70
     4
  9
$DIMFIT
 70
     3
  9
$DIMUPT
 70
     0
  9
$DIMUNIT
 70
     7
  9
$DIMDEC
 70
     6
  9
$DIMTDEC
 70
     6
  9
$DIMALTU
 70
     2
  9
$DIMALTTD
 70
     1
  9
$DIMTXSTY
  7
STANDARD
  9
$DIMAUNIT
 70
     0
  9
$LUNITS
 70
     2
  9
$LUPREC
 70
     4
  9
$SKETCHINC
 40
0.1
  9
$FILLETRAD
 40
0.0
  9
$AUNITS
 70
     0
  9
$AUPREC
 70
     0
  9
$MENU
  1
ACAD
  9
$ELEVATION
 40
0.0
  9
$PELEVATION
 40
0.0
  9
$THICKNESS
 40
0.0
  9
$LIMCHECK
 70
     0
  9
$BLIPMODE
 70
     0
  9
$CHAMFERA
 40
0.0
  9
$CHAMFERB
 40
0.0
  9
$CHAMFERC
 40
0.0
  9
$CHAMFERD
 40
0.0
  9
$SKPOLY
 70
     0
  9
$TDCREATE
 40
2451670.444776967
  9
$TDUPDATE
 40
2452010.483829976
  9
$TDINDWG
 40
0.0069472222
  9
$TDUSRTIMER
 40
0.0069472222
  9
$USRTIMER
 70
     1
  9
$ANGBASE
 50
0.0
  9
$ANGDIR
 70
     0
  9
$PDMODE
 70
     3
  9
$PDSIZE
 40
0.09
  9
$PLINEWID
 40
0.0
  9
$COORDS
 70
     1
  9
$SPLFRAME
 70
     1
  9
$SPLINETYPE
 70
     6
  9
$SPLINESEGS
 70
     8
  9
$ATTDIA
 70
     0
  9
$ATTREQ
 70
     1
  9
$HANDLING
 70
     1
  9
$HANDSEED
  5
45C1D
  9
$SURFTAB1
 70
     6
  9
$SURFTAB2
 70
     6
  9
$SURFTYPE
 70
     6
  9
$SURFU
 70
     6
  9
$SURFV
 70
     6
  9
$UCSNAME
  2

  9
$UCSORG
 10
0.0
 20
0.0
 30
0.0
  9
$UCSXDIR
 10
1.0
 20
0.0
 30
0.0
  9
$UCSYDIR
 10
0.0
 20
1.0
 30
0.0
  9
$PUCSNAME
  2

  9
$PUCSORG
 10
0.0
 20
0.0
 30
0.0
  9
$PUCSXDIR
 10
1.0
 20
0.0
 30
0.0
  9
$PUCSYDIR
 10
0.0
 20
1.0
 30
0.0
  9
$USERI1
 70
     0
  9
$USERI2
 70
     0
  9
$USERI3
 70
     0
  9
$USERI4
 70
     0
  9
$USERI5
 70
     0
  9
$USERR1
 40
0.0
  9
$USERR2
 40
0.0
  9
$USERR3
 40
0.0
  9
$USERR4
 40
0.0
  9
$USERR5
 40
0.0
  9
$WORLDVIEW
 70
     1
  9
$SHADEDGE
 70
     3
  9
$SHADEDIF
 70
    70
  9
$TILEMODE
 70
     1
  9
$MAXACTVP
 70
    16
  9
$PINSBASE
 10
0.0
 20
0.0
 30
0.0
  9
$PLIMCHECK
 70
     0
  9
$PEXTMIN
 10
1.000000E+20
 20
1.000000E+20
 30
1.000000E+20
  9
$PEXTMAX
 10
-1.000000E+20
 20
-1.000000E+20
 30
-1.000000E+20
  9
$PLIMMIN
 10
0.0
 20
0.0
  9
$PLIMMAX
 10
12.0
 20
9.0
  9
$UNITMODE
 70
     0
  9
$VISRETAIN
 70
     0
  9
$PLINEGEN
 70
     0
  9
$PSLTSCALE
 70
     1
  9
$TREEDEPTH
 70
  3020
  9
$PICKSTYLE
 70
     1
  9
$CMLSTYLE
  2
STANDARD
  9
$CMLJUST
 70
     0
  9
$CMLSCALE
 40
1.0
  9
$PROXYGRAPHICS
 70
     1
  9
$MEASUREMENT
 70
     0
  0
ENDSEC
  0
SECTION
  2
CLASSES
  0
CLASS
  1
DICTIONARYVAR
  2
AcDbDictionaryVar
  3
"AutoCAD"
 90
        0
280
     0
281
     0
  0
CLASS
  1
ACDBDICTIONARYWDFLT
  2
AcDbDictionaryWithDefault
  3
AutoCAD 2000
 90
        0
280
     0
281
     0
  0
CLASS
  1
ACDBPLACEHOLDER
  2
AcDbPlaceHolder
  3
AutoCAD 2000
 90
        0
280
     0
281
     0
  0
CLASS
  1
LAYOUT
  2
AcDbLayout
  3
AutoCAD 2000
 90
        0
280
     0
281
     0
  0
CLASS
  1
LONG_TRANSACTION
  2
AcDbLongTransaction
  3
AutoCAD 2000
 90
        0
280
     0
281
     0
  0
CLASS
  1
LWPOLYLINE
  2
AcDbPolyline
  3
"AutoCAD"
 90
        0
280
     0
281
     1
  0
CLASS
  1
HATCH
  2
AcDbHatch
  3
"ACAD_SEDONA"
 90
        0
280
     0
281
     1
  0
CLASS
  1
XRECORD
  2
AcDbXrecord
  3
"<Built In>"
 90
        0
280
     0
281
     0
  0
CLASS
  1
LONG_TRANSACTION
  2
AcDbLongTransaction
  3
AutoCAD 2000
 90
        0
280
     0
281
     0
  0
CLASS
  1
LWPOLYLINE
  2
AcDbPolyline
  3
"AutoCAD"
 90
        0
280
     0
281
     1
  0
CLASS
  1
HATCH
  2
AcDbHatch
  3
"ACAD_SEDONA"
 90
        0
280
     0
281
     1
  0
CLASS
  1
XRECORD
  2
AcDbXrecord
  3
"<Built In>"
 90
        0
280
     0
281
     0
  0
CLASS
  1
LONG_TRANSACTION
  2
AcDbLongTransaction
  3
AutoCAD 2000
 90
        0
280
     0
281
     0
  0
CLASS
  1
LWPOLYLINE
  2
AcDbPolyline
  3
"AutoCAD"
 90
        0
280
     0
281
     1
  0
CLASS
  1
HATCH
  2
AcDbHatch
  3
"ACAD_SEDONA"
 90
        0
280
     0
281
     1
  0
CLASS
  1
XRECORD
  2
AcDbXrecord
  3
"<Built In>"
 90
        0
280
     0
281
     0
  0
CLASS
  1
LONG_TRANSACTION
  2
AcDbLongTransaction
  3
AutoCAD 2000
 90
        0
280
     0
281
     0
  0
CLASS
  1
LWPOLYLINE
  2
AcDbPolyline
  3
"AutoCAD"
 90
        0
280
     0
281
     1
  0
CLASS
  1
HATCH
  2
AcDbHatch
  3
"ACAD_SEDONA"
 90
        0
280
     0
281
     1
  0
CLASS
  1
XRECORD
  2
AcDbXrecord
  3
"<Built In>"
 90
        0
280
     0
281
     0
  0
ENDSEC
  0
SECTION
  2
TABLES
  0
TABLE
  2
VPORT
  5
458C7
100
AcDbSymbolTable
 70
     1
  0
VPORT
  5
45BE8
102
{ACAD_XDICTIONARY
360
45BED
102
}
100
AcDbSymbolTableRecord
100
AcDbViewportTableRecord
  2
*ACTIVE
 70
     0
 10
0.0
 20
0.0
 11
1.0
 21
1.0
 12
0.874534
 22
4.549155
 13
0.0
 23
0.0
 14
0.25
 24
0.25
 15
0.25
 25
0.25
 16
0.0
 26
0.0
 36
1.0
 17
0.0
 27
0.0
 37
0.0
 40
12.955447
 41
1.960674
 42
50.0
 43
0.0
 44
0.0
 50
0.0
 51
0.0
 71
     0
 72
 20000
 73
     1
 74
     1
 75
     0
 76
     0
 77
     0
 78
     0
  0
ENDTAB
  0
TABLE
  2
LTYPE
  5
458C4
100
AcDbSymbolTable
 70
     1
  0
LTYPE
  5
458D0
100
AcDbSymbolTableRecord
100
AcDbLinetypeTableRecord
  2
BYBLOCK
 70
     0
  3

 72
    65
 73
     0
 40
0.0
  0
LTYPE
  5
458D1
100
AcDbSymbolTableRecord
100
AcDbLinetypeTableRecord
  2
BYLAYER
 70
     0
  3

 72
    65
 73
     0
 40
0.0
  0
LTYPE
  5
458D2
100
AcDbSymbolTableRecord
100
AcDbLinetypeTableRecord
  2
CONTINUOUS
 70
     0
  3
Solid line
 72
    65
 73
     0
 40
0.0
  0
ENDTAB
  0
TABLE
  2
LAYER
  5
458C1
100
AcDbSymbolTable
 70
     7
  0
LAYER
  5
458CD
100
AcDbSymbolTableRecord
100
AcDbLayerTableRecord
  2
0
 70
     0
 62
     7
  6
CONTINUOUS
  0
LAYER
  5
458EA
100
AcDbSymbolTableRecord
100
AcDbLayerTableRecord
  2
DIMS-MTG-HOLES
 70
     0
 62
     1
  6
CONTINUOUS
  0
LAYER
  5
458EB
100
AcDbSymbolTableRecord
100
AcDbLayerTableRecord
  2
ATTRIBUTES
 70
     0
 62
     7
  6
CONTINUOUS
  0
LAYER
  5
45949
102
{ACAD_XDICTIONARY
360
45C18
102
}
100
AcDbSymbolTableRecord
100
AcDbLayerTableRecord
  2
AREA1
 70
     0
 62
    -7
  6
CONTINUOUS
  0
LAYER
  5
4594A
100
AcDbSymbolTableRecord
100
AcDbLayerTableRecord
  2
SCALE
 70
     0
 62
    -7
  6
CONTINUOUS
  0
LAYER
  5
45B5D
102
{ACAD_XDICTIONARY
360
45BEB
102
}
100
AcDbSymbolTableRecord
100
AcDbLayerTableRecord
  2
DEFPOINTS
 70
     0
 62
    -7
  6
CONTINUOUS
  0
LAYER
  5
45B7D
100
AcDbSymbolTableRecord
100
AcDbLayerTableRecord
  2
SNAP_POINTS
 70
     0
 62
    -1
  6
CONTINUOUS
  0
ENDTAB
  0
TABLE
  2
STYLE
  5
458C2
100
AcDbSymbolTable
 70
     1
  0
STYLE
  5
458CE
100
AcDbSymbolTableRecord
100
AcDbTextStyleTableRecord
  2
STANDARD
 70
     0
 40
0.0
 41
1.0
 50
0.0
 71
     0
 42
0.12
  3
txt
  4

  0
ENDTAB
  0
TABLE
  2
VIEW
  5
458C5
100
AcDbSymbolTable
 70
     0
  0
ENDTAB
  0
TABLE
  2
UCS
  5
458C6
100
AcDbSymbolTable
 70
     0
  0
ENDTAB
  0
TABLE
  2
APPID
  5
458C8
100
AcDbSymbolTable
 70
     1
  0
APPID
  5
458CF
100
AcDbSymbolTableRecord
100
AcDbRegAppTableRecord
  2
ACAD
 70
     0
  0
ENDTAB
  0
TABLE
  2
DIMSTYLE
  5
458C9
100
AcDbSymbolTable
 70
     2
  0
DIMSTYLE
105
458F1
102
{ACAD_XDICTIONARY
360
45C12
102
}
100
AcDbSymbolTableRecord
100
AcDbDimStyleTableRecord
  2
ABECAD
 70
     0
  3

  4

  5

  6

  7

 40
1.0
 41
0.18
 42
0.0625
 43
0.375
 44
0.18
 45
0.0
 46
0.0
 47
0.0
 48
0.0
140
0.18
141
0.09
142
0.0
143
25.4
144
1.0
145
0.0
146
1.5
147
0.09
 71
     0
 72
     0
 73
     0
 74
     1
 75
     0
 76
     0
 77
     0
 78
     4
170
     1
171
     1
172
     0
173
     0
174
     0
175
     0
176
     0
177
     0
178
     0
270
     7
271
     6
272
     6
273
     2
274
     1
340
458CE
275
     0
280
     0
281
     0
282
     0
283
     1
284
     4
285
     4
286
     4
287
     3
288
     0
  0
DIMSTYLE
105
458F6
102
{ACAD_XDICTIONARY
360
45C14
102
}
102
{ACAD_REACTORS
330
45B5C
330
45B6B
102
}
100
AcDbSymbolTableRecord
100
AcDbDimStyleTableRecord
  2
ABECAD_3D
 70
     0
  3

  4

  5

  6

  7

 40
1.0
 41
0.18
 42
0.0625
 43
0.375
 44
0.18
 45
0.0
 46
0.0
 47
0.0
 48
0.0
140
0.18
141
0.09
142
0.0
143
25.4
144
1.0
145
0.0
146
1.5
147
0.09
 71
     0
 72
     0
 73
     0
 74
     1
 75
     0
 76
     0
 77
     0
 78
     4
170
     1
171
     1
172
     0
173
     0
174
     0
175
     0
176
     0
177
     0
178
     0
270
     7
271
     6
272
     6
273
     2
274
     1
340
458CE
275
     0
280
     0
281
     0
282
     0
283
     1
284
     4
285
     4
286
     4
287
     3
288
     0
  0
ENDTAB
  0
TABLE
  2
BLOCK_RECORD
  5
458C0
100
AcDbSymbolTable
 70
     3
  0
BLOCK_RECORD
  5
458D6
102
{ACAD_XDICTIONARY
360
4592C
102
}
100
AcDbSymbolTableRecord
100
AcDbBlockTableRecord
  2
*MODEL_SPACE
  0
BLOCK_RECORD
  5
458D3
102
{ACAD_XDICTIONARY
360
4592A
102
}
100
AcDbSymbolTableRecord
100
AcDbBlockTableRecord
  2
*PAPER_SPACE
  0
BLOCK_RECORD
  5
4593B
102
{ACAD_XDICTIONARY
360
45BE9
102
}
100
AcDbSymbolTableRecord
100
AcDbBlockTableRecord
  2
SCALE
  0
BLOCK_RECORD
  5
45B5E
100
AcDbSymbolTableRecord
100
AcDbBlockTableRecord
  2
*D1
  0
BLOCK_RECORD
  5
45B6C
100
AcDbSymbolTableRecord
100
AcDbBlockTableRecord
  2
*D2
  0
ENDTAB
  0
ENDSEC
  0
SECTION
  2
BLOCKS
  0
BLOCK
  5
458DF
100
AcDbEntity
  8
0
100
AcDbBlockBegin
  2
*MODEL_SPACE
 70
     0
 10
0.0
 20
0.0
 30
0.0
  3
*MODEL_SPACE
  1

  0
ENDBLK
  5
458E0
100
AcDbEntity
  8
0
100
AcDbBlockEnd
  0
BLOCK
  5
458DD
100
AcDbEntity
 67
     1
  8
0
100
AcDbBlockBegin
  2
*PAPER_SPACE
 70
     0
 10
0.0
 20
0.0
 30
0.0
  3
*PAPER_SPACE
  1

  0
ENDBLK
  5
458DE
100
AcDbEntity
 67
     1
  8
0
100
AcDbBlockEnd
  0
BLOCK
  5
45947
100
AcDbEntity
  8
0
100
AcDbBlockBegin
  2
SCALE
 70
     0
 10
0.0
 20
0.0
 30
0.0
  3
SCALE
  1

  0
LWPOLYLINE
  5
4595C
100
AcDbEntity
  8
SCALE
100
AcDbPolyline
 90
        4
 70
     1
 43
0.0
 10
0.0
 20
0.0
 10
1.135629
 20
0.0
 10
1.135629
 20
-0.84161
 10
0.0
 20
-0.84161
  0
LINE
  5
4595D
100
AcDbEntity
  8
SCALE
100
AcDbLine
 10
0.057999
 20
-0.380078
 30
0.0
 11
1.057999
 21
-0.380078
 31
0.0
  0
LINE
  5
4595E
100
AcDbEntity
  8
SCALE
100
AcDbLine
 10
0.057999
 20
-0.480078
 30
0.0
 11
0.057999
 21
-0.280078
 31
0.0
  0
TEXT
  5
4595F
100
AcDbEntity
  8
SCALE
100
AcDbText
 10
0.117421
 20
-0.634339
 30
0.0
 40
0.0625
  1
[10mm]
100
AcDbText
  0
LINE
  5
45960
100
AcDbEntity
  8
SCALE
100
AcDbLine
 10
0.057999
 20
-0.680078
 30
0.0
 11
0.451699
 21
-0.680078
 31
0.0
  0
LINE
  5
45961
100
AcDbEntity
  8
SCALE
100
AcDbLine
 10
0.057999
 20
-0.780078
 30
0.0
 11
0.057999
 21
-0.580078
 31
0.0
  0
LINE
  5
45962
100
AcDbEntity
  8
SCALE
100
AcDbLine
 10
0.451699
 20
-0.780078
 30
0.0
 11
0.451699
 21
-0.580078
 31
0.0
  0
TEXT
  5
45963
100
AcDbEntity
  8
SCALE
100
AcDbText
 10
0.059529
 20
-0.105201
 30
0.0
 40
0.0625
  1
SCALE:
100
AcDbText
  0
TEXT
  5
45964
100
AcDbEntity
  8
SCALE
100
AcDbText
 10
0.421282
 20
-0.31103
 30
0.0
 40
0.0625
  1
1 Inch
100
AcDbText
  0
LINE
  5
45965
100
AcDbEntity
  8
SCALE
100
AcDbLine
 10
1.057999
 20
-0.480078
 30
0.0
 11
1.057999
 21
-0.280078
 31
0.0
  0
LINE
  5
45966
100
AcDbEntity
  8
SCALE
100
AcDbLine
 10
1.057999
 20
-0.380078
 30
0.0
 11
1.057999
 21
-0.480078
 31
0.0
  0
ENDBLK
  5
45948
100
AcDbEntity
  8
0
100
AcDbBlockEnd
  0
BLOCK
  5
45B69
100
AcDbEntity
  8
0
100
AcDbBlockBegin
  2
*D1
 70
     1
 10
0.0
 20
0.0
 30
0.0
  3
*D1
  1

  0
LINE
  5
45B5F
100
AcDbEntity
  8
AREA1
 62
     0
100
AcDbLine
 10
0.3685
 20
-0.539
 30
0.0
 11
1.604425
 21
-0.539
 31
0.0
1001
ACAD
1000
RTLwPs
1070
   158
  0
LINE
  5
45B60
100
AcDbEntity
  8
AREA1
 62
     0
100
AcDbLine
 10
0.0965
 20
10.0
 30
0.0
 11
1.604425
 21
10.0
 31
0.0
1001
ACAD
1000
RTLwPs
1070
   158
  0
LINE
  5
45B61
100
AcDbEntity
  8
AREA1
 62
     0
100
AcDbLine
 10
1.424425
 20
-0.359
 30
0.0
 11
1.424425
 21
3.4255
 31
0.0
1001
ACAD
1000
RTLwPs
1070
   158
  0
LINE
  5
45B62
100
AcDbEntity
  8
AREA1
 62
     0
100
AcDbLine
 10
1.424425
 20
9.82
 30
0.0
 11
1.424425
 21
6.0355
 31
0.0
1001
ACAD
1000
RTLwPs
1070
   158
  0
SOLID
  5
45B63
100
AcDbEntity
  8
AREA1
 62
     0
100
AcDbTrace
 10
1.394425
 20
-0.359
 30
0.0
 11
1.454425
 21
-0.359
 31
0.0
 12
1.424425
 22
-0.539
 32
0.0
 13
1.424425
 23
-0.539
 33
0.0
  0
SOLID
  5
45B64
100
AcDbEntity
  8
AREA1
 62
     0
100
AcDbTrace
 10
1.394425
 20
9.82
 30
0.0
 11
1.454425
 21
9.82
 31
0.0
 12
1.424425
 22
10.0
 32
0.0
 13
1.424425
 23
10.0
 33
0.0
  0
MTEXT
  5
45B65
100
AcDbEntity
  8
AREA1
 62
     0
100
AcDbMText
 10
1.424425
 20
4.7305
 30
0.0
 40
0.18
 41
0.0
 71
     5
 72
     1
  1
\A1;10 17/32 [267.7]
 11
0.0
 21
1.0
 31
0.0
1001
ACAD
1000
MTEXTBEGIN
1070
    73
1070
     1
1070
    44
1040
1.0
1070
    74
1070
     0
1000
MTEXTEND
1000
MTEXTBEGIN
1070
    73
1070
     1
1070
    44
1040
1.0
1070
    74
1070
     0
1000
MTEXTEND
1000
MTEXTBEGIN
1070
    73
1070
     1
1070
    44
1040
1.0
1070
    74
1070
     0
1000
MTEXTEND
  0
POINT
  5
45B66
100
AcDbEntity
  8
DEFPOINTS
 62
     0
100
AcDbPoint
 10
0.306
 20
-0.539
 30
5.674
  0
POINT
  5
45B67
100
AcDbEntity
  8
DEFPOINTS
 62
     0
100
AcDbPoint
 10
0.034
 20
10.0
 30
0.0
  0
POINT
  5
45B68
100
AcDbEntity
  8
DEFPOINTS
 62
     0
100
AcDbPoint
 10
1.424425
 20
10.0
 30
0.0
  0
ENDBLK
  5
45B6A
100
AcDbEntity
  8
0
100
AcDbBlockEnd
  0
BLOCK
  5
45B77
100
AcDbEntity
  8
0
100
AcDbBlockBegin
  2
*D2
 70
     1
 10
0.0
 20
0.0
 30
0.0
  3
*D2
  1

  0
LINE
  5
45B6D
100
AcDbEntity
  8
AREA1
 62
     0
100
AcDbLine
 10
-0.894
 20
9.8625
 30
0.0
 11
-0.894
 21
10.91942
 31
0.0
1001
ACAD
1000
RTLwPs
1070
   158
  0
LINE
  5
45B6E
100
AcDbEntity
  8
AREA1
 62
     0
100
AcDbLine
 10
0.306
 20
9.8625
 30
0.0
 11
0.306
 21
10.91942
 31
0.0
1001
ACAD
1000
RTLwPs
1070
   158
  0
LINE
  5
45B6F
100
AcDbEntity
  8
AREA1
 62
     0
100
AcDbLine
 10
-0.714
 20
10.73942
 30
0.0
 11
0.126
 21
10.73942
 31
0.0
1001
ACAD
1000
RTLwPs
1070
   158
  0
LINE
  5
45B70
100
AcDbEntity
  8
AREA1
 62
     0
100
AcDbLine
 10
0.306
 20
10.73942
 30
0.0
 11
0.486
 21
10.73942
 31
0.0
1001
ACAD
1000
RTLwPs
1070
   158
  0
SOLID
  5
45B71
100
AcDbEntity
  8
AREA1
 62
     0
100
AcDbTrace
 10
-0.714
 20
10.76942
 30
0.0
 11
-0.714
 21
10.70942
 31
0.0
 12
-0.894
 22
10.73942
 32
0.0
 13
-0.894
 23
10.73942
 33
0.0
  0
SOLID
  5
45B72
100
AcDbEntity
  8
AREA1
 62
     0
100
AcDbTrace
 10
0.126
 20
10.76942
 30
0.0
 11
0.126
 21
10.70942
 31
0.0
 12
0.306
 22
10.73942
 32
0.0
 13
0.306
 23
10.73942
 33
0.0
  0
MTEXT
  5
45B73
100
AcDbEntity
  8
AREA1
 62
     0
100
AcDbMText
 10
1.611
 20
10.73942
 30
0.0
 40
0.18
 41
0.0
 71
     5
 72
     1
  1
\A1;1 13/64 [30.5]
1001
ACAD
1000
MTEXTBEGIN
1070
    73
1070
     1
1070
    44
1040
1.0
1070
    74
1070
     0
1000
MTEXTEND
1000
MTEXTBEGIN
1070
    73
1070
     1
1070
    44
1040
1.0
1070
    74
1070
     0
1000
MTEXTEND
1000
MTEXTBEGIN
1070
    73
1070
     1
1070
    44
1040
1.0
1070
    74
1070
     0
1000
MTEXTEND
  0
POINT
  5
45B74
100
AcDbEntity
  8
DEFPOINTS
 62
     0
100
AcDbPoint
 10
-0.894
 20
9.8
 30
5.674
  0
POINT
  5
45B75
100
AcDbEntity
  8
DEFPOINTS
 62
     0
100
AcDbPoint
 10
0.306
 20
9.8
 30
5.674
  0
POINT
  5
45B76
100
AcDbEntity
  8
DEFPOINTS
 62
     0
100
AcDbPoint
 10
0.306
 20
10.73942
 30
0.0
  0
ENDBLK
  5
45B78
100
AcDbEntity
  8
0
100
AcDbBlockEnd
  0
ENDSEC
  0
SECTION
  2
ENTITIES
  0
ATTDEF
  5
1
100
AcDbEntity
  8
ATTRIBUTES
100
AcDbText
 10
-0.765314
 20
0.656695
 30
0.0
 40
0.06
  1
ALLEN-BRADLEY
100
AcDbAttributeDefinition
  3
MANUFACTURER NAME?
  2
AC_VND_LABEL
 70
     1
  0
ATTDEF
  5
2
100
AcDbEntity
  8
ATTRIBUTES
100
AcDbText
 10
-0.765314
 20
0.531695
 30
0.0
 40
0.06
  1
1771-P4R
100
AcDbAttributeDefinition
  3
CATALOG NUMBER?
  2
AC_PART_NO
 70
     1
  0
ATTDEF
  5
3
100
AcDbEntity
  8
ATTRIBUTES
100
AcDbText
 10
-0.765314
 20
0.406695
 30
0.0
 40
0.06
  1
1771-P4R: POWER SUPPLY, REDUNDANT, 1-SLOT MODULE, 8A, 120V AC
100
AcDbAttributeDefinition
  3
PART DESCRIPTION?
  2
AC_DESCRIPTION
 70
     1
  0
ATTDEF
  5
4
100
AcDbEntity
  8
ATTRIBUTES
100
AcDbText
 10
-0.765314
 20
0.281695
 30
0.0
 40
0.06
  1

100
AcDbAttributeDefinition
  3
DEVICE ID?
  2
DEVICE_ID
 70
     1
  0
ATTDEF
  5
5
100
AcDbEntity
  8
ATTRIBUTES
100
AcDbText
 10
-0.765314
 20
0.156695
 30
0.0
 40
0.06
  1

100
AcDbAttributeDefinition
  3
CUSTOMER PART NUMBER?
  2
AC_CPART_NO
 70
     1
  0
ATTDEF
  5
6
100
AcDbEntity
  8
ATTRIBUTES
100
AcDbText
 10
-0.765314
 20
0.031695
 30
0.0
 40
0.06
  1

100
AcDbAttributeDefinition
  3
CUSTOMER NOTE?
  2
AC_NOTE
 70
     1
  0
ATTDEF
  5
7
100
AcDbEntity
  8
ATTRIBUTES
100
AcDbText
 10
-0.765314
 20
-0.093305
 30
0.0
 40
0.06
  1

100
AcDbAttributeDefinition
  3
FASTENER DATA?
  2
FASTENER
 70
     1
  0
ATTDEF
  5
8
100
AcDbEntity
  8
ATTRIBUTES
100
AcDbText
 10
-0.765314
 20
-0.218305
 30
0.0
 40
0.06
  1
INCH
100
AcDbAttributeDefinition
  3
UNIT OF SCALE?
  2
AC_SCALE_UNIT
 70
     1
  0
ATTDEF
  5
9
100
AcDbEntity
  8
ATTRIBUTES
100
AcDbText
 10
-0.765314
 20
-0.343305
 30
0.0
 40
0.06
  1
0
100
AcDbAttributeDefinition
  3
VIEW CODE?
  2
AC_VIEW_CODE
 70
     1
  0
INSERT
  5
45967
100
AcDbEntity
  8
SCALE
100
AcDbBlockReference
  2
SCALE
 10
-0.89665
 20
-0.9795
 30
0.0
  0
POLYLINE
  5
45A6D
100
AcDbEntity
  8
0
100
AcDbPolygonMesh
 66
     1
 10
0.0
 20
0.0
 30
0.0
 70
    16
 71
     6
 72
     3
  0
VERTEX
  5
45A6E
100
AcDbEntity
  8
0
100
AcDbVertex
100
AcDbPolygonMeshVertex
 10
0.236
 20
0.2
 30
4.918129
 70
    64
  0
VERTEX
  5
45A6F
100
AcDbEntity
  8
0
100
AcDbVertex
100
AcDbPolygonMeshVertex
 10
0.236
 20
0.2
 30
0.0
 70
    64
  0
VERTEX
  5
45A70
100
AcDbEntity
  8
0
100
AcDbVertex
100
AcDbPolygonMeshVertex
 10
0.236
 20
0.2
 30
0.0
 70
    64
  0
VERTEX
  5
45A71
100
AcDbEntity
  8
0
100
AcDbVertex
100
AcDbPolygonMeshVertex
 10
-0.894
 20
0.2
 30
4.918129
 70
    64
  0
VERTEX
  5
45A72
100
AcDbEntity
  8
0
100
AcDbVertex
100
AcDbPolygonMeshVertex
 10
-0.894
 20
0.2
 30
0.0
 70
    64
  0
VERTEX
  5
45A73
100
AcDbEntity
  8
0
100
AcDbVertex
100
AcDbPolygonMeshVertex
 10
-0.894
 20
0.2
 30
0.0
 70
    64
  0
VERTEX
  5
45A74
100
AcDbEntity
  8
0
100
AcDbVertex
100
AcDbPolygonMeshVertex
 10
-0.894
 20
9.8
 30
4.918129
 70
    64
  0
VERTEX
  5
45A75
100
AcDbEntity
  8
0
100
AcDbVertex
100
AcDbPolygonMeshVertex
 10
-0.894
 20
9.8
 30
0.0
 70
    64
  0
VERTEX
  5
45A76
100
AcDbEntity
  8
0
100
AcDbVertex
100
AcDbPolygonMeshVertex
 10
-0.894
 20
0.2
 30
0.0
 70
    64
  0
VERTEX
  5
45A77
100
AcDbEntity
  8
0
100
AcDbVertex
100
AcDbPolygonMeshVertex
 10
0.236
 20
9.8
 30
4.918129
 70
    64
  0
VERTEX
  5
45A78
100
AcDbEntity
  8
0
100
AcDbVertex
100
AcDbPolygonMeshVertex
 10
0.236
 20
9.8
 30
0.0
 70
    64
  0
VERTEX
  5
45A79
100
AcDbEntity
  8
0
100
AcDbVertex
100
AcDbPolygonMeshVertex
 10
0.236
 20
0.2
 30
0.0
 70
    64
  0
VERTEX
  5
45A7A
100
AcDbEntity
  8
0
100
AcDbVertex
100
AcDbPolygonMeshVertex
 10
0.236
 20
9.8
 30
4.918129
 70
    64
  0
VERTEX
  5
45A7B
100
AcDbEntity
  8
0
100
AcDbVertex
100
AcDbPolygonMeshVertex
 10
0.236
 20
9.8
 30
4.918129
 70
    64
  0
VERTEX
  5
45A7C
100
AcDbEntity
  8
0
100
AcDbVertex
100
AcDbPolygonMeshVertex
 10
0.236
 20
0.2
 30
4.918129
 70
    64
  0
VERTEX
  5
45A7D
100
AcDbEntity
  8
0
100
AcDbVertex
100
AcDbPolygonMeshVertex
 10
-0.894
 20
9.8
 30
4.918129
 70
    64
  0
VERTEX
  5
45A7E
100
AcDbEntity
  8
0
100
AcDbVertex
100
AcDbPolygonMeshVertex
 10
-0.894
 20
9.8
 30
4.918129
 70
    64
  0
VERTEX
  5
45A7F
100
AcDbEntity
  8
0
100
AcDbVertex
100
AcDbPolygonMeshVertex
 10
-0.894
 20
0.2
 30
4.918129
 70
    64
  0
SEQEND
  5
45A80
100
AcDbEntity
  8
0
  0
3DFACE
  5
45A81
100
AcDbEntity
  8
0
100
AcDbFace
 10
-0.093925
 20
3.7452
 30
6.246915
 11
-0.071068
 21
3.725242
 31
6.235125
 12
-0.071068
 22
3.943995
 32
5.847908
 13
-0.094179
 23
3.967106
 33
5.848133
  0
3DFACE
  5
45A82
100
AcDbEntity
  8
0
100
AcDbFace
 10
-0.12531
 20
3.752645
 30
6.251313
 11
-0.125748
 21
3.975565
 31
5.848397
 12
-0.094179
 22
3.967106
 32
5.848133
 13
-0.093925
 23
3.7452
 33
6.246915
  0
3DFACE
  5
45A83
100
AcDbEntity
  8
0
100
AcDbFace
 10
-0.157318
 20
3.967105
 30
5.84863
 11
-0.125748
 21
3.975565
 31
5.848397
 12
-0.12531
 22
3.752645
 32
6.251313
 13
-0.156814
 23
3.745581
 33
6.24714
  0
3DFACE
  5
45A84
100
AcDbEntity
  8
0
100
AcDbFace
 10
-0.179995
 20
3.725901
 30
6.235514
 11
-0.156814
 21
3.745581
 31
6.24714
 12
-0.157318
 22
3.967105
 32
5.84863
 13
-0.180428
 23
3.943993
 33
5.84877
  0
3DFACE
  5
45A85
100
AcDbEntity
  8
0
100
AcDbFace
 10
-0.188887
 20
3.912423
 30
5.848779
 11
-0.180428
 21
3.943993
 31
5.84877
 12
-0.179995
 22
3.725901
 32
6.235514
 13
-0.188641
 23
3.698879
 33
6.219551
  0
3DFACE
  5
45A86
100
AcDbEntity
  8
0
100
AcDbFace
 10
-0.180428
 20
3.880853
 30
5.848655
 11
-0.180437
 21
3.671754
 31
6.203528
 12
-0.188641
 22
3.698879
 32
6.219551
 13
-0.188887
 23
3.912423
 33
5.848779
  0
3DFACE
  5
45A87
100
AcDbEntity
  8
0
100
AcDbFace
 10
-0.157318
 20
3.857742
 30
5.84843
 11
-0.157579
 21
3.651796
 31
6.191738
 12
-0.180437
 22
3.671754
 32
6.203528
 13
-0.180428
 23
3.880853
 33
5.848655
  0
3DFACE
  5
45A88
100
AcDbEntity
  8
0
100
AcDbFace
 10
-0.071068
 20
3.880854
 30
5.847793
 11
-0.094179
 21
3.857743
 31
5.847933
 12
-0.094691
 22
3.651416
 32
6.191513
 13
-0.07151
 23
3.671095
 33
6.203139
  0
3DFACE
  5
45A89
100
AcDbEntity
  8
0
100
AcDbFace
 10
-0.062863
 20
3.698118
 30
6.219102
 11
-0.07151
 21
3.671095
 31
6.203139
 12
-0.071068
 22
3.880854
 32
5.847793
 13
-0.062609
 23
3.912425
 33
5.847784
  0
3DFACE
  5
45A8A
100
AcDbEntity
  8
0
100
AcDbFace
 10
-0.071068
 20
3.725242
 30
6.235125
 11
-0.071068
 21
3.943995
 31
5.847908
 12
-0.062609
 22
3.912425
 32
5.847784
 13
-0.062863
 23
3.698118
 33
6.219102
  0
LWPOLYLINE
  5
45A8B
100
AcDbEntity
  8
0
100
AcDbPolyline
 90
       12
 70
     1
 43
0.0
 38
5.839944
 10
-0.234974
 20
3.923109
 10
-0.226515
 20
3.891539
 10
-0.203403
 20
3.868428
 10
-0.171833
 20
3.859969
 10
-0.140262
 20
3.868429
 10
-0.117151
 20
3.891541
 10
-0.108693
 20
3.923111
 10
-0.117152
 20
3.954681
 10
-0.140264
 20
3.977792
 10
-0.171834
 20
3.986251
 10
-0.203405
 20
3.977791
 10
-0.226516
 20
3.95468
210
0.0078807734159332
220
-0.0018287398354346
230
0.9999672740249959
  0
CIRCLE
  5
45A8C
100
AcDbEntity
  8
0
100
AcDbCircle
 39
0.0468
 10
-0.125752
 20
3.948221
 30
5.8005
 40
0.25
  0
POLYLINE
  5
45A8D
100
AcDbEntity
  8
0
100
AcDbPolygonMesh
 66
     1
 10
0.0
 20
0.0
 30
0.0
 70
    16
 71
     6
 72
     3
  0
VERTEX
  5
45A8E
100
AcDbEntity
  8
0
100
AcDbVertex
100
AcDbPolygonMeshVertex
 10
0.306
 20
-0.539
 30
5.801
 70
    64
  0
VERTEX
  5
45A8F
100
AcDbEntity
  8
0
100
AcDbVertex
100
AcDbPolygonMeshVertex
 10
0.306
 20
-0.539
 30
5.674
 70
    64
  0
VERTEX
  5
45A90
100
AcDbEntity
  8
0
100
AcDbVertex
100
AcDbPolygonMeshVertex
 10
0.306
 20
-0.539
 30
5.674
 70
    64
  0
VERTEX
  5
45A91
100
AcDbEntity
  8
0
100
AcDbVertex
100
AcDbPolygonMeshVertex
 10
-0.894
 20
-0.539
 30
5.801
 70
    64
  0
VERTEX
  5
45A92
100
AcDbEntity
  8
0
100
AcDbVertex
100
AcDbPolygonMeshVertex
 10
-0.894
 20
-0.539
 30
5.674
 70
    64
  0
VERTEX
  5
45A93
100
AcDbEntity
  8
0
100
AcDbVertex
100
AcDbPolygonMeshVertex
 10
-0.894
 20
-0.539
 30
5.674
 70
    64
  0
VERTEX
  5
45A94
100
AcDbEntity
  8
0
100
AcDbVertex
100
AcDbPolygonMeshVertex
 10
-0.894
 20
9.8
 30
5.801
 70
    64
  0
VERTEX
  5
45A95
100
AcDbEntity
  8
0
100
AcDbVertex
100
AcDbPolygonMeshVertex
 10
-0.894
 20
9.8
 30
5.674
 70
    64
  0
VERTEX
  5
45A96
100
AcDbEntity
  8
0
100
AcDbVertex
100
AcDbPolygonMeshVertex
 10
-0.894
 20
-0.539
 30
5.674
 70
    64
  0
VERTEX
  5
45A97
100
AcDbEntity
  8
0
100
AcDbVertex
100
AcDbPolygonMeshVertex
 10
0.306
 20
9.8
 30
5.801
 70
    64
  0
VERTEX
  5
45A98
100
AcDbEntity
  8
0
100
AcDbVertex
100
AcDbPolygonMeshVertex
 10
0.306
 20
9.8
 30
5.674
 70
    64
  0
VERTEX
  5
45A99
100
AcDbEntity
  8
0
100
AcDbVertex
100
AcDbPolygonMeshVertex
 10
0.306
 20
-0.539
 30
5.674
 70
    64
  0
VERTEX
  5
45A9A
100
AcDbEntity
  8
0
100
AcDbVertex
100
AcDbPolygonMeshVertex
 10
0.306
 20
9.8
 30
5.801
 70
    64
  0
VERTEX
  5
45A9B
100
AcDbEntity
  8
0
100
AcDbVertex
100
AcDbPolygonMeshVertex
 10
0.306
 20
9.8
 30
5.801
 70
    64
  0
VERTEX
  5
45A9C
100
AcDbEntity
  8
0
100
AcDbVertex
100
AcDbPolygonMeshVertex
 10
0.306
 20
-0.539
 30
5.801
 70
    64
  0
VERTEX
  5
45A9D
100
AcDbEntity
  8
0
100
AcDbVertex
100
AcDbPolygonMeshVertex
 10
-0.894
 20
9.8
 30
5.801
 70
    64
  0
VERTEX
  5
45A9E
100
AcDbEntity
  8
0
100
AcDbVertex
100
AcDbPolygonMeshVertex
 10
-0.894
 20
9.8
 30
5.801
 70
    64
  0
VERTEX
  5
45A9F
100
AcDbEntity
  8
0
100
AcDbVertex
100
AcDbPolygonMeshVertex
 10
-0.894
 20
-0.539
 30
5.801
 70
    64
  0
SEQEND
  5
45AA0
100
AcDbEntity
  8
0
  0
POLYLINE
  5
45AA1
100
AcDbEntity
  8
0
100
AcDbPolygonMesh
 66
     1
 10
0.0
 20
0.0
 30
0.0
 70
    16
 71
     6
 72
     3
  0
VERTEX
  5
45AA2
100
AcDbEntity
  8
0
100
AcDbVertex
100
AcDbPolygonMeshVertex
 10
0.236
 20
0.2
 30
5.668129
 70
    64
  0
VERTEX
  5
45AA3
100
AcDbEntity
  8
0
100
AcDbVertex
100
AcDbPolygonMeshVertex
 10
0.236
 20
0.2
 30
4.918129
 70
    64
  0
VERTEX
  5
45AA4
100
AcDbEntity
  8
0
100
AcDbVertex
100
AcDbPolygonMeshVertex
 10
0.236
 20
0.2
 30
4.918129
 70
    64
  0
VERTEX
  5
45AA5
100
AcDbEntity
  8
0
100
AcDbVertex
100
AcDbPolygonMeshVertex
 10
-0.894
 20
0.2
 30
5.668129
 70
    64
  0
VERTEX
  5
45AA6
100
AcDbEntity
  8
0
100
AcDbVertex
100
AcDbPolygonMeshVertex
 10
-0.894
 20
0.2
 30
4.918129
 70
    64
  0
VERTEX
  5
45AA7
100
AcDbEntity
  8
0
100
AcDbVertex
100
AcDbPolygonMeshVertex
 10
-0.894
 20
0.2
 30
4.918129
 70
    64
  0
VERTEX
  5
45AA8
100
AcDbEntity
  8
0
100
AcDbVertex
100
AcDbPolygonMeshVertex
 10
-0.894
 20
9.11
 30
5.668129
 70
    64
  0
VERTEX
  5
45AA9
100
AcDbEntity
  8
0
100
AcDbVertex
100
AcDbPolygonMeshVertex
 10
-0.894
 20
9.11
 30
4.918129
 70
    64
  0
VERTEX
  5
45AAA
100
AcDbEntity
  8
0
100
AcDbVertex
100
AcDbPolygonMeshVertex
 10
-0.894
 20
0.2
 30
4.918129
 70
    64
  0
VERTEX
  5
45AAB
100
AcDbEntity
  8
0
100
AcDbVertex
100
AcDbPolygonMeshVertex
 10
0.236
 20
9.11
 30
5.668129
 70
    64
  0
VERTEX
  5
45AAC
100
AcDbEntity
  8
0
100
AcDbVertex
100
AcDbPolygonMeshVertex
 10
0.236
 20
9.11
 30
4.918129
 70
    64
  0
VERTEX
  5
45AAD
100
AcDbEntity
  8
0
100
AcDbVertex
100
AcDbPolygonMeshVertex
 10
0.236
 20
0.2
 30
4.918129
 70
    64
  0
VERTEX
  5
45AAE
100
AcDbEntity
  8
0
100
AcDbVertex
100
AcDbPolygonMeshVertex
 10
0.236
 20
9.11
 30
5.668129
 70
    64
  0
VERTEX
  5
45AAF
100
AcDbEntity
  8
0
100
AcDbVertex
100
AcDbPolygonMeshVertex
 10
0.236
 20
9.11
 30
5.668129
 70
    64
  0
VERTEX
  5
45AB0
100
AcDbEntity
  8
0
100
AcDbVertex
100
AcDbPolygonMeshVertex
 10
0.236
 20
0.2
 30
5.668129
 70
    64
  0
VERTEX
  5
45AB1
100
AcDbEntity
  8
0
100
AcDbVertex
100
AcDbPolygonMeshVertex
 10
-0.894
 20
9.11
 30
5.668129
 70
    64
  0
VERTEX
  5
45AB2
100
AcDbEntity
  8
0
100
AcDbVertex
100
AcDbPolygonMeshVertex
 10
-0.894
 20
9.11
 30
5.668129
 70
    64
  0
VERTEX
  5
45AB3
100
AcDbEntity
  8
0
100
AcDbVertex
100
AcDbPolygonMeshVertex
 10
-0.894
 20
0.2
 30
5.668129
 70
    64
  0
SEQEND
  5
45AB4
100
AcDbEntity
  8
0
  0
POLYLINE
  5
45AB5
100
AcDbEntity
  8
0
100
AcDbPolygonMesh
 66
     1
 10
0.0
 20
0.0
 30
0.0
 70
    16
 71
     6
 72
     3
  0
VERTEX
  5
45AB6
100
AcDbEntity
  8
0
100
AcDbVertex
100
AcDbPolygonMeshVertex
 10
0.034
 20
0.0
 30
4.755
 70
    64
  0
VERTEX
  5
45AB7
100
AcDbEntity
  8
0
100
AcDbVertex
100
AcDbPolygonMeshVertex
 10
0.034
 20
0.0
 30
0.0
 70
    64
  0
VERTEX
  5
45AB8
100
AcDbEntity
  8
0
100
AcDbVertex
100
AcDbPolygonMeshVertex
 10
0.034
 20
0.0
 30
0.0
 70
    64
  0
VERTEX
  5
45AB9
100
AcDbEntity
  8
0
100
AcDbVertex
100
AcDbPolygonMeshVertex
 10
-0.034
 20
0.0
 30
4.755
 70
    64
  0
VERTEX
  5
45ABA
100
AcDbEntity
  8
0
100
AcDbVertex
100
AcDbPolygonMeshVertex
 10
-0.034
 20
0.0
 30
0.0
 70
    64
  0
VERTEX
  5
45ABB
100
AcDbEntity
  8
0
100
AcDbVertex
100
AcDbPolygonMeshVertex
 10
-0.034
 20
0.0
 30
0.0
 70
    64
  0
VERTEX
  5
45ABC
100
AcDbEntity
  8
0
100
AcDbVertex
100
AcDbPolygonMeshVertex
 10
-0.034
 20
0.2
 30
4.755
 70
    64
  0
VERTEX
  5
45ABD
100
AcDbEntity
  8
0
100
AcDbVertex
100
AcDbPolygonMeshVertex
 10
-0.034
 20
0.2
 30
0.0
 70
    64
  0
VERTEX
  5
45ABE
100
AcDbEntity
  8
0
100
AcDbVertex
100
AcDbPolygonMeshVertex
 10
-0.034
 20
0.0
 30
0.0
 70
    64
  0
VERTEX
  5
45ABF
100
AcDbEntity
  8
0
100
AcDbVertex
100
AcDbPolygonMeshVertex
 10
0.034
 20
0.2
 30
4.755
 70
    64
  0
VERTEX
  5
45AC0
100
AcDbEntity
  8
0
100
AcDbVertex
100
AcDbPolygonMeshVertex
 10
0.034
 20
0.2
 30
0.0
 70
    64
  0
VERTEX
  5
45AC1
100
AcDbEntity
  8
0
100
AcDbVertex
100
AcDbPolygonMeshVertex
 10
0.034
 20
0.0
 30
0.0
 70
    64
  0
VERTEX
  5
45AC2
100
AcDbEntity
  8
0
100
AcDbVertex
100
AcDbPolygonMeshVertex
 10
0.034
 20
0.2
 30
4.755
 70
    64
  0
VERTEX
  5
45AC3
100
AcDbEntity
  8
0
100
AcDbVertex
100
AcDbPolygonMeshVertex
 10
0.034
 20
0.2
 30
4.755
 70
    64
  0
VERTEX
  5
45AC4
100
AcDbEntity
  8
0
100
AcDbVertex
100
AcDbPolygonMeshVertex
 10
0.034
 20
0.0
 30
4.755
 70
    64
  0
VERTEX
  5
45AC5
100
AcDbEntity
  8
0
100
AcDbVertex
100
AcDbPolygonMeshVertex
 10
-0.034
 20
0.2
 30
4.755
 70
    64
  0
VERTEX
  5
45AC6
100
AcDbEntity
  8
0
100
AcDbVertex
100
AcDbPolygonMeshVertex
 10
-0.034
 20
0.2
 30
4.755
 70
    64
  0
VERTEX
  5
45AC7
100
AcDbEntity
  8
0
100
AcDbVertex
100
AcDbPolygonMeshVertex
 10
-0.034
 20
0.0
 30
4.755
 70
    64
  0
SEQEND
  5
45AC8
100
AcDbEntity
  8
0
  0
POINT
  5
45AC9
100
AcDbEntity
  8
SNAP_POINTS
100
AcDbPoint
 10
0.0
 20
0.0
 30
0.0
  0
CIRCLE
  5
45ACA
100
AcDbEntity
  8
0
100
AcDbCircle
 10
-0.309
 20
3.231347
 30
5.805389
 40
0.27951
  0
3DFACE
  5
45ACB
100
AcDbEntity
  8
0
 62
     0
100
AcDbFace
 10
-0.248269
 20
3.469146
 30
5.805389
 11
-0.369732
 21
3.469146
 31
5.805389
 12
-0.369732
 22
3.469146
 32
5.806389
 13
-0.369732
 23
3.469146
 33
5.806389
 70
    12
  0
3DFACE
  5
45ACC
100
AcDbEntity
  8
0
 62
     0
100
AcDbFace
 10
-0.248269
 20
3.469146
 30
5.806389
 11
-0.248269
 21
3.469146
 31
5.805389
 12
-0.369732
 22
3.469146
 32
5.806389
 13
-0.369732
 23
3.469146
 33
5.806389
 70
     2
  0
TEXT
  5
45ACD
100
AcDbEntity
  8
0
100
AcDbText
 39
0.0007
 10
-0.630933
 20
3.579565
 30
5.805747
 40
0.14
  1
OFF
100
AcDbText
  0
3DFACE
  5
45ACE
100
AcDbEntity
  8
0
 62
     0
100
AcDbFace
 10
-0.248269
 20
2.993547
 30
5.806389
 11
-0.369732
 21
2.993547
 31
5.806389
 12
-0.369732
 22
2.993547
 32
5.805389
 13
-0.369732
 23
2.993547
 33
5.805389
 70
    12
  0
3DFACE
  5
45ACF
100
AcDbEntity
  8
0
 62
     0
100
AcDbFace
 10
-0.369732
 20
2.993547
 30
5.805389
 11
-0.248269
 21
2.993547
 31
5.805389
 12
-0.248269
 22
2.993547
 32
5.806389
 13
-0.248269
 23
2.993547
 33
5.806389
 70
    12
  0
LINE
  5
45AD0
100
AcDbEntity
  8
0
100
AcDbLine
 39
0.002
 10
-0.184382
 20
1.78428
 30
5.802775
 11
-0.364382
 21
1.78428
 31
5.802775
  0
LINE
  5
45AD1
100
AcDbEntity
  8
0
100
AcDbLine
 39
0.002
 10
-0.364382
 20
1.96428
 30
5.802775
 11
-0.184382
 21
1.96428
 31
5.802775
  0
LINE
  5
45AD2
100
AcDbEntity
  8
0
100
AcDbLine
 39
0.002
 10
-0.184382
 20
2.14445
 30
5.800809
 11
-0.364382
 21
2.14445
 31
5.800809
  0
LINE
  5
45AD3
100
AcDbEntity
  8
0
100
AcDbLine
 39
0.002
 10
-0.364382
 20
2.32445
 30
5.800809
 11
-0.184382
 21
2.32445
 31
5.800809
  0
LINE
  5
45AD4
100
AcDbEntity
  8
0
100
AcDbLine
 39
0.002
 10
-0.184382
 20
0.849222
 30
5.802775
 11
-0.364382
 21
0.849222
 31
5.802775
  0
LINE
  5
45AD5
100
AcDbEntity
  8
0
100
AcDbLine
 39
0.002
 10
-0.364382
 20
1.029222
 30
5.802775
 11
-0.184382
 21
1.029222
 31
5.802775
  0
LINE
  5
45AD6
100
AcDbEntity
  8
0
100
AcDbLine
 39
0.002
 10
-0.184382
 20
1.160908
 30
5.802775
 11
-0.364382
 21
1.160908
 31
5.802775
  0
LINE
  5
45AD7
100
AcDbEntity
  8
0
100
AcDbLine
 39
0.002
 10
-0.364382
 20
1.340908
 30
5.802775
 11
-0.184382
 21
1.340908
 31
5.802775
  0
LINE
  5
45AD8
100
AcDbEntity
  8
0
100
AcDbLine
 39
0.002
 10
-0.184382
 20
1.472594
 30
5.802775
 11
-0.364382
 21
1.472594
 31
5.802775
  0
LINE
  5
45AD9
100
AcDbEntity
  8
0
100
AcDbLine
 39
0.002
 10
-0.364382
 20
1.652594
 30
5.802775
 11
-0.184382
 21
1.652594
 31
5.802775
  0
LINE
  5
45ADA
100
AcDbEntity
  8
0
100
AcDbLine
 39
0.001
 10
0.174617
 20
0.791543
 30
5.8
 11
-0.418383
 21
0.791543
 31
5.8
  0
LINE
  5
45ADB
100
AcDbEntity
  8
0
100
AcDbLine
 39
0.001
 10
-0.418383
 20
2.391543
 30
5.8
 11
0.174617
 21
2.391543
 31
5.8
  0
TEXT
  5
45ADC
100
AcDbEntity
  8
0
100
AcDbText
 39
0.00056
 10
-0.87037
 20
2.614404
 30
5.803973
 40
0.112
  1
SLOW BLOW
100
AcDbText
  0
TEXT
  5
45ADD
100
AcDbEntity
  8
0
100
AcDbText
 39
0.000648
 10
-0.835635
 20
2.800529
 30
5.803178
 40
0.1296
  1
1.5A 250V
100
AcDbText
  0
TEXT
  5
45ADE
100
AcDbEntity
  8
0
100
AcDbText
 39
0.00095
 10
-0.84146
 20
0.361817
 30
5.803579
 40
0.19
  1
120VAC
100
AcDbText
  0
LINE
  5
45ADF
100
AcDbEntity
  8
0
100
AcDbLine
 39
0.002
 10
-0.364382
 20
1.78428
 30
5.802775
 11
-0.364382
 21
1.96428
 31
5.802775
  0
LINE
  5
45AE0
100
AcDbEntity
  8
0
100
AcDbLine
 39
0.001
 10
-0.418383
 20
0.791543
 30
5.8
 11
-0.418383
 21
2.391543
 31
5.8
  0
LINE
  5
45AE1
100
AcDbEntity
  8
0
100
AcDbLine
 39
0.002
 10
-0.364382
 20
0.849222
 30
5.802775
 11
-0.364382
 21
1.029222
 31
5.802775
  0
TEXT
  5
45AE2
100
AcDbEntity
  8
0
100
AcDbText
 39
0.00075
 10
-0.813513
 20
0.873043
 30
5.808065
 40
0.15
  1
N
100
AcDbText
  0
TEXT
  5
45AE3
100
AcDbEntity
  8
0
100
AcDbText
 10
-0.618482
 20
0.839609
 30
5.802775
 40
0.2
  1
}
100
AcDbText
  0
TEXT
  5
45AE4
100
AcDbEntity
  8
0
100
AcDbText
 39
0.00075
 10
-0.813513
 20
0.691226
 30
5.808065
 40
0.15
  1
D
100
AcDbText
  0
TEXT
  5
45AE5
100
AcDbEntity
  8
0
100
AcDbText
 10
-0.551674
 20
0.840188
 30
5.802775
 40
0.2
  1
-
100
AcDbText
  0
TEXT
  5
45AE6
100
AcDbEntity
  8
0
100
AcDbText
 39
0.00075
 10
-0.813513
 20
1.049664
 30
5.808065
 40
0.15
  1
G
100
AcDbText
  0
TEXT
  5
45AE7
100
AcDbEntity
  8
0
100
AcDbText
 39
0.00075
 10
-0.810069
 20
1.489394
 30
5.808065
 40
0.15
  1
N
100
AcDbText
  0
LINE
  5
45AE8
100
AcDbEntity
  8
0
100
AcDbLine
 39
0.002
 10
-0.364382
 20
1.472594
 30
5.802775
 11
-0.364382
 21
1.652594
 31
5.802775
  0
TEXT
  5
45AE9
100
AcDbEntity
  8
0
100
AcDbText
 10
-0.618482
 20
1.458073
 30
5.802775
 40
0.2
  1
}
100
AcDbText
  0
LINE
  5
45AEA
100
AcDbEntity
  8
0
100
AcDbLine
 39
0.002
 10
-0.364382
 20
1.160908
 30
5.802775
 11
-0.364382
 21
1.340908
 31
5.802775
  0
TEXT
  5
45AEB
100
AcDbEntity
  8
0
100
AcDbText
 10
-0.551674
 20
1.458653
 30
5.802775
 40
0.2
  1
-
100
AcDbText
  0
TEXT
  5
45AEC
100
AcDbEntity
  8
0
100
AcDbText
 39
0.00075
 10
-0.810069
 20
2.061838
 30
5.800202
 40
0.15
  1
1
100
AcDbText
  0
TEXT
  5
45AED
100
AcDbEntity
  8
0
100
AcDbText
 39
0.00075
 10
-0.810069
 20
2.264433
 30
5.800202
 40
0.15
  1
L
100
AcDbText
  0
TEXT
  5
45AEE
100
AcDbEntity
  8
0
100
AcDbText
 10
-0.551674
 20
2.132285
 30
5.800809
 40
0.2
  1
-
100
AcDbText
  0
TEXT
  5
45AEF
100
AcDbEntity
  8
0
100
AcDbText
 10
-0.618482
 20
2.131706
 30
5.800809
 40
0.2
  1
}
100
AcDbText
  0
LINE
  5
45AF0
100
AcDbEntity
  8
0
100
AcDbLine
 39
0.002
 10
-0.364382
 20
2.14445
 30
5.800809
 11
-0.364382
 21
2.32445
 31
5.800809
  0
3DFACE
  5
45AF1
100
AcDbEntity
  8
0
 62
     0
100
AcDbFace
 10
-0.369732
 20
3.469146
 30
5.806389
 11
-0.369732
 21
3.469146
 31
5.805389
 12
-0.369732
 22
2.993547
 32
5.805389
 13
-0.369732
 23
2.993547
 33
5.805389
 70
    12
  0
3DFACE
  5
45AF2
100
AcDbEntity
  8
0
 62
     0
100
AcDbFace
 10
-0.369732
 20
3.469146
 30
5.806389
 11
-0.369732
 21
2.993547
 31
5.805389
 12
-0.369732
 22
2.993547
 32
5.806389
 13
-0.369732
 23
2.993547
 33
5.806389
 70
     1
  0
LINE
  5
45AF3
100
AcDbEntity
  8
0
100
AcDbLine
 39
0.001
 10
0.174617
 20
2.391543
 30
5.8
 11
0.174617
 21
0.791543
 31
5.8
  0
LINE
  5
45AF4
100
AcDbEntity
  8
0
100
AcDbLine
 39
0.002
 10
-0.184382
 20
1.96428
 30
5.802775
 11
-0.184382
 21
1.78428
 31
5.802775
  0
LINE
  5
45AF5
100
AcDbEntity
  8
0
100
AcDbLine
 39
0.002
 10
-0.184382
 20
1.029222
 30
5.802775
 11
-0.184382
 21
0.849222
 31
5.802775
  0
CIRCLE
  5
45AF6
100
AcDbEntity
  8
0
100
AcDbCircle
 39
0.002
 10
0.037499
 20
0.918486
 30
5.802775
 40
0.09
  0
CIRCLE
  5
45AF7
100
AcDbEntity
  8
0
100
AcDbCircle
 39
0.002
 10
0.037499
 20
1.541857
 30
5.802775
 40
0.09
  0
CIRCLE
  5
45AF8
100
AcDbEntity
  8
0
100
AcDbCircle
 39
0.002
 10
0.037499
 20
1.853543
 30
5.802775
 40
0.09
  0
CIRCLE
  5
45AF9
100
AcDbEntity
  8
0
100
AcDbCircle
 39
0.002
 10
0.037499
 20
1.230172
 30
5.802775
 40
0.09
  0
LINE
  5
45AFA
100
AcDbEntity
  8
0
100
AcDbLine
 39
0.002
 10
-0.184382
 20
1.652594
 30
5.802775
 11
-0.184382
 21
1.472594
 31
5.802775
  0
LINE
  5
45AFB
100
AcDbEntity
  8
0
100
AcDbLine
 39
0.002
 10
-0.184382
 20
1.340908
 30
5.802775
 11
-0.184382
 21
1.160908
 31
5.802775
  0
3DFACE
  5
45AFC
100
AcDbEntity
  8
0
100
AcDbFace
 10
-0.125748
 20
3.849283
 30
5.848166
 11
-0.126194
 21
3.644351
 31
6.18734
 12
-0.157579
 22
3.651796
 32
6.191738
 13
-0.157318
 23
3.857742
 33
5.84843
  0
3DFACE
  5
45AFD
100
AcDbEntity
  8
0
100
AcDbFace
 10
-0.094691
 20
3.651416
 30
6.191513
 11
-0.094179
 21
3.857743
 31
5.847933
 12
-0.125748
 22
3.849283
 32
5.848166
 13
-0.126194
 23
3.644351
 33
6.18734
  0
CIRCLE
  5
45AFE
100
AcDbEntity
  8
0
100
AcDbCircle
 39
0.002
 10
0.037499
 20
2.213713
 30
5.800809
 40
0.09
  0
LINE
  5
45AFF
100
AcDbEntity
  8
0
100
AcDbLine
 39
0.002
 10
-0.184382
 20
2.32445
 30
5.800809
 11
-0.184382
 21
2.14445
 31
5.800809
  0
3DFACE
  5
45B00
100
AcDbEntity
  8
0
 62
     0
100
AcDbFace
 10
-0.248269
 20
3.469146
 30
5.805389
 11
-0.248269
 21
3.469146
 31
5.806389
 12
-0.248269
 22
2.993547
 32
5.806389
 13
-0.248269
 23
2.993547
 33
5.806389
 70
    12
  0
3DFACE
  5
45B01
100
AcDbEntity
  8
0
 62
     0
100
AcDbFace
 10
-0.248269
 20
2.993547
 30
5.806389
 11
-0.248269
 21
2.993547
 31
5.805389
 12
-0.248269
 22
3.469146
 32
5.805389
 13
-0.248269
 23
3.469146
 33
5.805389
 70
    12
  0
LWPOLYLINE
  5
45B02
100
AcDbEntity
  8
0
100
AcDbPolyline
 90
       12
 70
     1
 43
0.0
 38
3.473657
 10
-0.071068
 20
6.378709
 10
-0.093925
 20
6.401889
 10
-0.12531
 20
6.410536
 10
-0.156814
 20
6.402331
 10
-0.179995
 20
6.379474
 10
-0.188641
 20
6.348089
 10
-0.180437
 20
6.316585
 10
-0.157579
 20
6.293404
 10
-0.126194
 20
6.284758
 10
-0.094691
 20
6.292963
 10
-0.07151
 20
6.31582
 10
-0.062863
 20
6.347205
210
0.0000000000000029
220
-0.5086197233594508
230
0.86099127580351
  0
POLYLINE
  5
45B03
100
AcDbEntity
  8
0
100
AcDbPolygonMesh
 66
     1
 10
0.0
 20
0.0
 30
0.0
 70
    16
 71
     6
 72
     3
  0
VERTEX
  5
45B04
100
AcDbEntity
  8
0
100
AcDbVertex
100
AcDbPolygonMeshVertex
 10
0.034
 20
9.8
 30
4.755
 70
    64
  0
VERTEX
  5
45B05
100
AcDbEntity
  8
0
100
AcDbVertex
100
AcDbPolygonMeshVertex
 10
0.034
 20
9.8
 30
0.0
 70
    64
  0
VERTEX
  5
45B06
100
AcDbEntity
  8
0
100
AcDbVertex
100
AcDbPolygonMeshVertex
 10
0.034
 20
9.8
 30
0.0
 70
    64
  0
VERTEX
  5
45B07
100
AcDbEntity
  8
0
100
AcDbVertex
100
AcDbPolygonMeshVertex
 10
-0.034
 20
9.8
 30
4.755
 70
    64
  0
VERTEX
  5
45B08
100
AcDbEntity
  8
0
100
AcDbVertex
100
AcDbPolygonMeshVertex
 10
-0.034
 20
9.8
 30
0.0
 70
    64
  0
VERTEX
  5
45B09
100
AcDbEntity
  8
0
100
AcDbVertex
100
AcDbPolygonMeshVertex
 10
-0.034
 20
9.8
 30
0.0
 70
    64
  0
VERTEX
  5
45B0A
100
AcDbEntity
  8
0
100
AcDbVertex
100
AcDbPolygonMeshVertex
 10
-0.034
 20
10.0
 30
4.755
 70
    64
  0
VERTEX
  5
45B0B
100
AcDbEntity
  8
0
100
AcDbVertex
100
AcDbPolygonMeshVertex
 10
-0.034
 20
10.0
 30
0.0
 70
    64
  0
VERTEX
  5
45B0C
100
AcDbEntity
  8
0
100
AcDbVertex
100
AcDbPolygonMeshVertex
 10
-0.034
 20
9.8
 30
0.0
 70
    64
  0
VERTEX
  5
45B0D
100
AcDbEntity
  8
0
100
AcDbVertex
100
AcDbPolygonMeshVertex
 10
0.034
 20
10.0
 30
4.755
 70
    64
  0
VERTEX
  5
45B0E
100
AcDbEntity
  8
0
100
AcDbVertex
100
AcDbPolygonMeshVertex
 10
0.034
 20
10.0
 30
0.0
 70
    64
  0
VERTEX
  5
45B0F
100
AcDbEntity
  8
0
100
AcDbVertex
100
AcDbPolygonMeshVertex
 10
0.034
 20
9.8
 30
0.0
 70
    64
  0
VERTEX
  5
45B10
100
AcDbEntity
  8
0
100
AcDbVertex
100
AcDbPolygonMeshVertex
 10
0.034
 20
10.0
 30
4.755
 70
    64
  0
VERTEX
  5
45B11
100
AcDbEntity
  8
0
100
AcDbVertex
100
AcDbPolygonMeshVertex
 10
0.034
 20
10.0
 30
4.755
 70
    64
  0
VERTEX
  5
45B12
100
AcDbEntity
  8
0
100
AcDbVertex
100
AcDbPolygonMeshVertex
 10
0.034
 20
9.8
 30
4.755
 70
    64
  0
VERTEX
  5
45B13
100
AcDbEntity
  8
0
100
AcDbVertex
100
AcDbPolygonMeshVertex
 10
-0.034
 20
10.0
 30
4.755
 70
    64
  0
VERTEX
  5
45B14
100
AcDbEntity
  8
0
100
AcDbVertex
100
AcDbPolygonMeshVertex
 10
-0.034
 20
10.0
 30
4.755
 70
    64
  0
VERTEX
  5
45B15
100
AcDbEntity
  8
0
100
AcDbVertex
100
AcDbPolygonMeshVertex
 10
-0.034
 20
9.8
 30
4.755
 70
    64
  0
SEQEND
  5
45B16
100
AcDbEntity
  8
0
  0
LINE
  5
45B17
100
AcDbEntity
  8
0
100
AcDbLine
 10
0.168435
 20
5.978512
 30
5.675
 11
-0.815191
 21
5.978512
 31
5.675
  0
LINE
  5
45B18
100
AcDbEntity
  8
0
100
AcDbLine
 10
-0.381738
 20
7.432271
 30
5.806152
 11
-0.006738
 21
7.432271
 31
5.8
  0
LINE
  5
45B19
100
AcDbEntity
  8
0
100
AcDbLine
 10
-0.006738
 20
7.057271
 30
5.8
 11
-0.381738
 21
7.057271
 31
5.8
  0
LINE
  5
45B1A
100
AcDbEntity
  8
0
100
AcDbLine
 10
0.078262
 20
7.494771
 30
5.8
 11
-0.571738
 21
7.494771
 31
5.8
  0
LINE
  5
45B1B
100
AcDbEntity
  8
0
100
AcDbLine
 10
0.078262
 20
6.994771
 30
5.8
 11
-0.571738
 21
6.994771
 31
5.8
  0
LINE
  5
45B1C
100
AcDbEntity
  8
0
100
AcDbLine
 10
-0.006738
 20
6.138604
 30
5.8
 11
-0.381738
 21
6.138604
 31
5.8
  0
LINE
  5
45B1D
100
AcDbEntity
  8
0
100
AcDbLine
 10
-0.381738
 20
6.513604
 30
5.806152
 11
-0.006738
 21
6.513604
 31
5.8
  0
LINE
  5
45B1E
100
AcDbEntity
  8
0
100
AcDbLine
 10
0.078262
 20
6.076104
 30
5.8
 11
-0.571738
 21
6.076104
 31
5.8
  0
LINE
  5
45B1F
100
AcDbEntity
  8
0
100
AcDbLine
 10
0.078262
 20
6.576104
 30
5.8
 11
-0.571738
 21
6.576104
 31
5.8
  0
TEXT
  5
45B20
100
AcDbEntity
  8
0
100
AcDbText
 39
0.0006
 10
-0.837388
 20
8.916881
 30
5.805042
 40
0.12
  1
SYSTEM
100
AcDbText
  0
TEXT
  5
45B21
100
AcDbEntity
  8
0
100
AcDbText
 39
0.0007
 10
-0.594669
 20
5.70912
 30
5.803781
 40
0.14
  1
RELAY
 41
0.8
100
AcDbText
  0
TEXT
  5
45B22
100
AcDbEntity
  8
0
100
AcDbText
 39
0.0006
 10
-0.526532
 20
8.249201
 30
5.807007
 40
0.12
  1
ACTIVE
 41
0.9
100
AcDbText
  0
LINE
  5
45B23
100
AcDbEntity
  8
0
100
AcDbLine
 10
-0.815191
 20
6.886131
 30
5.675
 11
0.168435
 21
6.886131
 31
5.675
  0
LINE
  5
45B24
100
AcDbEntity
  8
0
100
AcDbLine
 10
0.168435
 20
7.626558
 30
5.804741
 11
-0.815191
 21
7.626558
 31
5.804741
  0
LINE
  5
45B25
100
AcDbEntity
  8
0
100
AcDbLine
 10
0.168435
 20
6.718938
 30
5.675
 11
-0.815191
 21
6.718938
 31
5.675
  0
TEXT
  5
45B26
100
AcDbEntity
  8
0
100
AcDbText
 39
0.0006
 10
-0.839777
 20
9.079297
 30
5.805042
 40
0.12
  1
REDUNDANT
100
AcDbText
  0
TEXT
  5
45B27
100
AcDbEntity
  8
0
100
AcDbText
 39
0.00054
 10
-0.868104
 20
6.740767
 30
5.805405
 40
0.108
  1
P/S REDUNDANT
 41
0.8
100
AcDbText
  0
LINE
  5
45B28
100
AcDbEntity
  8
0
100
AcDbLine
 39
0.002
 10
-0.184053
 20
4.719054
 30
5.804741
 11
-0.364053
 21
4.719054
 31
5.804741
  0
LINE
  5
45B29
100
AcDbEntity
  8
0
100
AcDbLine
 39
0.002
 10
-0.364053
 20
4.899054
 30
5.804741
 11
-0.184053
 21
4.899054
 31
5.804741
  0
LINE
  5
45B2A
100
AcDbEntity
  8
0
100
AcDbLine
 39
0.002
 10
-0.184053
 20
5.39091
 30
5.804741
 11
-0.364053
 21
5.39091
 31
5.804741
  0
LINE
  5
45B2B
100
AcDbEntity
  8
0
100
AcDbLine
 39
0.002
 10
-0.364053
 20
5.57091
 30
5.804741
 11
-0.184053
 21
5.57091
 31
5.804741
  0
LINE
  5
45B2C
100
AcDbEntity
  8
0
100
AcDbLine
 39
0.002
 10
-0.184053
 20
5.03074
 30
5.804741
 11
-0.364053
 21
5.03074
 31
5.804741
  0
LINE
  5
45B2D
100
AcDbEntity
  8
0
100
AcDbLine
 39
0.002
 10
-0.364053
 20
5.21074
 30
5.804741
 11
-0.184053
 21
5.21074
 31
5.804741
  0
LINE
  5
45B2E
100
AcDbEntity
  8
0
100
AcDbLine
 39
0.001
 10
0.174946
 20
4.634584
 30
5.8
 11
-0.418054
 21
4.634584
 31
5.8
  0
LINE
  5
45B2F
100
AcDbEntity
  8
0
100
AcDbLine
 39
0.001
 10
-0.418054
 20
5.638003
 30
5.8
 11
0.174946
 21
5.638003
 31
5.8
  0
TEXT
  5
45B30
100
AcDbEntity
  8
0
100
AcDbText
 39
0.0007
 10
-0.471511
 20
4.36299
 30
5.805747
 40
0.14
  1
POWER
100
AcDbText
  0
LINE
  5
45B31
100
AcDbEntity
  8
0
100
AcDbLine
 39
0.002
 10
-0.364053
 20
4.719054
 30
5.804741
 11
-0.364053
 21
4.899054
 31
5.804741
  0
LINE
  5
45B32
100
AcDbEntity
  8
0
100
AcDbLine
 39
0.001
 10
-0.418054
 20
4.634584
 30
5.8
 11
-0.418054
 21
5.638003
 31
5.8
  0
TEXT
  5
45B33
100
AcDbEntity
  8
0
100
AcDbText
 39
0.0007
 10
-0.844575
 20
4.718954
 30
5.805747
 40
0.14
  1
NO
 41
0.8
100
AcDbText
  0
TEXT
  5
45B34
100
AcDbEntity
  8
0
100
AcDbText
 39
0.0007
 10
-0.630933
 20
4.104565
 30
5.805747
 40
0.14
  1
ON
100
AcDbText
  0
TEXT
  5
45B35
100
AcDbEntity
  8
0
100
AcDbText
 10
-0.551346
 20
4.68323
 30
5.804741
 40
0.2
  1
-
100
AcDbText
  0
TEXT
  5
45B36
100
AcDbEntity
  8
0
100
AcDbText
 39
0.0007
 10
-0.840266
 20
5.416237
 30
5.805747
 40
0.14
  1
NC
 41
0.8
100
AcDbText
  0
TEXT
  5
45B37
100
AcDbEntity
  8
0
100
AcDbText
 39
0.0007
 10
-0.870427
 20
5.080517
 30
5.805747
 40
0.14
  1
COM
 41
0.8
100
AcDbText
  0
TEXT
  5
45B38
100
AcDbEntity
  8
0
100
AcDbText
 10
-0.551346
 20
5.034803
 30
5.804741
 40
0.2
  1
-
100
AcDbText
  0
LINE
  5
45B39
100
AcDbEntity
  8
0
100
AcDbLine
 39
0.002
 10
-0.364053
 20
5.03074
 30
5.804741
 11
-0.364053
 21
5.21074
 31
5.804741
  0
TEXT
  5
45B3A
100
AcDbEntity
  8
0
100
AcDbText
 10
-0.551346
 20
5.378746
 30
5.804741
 40
0.2
  1
-
100
AcDbText
  0
LINE
  5
45B3B
100
AcDbEntity
  8
0
100
AcDbLine
 39
0.002
 10
-0.364053
 20
5.39091
 30
5.804741
 11
-0.364053
 21
5.57091
 31
5.804741
  0
LINE
  5
45B3C
100
AcDbEntity
  8
0
100
AcDbLine
 10
-0.815191
 20
6.718938
 30
5.675
 11
-0.815191
 21
5.978512
 31
5.675
  0
LINE
  5
45B3D
100
AcDbEntity
  8
0
100
AcDbLine
 10
-0.506738
 20
6.223277
 30
5.8
 11
-0.506738
 21
6.428931
 31
5.8
  0
LINE
  5
45B3E
100
AcDbEntity
  8
0
100
AcDbLine
 10
-0.571738
 20
6.576104
 30
5.8
 11
-0.571738
 21
6.076104
 31
5.8
  0
LINE
  5
45B3F
100
AcDbEntity
  8
0
100
AcDbLine
 10
-0.381738
 20
6.223277
 30
5.8
 11
-0.506738
 21
6.223277
 31
5.8
  0
LINE
  5
45B40
100
AcDbEntity
  8
0
100
AcDbLine
 10
-0.381738
 20
6.138604
 30
5.8
 11
-0.381738
 21
6.223277
 31
5.8
  0
LINE
  5
45B41
100
AcDbEntity
  8
0
100
AcDbLine
 10
-0.381738
 20
6.428931
 30
5.8
 11
-0.381738
 21
6.513604
 31
5.806152
  0
LINE
  5
45B42
100
AcDbEntity
  8
0
100
AcDbLine
 10
-0.506738
 20
6.428931
 30
5.8
 11
-0.381738
 21
6.428931
 31
5.8
  0
LINE
  5
45B43
100
AcDbEntity
  8
0
100
AcDbLine
 10
-0.815191
 20
7.626558
 30
5.804741
 11
-0.815191
 21
6.886131
 31
5.804741
  0
LINE
  5
45B44
100
AcDbEntity
  8
0
100
AcDbLine
 10
-0.506738
 20
7.141944
 30
5.8
 11
-0.506738
 21
7.347598
 31
5.8
  0
LINE
  5
45B45
100
AcDbEntity
  8
0
100
AcDbLine
 10
-0.571738
 20
7.494771
 30
5.8
 11
-0.571738
 21
6.994771
 31
5.8
  0
LINE
  5
45B46
100
AcDbEntity
  8
0
100
AcDbLine
 10
-0.381738
 20
7.141944
 30
5.8
 11
-0.506738
 21
7.141944
 31
5.8
  0
LINE
  5
45B47
100
AcDbEntity
  8
0
100
AcDbLine
 10
-0.381738
 20
7.057271
 30
5.8
 11
-0.381738
 21
7.141944
 31
5.8
  0
LINE
  5
45B48
100
AcDbEntity
  8
0
100
AcDbLine
 10
-0.506738
 20
7.347598
 30
5.8
 11
-0.381738
 21
7.347598
 31
5.8
  0
LINE
  5
45B49
100
AcDbEntity
  8
0
100
AcDbLine
 10
-0.381738
 20
7.347598
 30
5.8
 11
-0.381738
 21
7.432271
 31
5.806152
  0
TEXT
  5
45B4A
100
AcDbEntity
  8
0
100
AcDbText
 39
0.0006
 10
-0.839777
 20
9.220217
 30
5.805042
 40
0.12
  1
NON-
100
AcDbText
  0
LINE
  5
45B4B
100
AcDbEntity
  8
0
100
AcDbLine
 39
0.001
 10
0.174946
 20
5.638003
 30
5.8
 11
0.174946
 21
4.634584
 31
5.8
  0
LINE
  5
45B4C
100
AcDbEntity
  8
0
100
AcDbLine
 39
0.002
 10
-0.184053
 20
4.899054
 30
5.804741
 11
-0.184053
 21
4.719054
 31
5.804741
  0
CIRCLE
  5
45B4D
100
AcDbEntity
  8
0
100
AcDbCircle
 39
0.002
 10
0.037827
 20
4.788318
 30
5.804741
 40
0.09
  0
CIRCLE
  5
45B4E
100
AcDbEntity
  8
0
100
AcDbCircle
 39
0.002
 10
0.037827
 20
5.460174
 30
5.804741
 40
0.09
  0
CIRCLE
  5
45B4F
100
AcDbEntity
  8
0
100
AcDbCircle
 39
0.002
 10
0.037827
 20
5.100004
 30
5.804741
 40
0.09
  0
LINE
  5
45B50
100
AcDbEntity
  8
0
100
AcDbLine
 39
0.002
 10
-0.184053
 20
5.21074
 30
5.804741
 11
-0.184053
 21
5.03074
 31
5.804741
  0
LINE
  5
45B51
100
AcDbEntity
  8
0
100
AcDbLine
 39
0.002
 10
-0.184053
 20
5.57091
 30
5.804741
 11
-0.184053
 21
5.39091
 31
5.804741
  0
LINE
  5
45B52
100
AcDbEntity
  8
0
100
AcDbLine
 10
-0.006738
 20
6.513604
 30
5.8
 11
-0.006738
 21
6.138604
 31
5.8
  0
LINE
  5
45B53
100
AcDbEntity
  8
0
100
AcDbLine
 10
0.078262
 20
6.576104
 30
5.8
 11
0.078262
 21
6.076104
 31
5.8
  0
LINE
  5
45B54
100
AcDbEntity
  8
0
100
AcDbLine
 10
0.168435
 20
5.978512
 30
5.675
 11
0.168435
 21
6.718938
 31
5.675
  0
LINE
  5
45B55
100
AcDbEntity
  8
0
100
AcDbLine
 10
-0.006738
 20
7.432271
 30
5.8
 11
-0.006738
 21
7.057271
 31
5.8
  0
LINE
  5
45B56
100
AcDbEntity
  8
0
100
AcDbLine
 10
0.078262
 20
7.494771
 30
5.8
 11
0.078262
 21
6.994771
 31
5.8
  0
LINE
  5
45B57
100
AcDbEntity
  8
0
100
AcDbLine
 10
0.168435
 20
6.886131
 30
5.804741
 11
0.168435
 21
7.626558
 31
5.804741
  0
CIRCLE
  5
45B58
100
AcDbEntity
  8
0
100
AcDbCircle
 10
-0.163659
 20
8.69515
 30
5.809117
 40
0.125
  0
TEXT
  5
45B59
100
AcDbEntity
  8
0
100
AcDbText
 39
0.0006
 10
-0.283849
 20
8.409509
 30
5.807007
 40
0.12
  1
P/S
100
AcDbText
  0
CIRCLE
  5
45B5A
100
AcDbEntity
  8
0
100
AcDbCircle
 10
-0.163659
 20
9.422606
 30
5.808117
 40
0.125
  0
DIMENSION
  5
45B5C
100
AcDbEntity
  8
AREA1
100
AcDbDimension
  2
*D1
 10
1.424425
 20
10.0
 30
0.0
 11
1.424425
 21
4.7305
 31
0.0
 70
    32
  3
ABECAD_3D
100
AcDbAlignedDimension
 13
0.306
 23
-0.539
 33
5.674
 14
0.034
 24
10.0
 34
0.0
 50
90.0
100
AcDbRotatedDimension
  0
DIMENSION
  5
45B6B
100
AcDbEntity
  8
AREA1
100
AcDbDimension
  2
*D2
 10
0.306
 20
10.73942
 30
0.0
 11
1.611
 21
10.73942
 31
0.0
 70
    32
  3
ABECAD_3D
100
AcDbAlignedDimension
 13
-0.894
 23
9.8
 33
5.674
 14
0.306
 24
9.8
 34
5.674
100
AcDbRotatedDimension
  0
ENDSEC
  0
SECTION
  2
OBJECTS
  0
DICTIONARY
  5
458CB
100
AcDbDictionary
  3
ACAD_GROUP
350
458CC
  3
ACAD_LAYOUT
350
458FB
  3
ACAD_MLINESTYLE
350
458D9
  3
ACAD_PLOTSETTINGS
350
458FC
  3
ACAD_PLOTSTYLENAME
350
458F9
  3
ACDBHEADERROUNDTRIPXREC
350
45BEF
  3
ACDBVARIABLEDICTIONARY
350
458E1
  3
DWGPROPS
350
45901
  0
DICTIONARY
  5
45BED
100
AcDbDictionary
280
     1
  3
ACAD_XREC_ROUNDTRIP
360
45BEE
  0
DICTIONARY
  5
45C18
100
AcDbDictionary
280
     1
  3
ACAD_XREC_ROUNDTRIP
360
45C19
  0
DICTIONARY
  5
45BEB
100
AcDbDictionary
280
     1
  3
ACAD_XREC_ROUNDTRIP
360
45BEC
  0
DICTIONARY
  5
45C12
100
AcDbDictionary
280
     1
  3
ACAD_XREC_ROUNDTRIP
360
45C13
  0
DICTIONARY
  5
45C14
100
AcDbDictionary
280
     1
  3
ACAD_XREC_ROUNDTRIP
360
45C15
  0
DICTIONARY
  5
4592C
100
AcDbDictionary
280
     1
  3
ACAD_LAYOUTSELFREF
360
45C11
  0
DICTIONARY
  5
4592A
100
AcDbDictionary
280
     1
  3
ACAD_LAYOUTSELFREF
360
45C10
  0
DICTIONARY
  5
45BE9
100
AcDbDictionary
280
     1
  3
ACAD_XREC_ROUNDTRIP
360
45BEA
  0
DICTIONARY
  5
458CC
102
{ACAD_REACTORS
330
458CB
102
}
100
AcDbDictionary
  0
DICTIONARY
  5
458FB
102
{ACAD_XDICTIONARY
360
45C16
102
}
102
{ACAD_REACTORS
330
458CB
102
}
100
AcDbDictionary
  3
LAYOUT1
350
458FE
  3
MODEL
350
458FD
  0
DICTIONARY
  5
458D9
102
{ACAD_REACTORS
330
458CB
102
}
100
AcDbDictionary
  3
STANDARD
350
458DA
  0
DICTIONARY
  5
458FC
102
{ACAD_REACTORS
330
458CB
102
}
100
AcDbDictionary
  0
ACAD_PROXY_OBJECT
  5
458F9
102
{ACAD_REACTORS
330
458CB
102
}
100
AcDbProxyObject
 90
      499
 91
      501
 93
       86
310
405010041939BDC9B585B0
350
458FA
340
458FA
 94
        0
  0
DICTIONARY
  5
45BEF
102
{ACAD_REACTORS
330
458CB
102
}
100
AcDbDictionary
  3
CEPSNTYPE
350
45BF9
  3
DIMSTYLEDATA
350
45BFD
  3
FINGERPRINTGUID
350
45BFA
  3
HYPERLINKBASE
350
45BF2
  3
INSUNITS
350
45BF8
  3
LAYOUTDICT
350
45BF4
  3
LWETCUNION
350
45BF7
  3
PLOTSETDICT
350
45BF5
  3
PLOTSTYLNAMDICT
350
45BF6
  3
PSVPSCALE
350
45BFC
  3
PUCSBASE
350
45C00
  3
PUCSORGBACK
350
45C06
  3
PUCSORGBOTTOM
350
45C02
  3
PUCSORGFRONT
350
45C05
  3
PUCSORGLEFT
350
45C03
  3
PUCSORGRIGHT
350
45C04
  3
PUCSORGTOP
350
45C01
  3
PUCSORTHOREF
350
45BFE
  3
PUCSORTHOVIEW
350
45BFF
  3
STYLESHEET
350
45BF3
  3
TSTACKALIGN
350
45BF0
  3
TSTACKSIZE
350
45BF1
  3
UCSBASE
350
45C09
  3
UCSORGBACK
350
45C0F
  3
UCSORGBOTTOM
350
45C0B
  3
UCSORGFRONT
350
45C0E
  3
UCSORGLEFT
350
45C0C
  3
UCSORGRIGHT
350
45C0D
  3
UCSORGTOP
350
45C0A
  3
UCSORTHOREF
350
45C07
  3
UCSORTHOVIEW
350
45C08
  3
VERSIONGUID
350
45BFB
  0
DICTIONARY
  5
458E1
102
{ACAD_REACTORS
330
458CB
102
}
100
AcDbDictionary
  3
DIMADEC
350
458E2
  0
XRECORD
  5
45901
102
{ACAD_REACTORS
330
458CB
102
}
100
AcDbXrecord
  1
DWGPROPS COOKIE
  2

  3

  4

  6

  7

  8
colin
  9

300
=
301
=
302
=
303
=
304
=
305
=
306
=
307
=
308
=
309
=
 40
0.000599
 41
2451670.444777
 42
2451670.445376
  1

 90
        0
  0
XRECORD
  5
45BEE
102
{ACAD_REACTORS
330
45BED
102
}
100
AcDbXrecord
102
EXTNAMES
  1
*ACTIVE
  2
*Active
102
UCS
 74
     0
 71
     1
 10
0.0
 20
0.0
 30
0.0
 10
1.0
 20
0.0
 30
0.0
 10
0.0
 20
1.0
 30
0.0
146
0.0
 79
     1
102
VIEW
281
     0
  0
XRECORD
  5
45C19
102
{ACAD_REACTORS
330
45C18
102
}
100
AcDbXrecord
102
PLOTBIT
280
     0
  0
XRECORD
  5
45BEC
102
{ACAD_REACTORS
330
45BEB
102
}
100
AcDbXrecord
102
EXTNAMES
  1
DEFPOINTS
  2
Defpoints
102
PLOTBIT
280
     0
  0
XRECORD
  5
45C13
102
{ACAD_REACTORS
330
45C12
102
}
100
AcDbXrecord
102
ACADR14ROUNDTRIP
1000
DSTYLE
1002
{
1070
   276
 70
     2
1070
   277
 70
     5
1002
}
  0
XRECORD
  5
45C15
102
{ACAD_REACTORS
330
45C14
102
}
100
AcDbXrecord
102
ACADR14ROUNDTRIP
1000
DSTYLE
1002
{
1070
   276
 70
     2
1070
   277
 70
     5
1002
}
  0
XRECORD
  5
45C11
102
{ACAD_REACTORS
330
4592C
102
}
100
AcDbXrecord
340
458D6
  0
XRECORD
  5
45C10
102
{ACAD_REACTORS
330
4592A
102
}
100
AcDbXrecord
340
458D3
  0
XRECORD
  5
45BEA
102
{ACAD_REACTORS
330
45BE9
102
}
100
AcDbXrecord
102
EXTNAMES
  1
SCALE
  2
scale
  0
DICTIONARY
  5
45C16
100
AcDbDictionary
280
     1
  3
ACAD_XREC_ROUNDTRIP
360
45C17
  0
ACAD_PROXY_OBJECT
  5
458FE
102
{ACAD_REACTORS
330
458FB
102
}
100
AcDbProxyObject
 90
      499
 91
      503
 93
     1348
310
91D4850204C617365724A65742035303030205365726965732050434C20362C00AAAAAA416AA547D11959985D5B1D08148C4D081C195B88185CDCDA59DB9B595B9D1CCB98DD1891069074C61796F75743140501A800000000000000000000000000000000000000000000A1000000000000008902A6A6A10232D5E076BC551
310
0408CB5781DAF154410232D5E076BC5510408CB5781DAF15C410232D5E076BC5710408CB5781DAF15C40
330
458D3
330
0
340
0
340
0
 94
        0
  0
ACAD_PROXY_OBJECT
  5
458FD
102
{ACAD_REACTORS
330
458FB
102
}
100
AcDbProxyObject
 90
      499
 91
      503
 93
      924
310
91D4850204C617365724A65742035303030205365726965732050434C20362C01AAAAAAAAA547D11959985D5B1D08148C4D081C195B88185CDCDA59DB9B595B9D1CCB98DD18A69054D6F64656C901A800000000000000000000000000000000000000000000A1000000000000008902A6A6AAAA0
330
458D6
330
0
340
0
340
0
 94
        0
  0
MLINESTYLE
  5
458DA
102
{ACAD_REACTORS
330
458D9
102
}
100
AcDbMlineStyle
  2
STANDARD
 70
     0
  3

 62
   256
 51
90.0
 52
90.0
 71
     2
 49
0.5
 62
   256
  6
BYLAYER
 49
-0.5
 62
   256
  6
BYLAYER
  0
ACAD_PROXY_OBJECT
  5
458FA
102
{ACAD_REACTORS
330
458F9
102
}
100
AcDbProxyObject
 90
      499
 91
      502
 93
        0
 94
        0
  0
XRECORD
  5
45BF9
102
{ACAD_REACTORS
330
45BEF
102
}
100
AcDbXrecord
 90
        0
  0
XRECORD
  5
45BFD
102
{ACAD_REACTORS
330
45BEF
102
}
100
AcDbXrecord
1000
DSTYLE
1002
{
1070
   276
 70
     2
1070
   277
 70
     5
1002
}
  0
XRECORD
  5
45BFA
102
{ACAD_REACTORS
330
45BEF
102
}
100
AcDbXrecord
  1
{6E0CF4B8-225E-11D4-A150-00A0CC3303EC}
  0
XRECORD
  5
45BF2
102
{ACAD_REACTORS
330
45BEF
102
}
100
AcDbXrecord
  1

  0
XRECORD
  5
45BF8
102
{ACAD_REACTORS
330
45BEF
102
}
100
AcDbXrecord
 90
        0
  0
XRECORD
  5
45BF4
102
{ACAD_REACTORS
330
45BEF
102
}
100
AcDbXrecord
340
458FB
  0
XRECORD
  5
45BF7
102
{ACAD_REACTORS
330
45BEF
102
}
100
AcDbXrecord
 90
    14877
  0
XRECORD
  5
45BF5
102
{ACAD_REACTORS
330
45BEF
102
}
100
AcDbXrecord
340
458FC
  0
XRECORD
  5
45BF6
102
{ACAD_REACTORS
330
45BEF
102
}
100
AcDbXrecord
340
458F9
  0
XRECORD
  5
45BFC
102
{ACAD_REACTORS
330
45BEF
102
}
100
AcDbXrecord
 40
0.0
  0
XRECORD
  5
45C00
102
{ACAD_REACTORS
330
45BEF
102
}
100
AcDbXrecord
340
0
  0
XRECORD
  5
45C06
102
{ACAD_REACTORS
330
45BEF
102
}
100
AcDbXrecord
 10
0.0
 20
0.0
 30
0.0
  0
XRECORD
  5
45C02
102
{ACAD_REACTORS
330
45BEF
102
}
100
AcDbXrecord
 10
0.0
 20
0.0
 30
0.0
  0
XRECORD
  5
45C05
102
{ACAD_REACTORS
330
45BEF
102
}
100
AcDbXrecord
 10
0.0
 20
0.0
 30
0.0
  0
XRECORD
  5
45C03
102
{ACAD_REACTORS
330
45BEF
102
}
100
AcDbXrecord
 10
0.0
 20
0.0
 30
0.0
  0
XRECORD
  5
45C04
102
{ACAD_REACTORS
330
45BEF
102
}
100
AcDbXrecord
 10
0.0
 20
0.0
 30
0.0
  0
XRECORD
  5
45C01
102
{ACAD_REACTORS
330
45BEF
102
}
100
AcDbXrecord
 10
0.0
 20
0.0
 30
0.0
  0
XRECORD
  5
45BFE
102
{ACAD_REACTORS
330
45BEF
102
}
100
AcDbXrecord
340
0
  0
XRECORD
  5
45BFF
102
{ACAD_REACTORS
330
45BEF
102
}
100
AcDbXrecord
 70
     0
  0
XRECORD
  5
45BF3
102
{ACAD_REACTORS
330
45BEF
102
}
100
AcDbXrecord
  1

  0
XRECORD
  5
45BF0
102
{ACAD_REACTORS
330
45BEF
102
}
100
AcDbXrecord
 90
        1
  0
XRECORD
  5
45BF1
102
{ACAD_REACTORS
330
45BEF
102
}
100
AcDbXrecord
 90
       70
  0
XRECORD
  5
45C09
102
{ACAD_REACTORS
330
45BEF
102
}
100
AcDbXrecord
340
0
  0
XRECORD
  5
45C0F
102
{ACAD_REACTORS
330
45BEF
102
}
100
AcDbXrecord
 10
0.0
 20
0.0
 30
0.0
  0
XRECORD
  5
45C0B
102
{ACAD_REACTORS
330
45BEF
102
}
100
AcDbXrecord
 10
0.0
 20
0.0
 30
0.0
  0
XRECORD
  5
45C0E
102
{ACAD_REACTORS
330
45BEF
102
}
100
AcDbXrecord
 10
0.0
 20
0.0
 30
0.0
  0
XRECORD
  5
45C0C
102
{ACAD_REACTORS
330
45BEF
102
}
100
AcDbXrecord
 10
0.0
 20
0.0
 30
0.0
  0
XRECORD
  5
45C0D
102
{ACAD_REACTORS
330
45BEF
102
}
100
AcDbXrecord
 10
0.0
 20
0.0
 30
0.0
  0
XRECORD
  5
45C0A
102
{ACAD_REACTORS
330
45BEF
102
}
100
AcDbXrecord
 10
0.0
 20
0.0
 30
0.0
  0
XRECORD
  5
45C07
102
{ACAD_REACTORS
330
45BEF
102
}
100
AcDbXrecord
340
0
  0
XRECORD
  5
45C08
102
{ACAD_REACTORS
330
45BEF
102
}
100
AcDbXrecord
 70
     1
  0
XRECORD
  5
45BFB
102
{ACAD_REACTORS
330
45BEF
102
}
100
AcDbXrecord
  1
{CB069D0D-AA34-4E4C-8FBD-9C94D45D1341}
  0
DICTIONARYVAR
  5
458E2
102
{ACAD_REACTORS
330
458E1
102
}
100
DictionaryVariables
280
     0
  1
0
  0
XRECORD
  5
45C17
102
{ACAD_REACTORS
330
45C16
102
}
100
AcDbXrecord
102
EXTNAMES
  1
LAYOUT1
  2
Layout1
  1
MODEL
  2
Model
  0
ENDSEC
  0
EOF
