  0
SECTION
  2
HEADER
  9
$ACADVER
  1
AC1014
  9
$ACADMAINTVER
 70
     8
  9
$DWGCODEPAGE
  3
ANSI_1252
  9
$INSBASE
 10
0.0
 20
0.0
 30
0.0
  9
$EXTMIN
 10
-2.499
 20
-1.869935
 30
0.0
  9
$EXTMAX
 10
1.946835
 20
11.244595
 30
6.246368
  9
$LIMMIN
 10
0.0
 20
0.0
  9
$LIMMAX
 10
12.0
 20
9.0
  9
$ORTHOMODE
 70
     0
  9
$REGENMODE
 70
     1
  9
$FILLMODE
 70
     1
  9
$QTEXTMODE
 70
     0
  9
$MIRRTEXT
 70
     1
  9
$DRAGMODE
 70
     2
  9
$LTSCALE
 40
1.0
  9
$OSMODE
 70
    37
  9
$ATTMODE
 70
     1
  9
$TEXTSIZE
 40
0.12
  9
$TRACEWID
 40
0.05
  9
$TEXTSTYLE
  7
STANDARD
  9
$CLAYER
  8
0
  9
$CELTYPE
  6
BYLAYER
  9
$CECOLOR
 62
   256
  9
$CELTSCALE
 40
1.0
  9
$DELOBJ
 70
     1
  9
$DISPSILH
 70
     0
  9
$DIMSCALE
 40
1.0
  9
$DIMASZ
 40
0.18
  9
$DIMEXO
 40
0.0625
  9
$DIMDLI
 40
0.375
  9
$DIMRND
 40
0.0
  9
$DIMDLE
 40
0.0
  9
$DIMEXE
 40
0.18
  9
$DIMTP
 40
0.0
  9
$DIMTM
 40
0.0
  9
$DIMTXT
 40
0.18
  9
$DIMCEN
 40
0.09
  9
$DIMTSZ
 40
0.0
  9
$DIMTOL
 70
     0
  9
$DIMLIM
 70
     0
  9
$DIMTIH
 70
     0
  9
$DIMTOH
 70
     1
  9
$DIMSE1
 70
     0
  9
$DIMSE2
 70
     0
  9
$DIMTAD
 70
     0
  9
$DIMZIN
 70
     4
  9
$DIMBLK
  1

  9
$DIMASO
 70
     1
  9
$DIMSHO
 70
     1
  9
$DIMPOST
  1

  9
$DIMAPOST
  1

  9
$DIMALT
 70
     1
  9
$DIMALTD
 70
     1
  9
$DIMALTF
 40
25.4
  9
$DIMLFAC
 40
1.0
  9
$DIMTOFL
 70
     0
  9
$DIMTVP
 40
0.0
  9
$DIMTIX
 70
     0
  9
$DIMSOXD
 70
     0
  9
$DIMSAH
 70
     0
  9
$DIMBLK1
  1

  9
$DIMBLK2
  1

  9
$DIMSTYLE
  2
ABECAD_3D
  9
$DIMCLRD
 70
     0
  9
$DIMCLRE
 70
     0
  9
$DIMCLRT
 70
     0
  9
$DIMTFAC
 40
1.5
  9
$DIMGAP
 40
0.09
  9
$DIMJUST
 70
     0
  9
$DIMSD1
 70
     0
  9
$DIMSD2
 70
     0
  9
$DIMTOLJ
 70
     1
  9
$DIMTZIN
 70
     4
  9
$DIMALTZ
 70
     4
  9
$DIMALTTZ
 70
     4
  9
$DIMFIT
 70
     3
  9
$DIMUPT
 70
     0
  9
$DIMUNIT
 70
     7
  9
$DIMDEC
 70
     6
  9
$DIMTDEC
 70
     6
  9
$DIMALTU
 70
     2
  9
$DIMALTTD
 70
     1
  9
$DIMTXSTY
  7
STANDARD
  9
$DIMAUNIT
 70
     0
  9
$LUNITS
 70
     2
  9
$LUPREC
 70
     4
  9
$SKETCHINC
 40
0.1
  9
$FILLETRAD
 40
0.0
  9
$AUNITS
 70
     0
  9
$AUPREC
 70
     0
  9
$MENU
  1
ACAD
  9
$ELEVATION
 40
0.0
  9
$PELEVATION
 40
0.0
  9
$THICKNESS
 40
0.0
  9
$LIMCHECK
 70
     0
  9
$BLIPMODE
 70
     0
  9
$CHAMFERA
 40
0.0
  9
$CHAMFERB
 40
0.0
  9
$CHAMFERC
 40
0.0
  9
$CHAMFERD
 40
0.0
  9
$SKPOLY
 70
     0
  9
$TDCREATE
 40
2451670.444776967
  9
$TDUPDATE
 40
2452010.483823610
  9
$TDINDWG
 40
0.0080259259
  9
$TDUSRTIMER
 40
0.0080259259
  9
$USRTIMER
 70
     1
  9
$ANGBASE
 50
0.0
  9
$ANGDIR
 70
     0
  9
$PDMODE
 70
     3
  9
$PDSIZE
 40
0.09
  9
$PLINEWID
 40
0.0
  9
$COORDS
 70
     1
  9
$SPLFRAME
 70
     1
  9
$SPLINETYPE
 70
     6
  9
$SPLINESEGS
 70
     8
  9
$ATTDIA
 70
     0
  9
$ATTREQ
 70
     1
  9
$HANDLING
 70
     1
  9
$HANDSEED
  5
45C36
  9
$SURFTAB1
 70
     6
  9
$SURFTAB2
 70
     6
  9
$SURFTYPE
 70
     6
  9
$SURFU
 70
     6
  9
$SURFV
 70
     6
  9
$UCSNAME
  2

  9
$UCSORG
 10
0.0
 20
0.0
 30
0.0
  9
$UCSXDIR
 10
1.0
 20
0.0
 30
0.0
  9
$UCSYDIR
 10
0.0
 20
1.0
 30
0.0
  9
$PUCSNAME
  2

  9
$PUCSORG
 10
0.0
 20
0.0
 30
0.0
  9
$PUCSXDIR
 10
1.0
 20
0.0
 30
0.0
  9
$PUCSYDIR
 10
0.0
 20
1.0
 30
0.0
  9
$USERI1
 70
     0
  9
$USERI2
 70
     0
  9
$USERI3
 70
     0
  9
$USERI4
 70
     0
  9
$USERI5
 70
     0
  9
$USERR1
 40
0.0
  9
$USERR2
 40
0.0
  9
$USERR3
 40
0.0
  9
$USERR4
 40
0.0
  9
$USERR5
 40
0.0
  9
$WORLDVIEW
 70
     1
  9
$SHADEDGE
 70
     3
  9
$SHADEDIF
 70
    70
  9
$TILEMODE
 70
     1
  9
$MAXACTVP
 70
    16
  9
$PINSBASE
 10
0.0
 20
0.0
 30
0.0
  9
$PLIMCHECK
 70
     0
  9
$PEXTMIN
 10
1.000000E+20
 20
1.000000E+20
 30
1.000000E+20
  9
$PEXTMAX
 10
-1.000000E+20
 20
-1.000000E+20
 30
-1.000000E+20
  9
$PLIMMIN
 10
0.0
 20
0.0
  9
$PLIMMAX
 10
12.0
 20
9.0
  9
$UNITMODE
 70
     0
  9
$VISRETAIN
 70
     0
  9
$PLINEGEN
 70
     0
  9
$PSLTSCALE
 70
     1
  9
$TREEDEPTH
 70
  3020
  9
$PICKSTYLE
 70
     1
  9
$CMLSTYLE
  2
STANDARD
  9
$CMLJUST
 70
     0
  9
$CMLSCALE
 40
1.0
  9
$PROXYGRAPHICS
 70
     1
  9
$MEASUREMENT
 70
     0
  0
ENDSEC
  0
SECTION
  2
CLASSES
  0
CLASS
  1
DICTIONARYVAR
  2
AcDbDictionaryVar
  3
"AutoCAD"
 90
        0
280
     0
281
     0
  0
CLASS
  1
ACDBDICTIONARYWDFLT
  2
AcDbDictionaryWithDefault
  3
AutoCAD 2000
 90
        0
280
     0
281
     0
  0
CLASS
  1
ACDBPLACEHOLDER
  2
AcDbPlaceHolder
  3
AutoCAD 2000
 90
        0
280
     0
281
     0
  0
CLASS
  1
LAYOUT
  2
AcDbLayout
  3
AutoCAD 2000
 90
        0
280
     0
281
     0
  0
CLASS
  1
LONG_TRANSACTION
  2
AcDbLongTransaction
  3
AutoCAD 2000
 90
        0
280
     0
281
     0
  0
CLASS
  1
LWPOLYLINE
  2
AcDbPolyline
  3
"AutoCAD"
 90
        0
280
     0
281
     1
  0
CLASS
  1
HATCH
  2
AcDbHatch
  3
"ACAD_SEDONA"
 90
        0
280
     0
281
     1
  0
CLASS
  1
XRECORD
  2
AcDbXrecord
  3
"<Built In>"
 90
        0
280
     0
281
     0
  0
CLASS
  1
LONG_TRANSACTION
  2
AcDbLongTransaction
  3
AutoCAD 2000
 90
        0
280
     0
281
     0
  0
CLASS
  1
LWPOLYLINE
  2
AcDbPolyline
  3
"AutoCAD"
 90
        0
280
     0
281
     1
  0
CLASS
  1
HATCH
  2
AcDbHatch
  3
"ACAD_SEDONA"
 90
        0
280
     0
281
     1
  0
CLASS
  1
XRECORD
  2
AcDbXrecord
  3
"<Built In>"
 90
        0
280
     0
281
     0
  0
CLASS
  1
LONG_TRANSACTION
  2
AcDbLongTransaction
  3
AutoCAD 2000
 90
        0
280
     0
281
     0
  0
CLASS
  1
LWPOLYLINE
  2
AcDbPolyline
  3
"AutoCAD"
 90
        0
280
     0
281
     1
  0
CLASS
  1
HATCH
  2
AcDbHatch
  3
"ACAD_SEDONA"
 90
        0
280
     0
281
     1
  0
CLASS
  1
XRECORD
  2
AcDbXrecord
  3
"<Built In>"
 90
        0
280
     0
281
     0
  0
CLASS
  1
LONG_TRANSACTION
  2
AcDbLongTransaction
  3
AutoCAD 2000
 90
        0
280
     0
281
     0
  0
CLASS
  1
LWPOLYLINE
  2
AcDbPolyline
  3
"AutoCAD"
 90
        0
280
     0
281
     1
  0
CLASS
  1
HATCH
  2
AcDbHatch
  3
"ACAD_SEDONA"
 90
        0
280
     0
281
     1
  0
CLASS
  1
XRECORD
  2
AcDbXrecord
  3
"<Built In>"
 90
        0
280
     0
281
     0
  0
ENDSEC
  0
SECTION
  2
TABLES
  0
TABLE
  2
VPORT
  5
458C7
100
AcDbSymbolTable
 70
     1
  0
VPORT
  5
45C01
102
{ACAD_XDICTIONARY
360
45C06
102
}
100
AcDbSymbolTableRecord
100
AcDbViewportTableRecord
  2
*ACTIVE
 70
     0
 10
0.0
 20
0.0
 11
1.0
 21
1.0
 12
-0.276009
 22
4.68733
 13
0.0
 23
0.0
 14
0.25
 24
0.25
 15
0.25
 25
0.25
 16
0.0
 26
0.0
 36
1.0
 17
0.0
 27
0.0
 37
0.0
 40
13.335756
 41
1.960674
 42
50.0
 43
0.0
 44
0.0
 50
0.0
 51
0.0
 71
     0
 72
 20000
 73
     1
 74
     1
 75
     0
 76
     0
 77
     0
 78
     0
  0
ENDTAB
  0
TABLE
  2
LTYPE
  5
458C4
100
AcDbSymbolTable
 70
     1
  0
LTYPE
  5
458D0
100
AcDbSymbolTableRecord
100
AcDbLinetypeTableRecord
  2
BYBLOCK
 70
     0
  3

 72
    65
 73
     0
 40
0.0
  0
LTYPE
  5
458D1
100
AcDbSymbolTableRecord
100
AcDbLinetypeTableRecord
  2
BYLAYER
 70
     0
  3

 72
    65
 73
     0
 40
0.0
  0
LTYPE
  5
458D2
100
AcDbSymbolTableRecord
100
AcDbLinetypeTableRecord
  2
CONTINUOUS
 70
     0
  3
Solid line
 72
    65
 73
     0
 40
0.0
  0
ENDTAB
  0
TABLE
  2
LAYER
  5
458C1
100
AcDbSymbolTable
 70
     7
  0
LAYER
  5
458CD
100
AcDbSymbolTableRecord
100
AcDbLayerTableRecord
  2
0
 70
     0
 62
     7
  6
CONTINUOUS
  0
LAYER
  5
458EA
100
AcDbSymbolTableRecord
100
AcDbLayerTableRecord
  2
DIMS-MTG-HOLES
 70
     0
 62
     1
  6
CONTINUOUS
  0
LAYER
  5
458EB
100
AcDbSymbolTableRecord
100
AcDbLayerTableRecord
  2
ATTRIBUTES
 70
     0
 62
     7
  6
CONTINUOUS
  0
LAYER
  5
45949
102
{ACAD_XDICTIONARY
360
45C31
102
}
100
AcDbSymbolTableRecord
100
AcDbLayerTableRecord
  2
AREA1
 70
     0
 62
    -7
  6
CONTINUOUS
  0
LAYER
  5
4594A
100
AcDbSymbolTableRecord
100
AcDbLayerTableRecord
  2
SCALE
 70
     0
 62
    -7
  6
CONTINUOUS
  0
LAYER
  5
45B76
102
{ACAD_XDICTIONARY
360
45C04
102
}
100
AcDbSymbolTableRecord
100
AcDbLayerTableRecord
  2
DEFPOINTS
 70
     0
 62
    -7
  6
CONTINUOUS
  0
LAYER
  5
45B96
100
AcDbSymbolTableRecord
100
AcDbLayerTableRecord
  2
SNAP_POINTS
 70
     0
 62
    -1
  6
CONTINUOUS
  0
ENDTAB
  0
TABLE
  2
STYLE
  5
458C2
100
AcDbSymbolTable
 70
     1
  0
STYLE
  5
458CE
100
AcDbSymbolTableRecord
100
AcDbTextStyleTableRecord
  2
STANDARD
 70
     0
 40
0.0
 41
1.0
 50
0.0
 71
     0
 42
0.12
  3
txt
  4

  0
ENDTAB
  0
TABLE
  2
VIEW
  5
458C5
100
AcDbSymbolTable
 70
     0
  0
ENDTAB
  0
TABLE
  2
UCS
  5
458C6
100
AcDbSymbolTable
 70
     0
  0
ENDTAB
  0
TABLE
  2
APPID
  5
458C8
100
AcDbSymbolTable
 70
     2
  0
APPID
  5
458CF
100
AcDbSymbolTableRecord
100
AcDbRegAppTableRecord
  2
ACAD
 70
     0
  0
APPID
  5
4597D
100
AcDbSymbolTableRecord
100
AcDbRegAppTableRecord
  2
AME_SOL
 70
     0
  0
ENDTAB
  0
TABLE
  2
DIMSTYLE
  5
458C9
100
AcDbSymbolTable
 70
     2
  0
DIMSTYLE
105
458F1
102
{ACAD_XDICTIONARY
360
45C2B
102
}
100
AcDbSymbolTableRecord
100
AcDbDimStyleTableRecord
  2
ABECAD
 70
     0
  3

  4

  5

  6

  7

 40
1.0
 41
0.18
 42
0.0625
 43
0.375
 44
0.18
 45
0.0
 46
0.0
 47
0.0
 48
0.0
140
0.18
141
0.09
142
0.0
143
25.4
144
1.0
145
0.0
146
1.5
147
0.09
 71
     0
 72
     0
 73
     0
 74
     1
 75
     0
 76
     0
 77
     0
 78
     4
170
     1
171
     1
172
     0
173
     0
174
     0
175
     0
176
     0
177
     0
178
     0
270
     7
271
     6
272
     6
273
     2
274
     1
340
458CE
275
     0
280
     0
281
     0
282
     0
283
     1
284
     4
285
     4
286
     4
287
     3
288
     0
  0
DIMSTYLE
105
458F6
102
{ACAD_XDICTIONARY
360
45C2D
102
}
102
{ACAD_REACTORS
330
45B75
330
45B84
102
}
100
AcDbSymbolTableRecord
100
AcDbDimStyleTableRecord
  2
ABECAD_3D
 70
     0
  3

  4

  5

  6

  7

 40
1.0
 41
0.18
 42
0.0625
 43
0.375
 44
0.18
 45
0.0
 46
0.0
 47
0.0
 48
0.0
140
0.18
141
0.09
142
0.0
143
25.4
144
1.0
145
0.0
146
1.5
147
0.09
 71
     0
 72
     0
 73
     0
 74
     1
 75
     0
 76
     0
 77
     0
 78
     4
170
     1
171
     1
172
     0
173
     0
174
     0
175
     0
176
     0
177
     0
178
     0
270
     7
271
     6
272
     6
273
     2
274
     1
340
458CE
275
     0
280
     0
281
     0
282
     0
283
     1
284
     4
285
     4
286
     4
287
     3
288
     0
  0
ENDTAB
  0
TABLE
  2
BLOCK_RECORD
  5
458C0
100
AcDbSymbolTable
 70
     3
  0
BLOCK_RECORD
  5
458D6
102
{ACAD_XDICTIONARY
360
4592C
102
}
100
AcDbSymbolTableRecord
100
AcDbBlockTableRecord
  2
*MODEL_SPACE
  0
BLOCK_RECORD
  5
458D3
102
{ACAD_XDICTIONARY
360
4592A
102
}
100
AcDbSymbolTableRecord
100
AcDbBlockTableRecord
  2
*PAPER_SPACE
  0
BLOCK_RECORD
  5
4593B
102
{ACAD_XDICTIONARY
360
45C02
102
}
100
AcDbSymbolTableRecord
100
AcDbBlockTableRecord
  2
SCALE
  0
BLOCK_RECORD
  5
45B77
100
AcDbSymbolTableRecord
100
AcDbBlockTableRecord
  2
*D1
  0
BLOCK_RECORD
  5
45B85
100
AcDbSymbolTableRecord
100
AcDbBlockTableRecord
  2
*D2
  0
ENDTAB
  0
ENDSEC
  0
SECTION
  2
BLOCKS
  0
BLOCK
  5
458DF
100
AcDbEntity
  8
0
100
AcDbBlockBegin
  2
*MODEL_SPACE
 70
     0
 10
0.0
 20
0.0
 30
0.0
  3
*MODEL_SPACE
  1

  0
ENDBLK
  5
458E0
100
AcDbEntity
  8
0
100
AcDbBlockEnd
  0
BLOCK
  5
458DD
100
AcDbEntity
 67
     1
  8
0
100
AcDbBlockBegin
  2
*PAPER_SPACE
 70
     0
 10
0.0
 20
0.0
 30
0.0
  3
*PAPER_SPACE
  1

  0
ENDBLK
  5
458DE
100
AcDbEntity
 67
     1
  8
0
100
AcDbBlockEnd
  0
BLOCK
  5
45947
100
AcDbEntity
  8
0
100
AcDbBlockBegin
  2
SCALE
 70
     0
 10
0.0
 20
0.0
 30
0.0
  3
SCALE
  1

  0
LWPOLYLINE
  5
4595C
100
AcDbEntity
  8
SCALE
100
AcDbPolyline
 90
        4
 70
     1
 43
0.0
 10
0.0
 20
0.0
 10
1.135629
 20
0.0
 10
1.135629
 20
-0.84161
 10
0.0
 20
-0.84161
  0
LINE
  5
4595D
100
AcDbEntity
  8
SCALE
100
AcDbLine
 10
0.057999
 20
-0.380078
 30
0.0
 11
1.057999
 21
-0.380078
 31
0.0
  0
LINE
  5
4595E
100
AcDbEntity
  8
SCALE
100
AcDbLine
 10
0.057999
 20
-0.480078
 30
0.0
 11
0.057999
 21
-0.280078
 31
0.0
  0
TEXT
  5
4595F
100
AcDbEntity
  8
SCALE
100
AcDbText
 10
0.117421
 20
-0.634339
 30
0.0
 40
0.0625
  1
[10mm]
100
AcDbText
  0
LINE
  5
45960
100
AcDbEntity
  8
SCALE
100
AcDbLine
 10
0.057999
 20
-0.680078
 30
0.0
 11
0.451699
 21
-0.680078
 31
0.0
  0
LINE
  5
45961
100
AcDbEntity
  8
SCALE
100
AcDbLine
 10
0.057999
 20
-0.780078
 30
0.0
 11
0.057999
 21
-0.580078
 31
0.0
  0
LINE
  5
45962
100
AcDbEntity
  8
SCALE
100
AcDbLine
 10
0.451699
 20
-0.780078
 30
0.0
 11
0.451699
 21
-0.580078
 31
0.0
  0
TEXT
  5
45963
100
AcDbEntity
  8
SCALE
100
AcDbText
 10
0.059529
 20
-0.105201
 30
0.0
 40
0.0625
  1
SCALE:
100
AcDbText
  0
TEXT
  5
45964
100
AcDbEntity
  8
SCALE
100
AcDbText
 10
0.421282
 20
-0.31103
 30
0.0
 40
0.0625
  1
1 Inch
100
AcDbText
  0
LINE
  5
45965
100
AcDbEntity
  8
SCALE
100
AcDbLine
 10
1.057999
 20
-0.480078
 30
0.0
 11
1.057999
 21
-0.280078
 31
0.0
  0
LINE
  5
45966
100
AcDbEntity
  8
SCALE
100
AcDbLine
 10
1.057999
 20
-0.380078
 30
0.0
 11
1.057999
 21
-0.480078
 31
0.0
  0
ENDBLK
  5
45948
100
AcDbEntity
  8
0
100
AcDbBlockEnd
  0
BLOCK
  5
45B82
100
AcDbEntity
  8
0
100
AcDbBlockBegin
  2
*D1
 70
     1
 10
0.0
 20
0.0
 30
0.0
  3
*D1
  1

  0
LINE
  5
45B78
100
AcDbEntity
  8
AREA1
 62
     0
100
AcDbLine
 10
0.3235
 20
-0.539
 30
0.0
 11
1.946835
 21
-0.539
 31
0.0
1001
ACAD
1000
RTLwPs
1070
   158
  0
LINE
  5
45B79
100
AcDbEntity
  8
AREA1
 62
     0
100
AcDbLine
 10
0.0965
 20
10.0
 30
0.0
 11
1.946835
 21
10.0
 31
0.0
1001
ACAD
1000
RTLwPs
1070
   158
  0
LINE
  5
45B7A
100
AcDbEntity
  8
AREA1
 62
     0
100
AcDbLine
 10
1.766835
 20
-0.359
 30
0.0
 11
1.766835
 21
3.4255
 31
0.0
1001
ACAD
1000
RTLwPs
1070
   158
  0
LINE
  5
45B7B
100
AcDbEntity
  8
AREA1
 62
     0
100
AcDbLine
 10
1.766835
 20
9.82
 30
0.0
 11
1.766835
 21
6.0355
 31
0.0
1001
ACAD
1000
RTLwPs
1070
   158
  0
SOLID
  5
45B7C
100
AcDbEntity
  8
AREA1
 62
     0
100
AcDbTrace
 10
1.736835
 20
-0.359
 30
0.0
 11
1.796835
 21
-0.359
 31
0.0
 12
1.766835
 22
-0.539
 32
0.0
 13
1.766835
 23
-0.539
 33
0.0
  0
SOLID
  5
45B7D
100
AcDbEntity
  8
AREA1
 62
     0
100
AcDbTrace
 10
1.736835
 20
9.82
 30
0.0
 11
1.796835
 21
9.82
 31
0.0
 12
1.766835
 22
10.0
 32
0.0
 13
1.766835
 23
10.0
 33
0.0
  0
MTEXT
  5
45B7E
100
AcDbEntity
  8
AREA1
 62
     0
100
AcDbMText
 10
1.766835
 20
4.7305
 30
0.0
 40
0.18
 41
0.0
 71
     5
 72
     1
  1
\A1;10 17/32 [267.7]
 11
0.0
 21
1.0
 31
0.0
1001
ACAD
1000
MTEXTBEGIN
1070
    73
1070
     1
1070
    44
1040
1.0
1070
    74
1070
     0
1000
MTEXTEND
1000
MTEXTBEGIN
1070
    73
1070
     1
1070
    44
1040
1.0
1070
    74
1070
     0
1000
MTEXTEND
1000
MTEXTBEGIN
1070
    73
1070
     1
1070
    44
1040
1.0
1070
    74
1070
     0
1000
MTEXTEND
  0
POINT
  5
45B7F
100
AcDbEntity
  8
DEFPOINTS
 62
     0
100
AcDbPoint
 10
0.261
 20
-0.539
 30
5.671
  0
POINT
  5
45B80
100
AcDbEntity
  8
DEFPOINTS
 62
     0
100
AcDbPoint
 10
0.034
 20
10.0
 30
0.0
  0
POINT
  5
45B81
100
AcDbEntity
  8
DEFPOINTS
 62
     0
100
AcDbPoint
 10
1.766835
 20
10.0
 30
0.0
  0
ENDBLK
  5
45B83
100
AcDbEntity
  8
0
100
AcDbBlockEnd
  0
BLOCK
  5
45B90
100
AcDbEntity
  8
0
100
AcDbBlockBegin
  2
*D2
 70
     1
 10
0.0
 20
0.0
 30
0.0
  3
*D2
  1

  0
LINE
  5
45B86
100
AcDbEntity
  8
AREA1
 62
     0
100
AcDbLine
 10
-2.139
 20
9.9225
 30
0.0
 11
-2.139
 21
11.244595
 31
0.0
1001
ACAD
1000
RTLwPs
1070
   158
  0
LINE
  5
45B87
100
AcDbEntity
  8
AREA1
 62
     0
100
AcDbLine
 10
0.261
 20
9.9225
 30
0.0
 11
0.261
 21
11.244595
 31
0.0
1001
ACAD
1000
RTLwPs
1070
   158
  0
LINE
  5
45B88
100
AcDbEntity
  8
AREA1
 62
     0
100
AcDbLine
 10
-2.319
 20
11.064595
 30
0.0
 11
-2.499
 21
11.064595
 31
0.0
1001
ACAD
1000
RTLwPs
1070
   158
  0
LINE
  5
45B89
100
AcDbEntity
  8
AREA1
 62
     0
100
AcDbLine
 10
0.441
 20
11.064595
 30
0.0
 11
0.621
 21
11.064595
 31
0.0
1001
ACAD
1000
RTLwPs
1070
   158
  0
SOLID
  5
45B8A
100
AcDbEntity
  8
AREA1
 62
     0
100
AcDbTrace
 10
-2.319
 20
11.094595
 30
0.0
 11
-2.319
 21
11.034595
 31
0.0
 12
-2.139
 22
11.064595
 32
0.0
 13
-2.139
 23
11.064595
 33
0.0
  0
SOLID
  5
45B8B
100
AcDbEntity
  8
AREA1
 62
     0
100
AcDbTrace
 10
0.441
 20
11.094595
 30
0.0
 11
0.441
 21
11.034595
 31
0.0
 12
0.261
 22
11.064595
 32
0.0
 13
0.261
 23
11.064595
 33
0.0
  0
MTEXT
  5
45B8C
100
AcDbEntity
  8
AREA1
 62
     0
100
AcDbMText
 10
-0.939
 20
11.064595
 30
0.0
 40
0.18
 41
0.0
 71
     5
 72
     1
  1
\A1;2 13/32 [61.0]
1001
ACAD
1000
MTEXTBEGIN
1070
    73
1070
     1
1070
    44
1040
1.0
1070
    74
1070
     0
1000
MTEXTEND
1000
MTEXTBEGIN
1070
    73
1070
     1
1070
    44
1040
1.0
1070
    74
1070
     0
1000
MTEXTEND
1000
MTEXTBEGIN
1070
    73
1070
     1
1070
    44
1040
1.0
1070
    74
1070
     0
1000
MTEXTEND
  0
POINT
  5
45B8D
100
AcDbEntity
  8
DEFPOINTS
 62
     0
100
AcDbPoint
 10
-2.139
 20
9.86
 30
5.671
  0
POINT
  5
45B8E
100
AcDbEntity
  8
DEFPOINTS
 62
     0
100
AcDbPoint
 10
0.261
 20
9.86
 30
5.671
  0
POINT
  5
45B8F
100
AcDbEntity
  8
DEFPOINTS
 62
     0
100
AcDbPoint
 10
0.261
 20
11.064595
 30
0.0
  0
ENDBLK
  5
45B91
100
AcDbEntity
  8
0
100
AcDbBlockEnd
  0
ENDSEC
  0
SECTION
  2
ENTITIES
  0
ATTDEF
  5
1
100
AcDbEntity
  8
ATTRIBUTES
100
AcDbText
 10
-1.976739
 20
1.740265
 30
0.0
 40
0.12
  1
ALLEN-BRADLEY
100
AcDbAttributeDefinition
  3
MANUFACTURER NAME?
  2
AC_VND_LABEL
 70
     1
  0
ATTDEF
  5
2
100
AcDbEntity
  8
ATTRIBUTES
100
AcDbText
 10
-1.976739
 20
1.490265
 30
0.0
 40
0.12
  1
1771-P10
100
AcDbAttributeDefinition
  3
CATALOG NUMBER?
  2
AC_PART_NO
 70
     1
  0
ATTDEF
  5
3
100
AcDbEntity
  8
ATTRIBUTES
100
AcDbText
 10
-1.976739
 20
1.240265
 30
0.0
 40
0.12
  1
1771-P10: POWER SUPPLY, 2-SLOT MODULE, 8A, 125V DC
100
AcDbAttributeDefinition
  3
PART DESCRIPTION?
  2
AC_DESCRIPTION
 70
     1
  0
ATTDEF
  5
4
100
AcDbEntity
  8
ATTRIBUTES
100
AcDbText
 10
-1.976739
 20
0.990265
 30
0.0
 40
0.12
  1

100
AcDbAttributeDefinition
  3
DEVICE ID?
  2
DEVICE_ID
 70
     1
  0
ATTDEF
  5
5
100
AcDbEntity
  8
ATTRIBUTES
100
AcDbText
 10
-1.976739
 20
0.740265
 30
0.0
 40
0.12
  1

100
AcDbAttributeDefinition
  3
CUSTOMER PART NUMBER?
  2
AC_CPART_NO
 70
     1
  0
ATTDEF
  5
6
100
AcDbEntity
  8
ATTRIBUTES
100
AcDbText
 10
-1.976739
 20
0.490265
 30
0.0
 40
0.12
  1

100
AcDbAttributeDefinition
  3
CUSTOMER NOTE?
  2
AC_NOTE
 70
     1
  0
ATTDEF
  5
7
100
AcDbEntity
  8
ATTRIBUTES
100
AcDbText
 10
-1.976739
 20
0.240265
 30
0.0
 40
0.12
  1

100
AcDbAttributeDefinition
  3
FASTENER DATA?
  2
FASTENER
 70
     1
  0
ATTDEF
  5
8
100
AcDbEntity
  8
ATTRIBUTES
100
AcDbText
 10
-1.976739
 20
-0.009735
 30
0.0
 40
0.12
  1
INCH
100
AcDbAttributeDefinition
  3
UNIT OF SCALE?
  2
AC_SCALE_UNIT
 70
     1
  0
ATTDEF
  5
9
100
AcDbEntity
  8
ATTRIBUTES
100
AcDbText
 10
-1.976739
 20
-0.259735
 30
0.0
 40
0.12
  1
0
100
AcDbAttributeDefinition
  3
VIEW CODE?
  2
AC_VIEW_CODE
 70
     1
  0
INSERT
  5
45967
100
AcDbEntity
  8
SCALE
100
AcDbBlockReference
  2
SCALE
 10
-2.168459
 20
-1.028325
 30
0.0
  0
POLYLINE
  5
45A7B
100
AcDbEntity
  8
0
100
AcDbPolygonMesh
 66
     1
 10
0.0
 20
0.0
 30
0.0
 70
    16
 71
     6
 72
     3
  0
VERTEX
  5
45A7C
100
AcDbEntity
  8
0
100
AcDbVertex
100
AcDbPolygonMeshVertex
 10
0.236
 20
0.2
 30
5.67
 70
    64
  0
VERTEX
  5
45A7D
100
AcDbEntity
  8
0
100
AcDbVertex
100
AcDbPolygonMeshVertex
 10
0.236
 20
0.2
 30
4.925
 70
    64
  0
VERTEX
  5
45A7E
100
AcDbEntity
  8
0
100
AcDbVertex
100
AcDbPolygonMeshVertex
 10
0.236
 20
0.2
 30
4.925
 70
    64
  0
VERTEX
  5
45A7F
100
AcDbEntity
  8
0
100
AcDbVertex
100
AcDbPolygonMeshVertex
 10
-2.139
 20
0.2
 30
5.67
 70
    64
  0
VERTEX
  5
45A80
100
AcDbEntity
  8
0
100
AcDbVertex
100
AcDbPolygonMeshVertex
 10
-2.139
 20
0.2
 30
4.925
 70
    64
  0
VERTEX
  5
45A81
100
AcDbEntity
  8
0
100
AcDbVertex
100
AcDbPolygonMeshVertex
 10
-2.139
 20
0.2
 30
4.925
 70
    64
  0
VERTEX
  5
45A82
100
AcDbEntity
  8
0
100
AcDbVertex
100
AcDbPolygonMeshVertex
 10
-2.139
 20
9.0
 30
5.67
 70
    64
  0
VERTEX
  5
45A83
100
AcDbEntity
  8
0
100
AcDbVertex
100
AcDbPolygonMeshVertex
 10
-2.139
 20
9.0
 30
4.925
 70
    64
  0
VERTEX
  5
45A84
100
AcDbEntity
  8
0
100
AcDbVertex
100
AcDbPolygonMeshVertex
 10
-2.139
 20
0.2
 30
4.925
 70
    64
  0
VERTEX
  5
45A85
100
AcDbEntity
  8
0
100
AcDbVertex
100
AcDbPolygonMeshVertex
 10
0.236
 20
9.0
 30
5.67
 70
    64
  0
VERTEX
  5
45A86
100
AcDbEntity
  8
0
100
AcDbVertex
100
AcDbPolygonMeshVertex
 10
0.236
 20
9.0
 30
4.925
 70
    64
  0
VERTEX
  5
45A87
100
AcDbEntity
  8
0
100
AcDbVertex
100
AcDbPolygonMeshVertex
 10
0.236
 20
0.2
 30
4.925
 70
    64
  0
VERTEX
  5
45A88
100
AcDbEntity
  8
0
100
AcDbVertex
100
AcDbPolygonMeshVertex
 10
0.236
 20
9.0
 30
5.67
 70
    64
  0
VERTEX
  5
45A89
100
AcDbEntity
  8
0
100
AcDbVertex
100
AcDbPolygonMeshVertex
 10
0.236
 20
9.0
 30
5.67
 70
    64
  0
VERTEX
  5
45A8A
100
AcDbEntity
  8
0
100
AcDbVertex
100
AcDbPolygonMeshVertex
 10
0.236
 20
0.2
 30
5.67
 70
    64
  0
VERTEX
  5
45A8B
100
AcDbEntity
  8
0
100
AcDbVertex
100
AcDbPolygonMeshVertex
 10
-2.139
 20
9.0
 30
5.67
 70
    64
  0
VERTEX
  5
45A8C
100
AcDbEntity
  8
0
100
AcDbVertex
100
AcDbPolygonMeshVertex
 10
-2.139
 20
9.0
 30
5.67
 70
    64
  0
VERTEX
  5
45A8D
100
AcDbEntity
  8
0
100
AcDbVertex
100
AcDbPolygonMeshVertex
 10
-2.139
 20
0.2
 30
5.67
 70
    64
  0
SEQEND
  5
45A8E
100
AcDbEntity
  8
0
  0
LINE
  5
45A8F
100
AcDbEntity
  8
0
100
AcDbLine
 10
-2.139
 20
9.0
 30
4.925
 11
-2.139
 21
0.2
 31
4.925
  0
POLYLINE
  5
45A90
100
AcDbEntity
  8
0
100
AcDbPolygonMesh
 66
     1
 10
0.0
 20
0.0
 30
0.0
 70
    16
 71
     6
 72
     3
  0
VERTEX
  5
45A91
100
AcDbEntity
  8
0
100
AcDbVertex
100
AcDbPolygonMeshVertex
 10
0.236
 20
0.2
 30
4.925
 70
    64
  0
VERTEX
  5
45A92
100
AcDbEntity
  8
0
100
AcDbVertex
100
AcDbPolygonMeshVertex
 10
0.236
 20
0.2
 30
0.0
 70
    64
  0
VERTEX
  5
45A93
100
AcDbEntity
  8
0
100
AcDbVertex
100
AcDbPolygonMeshVertex
 10
0.236
 20
0.2
 30
0.0
 70
    64
  0
VERTEX
  5
45A94
100
AcDbEntity
  8
0
100
AcDbVertex
100
AcDbPolygonMeshVertex
 10
-2.139
 20
0.2
 30
4.925
 70
    64
  0
VERTEX
  5
45A95
100
AcDbEntity
  8
0
100
AcDbVertex
100
AcDbPolygonMeshVertex
 10
-2.139
 20
0.2
 30
0.0
 70
    64
  0
VERTEX
  5
45A96
100
AcDbEntity
  8
0
100
AcDbVertex
100
AcDbPolygonMeshVertex
 10
-2.139
 20
0.2
 30
0.0
 70
    64
  0
VERTEX
  5
45A97
100
AcDbEntity
  8
0
100
AcDbVertex
100
AcDbPolygonMeshVertex
 10
-2.139
 20
9.8
 30
4.925
 70
    64
  0
VERTEX
  5
45A98
100
AcDbEntity
  8
0
100
AcDbVertex
100
AcDbPolygonMeshVertex
 10
-2.139
 20
9.8
 30
0.0
 70
    64
  0
VERTEX
  5
45A99
100
AcDbEntity
  8
0
100
AcDbVertex
100
AcDbPolygonMeshVertex
 10
-2.139
 20
0.2
 30
0.0
 70
    64
  0
VERTEX
  5
45A9A
100
AcDbEntity
  8
0
100
AcDbVertex
100
AcDbPolygonMeshVertex
 10
0.236
 20
9.8
 30
4.925
 70
    64
  0
VERTEX
  5
45A9B
100
AcDbEntity
  8
0
100
AcDbVertex
100
AcDbPolygonMeshVertex
 10
0.236
 20
9.8
 30
0.0
 70
    64
  0
VERTEX
  5
45A9C
100
AcDbEntity
  8
0
100
AcDbVertex
100
AcDbPolygonMeshVertex
 10
0.236
 20
0.2
 30
0.0
 70
    64
  0
VERTEX
  5
45A9D
100
AcDbEntity
  8
0
100
AcDbVertex
100
AcDbPolygonMeshVertex
 10
0.236
 20
9.8
 30
4.925
 70
    64
  0
VERTEX
  5
45A9E
100
AcDbEntity
  8
0
100
AcDbVertex
100
AcDbPolygonMeshVertex
 10
0.236
 20
9.8
 30
4.925
 70
    64
  0
VERTEX
  5
45A9F
100
AcDbEntity
  8
0
100
AcDbVertex
100
AcDbPolygonMeshVertex
 10
0.236
 20
0.2
 30
4.925
 70
    64
  0
VERTEX
  5
45AA0
100
AcDbEntity
  8
0
100
AcDbVertex
100
AcDbPolygonMeshVertex
 10
-2.139
 20
9.8
 30
4.925
 70
    64
  0
VERTEX
  5
45AA1
100
AcDbEntity
  8
0
100
AcDbVertex
100
AcDbPolygonMeshVertex
 10
-2.139
 20
9.8
 30
4.925
 70
    64
  0
VERTEX
  5
45AA2
100
AcDbEntity
  8
0
100
AcDbVertex
100
AcDbPolygonMeshVertex
 10
-2.139
 20
0.2
 30
4.925
 70
    64
  0
SEQEND
  5
45AA3
100
AcDbEntity
  8
0
  0
POLYLINE
  5
45AA4
100
AcDbEntity
  8
0
100
AcDbPolygonMesh
 66
     1
 10
0.0
 20
0.0
 30
0.0
 70
    16
 71
     6
 72
     3
  0
VERTEX
  5
45AA5
100
AcDbEntity
  8
0
100
AcDbVertex
100
AcDbPolygonMeshVertex
 10
0.261
 20
-0.539
 30
5.796
 70
    64
  0
VERTEX
  5
45AA6
100
AcDbEntity
  8
0
100
AcDbVertex
100
AcDbPolygonMeshVertex
 10
0.261
 20
-0.539
 30
5.671
 70
    64
  0
VERTEX
  5
45AA7
100
AcDbEntity
  8
0
100
AcDbVertex
100
AcDbPolygonMeshVertex
 10
0.261
 20
-0.539
 30
5.671
 70
    64
  0
VERTEX
  5
45AA8
100
AcDbEntity
  8
0
100
AcDbVertex
100
AcDbPolygonMeshVertex
 10
-2.139
 20
-0.539
 30
5.796
 70
    64
  0
VERTEX
  5
45AA9
100
AcDbEntity
  8
0
100
AcDbVertex
100
AcDbPolygonMeshVertex
 10
-2.139
 20
-0.539
 30
5.671
 70
    64
  0
VERTEX
  5
45AAA
100
AcDbEntity
  8
0
100
AcDbVertex
100
AcDbPolygonMeshVertex
 10
-2.139
 20
-0.539
 30
5.671
 70
    64
  0
VERTEX
  5
45AAB
100
AcDbEntity
  8
0
100
AcDbVertex
100
AcDbPolygonMeshVertex
 10
-2.139
 20
9.86
 30
5.796
 70
    64
  0
VERTEX
  5
45AAC
100
AcDbEntity
  8
0
100
AcDbVertex
100
AcDbPolygonMeshVertex
 10
-2.139
 20
9.86
 30
5.671
 70
    64
  0
VERTEX
  5
45AAD
100
AcDbEntity
  8
0
100
AcDbVertex
100
AcDbPolygonMeshVertex
 10
-2.139
 20
-0.539
 30
5.671
 70
    64
  0
VERTEX
  5
45AAE
100
AcDbEntity
  8
0
100
AcDbVertex
100
AcDbPolygonMeshVertex
 10
0.261
 20
9.86
 30
5.796
 70
    64
  0
VERTEX
  5
45AAF
100
AcDbEntity
  8
0
100
AcDbVertex
100
AcDbPolygonMeshVertex
 10
0.261
 20
9.86
 30
5.671
 70
    64
  0
VERTEX
  5
45AB0
100
AcDbEntity
  8
0
100
AcDbVertex
100
AcDbPolygonMeshVertex
 10
0.261
 20
-0.539
 30
5.671
 70
    64
  0
VERTEX
  5
45AB1
100
AcDbEntity
  8
0
100
AcDbVertex
100
AcDbPolygonMeshVertex
 10
0.261
 20
9.86
 30
5.796
 70
    64
  0
VERTEX
  5
45AB2
100
AcDbEntity
  8
0
100
AcDbVertex
100
AcDbPolygonMeshVertex
 10
0.261
 20
9.86
 30
5.796
 70
    64
  0
VERTEX
  5
45AB3
100
AcDbEntity
  8
0
100
AcDbVertex
100
AcDbPolygonMeshVertex
 10
0.261
 20
-0.539
 30
5.796
 70
    64
  0
VERTEX
  5
45AB4
100
AcDbEntity
  8
0
100
AcDbVertex
100
AcDbPolygonMeshVertex
 10
-2.139
 20
9.86
 30
5.796
 70
    64
  0
VERTEX
  5
45AB5
100
AcDbEntity
  8
0
100
AcDbVertex
100
AcDbPolygonMeshVertex
 10
-2.139
 20
9.86
 30
5.796
 70
    64
  0
VERTEX
  5
45AB6
100
AcDbEntity
  8
0
100
AcDbVertex
100
AcDbPolygonMeshVertex
 10
-2.139
 20
-0.539
 30
5.796
 70
    64
  0
SEQEND
  5
45AB7
100
AcDbEntity
  8
0
  0
LINE
  5
45AB8
100
AcDbEntity
  8
0
100
AcDbLine
 10
-2.139
 20
9.0
 30
4.925
 11
-2.139
 21
0.2
 31
4.925
  0
LINE
  5
45AB9
100
AcDbEntity
  8
0
 62
     7
100
AcDbLine
 10
-1.585818
 20
3.874784
 30
5.843784
 11
-1.586099
 21
3.86505
 31
5.843784
  0
LINE
  5
45ABA
100
AcDbEntity
  8
0
 62
     7
100
AcDbLine
 10
-1.711751
 20
3.86505
 30
5.843784
 11
-1.712033
 21
3.874784
 31
5.843784
  0
LINE
  5
45ABB
100
AcDbEntity
  8
0
 62
     7
100
AcDbLine
 10
-1.648925
 20
3.945259
 30
5.843784
 11
-1.648925
 21
3.712827
 31
6.246368
1001
AME_SOL
1070
     0
1071
        1
  0
CIRCLE
  5
45ABC
100
AcDbEntity
  8
0
 62
     7
100
AcDbCircle
 10
-1.648925
 20
3.908143
 30
5.843784
 40
0.25
1001
AME_SOL
1070
     1
1071
        9
  0
CIRCLE
  5
45ABD
100
AcDbEntity
  8
0
 62
     7
100
AcDbCircle
 10
-1.648925
 20
3.908143
 30
5.719784
 40
0.25
1001
AME_SOL
1070
     1
1071
        8
  0
POLYLINE
  5
45ABE
100
AcDbEntity
  8
0
100
AcDbPolygonMesh
 66
     1
 10
0.0
 20
0.0
 30
0.0
 70
    16
 71
     6
 72
     3
  0
VERTEX
  5
45ABF
100
AcDbEntity
  8
0
100
AcDbVertex
100
AcDbPolygonMeshVertex
 10
0.034
 20
0.0
 30
4.755
 70
    64
  0
VERTEX
  5
45AC0
100
AcDbEntity
  8
0
100
AcDbVertex
100
AcDbPolygonMeshVertex
 10
0.034
 20
0.0
 30
0.0
 70
    64
  0
VERTEX
  5
45AC1
100
AcDbEntity
  8
0
100
AcDbVertex
100
AcDbPolygonMeshVertex
 10
0.034
 20
0.0
 30
0.0
 70
    64
  0
VERTEX
  5
45AC2
100
AcDbEntity
  8
0
100
AcDbVertex
100
AcDbPolygonMeshVertex
 10
-0.034
 20
0.0
 30
4.755
 70
    64
  0
VERTEX
  5
45AC3
100
AcDbEntity
  8
0
100
AcDbVertex
100
AcDbPolygonMeshVertex
 10
-0.034
 20
0.0
 30
0.0
 70
    64
  0
VERTEX
  5
45AC4
100
AcDbEntity
  8
0
100
AcDbVertex
100
AcDbPolygonMeshVertex
 10
-0.034
 20
0.0
 30
0.0
 70
    64
  0
VERTEX
  5
45AC5
100
AcDbEntity
  8
0
100
AcDbVertex
100
AcDbPolygonMeshVertex
 10
-0.034
 20
0.2
 30
4.755
 70
    64
  0
VERTEX
  5
45AC6
100
AcDbEntity
  8
0
100
AcDbVertex
100
AcDbPolygonMeshVertex
 10
-0.034
 20
0.2
 30
0.0
 70
    64
  0
VERTEX
  5
45AC7
100
AcDbEntity
  8
0
100
AcDbVertex
100
AcDbPolygonMeshVertex
 10
-0.034
 20
0.0
 30
0.0
 70
    64
  0
VERTEX
  5
45AC8
100
AcDbEntity
  8
0
100
AcDbVertex
100
AcDbPolygonMeshVertex
 10
0.034
 20
0.2
 30
4.755
 70
    64
  0
VERTEX
  5
45AC9
100
AcDbEntity
  8
0
100
AcDbVertex
100
AcDbPolygonMeshVertex
 10
0.034
 20
0.2
 30
0.0
 70
    64
  0
VERTEX
  5
45ACA
100
AcDbEntity
  8
0
100
AcDbVertex
100
AcDbPolygonMeshVertex
 10
0.034
 20
0.0
 30
0.0
 70
    64
  0
VERTEX
  5
45ACB
100
AcDbEntity
  8
0
100
AcDbVertex
100
AcDbPolygonMeshVertex
 10
0.034
 20
0.2
 30
4.755
 70
    64
  0
VERTEX
  5
45ACC
100
AcDbEntity
  8
0
100
AcDbVertex
100
AcDbPolygonMeshVertex
 10
0.034
 20
0.2
 30
4.755
 70
    64
  0
VERTEX
  5
45ACD
100
AcDbEntity
  8
0
100
AcDbVertex
100
AcDbPolygonMeshVertex
 10
0.034
 20
0.0
 30
4.755
 70
    64
  0
VERTEX
  5
45ACE
100
AcDbEntity
  8
0
100
AcDbVertex
100
AcDbPolygonMeshVertex
 10
-0.034
 20
0.2
 30
4.755
 70
    64
  0
VERTEX
  5
45ACF
100
AcDbEntity
  8
0
100
AcDbVertex
100
AcDbPolygonMeshVertex
 10
-0.034
 20
0.2
 30
4.755
 70
    64
  0
VERTEX
  5
45AD0
100
AcDbEntity
  8
0
100
AcDbVertex
100
AcDbPolygonMeshVertex
 10
-0.034
 20
0.0
 30
4.755
 70
    64
  0
SEQEND
  5
45AD1
100
AcDbEntity
  8
0
  0
POINT
  5
45AD2
100
AcDbEntity
  8
SNAP_POINTS
100
AcDbPoint
 10
0.0
 20
0.0
 30
0.0
  0
TEXT
  5
45AD3
100
AcDbEntity
  8
0
100
AcDbText
 39
0.001
 10
-0.979578
 20
0.355447
 30
5.795
 40
0.2
  1
125VDC
100
AcDbText
  0
LINE
  5
45AD4
100
AcDbEntity
  8
0
100
AcDbLine
 39
0.001
 10
-0.011614
 20
0.605
 30
5.796
 11
-0.604614
 21
0.605
 31
5.796
  0
CIRCLE
  5
45AD5
100
AcDbEntity
  8
0
 62
     0
100
AcDbCircle
 10
-0.281614
 20
2.96
 30
5.996
 40
0.279508
1001
AME_SOL
1070
     1
1071
        4
  0
CIRCLE
  5
45AD6
100
AcDbEntity
  8
0
 62
     0
100
AcDbCircle
 10
-0.281614
 20
2.96
 30
5.796
 40
0.279508
1001
AME_SOL
1070
     1
1071
        5
  0
TEXT
  5
45AD7
100
AcDbEntity
  8
0
100
AcDbText
 39
0.001
 10
-0.680378
 20
2.401714
 30
5.796
 40
0.2
  1
FUSE
100
AcDbText
  0
LINE
  5
45AD8
100
AcDbEntity
  8
0
100
AcDbLine
 39
0.001
 10
-0.604614
 20
2.304
 30
5.796
 11
-0.011614
 21
2.304
 31
5.796
  0
TEXT
  5
45AD9
100
AcDbEntity
  8
0
100
AcDbText
 39
0.001
 10
-1.889984
 20
3.388143
 30
5.796
 40
0.2
  1
OFF
100
AcDbText
  0
TEXT
  5
45ADA
100
AcDbEntity
  8
0
100
AcDbText
 39
0.001
 10
-1.234504
 20
1.879
 30
5.796
 40
0.2
  1
+DC
100
AcDbText
  0
LINE
  5
45ADB
100
AcDbEntity
  8
0
100
AcDbLine
 39
0.001
 10
-0.604614
 20
0.605
 30
5.796
 11
-0.604614
 21
2.304
 31
5.796
  0
TEXT
  5
45ADC
100
AcDbEntity
  8
0
100
AcDbText
 39
0.001
 10
-1.234504
 20
0.855
 30
5.796
 40
0.2
  1
GND
100
AcDbText
  0
TEXT
  5
45ADD
100
AcDbEntity
  8
0
100
AcDbText
 39
0.001
 10
-1.234504
 20
1.379
 30
5.796
 40
0.2
  1
COM
100
AcDbText
  0
LINE
  5
45ADE
100
AcDbEntity
  8
0
 62
     7
100
AcDbLine
 10
-1.712068
 20
3.872348
 30
5.843784
 11
-1.712068
 21
3.658143
 31
6.214797
1001
AME_SOL
1070
     0
1071
        1
  0
LINE
  5
45ADF
100
AcDbEntity
  8
0
 62
     7
100
AcDbLine
 10
-1.648925
 20
3.799437
 30
5.843784
 11
-1.648925
 21
3.60346
 31
6.183225
1001
AME_SOL
1070
     0
1071
        1
  0
LINE
  5
45AE0
100
AcDbEntity
  8
0
 62
     7
100
AcDbLine
 10
-1.585782
 20
3.872348
 30
5.843784
 11
-1.585782
 21
3.658143
 31
6.214797
1001
AME_SOL
1070
     0
1071
        1
  0
LINE
  5
45AE1
100
AcDbEntity
  8
0
 62
     7
100
AcDbLine
 10
-1.648925
 20
3.658143
 30
5.719784
 11
-1.648925
 21
3.658143
 31
5.843784
1001
AME_SOL
1070
     0
1071
        3
  0
LINE
  5
45AE2
100
AcDbEntity
  8
0
 62
     7
100
AcDbLine
 10
-1.688058
 20
3.815127
 30
5.843784
 11
-1.694314
 21
3.82166
 31
5.843784
  0
LINE
  5
45AE3
100
AcDbEntity
  8
0
 62
     7
100
AcDbLine
 10
-1.69976
 20
3.829098
 30
5.843784
 11
-1.704298
 21
3.837308
 31
5.843784
  0
LINE
  5
45AE4
100
AcDbEntity
  8
0
 62
     7
100
AcDbLine
 10
-1.710348
 20
3.855445
 30
5.843784
 11
-1.711751
 21
3.86505
 31
5.843784
  0
LINE
  5
45AE5
100
AcDbEntity
  8
0
 62
     7
100
AcDbLine
 10
-1.707849
 20
3.846143
 30
5.843784
 11
-1.710348
 21
3.855445
 31
5.843784
  0
LINE
  5
45AE6
100
AcDbEntity
  8
0
 62
     7
100
AcDbLine
 10
-1.704298
 20
3.837308
 30
5.843784
 11
-1.707849
 21
3.846143
 31
5.843784
  0
LINE
  5
45AE7
100
AcDbEntity
  8
0
 62
     7
100
AcDbLine
 10
-1.694314
 20
3.82166
 30
5.843784
 11
-1.69976
 21
3.829098
 31
5.843784
  0
LINE
  5
45AE8
100
AcDbEntity
  8
0
 62
     7
100
AcDbLine
 10
-1.603537
 20
3.82166
 30
5.843784
 11
-1.609792
 21
3.815127
 31
5.843784
  0
LINE
  5
45AE9
100
AcDbEntity
  8
0
 62
     7
100
AcDbLine
 10
-1.632243
 20
3.802027
 30
5.843784
 11
-1.648925
 21
3.799437
 31
5.843784
  0
LINE
  5
45AEA
100
AcDbEntity
  8
0
 62
     7
100
AcDbLine
 10
-1.624275
 20
3.805222
 30
5.843784
 11
-1.632243
 21
3.802027
 31
5.843784
  0
LINE
  5
45AEB
100
AcDbEntity
  8
0
 62
     7
100
AcDbLine
 10
-1.616747
 20
3.809615
 30
5.843784
 11
-1.624275
 21
3.805222
 31
5.843784
  0
LINE
  5
45AEC
100
AcDbEntity
  8
0
 62
     7
100
AcDbLine
 10
-1.609792
 20
3.815127
 30
5.843784
 11
-1.616747
 21
3.809615
 31
5.843784
  0
LINE
  5
45AED
100
AcDbEntity
  8
0
 62
     7
100
AcDbLine
 10
-1.665607
 20
3.802027
 30
5.843784
 11
-1.673575
 21
3.805222
 31
5.843784
  0
LINE
  5
45AEE
100
AcDbEntity
  8
0
 62
     7
100
AcDbLine
 10
-1.657341
 20
3.800087
 30
5.843784
 11
-1.665607
 21
3.802027
 31
5.843784
  0
LINE
  5
45AEF
100
AcDbEntity
  8
0
 62
     7
100
AcDbLine
 10
-1.648925
 20
3.799437
 30
5.843784
 11
-1.657341
 21
3.800087
 31
5.843784
  0
LINE
  5
45AF0
100
AcDbEntity
  8
0
 62
     7
100
AcDbLine
 10
-1.681104
 20
3.809615
 30
5.843784
 11
-1.688058
 21
3.815127
 31
5.843784
  0
LINE
  5
45AF1
100
AcDbEntity
  8
0
 62
     7
100
AcDbLine
 10
-1.673575
 20
3.805222
 30
5.843784
 11
-1.681104
 21
3.809615
 31
5.843784
  0
LINE
  5
45AF2
100
AcDbEntity
  8
0
 62
     7
100
AcDbLine
 10
-1.587502
 20
3.855445
 30
5.843784
 11
-1.590001
 21
3.846143
 31
5.843784
  0
LINE
  5
45AF3
100
AcDbEntity
  8
0
 62
     7
100
AcDbLine
 10
-1.586099
 20
3.86505
 30
5.843784
 11
-1.587502
 21
3.855445
 31
5.843784
  0
LINE
  5
45AF4
100
AcDbEntity
  8
0
 62
     7
100
AcDbLine
 10
-1.598091
 20
3.829098
 30
5.843784
 11
-1.603537
 21
3.82166
 31
5.843784
  0
LINE
  5
45AF5
100
AcDbEntity
  8
0
 62
     7
100
AcDbLine
 10
-1.593552
 20
3.837308
 30
5.843784
 11
-1.598091
 21
3.829098
 31
5.843784
  0
LINE
  5
45AF6
100
AcDbEntity
  8
0
 62
     7
100
AcDbLine
 10
-1.590001
 20
3.846143
 30
5.843784
 11
-1.593552
 21
3.837308
 31
5.843784
  0
LINE
  5
45AF7
100
AcDbEntity
  8
0
 62
     0
100
AcDbLine
 10
-0.561123
 20
2.96
 30
5.796
 11
-0.561123
 21
2.96
 31
5.996
1001
AME_SOL
1070
     0
1071
        1
  0
CIRCLE
  5
45AF8
100
AcDbEntity
  8
0
 62
     7
100
AcDbCircle
 10
-1.648925
 20
6.275443
 30
3.5531
 40
0.063143
210
0.0
220
-0.5
230
0.8660254037844387
1001
AME_SOL
1070
     1
1071
        6
  0
LINE
  5
45AF9
100
AcDbEntity
  8
0
 62
     7
100
AcDbLine
 10
-0.379359
 20
2.073693
 30
5.916
 11
-0.265456
 21
1.858946
 31
5.916
1001
AME_SOL
1070
     1
1071
       14
  0
ARC
  5
45AFA
100
AcDbEntity
  8
0
 62
     7
100
AcDbCircle
 10
-0.296614
 20
1.98
 30
5.916
 40
0.125
100
AcDbArc
 50
311.449442
 51
104.434342
1001
AME_SOL
1070
     1
1071
       17
  0
LINE
  5
45AFB
100
AcDbEntity
  8
0
 62
     7
100
AcDbLine
 10
-0.21387
 20
1.886307
 30
5.916
 11
-0.327773
 21
2.101054
 31
5.916
1001
AME_SOL
1070
     1
1071
       10
  0
LINE
  5
45AFC
100
AcDbEntity
  8
0
 62
     7
100
AcDbLine
 10
-0.379359
 20
2.073693
 30
5.887
 11
-0.265456
 21
1.858946
 31
5.887
1001
AME_SOL
1070
     1
1071
       11
  0
LINE
  5
45AFD
100
AcDbEntity
  8
0
 62
     7
100
AcDbLine
 10
-0.21387
 20
1.886307
 30
5.887
 11
-0.327773
 21
2.101054
 31
5.887
1001
AME_SOL
1070
     1
1071
        7
  0
CIRCLE
  5
45AFE
100
AcDbEntity
  8
0
 62
     7
100
AcDbCircle
 10
-0.296614
 20
1.98
 30
5.796
 40
0.125
1001
AME_SOL
1070
     1
1071
       19
  0
LINE
  5
45AFF
100
AcDbEntity
  8
0
100
AcDbLine
 39
0.001
 10
-0.011614
 20
2.304
 30
5.796
 11
-0.011614
 21
0.605
 31
5.796
  0
ARC
  5
45B00
100
AcDbEntity
  8
0
 62
     7
100
AcDbCircle
 10
-0.296614
 20
1.98
 30
5.916
 40
0.125
100
AcDbArc
 50
131.449442
 51
284.434342
1001
AME_SOL
1070
     1
1071
       18
  0
LINE
  5
45B01
100
AcDbEntity
  8
0
 62
     7
100
AcDbLine
 10
-0.379359
 20
1.073693
 30
5.916
 11
-0.265456
 21
0.858946
 31
5.916
1001
AME_SOL
1070
     1
1071
       14
  0
ARC
  5
45B02
100
AcDbEntity
  8
0
 62
     7
100
AcDbCircle
 10
-0.296614
 20
0.98
 30
5.916
 40
0.125
100
AcDbArc
 50
311.449442
 51
104.434342
1001
AME_SOL
1070
     1
1071
       17
  0
LINE
  5
45B03
100
AcDbEntity
  8
0
 62
     7
100
AcDbLine
 10
-0.21387
 20
0.886307
 30
5.916
 11
-0.327773
 21
1.101054
 31
5.916
1001
AME_SOL
1070
     1
1071
       10
  0
LINE
  5
45B04
100
AcDbEntity
  8
0
 62
     7
100
AcDbLine
 10
-0.379359
 20
1.073693
 30
5.887
 11
-0.265456
 21
0.858946
 31
5.887
1001
AME_SOL
1070
     1
1071
       11
  0
LINE
  5
45B05
100
AcDbEntity
  8
0
 62
     7
100
AcDbLine
 10
-0.21387
 20
0.886307
 30
5.887
 11
-0.327773
 21
1.101054
 31
5.887
1001
AME_SOL
1070
     1
1071
        7
  0
CIRCLE
  5
45B06
100
AcDbEntity
  8
0
 62
     7
100
AcDbCircle
 10
-0.296614
 20
0.98
 30
5.796
 40
0.125
1001
AME_SOL
1070
     1
1071
       19
  0
ARC
  5
45B07
100
AcDbEntity
  8
0
 62
     7
100
AcDbCircle
 10
-0.296614
 20
0.98
 30
5.916
 40
0.125
100
AcDbArc
 50
131.449442
 51
284.434342
1001
AME_SOL
1070
     1
1071
       18
  0
LINE
  5
45B08
100
AcDbEntity
  8
0
 62
     7
100
AcDbLine
 10
-0.171614
 20
0.98
 30
5.796
 11
-0.171614
 21
0.98
 31
5.916
1001
AME_SOL
1070
     0
1071
        4
  0
LINE
  5
45B09
100
AcDbEntity
  8
0
 62
     7
100
AcDbLine
 10
-0.296614
 20
0.855
 30
5.796
 11
-0.296614
 21
0.855
 31
5.916
1001
AME_SOL
1070
     0
1071
        4
  0
LINE
  5
45B0A
100
AcDbEntity
  8
0
 62
     7
100
AcDbLine
 10
-0.421614
 20
0.98
 30
5.796
 11
-0.421614
 21
0.98
 31
5.916
1001
AME_SOL
1070
     0
1071
        4
  0
ARC
  5
45B0B
100
AcDbEntity
  8
0
 62
     7
100
AcDbCircle
 10
-0.296614
 20
0.98
 30
5.887
 40
0.125
100
AcDbArc
 50
284.434342
 51
311.449442
1001
AME_SOL
1070
     1
1071
       15
  0
LINE
  5
45B0C
100
AcDbEntity
  8
0
 62
     7
100
AcDbLine
 10
-0.265456
 20
0.858946
 30
5.887
 11
-0.265456
 21
0.858946
 31
5.916
1001
AME_SOL
1070
     1
1071
       13
  0
LINE
  5
45B0D
100
AcDbEntity
  8
0
 62
     7
100
AcDbLine
 10
-0.21387
 20
0.886307
 30
5.887
 11
-0.21387
 21
0.886307
 31
5.916
1001
AME_SOL
1070
     1
1071
        9
  0
ARC
  5
45B0E
100
AcDbEntity
  8
0
 62
     7
100
AcDbCircle
 10
-0.296614
 20
1.48
 30
5.916
 40
0.125
100
AcDbArc
 50
311.449442
 51
104.434342
1001
AME_SOL
1070
     1
1071
       17
  0
LINE
  5
45B0F
100
AcDbEntity
  8
0
 62
     7
100
AcDbLine
 10
-0.379359
 20
1.573693
 30
5.916
 11
-0.265456
 21
1.358946
 31
5.916
1001
AME_SOL
1070
     1
1071
       14
  0
LINE
  5
45B10
100
AcDbEntity
  8
0
 62
     7
100
AcDbLine
 10
-0.21387
 20
1.386307
 30
5.916
 11
-0.327773
 21
1.601054
 31
5.916
1001
AME_SOL
1070
     1
1071
       10
  0
LINE
  5
45B11
100
AcDbEntity
  8
0
 62
     7
100
AcDbLine
 10
-0.379359
 20
1.573693
 30
5.887
 11
-0.265456
 21
1.358946
 31
5.887
1001
AME_SOL
1070
     1
1071
       11
  0
LINE
  5
45B12
100
AcDbEntity
  8
0
 62
     7
100
AcDbLine
 10
-0.21387
 20
1.386307
 30
5.887
 11
-0.327773
 21
1.601054
 31
5.887
1001
AME_SOL
1070
     1
1071
        7
  0
CIRCLE
  5
45B13
100
AcDbEntity
  8
0
 62
     7
100
AcDbCircle
 10
-0.296614
 20
1.48
 30
5.796
 40
0.125
1001
AME_SOL
1070
     1
1071
       19
  0
ARC
  5
45B14
100
AcDbEntity
  8
0
 62
     7
100
AcDbCircle
 10
-0.296614
 20
1.48
 30
5.916
 40
0.125
100
AcDbArc
 50
131.449442
 51
284.434342
1001
AME_SOL
1070
     1
1071
       18
  0
LINE
  5
45B15
100
AcDbEntity
  8
0
 62
     7
100
AcDbLine
 10
-0.296614
 20
1.105
 30
5.796
 11
-0.296614
 21
1.105
 31
5.916
1001
AME_SOL
1070
     0
1071
        4
  0
LINE
  5
45B16
100
AcDbEntity
  8
0
 62
     7
100
AcDbLine
 10
-0.171614
 20
1.48
 30
5.796
 11
-0.171614
 21
1.48
 31
5.916
1001
AME_SOL
1070
     0
1071
        4
  0
LINE
  5
45B17
100
AcDbEntity
  8
0
 62
     7
100
AcDbLine
 10
-0.296614
 20
1.355
 30
5.796
 11
-0.296614
 21
1.355
 31
5.916
1001
AME_SOL
1070
     0
1071
        4
  0
LINE
  5
45B18
100
AcDbEntity
  8
0
 62
     7
100
AcDbLine
 10
-0.421614
 20
1.48
 30
5.796
 11
-0.421614
 21
1.48
 31
5.916
1001
AME_SOL
1070
     0
1071
        4
  0
ARC
  5
45B19
100
AcDbEntity
  8
0
 62
     7
100
AcDbCircle
 10
-0.296614
 20
0.98
 30
5.887
 40
0.125
100
AcDbArc
 50
104.434342
 51
131.449442
1001
AME_SOL
1070
     1
1071
       16
  0
LINE
  5
45B1A
100
AcDbEntity
  8
0
 62
     7
100
AcDbLine
 10
-0.379359
 20
1.073693
 30
5.887
 11
-0.379359
 21
1.073693
 31
5.916
1001
AME_SOL
1070
     1
1071
       12
  0
LINE
  5
45B1B
100
AcDbEntity
  8
0
 62
     7
100
AcDbLine
 10
-0.327773
 20
1.101054
 30
5.887
 11
-0.327773
 21
1.101054
 31
5.916
1001
AME_SOL
1070
     1
1071
        8
  0
ARC
  5
45B1C
100
AcDbEntity
  8
0
 62
     7
100
AcDbCircle
 10
-0.296614
 20
1.48
 30
5.887
 40
0.125
100
AcDbArc
 50
284.434342
 51
311.449442
1001
AME_SOL
1070
     1
1071
       15
  0
LINE
  5
45B1D
100
AcDbEntity
  8
0
 62
     7
100
AcDbLine
 10
-0.265456
 20
1.358946
 30
5.887
 11
-0.265456
 21
1.358946
 31
5.916
1001
AME_SOL
1070
     1
1071
       13
  0
LINE
  5
45B1E
100
AcDbEntity
  8
0
 62
     7
100
AcDbLine
 10
-0.21387
 20
1.386307
 30
5.887
 11
-0.21387
 21
1.386307
 31
5.916
1001
AME_SOL
1070
     1
1071
        9
  0
LINE
  5
45B1F
100
AcDbEntity
  8
0
 62
     7
100
AcDbLine
 10
-0.296614
 20
1.855
 30
5.796
 11
-0.296614
 21
1.855
 31
5.916
1001
AME_SOL
1070
     0
1071
        4
  0
LINE
  5
45B20
100
AcDbEntity
  8
0
 62
     7
100
AcDbLine
 10
-0.296614
 20
1.605
 30
5.796
 11
-0.296614
 21
1.605
 31
5.916
1001
AME_SOL
1070
     0
1071
        4
  0
ARC
  5
45B21
100
AcDbEntity
  8
0
 62
     7
100
AcDbCircle
 10
-0.296614
 20
1.48
 30
5.887
 40
0.125
100
AcDbArc
 50
104.434342
 51
131.449442
1001
AME_SOL
1070
     1
1071
       16
  0
LINE
  5
45B22
100
AcDbEntity
  8
0
 62
     7
100
AcDbLine
 10
-0.379359
 20
1.573693
 30
5.887
 11
-0.379359
 21
1.573693
 31
5.916
1001
AME_SOL
1070
     1
1071
       12
  0
LINE
  5
45B23
100
AcDbEntity
  8
0
 62
     7
100
AcDbLine
 10
-0.327773
 20
1.601054
 30
5.887
 11
-0.327773
 21
1.601054
 31
5.916
1001
AME_SOL
1070
     1
1071
        8
  0
ARC
  5
45B24
100
AcDbEntity
  8
0
 62
     7
100
AcDbCircle
 10
-0.296614
 20
1.98
 30
5.887
 40
0.125
100
AcDbArc
 50
284.434342
 51
311.449442
1001
AME_SOL
1070
     1
1071
       15
  0
LINE
  5
45B25
100
AcDbEntity
  8
0
 62
     7
100
AcDbLine
 10
-0.265456
 20
1.858946
 30
5.887
 11
-0.265456
 21
1.858946
 31
5.916
1001
AME_SOL
1070
     1
1071
       13
  0
LINE
  5
45B26
100
AcDbEntity
  8
0
 62
     7
100
AcDbLine
 10
-0.21387
 20
1.886307
 30
5.887
 11
-0.21387
 21
1.886307
 31
5.916
1001
AME_SOL
1070
     1
1071
        9
  0
LINE
  5
45B27
100
AcDbEntity
  8
0
100
AcDbLine
 39
0.001
 10
-0.342346
 20
3.197799
 30
5.996
 11
-0.342346
 21
2.722201
 31
5.996
  0
LINE
  5
45B28
100
AcDbEntity
  8
0
100
AcDbLine
 39
0.001
 10
-0.220883
 20
2.722201
 30
5.996
 11
-0.220883
 21
3.197799
 31
5.996
  0
LINE
  5
45B29
100
AcDbEntity
  8
0
 62
     7
100
AcDbLine
 10
-0.296614
 20
2.105
 30
5.796
 11
-0.296614
 21
2.105
 31
5.916
1001
AME_SOL
1070
     0
1071
        4
  0
LINE
  5
45B2A
100
AcDbEntity
  8
0
 62
     7
100
AcDbLine
 10
-0.171614
 20
1.98
 30
5.796
 11
-0.171614
 21
1.98
 31
5.916
1001
AME_SOL
1070
     0
1071
        4
  0
LINE
  5
45B2B
100
AcDbEntity
  8
0
 62
     7
100
AcDbLine
 10
-0.421614
 20
1.98
 30
5.796
 11
-0.421614
 21
1.98
 31
5.916
1001
AME_SOL
1070
     0
1071
        4
  0
ARC
  5
45B2C
100
AcDbEntity
  8
0
 62
     7
100
AcDbCircle
 10
-0.296614
 20
1.98
 30
5.887
 40
0.125
100
AcDbArc
 50
104.434342
 51
131.449442
1001
AME_SOL
1070
     1
1071
       16
  0
LINE
  5
45B2D
100
AcDbEntity
  8
0
 62
     7
100
AcDbLine
 10
-0.379359
 20
2.073693
 30
5.887
 11
-0.379359
 21
2.073693
 31
5.916
1001
AME_SOL
1070
     1
1071
       12
  0
LINE
  5
45B2E
100
AcDbEntity
  8
0
 62
     7
100
AcDbLine
 10
-0.327773
 20
2.101054
 30
5.887
 11
-0.327773
 21
2.101054
 31
5.916
1001
AME_SOL
1070
     1
1071
        8
  0
LINE
  5
45B2F
100
AcDbEntity
  8
0
 62
     0
100
AcDbLine
 10
-0.281614
 20
2.680492
 30
5.796
 11
-0.281614
 21
2.680492
 31
5.996
1001
AME_SOL
1070
     0
1071
        1
  0
LINE
  5
45B30
100
AcDbEntity
  8
0
100
AcDbLine
 39
0.001
 10
-0.342346
 20
2.722201
 30
5.996
 11
-0.220883
 21
2.722201
 31
5.996
  0
LINE
  5
45B31
100
AcDbEntity
  8
0
 62
     0
100
AcDbLine
 10
-0.281614
 20
3.239508
 30
5.796
 11
-0.281614
 21
3.239508
 31
5.996
1001
AME_SOL
1070
     0
1071
        1
  0
LINE
  5
45B32
100
AcDbEntity
  8
0
100
AcDbLine
 39
0.001
 10
-0.220883
 20
3.197799
 30
5.996
 11
-0.342346
 21
3.197799
 31
5.996
  0
LINE
  5
45B33
100
AcDbEntity
  8
0
 62
     0
100
AcDbLine
 10
-0.002106
 20
2.96
 30
5.796
 11
-0.002106
 21
2.96
 31
5.996
1001
AME_SOL
1070
     0
1071
        1
  0
POLYLINE
  5
45B34
100
AcDbEntity
  8
0
100
AcDbPolygonMesh
 66
     1
 10
0.0
 20
0.0
 30
0.0
 70
    16
 71
     6
 72
     3
  0
VERTEX
  5
45B35
100
AcDbEntity
  8
0
100
AcDbVertex
100
AcDbPolygonMeshVertex
 10
0.034
 20
9.8
 30
4.755
 70
    64
  0
VERTEX
  5
45B36
100
AcDbEntity
  8
0
100
AcDbVertex
100
AcDbPolygonMeshVertex
 10
0.034
 20
9.8
 30
0.0
 70
    64
  0
VERTEX
  5
45B37
100
AcDbEntity
  8
0
100
AcDbVertex
100
AcDbPolygonMeshVertex
 10
0.034
 20
9.8
 30
0.0
 70
    64
  0
VERTEX
  5
45B38
100
AcDbEntity
  8
0
100
AcDbVertex
100
AcDbPolygonMeshVertex
 10
-0.034
 20
9.8
 30
4.755
 70
    64
  0
VERTEX
  5
45B39
100
AcDbEntity
  8
0
100
AcDbVertex
100
AcDbPolygonMeshVertex
 10
-0.034
 20
9.8
 30
0.0
 70
    64
  0
VERTEX
  5
45B3A
100
AcDbEntity
  8
0
100
AcDbVertex
100
AcDbPolygonMeshVertex
 10
-0.034
 20
9.8
 30
0.0
 70
    64
  0
VERTEX
  5
45B3B
100
AcDbEntity
  8
0
100
AcDbVertex
100
AcDbPolygonMeshVertex
 10
-0.034
 20
10.0
 30
4.755
 70
    64
  0
VERTEX
  5
45B3C
100
AcDbEntity
  8
0
100
AcDbVertex
100
AcDbPolygonMeshVertex
 10
-0.034
 20
10.0
 30
0.0
 70
    64
  0
VERTEX
  5
45B3D
100
AcDbEntity
  8
0
100
AcDbVertex
100
AcDbPolygonMeshVertex
 10
-0.034
 20
9.8
 30
0.0
 70
    64
  0
VERTEX
  5
45B3E
100
AcDbEntity
  8
0
100
AcDbVertex
100
AcDbPolygonMeshVertex
 10
0.034
 20
10.0
 30
4.755
 70
    64
  0
VERTEX
  5
45B3F
100
AcDbEntity
  8
0
100
AcDbVertex
100
AcDbPolygonMeshVertex
 10
0.034
 20
10.0
 30
0.0
 70
    64
  0
VERTEX
  5
45B40
100
AcDbEntity
  8
0
100
AcDbVertex
100
AcDbPolygonMeshVertex
 10
0.034
 20
9.8
 30
0.0
 70
    64
  0
VERTEX
  5
45B41
100
AcDbEntity
  8
0
100
AcDbVertex
100
AcDbPolygonMeshVertex
 10
0.034
 20
10.0
 30
4.755
 70
    64
  0
VERTEX
  5
45B42
100
AcDbEntity
  8
0
100
AcDbVertex
100
AcDbPolygonMeshVertex
 10
0.034
 20
10.0
 30
4.755
 70
    64
  0
VERTEX
  5
45B43
100
AcDbEntity
  8
0
100
AcDbVertex
100
AcDbPolygonMeshVertex
 10
0.034
 20
9.8
 30
4.755
 70
    64
  0
VERTEX
  5
45B44
100
AcDbEntity
  8
0
100
AcDbVertex
100
AcDbPolygonMeshVertex
 10
-0.034
 20
10.0
 30
4.755
 70
    64
  0
VERTEX
  5
45B45
100
AcDbEntity
  8
0
100
AcDbVertex
100
AcDbPolygonMeshVertex
 10
-0.034
 20
10.0
 30
4.755
 70
    64
  0
VERTEX
  5
45B46
100
AcDbEntity
  8
0
100
AcDbVertex
100
AcDbPolygonMeshVertex
 10
-0.034
 20
9.8
 30
4.755
 70
    64
  0
SEQEND
  5
45B47
100
AcDbEntity
  8
0
  0
CIRCLE
  5
45B48
100
AcDbEntity
  8
0
100
AcDbCircle
 10
-1.530578
 20
7.811709
 30
5.796
 40
0.125
  0
LINE
  5
45B49
100
AcDbEntity
  8
0
100
AcDbLine
 10
-1.905578
 20
6.414209
 30
5.796
 11
-1.530578
 21
6.414209
 31
5.796
  0
LINE
  5
45B4A
100
AcDbEntity
  8
0
100
AcDbLine
 10
-1.530578
 20
6.039209
 30
5.796
 11
-1.905578
 21
6.039209
 31
5.796
  0
LINE
  5
45B4B
100
AcDbEntity
  8
0
100
AcDbLine
 10
-1.990578
 20
6.476709
 30
5.796
 11
-1.340578
 21
6.476709
 31
5.796
  0
LINE
  5
45B4C
100
AcDbEntity
  8
0
100
AcDbLine
 10
-1.340578
 20
5.976709
 30
5.796
 11
-1.990578
 21
5.976709
 31
5.796
  0
TEXT
  5
45B4D
100
AcDbEntity
  8
0
100
AcDbText
 39
0.001
 10
-2.030578
 20
6.956709
 30
5.796
 40
0.2
  1
ACTIVE
 41
0.9
100
AcDbText
  0
TEXT
  5
45B4E
100
AcDbEntity
  8
0
100
AcDbText
 39
0.001
 10
-1.927573
 20
5.645751
 30
5.796
 40
0.2
  1
P/S
100
AcDbText
  0
TEXT
  5
45B4F
100
AcDbEntity
  8
0
100
AcDbText
 39
0.00075
 10
-2.078574
 20
5.362501
 30
5.76475
 40
0.15
  1
PARALLEL
 41
0.8
100
AcDbText
  0
LINE
  5
45B50
100
AcDbEntity
  8
0
 62
     7
100
AcDbLine
 10
-1.898925
 20
3.908143
 30
5.719784
 11
-1.898925
 21
3.908143
 31
5.843784
1001
AME_SOL
1070
     0
1071
        3
  0
LINE
  5
45B51
100
AcDbEntity
  8
0
100
AcDbLine
 10
-1.905578
 20
6.039209
 30
5.796
 11
-1.905578
 21
6.414209
 31
5.796
  0
LINE
  5
45B52
100
AcDbEntity
  8
0
100
AcDbLine
 10
-1.990578
 20
5.976709
 30
5.796
 11
-1.990578
 21
6.476709
 31
5.796
  0
TEXT
  5
45B53
100
AcDbEntity
  8
0
100
AcDbText
 39
0.001
 10
-1.82568
 20
4.263143
 30
5.796
 40
0.2
  1
ON
100
AcDbText
  0
LINE
  5
45B54
100
AcDbEntity
  8
0
 62
     7
100
AcDbLine
 10
-1.648925
 20
4.158143
 30
5.719784
 11
-1.648925
 21
4.158143
 31
5.843784
1001
AME_SOL
1070
     0
1071
        3
  0
LINE
  5
45B55
100
AcDbEntity
  8
0
 62
     7
100
AcDbLine
 10
-1.69128
 20
3.926422
 30
5.843784
 11
-1.684661
 21
3.932459
 31
5.843784
  0
LINE
  5
45B56
100
AcDbEntity
  8
0
 62
     7
100
AcDbLine
 10
-1.706201
 20
3.903038
 30
5.843784
 11
-1.702148
 21
3.91158
 31
5.843784
  0
LINE
  5
45B57
100
AcDbEntity
  8
0
 62
     7
100
AcDbLine
 10
-1.709233
 20
3.893949
 30
5.843784
 11
-1.706201
 21
3.903038
 31
5.843784
  0
LINE
  5
45B58
100
AcDbEntity
  8
0
 62
     7
100
AcDbLine
 10
-1.711188
 20
3.884475
 30
5.843784
 11
-1.709233
 21
3.893949
 31
5.843784
  0
LINE
  5
45B59
100
AcDbEntity
  8
0
 62
     7
100
AcDbLine
 10
-1.712033
 20
3.874784
 30
5.843784
 11
-1.711188
 21
3.884475
 31
5.843784
  0
LINE
  5
45B5A
100
AcDbEntity
  8
0
 62
     7
100
AcDbLine
 10
-1.697144
 20
3.919421
 30
5.843784
 11
-1.69128
 21
3.926422
 31
5.843784
  0
LINE
  5
45B5B
100
AcDbEntity
  8
0
 62
     7
100
AcDbLine
 10
-1.702148
 20
3.91158
 30
5.843784
 11
-1.697144
 21
3.919421
 31
5.843784
  0
LINE
  5
45B5C
100
AcDbEntity
  8
0
 62
     7
100
AcDbLine
 10
-1.60657
 20
3.926422
 30
5.843784
 11
-1.600706
 21
3.919421
 31
5.843784
  0
LINE
  5
45B5D
100
AcDbEntity
  8
0
 62
     7
100
AcDbLine
 10
-1.61319
 20
3.932459
 30
5.843784
 11
-1.60657
 21
3.926422
 31
5.843784
  0
LINE
  5
45B5E
100
AcDbEntity
  8
0
 62
     7
100
AcDbLine
 10
-1.620447
 20
3.937422
 30
5.843784
 11
-1.61319
 21
3.932459
 31
5.843784
  0
LINE
  5
45B5F
100
AcDbEntity
  8
0
 62
     7
100
AcDbLine
 10
-1.628213
 20
3.941225
 30
5.843784
 11
-1.620447
 21
3.937422
 31
5.843784
  0
LINE
  5
45B60
100
AcDbEntity
  8
0
 62
     7
100
AcDbLine
 10
-1.636348
 20
3.943798
 30
5.843784
 11
-1.628213
 21
3.941225
 31
5.843784
  0
LINE
  5
45B61
100
AcDbEntity
  8
0
 62
     7
100
AcDbLine
 10
-1.644708
 20
3.945096
 30
5.843784
 11
-1.636348
 21
3.943798
 31
5.843784
  0
LINE
  5
45B62
100
AcDbEntity
  8
0
 62
     7
100
AcDbLine
 10
-1.653143
 20
3.945096
 30
5.843784
 11
-1.644708
 21
3.945096
 31
5.843784
  0
LINE
  5
45B63
100
AcDbEntity
  8
0
 62
     7
100
AcDbLine
 10
-1.661502
 20
3.943798
 30
5.843784
 11
-1.653143
 21
3.945096
 31
5.843784
  0
LINE
  5
45B64
100
AcDbEntity
  8
0
 62
     7
100
AcDbLine
 10
-1.669638
 20
3.941225
 30
5.843784
 11
-1.661502
 21
3.943798
 31
5.843784
  0
LINE
  5
45B65
100
AcDbEntity
  8
0
 62
     7
100
AcDbLine
 10
-1.684661
 20
3.932459
 30
5.843784
 11
-1.677403
 21
3.937422
 31
5.843784
  0
LINE
  5
45B66
100
AcDbEntity
  8
0
 62
     7
100
AcDbLine
 10
-1.677403
 20
3.937422
 30
5.843784
 11
-1.669638
 21
3.941225
 31
5.843784
  0
LINE
  5
45B67
100
AcDbEntity
  8
0
 62
     7
100
AcDbLine
 10
-1.586662
 20
3.884475
 30
5.843784
 11
-1.585818
 21
3.874784
 31
5.843784
  0
LINE
  5
45B68
100
AcDbEntity
  8
0
 62
     7
100
AcDbLine
 10
-1.588617
 20
3.893949
 30
5.843784
 11
-1.586662
 21
3.884475
 31
5.843784
  0
LINE
  5
45B69
100
AcDbEntity
  8
0
 62
     7
100
AcDbLine
 10
-1.600706
 20
3.919421
 30
5.843784
 11
-1.595703
 21
3.91158
 31
5.843784
  0
LINE
  5
45B6A
100
AcDbEntity
  8
0
 62
     7
100
AcDbLine
 10
-1.595703
 20
3.91158
 30
5.843784
 11
-1.591649
 21
3.903038
 31
5.843784
  0
LINE
  5
45B6B
100
AcDbEntity
  8
0
 62
     7
100
AcDbLine
 10
-1.591649
 20
3.903038
 30
5.843784
 11
-1.588617
 21
3.893949
 31
5.843784
  0
LINE
  5
45B6C
100
AcDbEntity
  8
0
 62
     7
100
AcDbLine
 10
-1.398925
 20
3.908143
 30
5.719784
 11
-1.398925
 21
3.908143
 31
5.843784
1001
AME_SOL
1070
     0
1071
        3
  0
LINE
  5
45B6D
100
AcDbEntity
  8
0
100
AcDbLine
 10
-1.530578
 20
6.329536
 30
5.796
 11
-1.405578
 21
6.329536
 31
5.796
  0
LINE
  5
45B6E
100
AcDbEntity
  8
0
100
AcDbLine
 10
-1.405578
 20
6.123882
 30
5.796
 11
-1.530578
 21
6.123882
 31
5.796
  0
LINE
  5
45B6F
100
AcDbEntity
  8
0
100
AcDbLine
 10
-1.530578
 20
6.123882
 30
5.796
 11
-1.530578
 21
6.039209
 31
5.796
  0
LINE
  5
45B70
100
AcDbEntity
  8
0
100
AcDbLine
 10
-1.530578
 20
6.414209
 30
5.796
 11
-1.530578
 21
6.329536
 31
5.796
  0
LINE
  5
45B71
100
AcDbEntity
  8
0
100
AcDbLine
 10
-1.405578
 20
6.329536
 30
5.796
 11
-1.405578
 21
6.123882
 31
5.796
  0
LINE
  5
45B72
100
AcDbEntity
  8
0
100
AcDbLine
 10
-1.340578
 20
6.476709
 30
5.796
 11
-1.340578
 21
5.976709
 31
5.796
  0
TEXT
  5
45B73
100
AcDbEntity
  8
0
100
AcDbText
 39
0.001
 10
-1.780578
 20
7.331709
 30
5.796
 40
0.2
  1
P/S
100
AcDbText
  0
DIMENSION
  5
45B75
100
AcDbEntity
  8
AREA1
100
AcDbDimension
  2
*D1
 10
1.766835
 20
10.0
 30
0.0
 11
1.766835
 21
4.7305
 31
0.0
 70
    32
  3
ABECAD_3D
100
AcDbAlignedDimension
 13
0.261
 23
-0.539
 33
5.671
 14
0.034
 24
10.0
 34
0.0
 50
90.0
100
AcDbRotatedDimension
  0
DIMENSION
  5
45B84
100
AcDbEntity
  8
AREA1
100
AcDbDimension
  2
*D2
 10
0.261
 20
11.064595
 30
0.0
 11
-0.939
 21
11.064595
 31
0.0
 70
    32
  3
ABECAD_3D
100
AcDbAlignedDimension
 13
-2.139
 23
9.86
 33
5.671
 14
0.261
 24
9.86
 34
5.671
100
AcDbRotatedDimension
  0
ENDSEC
  0
SECTION
  2
OBJECTS
  0
DICTIONARY
  5
458CB
100
AcDbDictionary
  3
ACAD_GROUP
350
458CC
  3
ACAD_LAYOUT
350
458FB
  3
ACAD_MLINESTYLE
350
458D9
  3
ACAD_PLOTSETTINGS
350
458FC
  3
ACAD_PLOTSTYLENAME
350
458F9
  3
ACDBHEADERROUNDTRIPXREC
350
45C08
  3
ACDBVARIABLEDICTIONARY
350
458E1
  3
DWGPROPS
350
45901
  0
DICTIONARY
  5
45C06
100
AcDbDictionary
280
     1
  3
ACAD_XREC_ROUNDTRIP
360
45C07
  0
DICTIONARY
  5
45C31
100
AcDbDictionary
280
     1
  3
ACAD_XREC_ROUNDTRIP
360
45C32
  0
DICTIONARY
  5
45C04
100
AcDbDictionary
280
     1
  3
ACAD_XREC_ROUNDTRIP
360
45C05
  0
DICTIONARY
  5
45C2B
100
AcDbDictionary
280
     1
  3
ACAD_XREC_ROUNDTRIP
360
45C2C
  0
DICTIONARY
  5
45C2D
100
AcDbDictionary
280
     1
  3
ACAD_XREC_ROUNDTRIP
360
45C2E
  0
DICTIONARY
  5
4592C
100
AcDbDictionary
280
     1
  3
ACAD_LAYOUTSELFREF
360
45C2A
  0
DICTIONARY
  5
4592A
100
AcDbDictionary
280
     1
  3
ACAD_LAYOUTSELFREF
360
45C29
  0
DICTIONARY
  5
45C02
100
AcDbDictionary
280
     1
  3
ACAD_XREC_ROUNDTRIP
360
45C03
  0
DICTIONARY
  5
458CC
102
{ACAD_REACTORS
330
458CB
102
}
100
AcDbDictionary
  0
DICTIONARY
  5
458FB
102
{ACAD_XDICTIONARY
360
45C2F
102
}
102
{ACAD_REACTORS
330
458CB
102
}
100
AcDbDictionary
  3
LAYOUT1
350
458FE
  3
MODEL
350
458FD
  0
DICTIONARY
  5
458D9
102
{ACAD_REACTORS
330
458CB
102
}
100
AcDbDictionary
  3
STANDARD
350
458DA
  0
DICTIONARY
  5
458FC
102
{ACAD_REACTORS
330
458CB
102
}
100
AcDbDictionary
  0
ACAD_PROXY_OBJECT
  5
458F9
102
{ACAD_REACTORS
330
458CB
102
}
100
AcDbProxyObject
 90
      499
 91
      501
 93
       86
310
405010041939BDC9B585B0
350
458FA
340
458FA
 94
        0
  0
DICTIONARY
  5
45C08
102
{ACAD_REACTORS
330
458CB
102
}
100
AcDbDictionary
  3
CEPSNTYPE
350
45C12
  3
DIMSTYLEDATA
350
45C16
  3
FINGERPRINTGUID
350
45C13
  3
HYPERLINKBASE
350
45C0B
  3
INSUNITS
350
45C11
  3
LAYOUTDICT
350
45C0D
  3
LWETCUNION
350
45C10
  3
PLOTSETDICT
350
45C0E
  3
PLOTSTYLNAMDICT
350
45C0F
  3
PSVPSCALE
350
45C15
  3
PUCSBASE
350
45C19
  3
PUCSORGBACK
350
45C1F
  3
PUCSORGBOTTOM
350
45C1B
  3
PUCSORGFRONT
350
45C1E
  3
PUCSORGLEFT
350
45C1C
  3
PUCSORGRIGHT
350
45C1D
  3
PUCSORGTOP
350
45C1A
  3
PUCSORTHOREF
350
45C17
  3
PUCSORTHOVIEW
350
45C18
  3
STYLESHEET
350
45C0C
  3
TSTACKALIGN
350
45C09
  3
TSTACKSIZE
350
45C0A
  3
UCSBASE
350
45C22
  3
UCSORGBACK
350
45C28
  3
UCSORGBOTTOM
350
45C24
  3
UCSORGFRONT
350
45C27
  3
UCSORGLEFT
350
45C25
  3
UCSORGRIGHT
350
45C26
  3
UCSORGTOP
350
45C23
  3
UCSORTHOREF
350
45C20
  3
UCSORTHOVIEW
350
45C21
  3
VERSIONGUID
350
45C14
  0
DICTIONARY
  5
458E1
102
{ACAD_REACTORS
330
458CB
102
}
100
AcDbDictionary
  3
DIMADEC
350
458E2
  0
XRECORD
  5
45901
102
{ACAD_REACTORS
330
458CB
102
}
100
AcDbXrecord
  1
DWGPROPS COOKIE
  2

  3

  4

  6

  7

  8
colin
  9

300
=
301
=
302
=
303
=
304
=
305
=
306
=
307
=
308
=
309
=
 40
0.000599
 41
2451670.444777
 42
2451670.445376
  1

 90
        0
  0
XRECORD
  5
45C07
102
{ACAD_REACTORS
330
45C06
102
}
100
AcDbXrecord
102
EXTNAMES
  1
*ACTIVE
  2
*Active
102
UCS
 74
     0
 71
     1
 10
0.0
 20
0.0
 30
0.0
 10
1.0
 20
0.0
 30
0.0
 10
0.0
 20
1.0
 30
0.0
146
0.0
 79
     1
102
VIEW
281
     0
  0
XRECORD
  5
45C32
102
{ACAD_REACTORS
330
45C31
102
}
100
AcDbXrecord
102
PLOTBIT
280
     0
  0
XRECORD
  5
45C05
102
{ACAD_REACTORS
330
45C04
102
}
100
AcDbXrecord
102
EXTNAMES
  1
DEFPOINTS
  2
Defpoints
102
PLOTBIT
280
     0
  0
XRECORD
  5
45C2C
102
{ACAD_REACTORS
330
45C2B
102
}
100
AcDbXrecord
102
ACADR14ROUNDTRIP
1000
DSTYLE
1002
{
1070
   276
 70
     2
1070
   277
 70
     5
1002
}
  0
XRECORD
  5
45C2E
102
{ACAD_REACTORS
330
45C2D
102
}
100
AcDbXrecord
102
ACADR14ROUNDTRIP
1000
DSTYLE
1002
{
1070
   276
 70
     2
1070
   277
 70
     5
1002
}
  0
XRECORD
  5
45C2A
102
{ACAD_REACTORS
330
4592C
102
}
100
AcDbXrecord
340
458D6
  0
XRECORD
  5
45C29
102
{ACAD_REACTORS
330
4592A
102
}
100
AcDbXrecord
340
458D3
  0
XRECORD
  5
45C03
102
{ACAD_REACTORS
330
45C02
102
}
100
AcDbXrecord
102
EXTNAMES
  1
SCALE
  2
scale
  0
DICTIONARY
  5
45C2F
100
AcDbDictionary
280
     1
  3
ACAD_XREC_ROUNDTRIP
360
45C30
  0
ACAD_PROXY_OBJECT
  5
458FE
102
{ACAD_REACTORS
330
458FB
102
}
100
AcDbProxyObject
 90
      499
 91
      503
 93
     1348
310
91D4850204C617365724A65742035303030205365726965732050434C20362C00AAAAAA416AA547D11959985D5B1D08148C4D081C195B88185CDCDA59DB9B595B9D1CCB98DD1891069074C61796F75743140501A800000000000000000000000000000000000000000000A1000000000000008902A6A6A10232D5E076BC551
310
0408CB5781DAF154410232D5E076BC5510408CB5781DAF15C410232D5E076BC5710408CB5781DAF15C40
330
458D3
330
0
340
0
340
0
 94
        0
  0
ACAD_PROXY_OBJECT
  5
458FD
102
{ACAD_REACTORS
330
458FB
102
}
100
AcDbProxyObject
 90
      499
 91
      503
 93
      924
310
91D4850204C617365724A65742035303030205365726965732050434C20362C01AAAAAAAAA547D11959985D5B1D08148C4D081C195B88185CDCDA59DB9B595B9D1CCB98DD18A69054D6F64656C901A800000000000000000000000000000000000000000000A1000000000000008902A6A6AAAA0
330
458D6
330
0
340
0
340
0
 94
        0
  0
MLINESTYLE
  5
458DA
102
{ACAD_REACTORS
330
458D9
102
}
100
AcDbMlineStyle
  2
STANDARD
 70
     0
  3

 62
   256
 51
90.0
 52
90.0
 71
     2
 49
0.5
 62
   256
  6
BYLAYER
 49
-0.5
 62
   256
  6
BYLAYER
  0
ACAD_PROXY_OBJECT
  5
458FA
102
{ACAD_REACTORS
330
458F9
102
}
100
AcDbProxyObject
 90
      499
 91
      502
 93
        0
 94
        0
  0
XRECORD
  5
45C12
102
{ACAD_REACTORS
330
45C08
102
}
100
AcDbXrecord
 90
        0
  0
XRECORD
  5
45C16
102
{ACAD_REACTORS
330
45C08
102
}
100
AcDbXrecord
1000
DSTYLE
1002
{
1070
   276
 70
     2
1070
   277
 70
     5
1002
}
  0
XRECORD
  5
45C13
102
{ACAD_REACTORS
330
45C08
102
}
100
AcDbXrecord
  1
{6E0CF4B8-225E-11D4-A150-00A0CC3303EC}
  0
XRECORD
  5
45C0B
102
{ACAD_REACTORS
330
45C08
102
}
100
AcDbXrecord
  1

  0
XRECORD
  5
45C11
102
{ACAD_REACTORS
330
45C08
102
}
100
AcDbXrecord
 90
        0
  0
XRECORD
  5
45C0D
102
{ACAD_REACTORS
330
45C08
102
}
100
AcDbXrecord
340
458FB
  0
XRECORD
  5
45C10
102
{ACAD_REACTORS
330
45C08
102
}
100
AcDbXrecord
 90
    14877
  0
XRECORD
  5
45C0E
102
{ACAD_REACTORS
330
45C08
102
}
100
AcDbXrecord
340
458FC
  0
XRECORD
  5
45C0F
102
{ACAD_REACTORS
330
45C08
102
}
100
AcDbXrecord
340
458F9
  0
XRECORD
  5
45C15
102
{ACAD_REACTORS
330
45C08
102
}
100
AcDbXrecord
 40
0.0
  0
XRECORD
  5
45C19
102
{ACAD_REACTORS
330
45C08
102
}
100
AcDbXrecord
340
0
  0
XRECORD
  5
45C1F
102
{ACAD_REACTORS
330
45C08
102
}
100
AcDbXrecord
 10
0.0
 20
0.0
 30
0.0
  0
XRECORD
  5
45C1B
102
{ACAD_REACTORS
330
45C08
102
}
100
AcDbXrecord
 10
0.0
 20
0.0
 30
0.0
  0
XRECORD
  5
45C1E
102
{ACAD_REACTORS
330
45C08
102
}
100
AcDbXrecord
 10
0.0
 20
0.0
 30
0.0
  0
XRECORD
  5
45C1C
102
{ACAD_REACTORS
330
45C08
102
}
100
AcDbXrecord
 10
0.0
 20
0.0
 30
0.0
  0
XRECORD
  5
45C1D
102
{ACAD_REACTORS
330
45C08
102
}
100
AcDbXrecord
 10
0.0
 20
0.0
 30
0.0
  0
XRECORD
  5
45C1A
102
{ACAD_REACTORS
330
45C08
102
}
100
AcDbXrecord
 10
0.0
 20
0.0
 30
0.0
  0
XRECORD
  5
45C17
102
{ACAD_REACTORS
330
45C08
102
}
100
AcDbXrecord
340
0
  0
XRECORD
  5
45C18
102
{ACAD_REACTORS
330
45C08
102
}
100
AcDbXrecord
 70
     0
  0
XRECORD
  5
45C0C
102
{ACAD_REACTORS
330
45C08
102
}
100
AcDbXrecord
  1

  0
XRECORD
  5
45C09
102
{ACAD_REACTORS
330
45C08
102
}
100
AcDbXrecord
 90
        1
  0
XRECORD
  5
45C0A
102
{ACAD_REACTORS
330
45C08
102
}
100
AcDbXrecord
 90
       70
  0
XRECORD
  5
45C22
102
{ACAD_REACTORS
330
45C08
102
}
100
AcDbXrecord
340
0
  0
XRECORD
  5
45C28
102
{ACAD_REACTORS
330
45C08
102
}
100
AcDbXrecord
 10
0.0
 20
0.0
 30
0.0
  0
XRECORD
  5
45C24
102
{ACAD_REACTORS
330
45C08
102
}
100
AcDbXrecord
 10
0.0
 20
0.0
 30
0.0
  0
XRECORD
  5
45C27
102
{ACAD_REACTORS
330
45C08
102
}
100
AcDbXrecord
 10
0.0
 20
0.0
 30
0.0
  0
XRECORD
  5
45C25
102
{ACAD_REACTORS
330
45C08
102
}
100
AcDbXrecord
 10
0.0
 20
0.0
 30
0.0
  0
XRECORD
  5
45C26
102
{ACAD_REACTORS
330
45C08
102
}
100
AcDbXrecord
 10
0.0
 20
0.0
 30
0.0
  0
XRECORD
  5
45C23
102
{ACAD_REACTORS
330
45C08
102
}
100
AcDbXrecord
 10
0.0
 20
0.0
 30
0.0
  0
XRECORD
  5
45C20
102
{ACAD_REACTORS
330
45C08
102
}
100
AcDbXrecord
340
0
  0
XRECORD
  5
45C21
102
{ACAD_REACTORS
330
45C08
102
}
100
AcDbXrecord
 70
     1
  0
XRECORD
  5
45C14
102
{ACAD_REACTORS
330
45C08
102
}
100
AcDbXrecord
  1
{7C6F6D70-6AC3-43BB-8CC7-BE2E5003E8D3}
  0
DICTIONARYVAR
  5
458E2
102
{ACAD_REACTORS
330
458E1
102
}
100
DictionaryVariables
280
     0
  1
0
  0
XRECORD
  5
45C30
102
{ACAD_REACTORS
330
45C2F
102
}
100
AcDbXrecord
102
EXTNAMES
  1
LAYOUT1
  2
Layout1
  1
MODEL
  2
Model
  0
ENDSEC
  0
EOF
