  0
SECTION
  2
HEADER
  9
$ACADVER
  1
AC1018
  9
$DWGCODEPAGE
  3
ANSI_1252
  9
$EXTMAX
 10
554.1316004153
 20
560.5421037221
 30
0.0
  9
$EXTMIN
 10
0.0
 20
0.0
 30
0.0
  9
$LIMMIN
 10
0.0
 20
0.0
  9
$LIMMAX
 10
554.1316004153
 20
560.5421037221
  9
$VIEWCTR
 10
277.0658002076
 20
280.271051861
  9
$VIEWSIZE
 40
560.5421037221
  9
$CLAYER
  8
0
  9
$LTSCALE
 40
36.5390408352
  9
$CELTYPE
  6
BYLAYER
  9
$DIMSCALE
 40
1.0
  9
$DIMASZ
 40
0.1875
  9
$DIMEXO
 40
4.1521637313
  9
$DIMDLI
 40
25.2451554861
  9
$DIMEXE
 40
11.9582315461
  9
$DIMCEN
 40
5.979115773
  9
$DIMLFAC
 40
1.0
  9
$DIMBLK
  1
_CLOSED
  9
$DIMTXT
 40
0.15625
  9
$DIMTOL
 70
0
  9
$DIMLIM
 70
0
  9
$DIMTFAC
 40
1.0
  9
$PDMODE
 70
3
  9
$PDSIZE
 40
0.3125
  9
$HANDSEED
  5
A9D
  9
$TILEMODE
 70
1
  9
$MEASUREMENT
 70
1
  9
$INSUNITS
 70
4
  0
ENDSEC
  0
SECTION
  2
CLASSES
  0
CLASS
  1
ACDBDICTIONARYWDFLT
  2
AcDbDictionaryWithDefault
  3
AutoCAD 2000
 90
0
 91
1
280
0
281
0
  0
CLASS
  1
ACDBPLACEHOLDER
  2
AcDbPlaceHolder
  3
AutoCAD 2000
 90
0
 91
1
280
0
281
0
  0
CLASS
  1
LAYOUT
  2
AcDbLayout
  3
AutoCAD 2000
 90
0
 91
0
280
0
281
0
  0
ENDSEC
  0
SECTION
  2
TABLES
  0
TABLE
  2
VPORT
  5
8
100
AcDbSymbolTable
 70
2
  0
VPORT
  5
1F4
100
AcDbSymbolTableRecord
100
AcDbViewportTableRecord
  2
*ACTIVE
 70
0
 10
0.0
 20
0.0
 11
1.0
 21
1.0
 12
277.0658002076
 22
280.271051861
 13
0.0
 23
0.0
 14
1.0
 24
1.0
 15
0.0
 25
0.0
 16
0.0
 26
0.0
 36
1.0
 17
0.0
 27
0.0
 37
0.0
 40
560.5421037221
 41
0.9885637434
 42
50.0
 43
0.0
 44
0.0
 50
0.0
 51
0.0
 71
0
 72
100
 73
1
 74
1
 75
0
 76
0
 77
0
 78
0
  0
ENDTAB
  0
TABLE
  2
LTYPE
  5
5
100
AcDbSymbolTable
 70
6
  0
LTYPE
  5
14
100
AcDbSymbolTableRecord
100
AcDbLinetypeTableRecord
  2
BYBLOCK
 70
0
  3

 72
65
 73
0
 40
0.0
  0
LTYPE
  5
15
100
AcDbSymbolTableRecord
100
AcDbLinetypeTableRecord
  2
BYLAYER
 70
0
  3

 72
65
 73
0
 40
0.0
  0
LTYPE
  5
16
100
AcDbSymbolTableRecord
100
AcDbLinetypeTableRecord
  2
CONTINUOUS
 70
64
  3
Solid line
 72
65
 73
0
 40
0.0
  0
LTYPE
  5
1F5
100
AcDbSymbolTableRecord
100
AcDbLinetypeTableRecord
  2
CENTER
 70
64
  3
____ _ ____ _ ____ _ ____ _ ____ _ ____ _ ____
 72
65
 73
4
 40
0.6
 49
0.375
 74
0
 49
-0.075
 74
0
 49
0.075
 74
0
 49
-0.075
 74
0
  0
LTYPE
  5
1F6
100
AcDbSymbolTableRecord
100
AcDbLinetypeTableRecord
  2
HIDDEN
 70
64
  3
- - - - - - - - - - - - - - - - - - - -
 72
65
 73
2
 40
0.2
 49
0.1
 74
0
 49
-0.1
 74
0
  0
LTYPE
  5
1F7
100
AcDbSymbolTableRecord
100
AcDbLinetypeTableRecord
  2
PHANTOM
 70
64
  3
_____ _ _ _____ _ _ _____ _ _ _____
 72
65
 73
6
 40
0.8
 49
0.45
 74
0
 49
-0.05
 74
0
 49
0.1
 74
0
 49
-0.05
 74
0
 49
0.1
 74
0
 49
-0.05
 74
0
  0
LTYPE
  5
1F8
100
AcDbSymbolTableRecord
100
AcDbLinetypeTableRecord
  2
DOT
 70
64
  3
. . . . . . . . . . . . . . . . . . . .
 72
65
 73
2
 40
0.2
 49
0.1
 74
0
 49
-0.1
 74
0
  0
LTYPE
  5
1F9
100
AcDbSymbolTableRecord
100
AcDbLinetypeTableRecord
  2
DASHED
 70
64
  3
- - - - - - - - - - - - - - - - - - - -
 72
65
 73
2
 40
0.2
 49
0.1
 74
0
 49
-0.1
 74
0
  0
LTYPE
  5
1FA
100
AcDbSymbolTableRecord
100
AcDbLinetypeTableRecord
  2
AM_ISO02W050X2
 70
64
  3
---- ---- ---- 
 72
65
 73
2
 40
3.75
 49
3.0
 74
0
 49
-0.75
 74
0
  0
LTYPE
  5
1FB
100
AcDbSymbolTableRecord
100
AcDbLinetypeTableRecord
  2
AM_ISO08W050
 70
64
  3
-------- -- -------- -- -------- -- 
 72
65
 73
4
 40
18.0
 49
12.0
 74
0
 49
-1.5
 74
0
 49
3.0
 74
0
 49
-1.5
 74
0
  0
LTYPE
  5
1FC
100
AcDbSymbolTableRecord
100
AcDbLinetypeTableRecord
  2
AM_ISO08W050X2
 70
64
  3
-------- -- -------- -- -------- -- 
 72
65
 73
4
 40
9.0
 49
6.0
 74
0
 49
-0.75
 74
0
 49
1.5
 74
0
 49
-0.75
 74
0
  0
LTYPE
  5
1FD
100
AcDbSymbolTableRecord
100
AcDbLinetypeTableRecord
  2
GEN7
 70
64
  3

 72
65
 73
4
 40
15.01
 49
10.0
 74
0
 49
-2.5
 74
0
 49
0.01
 74
0
 49
-2.5
 74
0
  0
ENDTAB
  0
TABLE
  2
LAYER
  5
2
100
AcDbSymbolTable
 70
36
  0
LAYER
  5
10
100
AcDbSymbolTableRecord
100
AcDbLayerTableRecord
  2
0
 70
0
 62
7
  6
CONTINUOUS
370
-3
390
F
  0
LAYER
  5
1FE
100
AcDbSymbolTableRecord
100
AcDbLayerTableRecord
  2
DEFAULT_1
 70
0
 62
7
  6
CENTER
370
-3
390
F
  0
LAYER
  5
1FF
100
AcDbSymbolTableRecord
100
AcDbLayerTableRecord
  2
DEFAULT_2
 70
0
 62
8
  6
HIDDEN
370
-3
390
F
  0
LAYER
  5
200
100
AcDbSymbolTableRecord
100
AcDbLayerTableRecord
  2
DEFAULT_3
 70
0
 62
7
  6
PHANTOM
370
-3
390
F
  0
LAYER
  5
201
100
AcDbSymbolTableRecord
100
AcDbLayerTableRecord
  2
AM_12
 70
0
 62
7
  6
CONTINUOUS
370
-3
390
F
  0
LAYER
  5
202
100
AcDbSymbolTableRecord
100
AcDbLayerTableRecord
  2
AM_PAREF
 70
0
 62
7
  6
CONTINUOUS
370
-3
390
F
  0
LAYER
  5
203
100
AcDbSymbolTableRecord
100
AcDbLayerTableRecord
  2
AXIS
 70
0
 62
7
  6
CONTINUOUS
370
-3
390
F
  0
LAYER
  5
204
100
AcDbSymbolTableRecord
100
AcDbLayerTableRecord
  2
BASIC_DEVICE
 70
0
 62
7
  6
CONTINUOUS
370
-3
390
F
  0
LAYER
  5
205
100
AcDbSymbolTableRecord
100
AcDbLayerTableRecord
  2
CAGE_COMMANDE
 70
0
 62
7
  6
CONTINUOUS
370
-3
390
F
  0
LAYER
  5
206
100
AcDbSymbolTableRecord
100
AcDbLayerTableRecord
  2
CONTACT
 70
0
 62
7
  6
CONTINUOUS
370
-3
390
F
  0
LAYER
  5
207
100
AcDbSymbolTableRecord
100
AcDbLayerTableRecord
  2
COVER_FUSE
 70
0
 62
7
  6
CONTINUOUS
370
-3
390
F
  0
LAYER
  5
208
100
AcDbSymbolTableRecord
100
AcDbLayerTableRecord
  2
DEVICE_FIXING_HOLES
 70
0
 62
7
  6
CONTINUOUS
370
-3
390
F
  0
LAYER
  5
209
100
AcDbSymbolTableRecord
100
AcDbLayerTableRecord
  2
DIRECT_HANDLE
 70
0
 62
7
  6
CONTINUOUS
370
-3
390
F
  0
LAYER
  5
20A
100
AcDbSymbolTableRecord
100
AcDbLayerTableRecord
  2
Defpoints
 70
0
 62
7
  6
CONTINUOUS
290
0
370
-3
390
F
  0
LAYER
  5
20B
100
AcDbSymbolTableRecord
100
AcDbLayerTableRecord
  2
FUSE
 70
0
 62
7
  6
CONTINUOUS
370
-3
390
F
  0
LAYER
  5
20C
100
AcDbSymbolTableRecord
100
AcDbLayerTableRecord
  2
MOVING
 70
0
 62
7
  6
CONTINUOUS
370
-3
390
F
  0
LAYER
  5
20D
100
AcDbSymbolTableRecord
100
AcDbLayerTableRecord
  2
POINT_D_ACCROCHAGE
 70
0
 62
7
  6
CONTINUOUS
370
-3
390
F
  0
LAYER
  5
20E
100
AcDbSymbolTableRecord
100
AcDbLayerTableRecord
  2
QUOTATION
 70
0
 62
7
  6
CONTINUOUS
370
-3
390
F
  0
LAYER
  5
20F
100
AcDbSymbolTableRecord
100
AcDbLayerTableRecord
  2
SUPPORT_FUSE
 70
0
 62
7
  6
CONTINUOUS
370
-3
390
F
  0
LAYER
  5
210
100
AcDbSymbolTableRecord
100
AcDbLayerTableRecord
  2
TERMINAL_SCHROUD
 70
0
 62
7
  6
CONTINUOUS
370
-3
390
F
  0
LAYER
  5
211
100
AcDbSymbolTableRecord
100
AcDbLayerTableRecord
  2
TEXT
 70
0
 62
7
  6
CONTINUOUS
370
-3
390
F
  0
ENDTAB
  0
TABLE
  2
STYLE
  5
3
100
AcDbSymbolTable
 70
1
  0
STYLE
  5
11
100
AcDbSymbolTableRecord
100
AcDbTextStyleTableRecord
  2
STANDARD
 70
0
 40
0.0
 41
0.8
 50
0.0
 71
0
 42
0.2
  3
txt
  4

  0
STYLE
  5
212
100
AcDbSymbolTableRecord
100
AcDbTextStyleTableRecord
  2
TEXTSTYLE_1
 70
0
 40
0.0
 41
0.8
 50
0.0
 71
0
 42
0.2
  3
gdt
  4

  0
STYLE
  5
213
100
AcDbSymbolTableRecord
100
AcDbTextStyleTableRecord
  2
TEXTSTYLE_2
 70
0
 40
0.0
 41
1.0
 50
0.0
 71
0
 42
0.2
  3
txt
  4

  0
STYLE
  5
214
100
AcDbSymbolTableRecord
100
AcDbTextStyleTableRecord
  2
TEXTSTYLE_3
 70
0
 40
0.0
 41
1.0
 50
0.0
 71
0
 42
0.2
  3
gdt
  4

  0
ENDTAB
  0
TABLE
  2
VIEW
  5
6
100
AcDbSymbolTable
 70
0
  0
ENDTAB
  0
TABLE
  2
UCS
  5
7
100
AcDbSymbolTable
 70
0
  0
ENDTAB
  0
TABLE
  2
APPID
  5
9
100
AcDbSymbolTable
 70
1
  0
APPID
  5
215
100
AcDbSymbolTableRecord
100
AcDbRegAppTableRecord
  2
ACAD
 70
0
  0
ENDTAB
  0
TABLE
  2
BLOCK_RECORD
  5
1
100
AcDbSymbolTable
 70
0
  0
BLOCK_RECORD
  5
216
100
AcDbSymbolTableRecord
100
AcDbBlockTableRecord
  2
*Model_Space
  0
BLOCK_RECORD
  5
217
100
AcDbSymbolTableRecord
100
AcDbBlockTableRecord
  2
*Paper_Space
  0
BLOCK_RECORD
  5
218
100
AcDbSymbolTableRecord
100
AcDbBlockTableRecord
  2
_CLOSED
  0
BLOCK_RECORD
  5
219
100
AcDbSymbolTableRecord
100
AcDbBlockTableRecord
  2
*D0
  0
BLOCK_RECORD
  5
21A
100
AcDbSymbolTableRecord
100
AcDbBlockTableRecord
  2
*D1
  0
BLOCK_RECORD
  5
21B
100
AcDbSymbolTableRecord
100
AcDbBlockTableRecord
  2
*D2
  0
BLOCK_RECORD
  5
21C
100
AcDbSymbolTableRecord
100
AcDbBlockTableRecord
  2
*D3
  0
BLOCK_RECORD
  5
21D
100
AcDbSymbolTableRecord
100
AcDbBlockTableRecord
  2
*D4
  0
BLOCK_RECORD
  5
21E
100
AcDbSymbolTableRecord
100
AcDbBlockTableRecord
  2
*D5
  0
BLOCK_RECORD
  5
21F
100
AcDbSymbolTableRecord
100
AcDbBlockTableRecord
  2
*D6
  0
BLOCK_RECORD
  5
220
100
AcDbSymbolTableRecord
100
AcDbBlockTableRecord
  2
*D7
  0
BLOCK_RECORD
  5
221
100
AcDbSymbolTableRecord
100
AcDbBlockTableRecord
  2
*D8
  0
BLOCK_RECORD
  5
222
100
AcDbSymbolTableRecord
100
AcDbBlockTableRecord
  2
*D9
  0
BLOCK_RECORD
  5
223
100
AcDbSymbolTableRecord
100
AcDbBlockTableRecord
  2
*D10
  0
BLOCK_RECORD
  5
224
100
AcDbSymbolTableRecord
100
AcDbBlockTableRecord
  2
*D11
  0
BLOCK_RECORD
  5
225
100
AcDbSymbolTableRecord
100
AcDbBlockTableRecord
  2
*D12
  0
ENDTAB
  0
TABLE
  2
DIMSTYLE
  5
A
100
AcDbSymbolTable
 70
1
100
AcDbDimStyleTable
 71
0
  0
DIMSTYLE
105
226
100
AcDbSymbolTableRecord
100
AcDbDimStyleTableRecord
  2
STANDARD
 70
0
  3

  4

 40
1.0
 41
0.1875
 42
0.0625
 43
0.38
 44
0.18
 45
0.0
 46
0.0
 47
0.1
 48
0.1
140
0.15625
141
0.09
142
0.0
143
25.4
144
1.0
145
0.0
146
1.0
147
0.09
 71
0.0
 72
0.0
 73
1
 74
1
 75
0
 76
0
 77
0
 78
8
170
0
171
2
172
0
173
0
174
0
175
0
176
0
177
0
178
0
270
2
271
1
272
1
273
2
274
2
275
0
280
0
281
0
282
0
283
1
284
8
285
0
286
0
287
3
288
0
340
11
341
218
342
218
343
218
344
218
  0
DIMSTYLE
105
227
100
AcDbSymbolTableRecord
100
AcDbDimStyleTableRecord
  2
DIMSTYLE_1
 70
0
  3

  4

 40
1.0
 41
0.1875
 42
0.0625
 43
0.38
 44
0.18
 45
0.0
 46
0.0
 47
0.0
 48
0.0
140
7.0
141
0.09
142
0.0
143
25.4
144
1.0
145
0.0
146
1.0
147
0.09
 71
0.0
 72
0.0
 73
1
 74
1
 75
0
 76
0
 77
0
 78
8
170
0
171
2
172
0
173
0
174
0
175
0
176
0
177
0
178
0
270
2
271
1
272
1
273
2
274
2
275
0
280
0
281
0
282
0
283
1
284
8
285
0
286
0
287
3
288
0
340
213
341
218
342
218
343
218
344
218
  0
DIMSTYLE
105
228
100
AcDbSymbolTableRecord
100
AcDbDimStyleTableRecord
  2
DIMSTYLE_2
 70
0
  3

  4

 40
1.0
 41
0.1875
 42
0.0625
 43
0.38
 44
0.18
 45
0.0
 46
0.0
 47
0.0
 48
0.0
140
7.0
141
0.09
142
0.0
143
25.4
144
1.0
145
0.0
146
1.0
147
0.09
 71
0.0
 72
0.0
 73
1
 74
1
 75
0
 76
0
 77
0
 78
8
170
0
171
2
172
0
173
0
174
0
175
0
176
0
177
0
178
0
270
2
271
1
272
1
273
2
274
2
275
0
280
0
281
0
282
0
283
1
284
8
285
0
286
0
287
3
288
0
340
213
341
218
342
218
343
218
344
218
  0
ENDTAB
  0
ENDSEC
  0
SECTION
  2
BLOCKS
  0
BLOCK
  5
20
100
AcDbEntity
  8
0
100
AcDbBlockBegin
  2
*Model_Space
 70
0
 10
0.0
 20
0.0
 30
0.0
  3
*Model_Space
  1

  0
ENDBLK
  5
21
100
AcDbEntity
  8
0
100
AcDbBlockEnd
  0
BLOCK
  5
1C
100
AcDbEntity
  8
0
100
AcDbBlockBegin
  2
*Paper_Space
 70
0
 10
0.0
 20
0.0
 30
0.0
  3
*Paper_Space
  1

  0
ENDBLK
  5
1D
100
AcDbEntity
  8
0
100
AcDbBlockEnd
  0
BLOCK
  5
229
100
AcDbEntity
  8
0
100
AcDbBlockBegin
  2
_CLOSED
 70
64
 10
0.0
 20
0.0
  3
_CLOSED
  1

  0
LINE
  5
22A
100
AcDbEntity
  8
0
  6
BYBLOCK
 62
0
100
AcDbLine
 10
0.0
 20
0.0
 11
-1.0
 21
0.1666666667
  0
LINE
  5
22B
100
AcDbEntity
  8
0
  6
BYBLOCK
 62
0
100
AcDbLine
 10
-1.0
 20
0.1666666667
 11
-1.0
 21
-0.1666666667
  0
LINE
  5
22C
100
AcDbEntity
  8
0
  6
BYBLOCK
 62
0
100
AcDbLine
 10
-1.0
 20
-0.1666666667
 11
0.0
 21
0.0
  0
LINE
  5
22D
100
AcDbEntity
  8
0
  6
BYBLOCK
 62
0
100
AcDbLine
 10
-1.0
 20
0.0
 11
0.0
 21
0.0
  0
ENDBLK
  5
22E
100
AcDbEntity
  8
0
  6
BYBLOCK
 62
0
100
AcDbBlockEnd
  0
BLOCK
  5
22F
100
AcDbEntity
  8
QUOTATION
100
AcDbBlockBegin
 62
3
  6
CONTINUOUS
  2
*D0
 70
65
 10
0.0
 20
0.0
  3
*D0
  1

  0
MTEXT
  5
230
100
AcDbEntity
  8
QUOTATION
100
AcDbMText
 62
3
  6
CONTINUOUS
  7
TEXTSTYLE_2
 71
2
 72
1
 10
330.0622881068
 20
144.9816310799
 30
0.0
 11
1.0
 21
0.0
 31
0.0
 44
0.9
  1
162
 40
7.0
 41
21.0
  0
LINE
  5
231
100
AcDbEntity
  8
QUOTATION
100
AcDbLine
 62
3
  6
CONTINUOUS
 10
384.9612321134
 20
222.4816310799
 11
329.9372881068
 21
222.4816310799
  0
LINE
  5
232
100
AcDbEntity
  8
QUOTATION
100
AcDbLine
 62
3
  6
CONTINUOUS
 10
384.9612321134
 20
60.4816310799
 11
329.9372881068
 21
60.4816310799
  0
LINE
  5
233
100
AcDbEntity
  8
QUOTATION
100
AcDbLine
 62
3
  6
CONTINUOUS
 10
330.0622881068
 20
222.4816310799
 11
330.0622881068
 21
148.4816310799
  0
LINE
  5
234
100
AcDbEntity
  8
QUOTATION
100
AcDbLine
 62
3
  6
CONTINUOUS
 10
330.0622881068
 20
60.4816310799
 11
330.0622881068
 21
134.4816310799
  0
INSERT
  5
235
100
AcDbEntity
  8
QUOTATION
100
AcDbBlockReference
 62
3
  6
CONTINUOUS
  2
_CLOSED
 10
330.0622881068
 20
222.4816310799
 41
0.1875
 42
0.1875
 43
0.1875
 50
90.0
  0
INSERT
  5
236
100
AcDbEntity
  8
QUOTATION
100
AcDbBlockReference
 62
3
  6
CONTINUOUS
  2
_CLOSED
 10
330.0622881068
 20
60.4816310799
 41
0.1875
 42
0.1875
 43
0.1875
 50
270.0
  0
ENDBLK
  5
237
100
AcDbEntity
  8
0
  6
BYBLOCK
 62
0
100
AcDbBlockEnd
  0
BLOCK
  5
238
100
AcDbEntity
  8
QUOTATION
100
AcDbBlockBegin
 62
3
  6
CONTINUOUS
  2
*D1
 70
65
 10
0.0
 20
0.0
  3
*D1
  1

  0
MTEXT
  5
239
100
AcDbEntity
  8
QUOTATION
100
AcDbMText
 62
3
  6
CONTINUOUS
  7
TEXTSTYLE_2
 71
2
 72
1
 10
361.2713440355
 20
147.2482795667
 30
0.0
 11
1.0
 21
0.0
 31
0.0
 44
0.9
  1
127
 40
7.0
 41
21.0
  0
LINE
  5
23A
100
AcDbEntity
  8
QUOTATION
100
AcDbLine
 62
3
  6
CONTINUOUS
 10
415.8612321134
 20
207.2482795667
 11
361.1463440355
 21
207.2482795667
  0
LINE
  5
23B
100
AcDbEntity
  8
QUOTATION
100
AcDbLine
 62
3
  6
CONTINUOUS
 10
415.8612321134
 20
80.2482795667
 11
361.1463440355
 21
80.2482795667
  0
LINE
  5
23C
100
AcDbEntity
  8
QUOTATION
100
AcDbLine
 62
3
  6
CONTINUOUS
 10
361.2713440355
 20
207.2482795667
 11
361.2713440355
 21
150.7482795667
  0
LINE
  5
23D
100
AcDbEntity
  8
QUOTATION
100
AcDbLine
 62
3
  6
CONTINUOUS
 10
361.2713440355
 20
80.2482795667
 11
361.2713440355
 21
136.7482795667
  0
INSERT
  5
23E
100
AcDbEntity
  8
QUOTATION
100
AcDbBlockReference
 62
3
  6
CONTINUOUS
  2
_CLOSED
 10
361.2713440355
 20
207.2482795667
 41
0.1875
 42
0.1875
 43
0.1875
 50
90.0
  0
INSERT
  5
23F
100
AcDbEntity
  8
QUOTATION
100
AcDbBlockReference
 62
3
  6
CONTINUOUS
  2
_CLOSED
 10
361.2713440355
 20
80.2482795667
 41
0.1875
 42
0.1875
 43
0.1875
 50
270.0
  0
ENDBLK
  5
240
100
AcDbEntity
  8
0
  6
BYBLOCK
 62
0
100
AcDbBlockEnd
  0
BLOCK
  5
241
100
AcDbEntity
  8
QUOTATION
100
AcDbBlockBegin
 62
3
  6
CONTINUOUS
  2
*D2
 70
65
 10
0.0
 20
0.0
  3
*D2
  1

  0
MTEXT
  5
242
100
AcDbEntity
  8
QUOTATION
100
AcDbMText
 62
3
  6
CONTINUOUS
  7
TEXTSTYLE_2
 71
2
 72
1
 10
346.6745134798
 20
144.9816310799
 30
0.0
 11
1.0
 21
0.0
 31
0.0
 44
0.9
  1
141
 40
7.0
 41
21.0
  0
LINE
  5
243
100
AcDbEntity
  8
QUOTATION
100
AcDbLine
 62
3
  6
CONTINUOUS
 10
397.8612321134
 20
211.9816310799
 11
346.5495134798
 21
211.9816310799
  0
LINE
  5
244
100
AcDbEntity
  8
QUOTATION
100
AcDbLine
 62
3
  6
CONTINUOUS
 10
397.8612321135
 20
70.9816310799
 11
346.5495134798
 21
70.9816310799
  0
LINE
  5
245
100
AcDbEntity
  8
QUOTATION
100
AcDbLine
 62
3
  6
CONTINUOUS
 10
346.6745134798
 20
211.9816310799
 11
346.6745134798
 21
148.4816310799
  0
LINE
  5
246
100
AcDbEntity
  8
QUOTATION
100
AcDbLine
 62
3
  6
CONTINUOUS
 10
346.6745134798
 20
70.9816310799
 11
346.6745134798
 21
134.4816310799
  0
INSERT
  5
247
100
AcDbEntity
  8
QUOTATION
100
AcDbBlockReference
 62
3
  6
CONTINUOUS
  2
_CLOSED
 10
346.6745134798
 20
211.9816310799
 41
0.1875
 42
0.1875
 43
0.1875
 50
90.0
  0
INSERT
  5
248
100
AcDbEntity
  8
QUOTATION
100
AcDbBlockReference
 62
3
  6
CONTINUOUS
  2
_CLOSED
 10
346.6745134798
 20
70.9816310799
 41
0.1875
 42
0.1875
 43
0.1875
 50
270.0
  0
ENDBLK
  5
249
100
AcDbEntity
  8
0
  6
BYBLOCK
 62
0
100
AcDbBlockEnd
  0
BLOCK
  5
24A
100
AcDbEntity
  8
QUOTATION
100
AcDbBlockBegin
 62
3
  6
CONTINUOUS
  2
*D3
 70
65
 10
0.0
 20
0.0
  3
*D3
  1

  0
MTEXT
  5
24B
100
AcDbEntity
  8
QUOTATION
100
AcDbMText
 62
3
  6
CONTINUOUS
  7
TEXTSTYLE_2
 71
2
 72
1
 10
330.0622881068
 20
252.4816310799
 30
0.0
 11
1.0
 21
0.0
 31
0.0
 44
0.9
  1
53
 40
7.0
 41
14.0
  0
LINE
  5
24C
100
AcDbEntity
  8
QUOTATION
100
AcDbLine
 62
3
  6
CONTINUOUS
 10
384.8612321134
 20
275.4816310799
 11
329.9372881068
 21
275.4816310799
  0
LINE
  5
24D
100
AcDbEntity
  8
QUOTATION
100
AcDbLine
 62
3
  6
CONTINUOUS
 10
384.8612321134
 20
222.4816310799
 11
329.9372881068
 21
222.4816310799
  0
LINE
  5
24E
100
AcDbEntity
  8
QUOTATION
100
AcDbLine
 62
3
  6
CONTINUOUS
 10
330.0622881068
 20
275.4816310799
 11
330.0622881068
 21
255.9816310799
  0
LINE
  5
24F
100
AcDbEntity
  8
QUOTATION
100
AcDbLine
 62
3
  6
CONTINUOUS
 10
330.0622881068
 20
222.4816310799
 11
330.0622881068
 21
241.9816310799
  0
INSERT
  5
250
100
AcDbEntity
  8
QUOTATION
100
AcDbBlockReference
 62
3
  6
CONTINUOUS
  2
_CLOSED
 10
330.0622881068
 20
275.4816310799
 41
0.1875
 42
0.1875
 43
0.1875
 50
90.0
  0
INSERT
  5
251
100
AcDbEntity
  8
QUOTATION
100
AcDbBlockReference
 62
3
  6
CONTINUOUS
  2
_CLOSED
 10
330.0622881068
 20
222.4816310799
 41
0.1875
 42
0.1875
 43
0.1875
 50
270.0
  0
ENDBLK
  5
252
100
AcDbEntity
  8
0
  6
BYBLOCK
 62
0
100
AcDbBlockEnd
  0
BLOCK
  5
253
100
AcDbEntity
  8
QUOTATION
100
AcDbBlockBegin
 62
3
  6
CONTINUOUS
  2
*D4
 70
65
 10
0.0
 20
0.0
  3
*D4
  1

  0
MTEXT
  5
254
100
AcDbEntity
  8
QUOTATION
100
AcDbMText
 62
3
  6
CONTINUOUS
  7
TEXTSTYLE_2
 71
2
 72
1
 10
415.9237321134
 20
40.9068988268
 30
0.0
 11
1.0
 21
0.0
 31
0.0
 44
0.9
  1
36
 40
7.0
 41
14.0
  0
LINE
  5
255
100
AcDbEntity
  8
QUOTATION
100
AcDbLine
 62
3
  6
CONTINUOUS
 10
397.9237321134
 20
70.9191310799
 11
397.9237321134
 21
37.2818988268
  0
LINE
  5
256
100
AcDbEntity
  8
QUOTATION
100
AcDbLine
 62
3
  6
CONTINUOUS
 10
433.9237321134
 20
70.9191310799
 11
433.9237321134
 21
37.2818988268
  0
LINE
  5
257
100
AcDbEntity
  8
QUOTATION
100
AcDbLine
 62
3
  6
CONTINUOUS
 10
397.9237321134
 20
37.4068988268
 11
405.4237321134
 21
37.4068988268
  0
LINE
  5
258
100
AcDbEntity
  8
QUOTATION
100
AcDbLine
 62
3
  6
CONTINUOUS
 10
433.9237321134
 20
37.4068988268
 11
426.4237321134
 21
37.4068988268
  0
INSERT
  5
259
100
AcDbEntity
  8
QUOTATION
100
AcDbBlockReference
 62
3
  6
CONTINUOUS
  2
_CLOSED
 10
397.9237321134
 20
37.4068988268
 41
0.1875
 42
0.1875
 43
0.1875
 50
180.0
  0
INSERT
  5
25A
100
AcDbEntity
  8
QUOTATION
100
AcDbBlockReference
 62
3
  6
CONTINUOUS
  2
_CLOSED
 10
433.9237321134
 20
37.4068988268
 41
0.1875
 42
0.1875
 43
0.1875
  0
ENDBLK
  5
25B
100
AcDbEntity
  8
0
  6
BYBLOCK
 62
0
100
AcDbBlockEnd
  0
BLOCK
  5
25C
100
AcDbEntity
  8
QUOTATION
100
AcDbBlockBegin
 62
3
  6
CONTINUOUS
  2
*D5
 70
65
 10
0.0
 20
0.0
  3
*D5
  1

  0
MTEXT
  5
25D
100
AcDbEntity
  8
QUOTATION
100
AcDbMText
 62
3
  6
CONTINUOUS
  7
TEXTSTYLE_2
 71
2
 72
1
 10
451.9237321134
 20
40.9068988268
 30
0.0
 11
1.0
 21
0.0
 31
0.0
 44
0.9
  1
36
 40
7.0
 41
14.0
  0
LINE
  5
25E
100
AcDbEntity
  8
QUOTATION
100
AcDbLine
 62
3
  6
CONTINUOUS
 10
433.9237321134
 20
70.9191310799
 11
433.9237321134
 21
37.2818988268
  0
LINE
  5
25F
100
AcDbEntity
  8
QUOTATION
100
AcDbLine
 62
3
  6
CONTINUOUS
 10
469.9237321134
 20
70.9191310799
 11
469.9237321134
 21
37.2818988268
  0
LINE
  5
260
100
AcDbEntity
  8
QUOTATION
100
AcDbLine
 62
3
  6
CONTINUOUS
 10
433.9237321134
 20
37.4068988268
 11
441.4237321134
 21
37.4068988268
  0
LINE
  5
261
100
AcDbEntity
  8
QUOTATION
100
AcDbLine
 62
3
  6
CONTINUOUS
 10
469.9237321134
 20
37.4068988268
 11
462.4237321134
 21
37.4068988268
  0
INSERT
  5
262
100
AcDbEntity
  8
QUOTATION
100
AcDbBlockReference
 62
3
  6
CONTINUOUS
  2
_CLOSED
 10
433.9237321134
 20
37.4068988268
 41
0.1875
 42
0.1875
 43
0.1875
 50
180.0
  0
INSERT
  5
263
100
AcDbEntity
  8
QUOTATION
100
AcDbBlockReference
 62
3
  6
CONTINUOUS
  2
_CLOSED
 10
469.9237321134
 20
37.4068988268
 41
0.1875
 42
0.1875
 43
0.1875
  0
ENDBLK
  5
264
100
AcDbEntity
  8
0
  6
BYBLOCK
 62
0
100
AcDbBlockEnd
  0
BLOCK
  5
265
100
AcDbEntity
  8
QUOTATION
100
AcDbBlockBegin
 62
3
  6
CONTINUOUS
  2
*D6
 70
65
 10
0.0
 20
0.0
  3
*D6
  1

  0
MTEXT
  5
266
100
AcDbEntity
  8
QUOTATION
100
AcDbMText
 62
3
  6
CONTINUOUS
  7
TEXTSTYLE_3
 71
2
 72
1
 10
519.3357785491
 20
284.5018694629
 30
0.0
 11
1.0
 21
0.0
 31
0.0
 44
0.9
  1
{\Fgdt;n}\Ftxt;5
 40
7.0
 41
16.3333333333
  0
LINE
  5
267
100
AcDbEntity
  8
QUOTATION
100
AcDbLine
 62
3
  6
CONTINUOUS
 10
453.190652048
 20
209.4034857933
 11
495.2791623888
 21
281.0018694629
  0
LINE
  5
268
100
AcDbEntity
  8
QUOTATION
100
AcDbLine
 62
3
  6
CONTINUOUS
 10
495.2791623888
 20
281.0018694629
 11
507.6691118825
 21
281.0018694629
  0
INSERT
  5
269
100
AcDbEntity
  8
QUOTATION
100
AcDbBlockReference
 62
3
  6
CONTINUOUS
  2
_CLOSED
 10
453.190652048
 20
209.4034857933
 41
0.1875
 42
0.1875
 43
0.1875
 50
239.5512151116
  0
ENDBLK
  5
26A
100
AcDbEntity
  8
0
  6
BYBLOCK
 62
0
100
AcDbBlockEnd
  0
BLOCK
  5
26B
100
AcDbEntity
  8
QUOTATION
100
AcDbBlockBegin
 62
3
  6
CONTINUOUS
  2
*D7
 70
65
 10
0.0
 20
0.0
  3
*D7
  1

  0
MTEXT
  5
26C
100
AcDbEntity
  8
QUOTATION
100
AcDbMText
 62
3
  6
CONTINUOUS
  7
TEXTSTYLE_3
 71
2
 72
1
 10
343.1873720944
 20
290.5150711677
 30
0.0
 11
1.0
 21
0.0
 31
0.0
 44
0.9
  1
{\Fgdt;n}\Ftxt;8.8
 40
7.0
 41
30.3333333333
  0
LINE
  5
26D
100
AcDbEntity
  8
QUOTATION
100
AcDbLine
 62
3
  6
CONTINUOUS
 10
396.9531335487
 20
216.2732436471
 11
380.954038761
 21
287.0150711677
  0
LINE
  5
26E
100
AcDbEntity
  8
QUOTATION
100
AcDbLine
 62
3
  6
CONTINUOUS
 10
380.954038761
 20
287.0150711677
 11
361.854038761
 21
287.0150711677
  0
INSERT
  5
26F
100
AcDbEntity
  8
QUOTATION
100
AcDbBlockReference
 62
3
  6
CONTINUOUS
  2
_CLOSED
 10
396.9531335487
 20
216.2732436471
 41
0.1875
 42
0.1875
 43
0.1875
 50
282.7437231259
  0
ENDBLK
  5
270
100
AcDbEntity
  8
0
  6
BYBLOCK
 62
0
100
AcDbBlockEnd
  0
BLOCK
  5
271
100
AcDbEntity
  8
QUOTATION
100
AcDbBlockBegin
 62
3
  6
CONTINUOUS
  2
*D8
 70
65
 10
0.0
 20
0.0
  3
*D8
  1

  0
MTEXT
  5
272
100
AcDbEntity
  8
QUOTATION
100
AcDbMText
 62
3
  6
CONTINUOUS
  7
TEXTSTYLE_2
 71
2
 72
1
 10
201.3227053108
 20
367.4129426369
 30
0.0
 11
1.0
 21
0.0
 31
0.0
 44
0.9
  1
151
 40
7.0
 41
21.0
  0
LINE
  5
273
100
AcDbEntity
  8
QUOTATION
100
AcDbLine
 62
3
  6
CONTINUOUS
 10
276.8227053108
 20
219.0441310799
 11
276.8227053108
 21
364.0379426369
  0
LINE
  5
274
100
AcDbEntity
  8
QUOTATION
100
AcDbLine
 62
3
  6
CONTINUOUS
 10
125.8227053108
 20
159.5960645753
 11
125.8227053108
 21
364.0379426369
  0
LINE
  5
275
100
AcDbEntity
  8
QUOTATION
100
AcDbLine
 62
3
  6
CONTINUOUS
 10
276.8227053108
 20
363.9129426369
 11
215.3227053108
 21
363.9129426369
  0
LINE
  5
276
100
AcDbEntity
  8
QUOTATION
100
AcDbLine
 62
3
  6
CONTINUOUS
 10
125.8227053108
 20
363.9129426369
 11
187.3227053108
 21
363.9129426369
  0
INSERT
  5
277
100
AcDbEntity
  8
QUOTATION
100
AcDbBlockReference
 62
3
  6
CONTINUOUS
  2
_CLOSED
 10
276.8227053108
 20
363.9129426369
 41
0.1875
 42
0.1875
 43
0.1875
  0
INSERT
  5
278
100
AcDbEntity
  8
QUOTATION
100
AcDbBlockReference
 62
3
  6
CONTINUOUS
  2
_CLOSED
 10
125.8227053108
 20
363.9129426369
 41
0.1875
 42
0.1875
 43
0.1875
 50
180.0
  0
ENDBLK
  5
279
100
AcDbEntity
  8
0
  6
BYBLOCK
 62
0
100
AcDbBlockEnd
  0
BLOCK
  5
27A
100
AcDbEntity
  8
QUOTATION
100
AcDbBlockBegin
 62
3
  6
CONTINUOUS
  2
*D9
 70
65
 10
0.0
 20
0.0
  3
*D9
  1

  0
MTEXT
  5
27B
100
AcDbEntity
  8
QUOTATION
100
AcDbMText
 62
3
  6
CONTINUOUS
  7
TEXTSTYLE_2
 71
2
 72
1
 10
103.0727053108
 20
367.4129426369
 30
0.0
 11
1.0
 21
0.0
 31
0.0
 44
0.9
  1
45.5
 40
7.0
 41
28.0
  0
LINE
  5
27C
100
AcDbEntity
  8
QUOTATION
100
AcDbLine
 62
3
  6
CONTINUOUS
 10
125.8227053108
 20
159.5960645753
 11
125.8227053108
 21
364.0379426369
  0
LINE
  5
27D
100
AcDbEntity
  8
QUOTATION
100
AcDbLine
 62
3
  6
CONTINUOUS
 10
80.3227053108
 20
158.8209889009
 11
80.3227053108
 21
364.0379426369
  0
LINE
  5
27E
100
AcDbEntity
  8
QUOTATION
100
AcDbLine
 62
3
  6
CONTINUOUS
 10
125.8227053108
 20
363.9129426369
 11
120.5727053108
 21
363.9129426369
  0
LINE
  5
27F
100
AcDbEntity
  8
QUOTATION
100
AcDbLine
 62
3
  6
CONTINUOUS
 10
80.3227053108
 20
363.9129426369
 11
85.5727053108
 21
363.9129426369
  0
INSERT
  5
280
100
AcDbEntity
  8
QUOTATION
100
AcDbBlockReference
 62
3
  6
CONTINUOUS
  2
_CLOSED
 10
125.8227053108
 20
363.9129426369
 41
0.1875
 42
0.1875
 43
0.1875
  0
INSERT
  5
281
100
AcDbEntity
  8
QUOTATION
100
AcDbBlockReference
 62
3
  6
CONTINUOUS
  2
_CLOSED
 10
80.3227053108
 20
363.9129426369
 41
0.1875
 42
0.1875
 43
0.1875
 50
180.0
  0
ENDBLK
  5
282
100
AcDbEntity
  8
0
  6
BYBLOCK
 62
0
100
AcDbBlockEnd
  0
BLOCK
  5
283
100
AcDbEntity
  8
QUOTATION
100
AcDbBlockBegin
 62
3
  6
CONTINUOUS
  2
*D10
 70
65
 10
0.0
 20
0.0
  3
*D10
  1

  0
MTEXT
  5
284
100
AcDbEntity
  8
QUOTATION
100
AcDbMText
 62
3
  6
CONTINUOUS
  7
TEXTSTYLE_2
 71
2
 72
1
 10
27.6308737724
 20
87.5075978273
 30
0.0
 11
1.0
 21
0.0
 31
0.0
 44
0.9
  1
114.95
 40
7.0
 41
42.0
  0
LINE
  5
285
100
AcDbEntity
  8
QUOTATION
100
AcDbLine
 62
3
  6
CONTINUOUS
 10
119.7602053108
 20
141.4816310799
 11
27.5058737724
 21
141.4816310799
  0
LINE
  5
286
100
AcDbEntity
  8
QUOTATION
100
AcDbLine
 62
3
  6
CONTINUOUS
 10
84.8081587621
 20
26.5335645747
 11
27.5058737724
 21
26.5335645747
  0
LINE
  5
287
100
AcDbEntity
  8
QUOTATION
100
AcDbLine
 62
3
  6
CONTINUOUS
 10
27.6308737724
 20
141.4816310799
 11
27.6308737724
 21
91.0075978273
  0
LINE
  5
288
100
AcDbEntity
  8
QUOTATION
100
AcDbLine
 62
3
  6
CONTINUOUS
 10
27.6308737724
 20
26.5335645747
 11
27.6308737724
 21
77.0075978273
  0
INSERT
  5
289
100
AcDbEntity
  8
QUOTATION
100
AcDbBlockReference
 62
3
  6
CONTINUOUS
  2
_CLOSED
 10
27.6308737724
 20
141.4816310799
 41
0.1875
 42
0.1875
 43
0.1875
 50
90.0
  0
INSERT
  5
28A
100
AcDbEntity
  8
QUOTATION
100
AcDbBlockReference
 62
3
  6
CONTINUOUS
  2
_CLOSED
 10
27.6308737724
 20
26.5335645747
 41
0.1875
 42
0.1875
 43
0.1875
 50
270.0
  0
ENDBLK
  5
28B
100
AcDbEntity
  8
0
  6
BYBLOCK
 62
0
100
AcDbBlockEnd
  0
BLOCK
  5
28C
100
AcDbEntity
  8
QUOTATION
100
AcDbBlockBegin
 62
3
  6
CONTINUOUS
  2
*D11
 70
65
 10
0.0
 20
0.0
  3
*D11
  1

  0
MTEXT
  5
28D
100
AcDbEntity
  8
QUOTATION
100
AcDbMText
 62
3
  6
CONTINUOUS
  7
TEXTSTYLE_2
 71
2
 72
1
 10
264.8512758264
 20
323.0262457208
 30
0.0
 11
1.0
 21
0.0
 31
0.0
 44
0.9
  1
19.5
 40
7.0
 41
28.0
  0
LINE
  5
28E
100
AcDbEntity
  8
QUOTATION
100
AcDbLine
 62
3
  6
CONTINUOUS
 10
276.8227053108
 20
219.0441310799
 11
276.8227053108
 21
319.6512457208
  0
LINE
  5
28F
100
AcDbEntity
  8
QUOTATION
100
AcDbLine
 62
3
  6
CONTINUOUS
 10
257.3227053108
 20
222.54413108
 11
257.3227053108
 21
319.6512457208
  0
LINE
  5
290
100
AcDbEntity
  8
QUOTATION
100
AcDbLine
 62
3
  6
CONTINUOUS
 10
276.8227053108
 20
319.5262457208
 11
276.8226388762
 21
319.5262457208
  0
LINE
  5
291
100
AcDbEntity
  8
QUOTATION
100
AcDbLine
 62
3
  6
CONTINUOUS
 10
257.3227053108
 20
319.5262457208
 11
257.3227717455
 21
319.5262457208
  0
INSERT
  5
292
100
AcDbEntity
  8
QUOTATION
100
AcDbBlockReference
 62
3
  6
CONTINUOUS
  2
_CLOSED
 10
276.8227053108
 20
319.5262457208
 41
0.1875
 42
0.1875
 43
0.1875
  0
INSERT
  5
293
100
AcDbEntity
  8
QUOTATION
100
AcDbBlockReference
 62
3
  6
CONTINUOUS
  2
_CLOSED
 10
257.3227053108
 20
319.5262457208
 41
0.1875
 42
0.1875
 43
0.1875
 50
180.0
  0
ENDBLK
  5
294
100
AcDbEntity
  8
0
  6
BYBLOCK
 62
0
100
AcDbBlockEnd
  0
BLOCK
  5
295
100
AcDbEntity
  8
QUOTATION
100
AcDbBlockBegin
 62
3
  6
CONTINUOUS
  2
*D12
 70
65
 10
0.0
 20
0.0
  3
*D12
  1

  0
MTEXT
  5
296
100
AcDbEntity
  8
QUOTATION
100
AcDbMText
 62
3
  6
CONTINUOUS
  7
TEXTSTYLE_2
 71
2
 72
1
 10
236.6888526112
 20
323.0262457208
 30
0.0
 11
1.0
 21
0.0
 31
0.0
 44
0.9
  1
2.5
 40
7.0
 41
21.0
  0
LINE
  5
297
100
AcDbEntity
  8
QUOTATION
100
AcDbLine
 62
3
  6
CONTINUOUS
 10
254.8227053108
 20
219.8441310799
 11
254.8227053108
 21
319.6512457208
  0
LINE
  5
298
100
AcDbEntity
  8
QUOTATION
100
AcDbLine
 62
3
  6
CONTINUOUS
 10
257.3227053108
 20
219.8441310799
 11
257.3227053108
 21
319.6512457208
  0
LINE
  5
299
100
AcDbEntity
  8
QUOTATION
100
AcDbLine
 62
3
  6
CONTINUOUS
 10
254.8227053108
 20
319.5262457208
 11
250.6888526112
 21
319.5262457208
  0
LINE
  5
29A
100
AcDbEntity
  8
QUOTATION
100
AcDbLine
 62
3
  6
CONTINUOUS
 10
257.3227053108
 20
319.5262457208
 11
257.8227053108
 21
319.5262457208
  0
INSERT
  5
29B
100
AcDbEntity
  8
QUOTATION
100
AcDbBlockReference
 62
3
  6
CONTINUOUS
  2
_CLOSED
 10
254.8227053108
 20
319.5262457208
 41
0.1875
 42
0.1875
 43
0.1875
  0
INSERT
  5
29C
100
AcDbEntity
  8
QUOTATION
100
AcDbBlockReference
 62
3
  6
CONTINUOUS
  2
_CLOSED
 10
257.3227053108
 20
319.5262457208
 41
0.1875
 42
0.1875
 43
0.1875
 50
180.0
  0
ENDBLK
  5
29D
100
AcDbEntity
  8
0
  6
BYBLOCK
 62
0
100
AcDbBlockEnd
  0
ENDSEC
  0
SECTION
  2
ENTITIES
  0
DIMENSION
  5
29E
100
AcDbEntity
  8
QUOTATION
100
AcDbDimension
 62
3
  6
CONTINUOUS
  2
*D0
 10
330.0622881068
 20
60.4816310799
 11
319.5622881068
 21
141.4816310799
 70
160
 71
2
  1
162
  3
DIMSTYLE_1
100
AcDbAlignedDimension
 13
384.9612321134
 23
222.4816310799
 14
384.9612321134
 24
60.4816310799
 50
270.0
100
AcDbRotatedDimension
  0
DIMENSION
  5
29F
100
AcDbEntity
  8
QUOTATION
100
AcDbDimension
 62
3
  6
CONTINUOUS
  2
*D1
 10
361.2713440355
 20
80.2482795667
 11
350.7713440355
 21
143.7482795667
 70
160
 71
2
  1
127
  3
DIMSTYLE_1
100
AcDbAlignedDimension
 13
415.8612321134
 23
207.2482795667
 14
415.8612321134
 24
80.2482795667
 50
270.0
100
AcDbRotatedDimension
  0
DIMENSION
  5
2A0
100
AcDbEntity
  8
QUOTATION
100
AcDbDimension
 62
3
  6
CONTINUOUS
  2
*D2
 10
346.6745134798
 20
70.9816310799
 11
336.1745134798
 21
141.4816310799
 70
160
 71
2
  1
141
  3
DIMSTYLE_1
100
AcDbAlignedDimension
 13
397.8612321134
 23
211.9816310799
 14
397.8612321135
 24
70.9816310799
 50
270.0
100
AcDbRotatedDimension
  0
DIMENSION
  5
2A1
100
AcDbEntity
  8
QUOTATION
100
AcDbDimension
 62
3
  6
CONTINUOUS
  2
*D3
 10
330.0622881068
 20
222.4816310799
 11
323.0622881068
 21
248.9816310799
 70
160
 71
2
  1
53
  3
DIMSTYLE_1
100
AcDbAlignedDimension
 13
384.8612321134
 23
275.4816310799
 14
384.8612321134
 24
222.4816310799
 50
270.0
100
AcDbRotatedDimension
  0
DIMENSION
  5
2A2
100
AcDbEntity
  8
QUOTATION
100
AcDbDimension
 62
3
  6
CONTINUOUS
  2
*D4
 10
433.9237321134
 20
37.4068988268
 11
408.9237321134
 21
37.4068988268
 70
160
 71
2
  1
36
  3
DIMSTYLE_1
100
AcDbAlignedDimension
 13
397.9237321134
 23
70.9191310799
 14
433.9237321134
 24
70.9191310799
100
AcDbRotatedDimension
  0
DIMENSION
  5
2A3
100
AcDbEntity
  8
QUOTATION
100
AcDbDimension
 62
3
  6
CONTINUOUS
  2
*D5
 10
469.9237321134
 20
37.4068988268
 11
444.9237321134
 21
37.4068988268
 70
160
 71
2
  1
36
  3
DIMSTYLE_1
100
AcDbAlignedDimension
 13
433.9237321134
 23
70.9191310799
 14
469.9237321134
 24
70.9191310799
100
AcDbRotatedDimension
  0
DIMENSION
  5
2A4
100
AcDbEntity
  8
QUOTATION
100
AcDbDimension
 62
3
  6
CONTINUOUS
  2
*D6
 10
453.190652048
 20
209.4034857933
 11
515.2524452158
 21
281.0018694629
 70
163
 71
2
  1
%%c5
  3
DIMSTYLE_2
100
AcDbDiametricDimension
 15
450.6568121788
 25
205.0930733401
  0
DIMENSION
  5
2A5
100
AcDbEntity
  8
QUOTATION
100
AcDbDimension
 62
3
  6
CONTINUOUS
  2
*D7
 10
396.9531335487
 20
216.2732436471
 11
335.604038761
 21
287.0150711677
 70
163
 71
2
  1
%%c8.8
  3
DIMSTYLE_2
100
AcDbDiametricDimension
 15
398.894330678
 25
207.6900185128
  0
DIMENSION
  5
2A6
100
AcDbEntity
  8
QUOTATION
100
AcDbDimension
 62
3
  6
CONTINUOUS
  2
*D8
 10
125.8227053108
 20
363.9129426369
 11
190.8227053108
 21
363.9129426369
 70
160
 71
2
  1
151
  3
DIMSTYLE_1
100
AcDbAlignedDimension
 13
276.8227053108
 23
219.0441310799
 14
125.8227053108
 24
159.5960645753
 50
180.0
100
AcDbRotatedDimension
  0
DIMENSION
  5
2A7
100
AcDbEntity
  8
QUOTATION
100
AcDbDimension
 62
3
  6
CONTINUOUS
  2
*D9
 10
80.3227053108
 20
363.9129426369
 11
89.0727053108
 21
363.9129426369
 70
160
 71
2
  1
45.5
  3
DIMSTYLE_1
100
AcDbAlignedDimension
 13
125.8227053108
 23
159.5960645753
 14
80.3227053108
 24
158.8209889009
 50
180.0
100
AcDbRotatedDimension
  0
DIMENSION
  5
2A8
100
AcDbEntity
  8
QUOTATION
100
AcDbDimension
 62
3
  6
CONTINUOUS
  2
*D10
 10
27.6308737724
 20
26.5335645747
 11
6.6308737724
 21
84.0075978273
 70
160
 71
2
  1
114.95
  3
DIMSTYLE_1
100
AcDbAlignedDimension
 13
119.7602053108
 23
141.4816310799
 14
84.8081587621
 24
26.5335645747
 50
270.0
100
AcDbRotatedDimension
  0
DIMENSION
  5
2A9
100
AcDbEntity
  8
QUOTATION
100
AcDbDimension
 62
3
  6
CONTINUOUS
  2
*D11
 10
257.3227053108
 20
319.5262457208
 11
250.8512758264
 21
319.5262457208
 70
160
 71
2
  1
19.5
  3
DIMSTYLE_1
100
AcDbAlignedDimension
 13
276.8227053108
 23
219.0441310799
 14
257.3227053108
 24
222.54413108
 50
180.0
100
AcDbRotatedDimension
  0
DIMENSION
  5
2AA
100
AcDbEntity
  8
QUOTATION
100
AcDbDimension
 62
3
  6
CONTINUOUS
  2
*D12
 10
257.3227053108
 20
319.5262457208
 11
226.1888526112
 21
319.5262457208
 70
160
 71
2
  1
2.5
  3
DIMSTYLE_1
100
AcDbAlignedDimension
 13
254.8227053108
 23
219.8441310799
 14
257.3227053108
 24
219.8441310799
100
AcDbRotatedDimension
  0
MTEXT
  5
2AB
100
AcDbEntity
  8
0
100
AcDbMText
 62
3
  6
CONTINUOUS
  7
STANDARD
 71
2
 72
1
 10
73.7524454933
 20
485.9994513817
 30
0.0
 11
1.0
 21
0.0
 31
0.0
  1
1
 40
5.0
 41
4.0
  0
MTEXT
  5
2AC
100
AcDbEntity
  8
0
100
AcDbMText
 62
3
  6
CONTINUOUS
  7
STANDARD
 71
1
 72
1
 10
82.8524454933
 20
485.9994513817
 30
0.0
 11
1.0
 21
0.0
 31
0.0
 44
1.0000002
  1
FUSERBLOC TS T00 3x125A F/L
 40
5.0
 41
108.0
  0
MTEXT
  5
2AD
100
AcDbEntity
  8
0
100
AcDbMText
 62
3
  6
CONTINUOUS
  7
STANDARD
 71
2
 72
1
 10
218.0524454933
 20
485.9994513817
 30
0.0
 11
1.0
 21
0.0
 31
0.0
  1
38313012
 40
5.0
 41
32.0
  0
MTEXT
  5
2AE
100
AcDbEntity
  8
0
100
AcDbMText
 62
3
  6
CONTINUOUS
  7
STANDARD
 71
2
 72
1
 10
251.4430547101
 20
485.9994513817
 30
0.0
 11
1.0
 21
0.0
 31
0.0
  1
/
 40
5.0
 41
4.0
  0
MTEXT
  5
2AF
100
AcDbEntity
  8
0
100
AcDbMText
 62
3
  6
CONTINUOUS
  7
STANDARD
 71
2
 72
1
 10
274.3836639268
 20
485.9994513817
 30
0.0
 11
1.0
 21
0.0
 31
0.0
  1
1
 40
5.0
 41
4.0
  0
MTEXT
  5
2B0
100
AcDbEntity
  8
0
100
AcDbMText
 62
3
  6
CONTINUOUS
  7
STANDARD
 71
2
 72
1
 10
73.7524454933
 20
476.1494513817
 30
0.0
 11
1.0
 21
0.0
 31
0.0
  1
2
 40
5.0
 41
4.0
  0
MTEXT
  5
2B1
100
AcDbEntity
  8
0
100
AcDbMText
 62
3
  6
CONTINUOUS
  7
STANDARD
 71
1
 72
1
 10
82.8524454933
 20
476.1494513817
 30
0.0
 11
1.0
 21
0.0
 31
0.0
  1
3 CACHE BORNES
 40
5.0
 41
56.0
  0
MTEXT
  5
2B2
100
AcDbEntity
  8
0
100
AcDbMText
 62
3
  6
CONTINUOUS
  7
STANDARD
 71
2
 72
1
 10
218.0524454933
 20
476.1494513817
 30
0.0
 11
1.0
 21
0.0
 31
0.0
  1
39983016
 40
5.0
 41
32.0
  0
MTEXT
  5
2B3
100
AcDbEntity
  8
0
100
AcDbMText
 62
3
  6
CONTINUOUS
  7
STANDARD
 71
2
 72
1
 10
251.4430547101
 20
476.1494513817
 30
0.0
 11
1.0
 21
0.0
 31
0.0
  1
/
 40
5.0
 41
4.0
  0
MTEXT
  5
2B4
100
AcDbEntity
  8
0
100
AcDbMText
 62
3
  6
CONTINUOUS
  7
STANDARD
 71
2
 72
1
 10
274.3836639268
 20
476.1494513817
 30
0.0
 11
1.0
 21
0.0
 31
0.0
  1
1
 40
5.0
 41
4.0
  0
MTEXT
  5
2B5
100
AcDbEntity
  8
0
100
AcDbMText
 62
3
  6
CONTINUOUS
  7
STANDARD
 71
2
 72
1
 10
73.7524454933
 20
466.2994513817
 30
0.0
 11
1.0
 21
0.0
 31
0.0
  1
3
 40
5.0
 41
4.0
  0
MTEXT
  5
2B6
100
AcDbEntity
  8
0
100
AcDbMText
 62
3
  6
CONTINUOUS
  7
STANDARD
 71
1
 72
1
 10
82.8524454933
 20
466.2994513817
 30
0.0
 11
1.0
 21
0.0
 31
0.0
 44
1.0000002
  1
POIGNEE CDE DIRECTE FRONT
 40
5.0
 41
100.0
  0
MTEXT
  5
2B7
100
AcDbEntity
  8
0
100
AcDbMText
 62
3
  6
CONTINUOUS
  7
STANDARD
 71
2
 72
1
 10
218.0524454933
 20
466.2994513817
 30
0.0
 11
1.0
 21
0.0
 31
0.0
  1
36297910
 40
5.0
 41
32.0
  0
MTEXT
  5
2B8
100
AcDbEntity
  8
0
100
AcDbMText
 62
3
  6
CONTINUOUS
  7
STANDARD
 71
2
 72
1
 10
251.4430547101
 20
466.2994513817
 30
0.0
 11
1.0
 21
0.0
 31
0.0
  1
/
 40
5.0
 41
4.0
  0
MTEXT
  5
2B9
100
AcDbEntity
  8
0
100
AcDbMText
 62
3
  6
CONTINUOUS
  7
STANDARD
 71
2
 72
1
 10
274.3836639268
 20
466.2994513817
 30
0.0
 11
1.0
 21
0.0
 31
0.0
  1
1
 40
5.0
 41
4.0
  0
MTEXT
  5
2BA
100
AcDbEntity
  8
0
100
AcDbMText
 62
3
  6
CONTINUOUS
  7
STANDARD
 71
2
 72
1
 10
73.7524454933
 20
495.8494513817
 30
0.0
 11
1.0
 21
0.0
 31
0.0
 44
1.0000002
  1
 Rep.
 40
5.0
 41
20.0
  0
MTEXT
  5
2BB
100
AcDbEntity
  8
0
100
AcDbMText
 62
3
  6
CONTINUOUS
  7
STANDARD
 71
2
 72
1
 10
141.0524454933
 20
495.8494513817
 30
0.0
 11
1.0
 21
0.0
 31
0.0
  1
Nom
 40
5.0
 41
12.0
  0
MTEXT
  5
2BC
100
AcDbEntity
  8
0
100
AcDbMText
 62
3
  6
CONTINUOUS
  7
STANDARD
 71
2
 72
1
 10
218.0524454933
 20
495.8494513817
 30
0.0
 11
1.0
 21
0.0
 31
0.0
  1
Code
 40
5.0
 41
16.0
  0
MTEXT
  5
2BD
100
AcDbEntity
  8
0
100
AcDbMText
 62
3
  6
CONTINUOUS
  7
STANDARD
 71
2
 72
1
 10
251.4430547101
 20
495.8494513817
 30
0.0
 11
1.0
 21
0.0
 31
0.0
  1
N\Fgdt;{\Fgdt;~}\Ftxt; \Pde \P{\W0.8;plan}
 40
5.0
 41
16.0
  0
MTEXT
  5
2BE
100
AcDbEntity
  8
0
100
AcDbMText
 62
3
  6
CONTINUOUS
  7
STANDARD
 71
2
 72
1
 10
274.3836639268
 20
495.8494513817
 30
0.0
 11
1.0
 21
0.0
 31
0.0
  1
Qté
 40
5.0
 41
12.0
  0
LINE
  5
2BF
100
AcDbEntity
  8
0
100
AcDbLine
 62
7
  6
CONTINUOUS
 10
0.0
 20
560.5421037221
 11
0.0
 21
0.0
  0
LINE
  5
2C0
100
AcDbEntity
  8
0
100
AcDbLine
 62
7
  6
CONTINUOUS
 10
0.0
 20
0.0
 11
0.0
 21
560.5421037221
  0
LINE
  5
2C1
100
AcDbEntity
  8
0
100
AcDbLine
 62
7
  6
CONTINUOUS
 10
0.0
 20
0.0
 11
554.1316004153
 21
0.0
  0
LINE
  5
2C2
100
AcDbEntity
  8
0
100
AcDbLine
 62
7
  6
CONTINUOUS
 10
0.0
 20
0.0
 11
554.1316004153
 21
0.0
  0
LINE
  5
2C3
100
AcDbEntity
  8
MOVING
100
AcDbLine
 62
1
  6
AM_ISO02W050X2
 10
93.5006031185
 20
8.6646731343
 11
92.6595453084
 21
10.2560944363
  0
LINE
  5
2C4
100
AcDbEntity
  8
MOVING
100
AcDbLine
 62
1
  6
AM_ISO02W050X2
 10
94.4277911995
 20
11.190603114
 11
83.8211177067
 21
31.2601939772
  0
LINE
  5
2C5
100
AcDbEntity
  8
MOVING
100
AcDbLine
 62
1
  6
AM_ISO02W050X2
 10
83.3442736883
 20
40.0810617467
 11
87.0923726051
 21
32.9890350311
  0
LINE
  5
2C6
100
AcDbEntity
  8
MOVING
100
AcDbLine
 62
1
  6
AM_ISO02W050X2
 10
88.8606184961
 20
33.9235437089
 11
83.01993926
 21
44.9750805279
  0
LINE
  5
2C7
100
AcDbEntity
  8
DIRECT_HANDLE
100
AcDbLine
 62
7
  6
CONTINUOUS
 10
512.5237321135
 20
26.4816310799
 11
499.5237321134
 21
26.4816310799
  0
LINE
  5
2C8
100
AcDbEntity
  8
DIRECT_HANDLE
100
AcDbLine
 62
7
  6
CONTINUOUS
 10
100.8227053107
 20
26.5335645748
 11
82.3227053108
 21
26.5335645747
  0
LINE
  5
2C9
100
AcDbEntity
  8
MOVING
100
AcDbLine
 62
1
  6
AM_ISO02W050X2
 10
95.3608316991
 20
37.3675887737
 11
93.0281608742
 21
41.781390057
  0
LINE
  5
2CA
100
AcDbEntity
  8
MOVING
100
AcDbLine
 62
1
  6
AM_ISO02W050X2
 10
102.0967952865
 20
34.1324072347
 11
99.2843345748
 21
39.4540508058
  0
LINE
  5
2CB
100
AcDbEntity
  8
MOVING
100
AcDbLine
 62
1
  6
AM_ISO02W050X2
 10
103.4229797048
 20
34.8332887431
 11
112.0671849743
 21
18.477014251
  0
LINE
  5
2CC
100
AcDbEntity
  8
MOVING
100
AcDbLine
 62
1
  6
AM_ISO02W050X2
 10
114.7188846489
 20
22.1405524442
 11
114.25163031
 21
23.0246753897
  0
LINE
  5
2CD
100
AcDbEntity
  8
MOVING
100
AcDbLine
 62
1
  6
AM_ISO02W050X2
 10
105.4569370057
 20
43.825675395
 11
108.7277173779
 21
37.6368147764
  0
LINE
  5
2CE
100
AcDbEntity
  8
MOVING
100
AcDbLine
 62
1
  6
AM_ISO02W050X2
 10
119.5563679831
 20
25.8282014231
 11
120.0236223219
 21
24.9440784776
  0
LINE
  5
2CF
100
AcDbEntity
  8
DIRECT_HANDLE
100
AcDbLine
 62
7
  6
CONTINUOUS
 10
497.5237321134
 20
38.4816310799
 11
514.5237321134
 21
38.4816310799
  0
LINE
  5
2D0
100
AcDbEntity
  8
DIRECT_HANDLE
100
AcDbLine
 62
7
  6
CONTINUOUS
 10
102.8227053106
 20
38.5335645748
 11
80.3227053108
 21
38.5335645747
  0
LINE
  5
2D1
100
AcDbEntity
  8
DIRECT_HANDLE
100
AcDbLine
 62
7
  6
CONTINUOUS
 10
514.5237321135
 20
50.4816310798
 11
497.5237321134
 21
50.4816310799
  0
LINE
  5
2D2
100
AcDbEntity
  8
DIRECT_HANDLE
100
AcDbLine
 62
7
  6
CONTINUOUS
 10
102.8227053108
 20
50.5335645743
 11
80.3227053108
 21
50.5335645743
  0
LINE
  5
2D3
100
AcDbEntity
  8
MOVING
100
AcDbLine
 62
1
  6
AM_ISO02W050X2
 10
126.3094048237
 20
51.4529020141
 11
124.907641807
 21
54.1052708506
  0
LINE
  5
2D4
100
AcDbEntity
  8
MOVING
100
AcDbLine
 62
1
  6
AM_ISO02W050X2
 10
127.459239179
 20
59.9780343271
 11
130.7300195513
 21
53.7891737085
  0
LINE
  5
2D5
100
AcDbEntity
  8
0
100
AcDbLine
 62
7
  6
CONTINUOUS
 10
66.4524454933
 20
459.1494513817
 11
66.4524454933
 21
498.5494513817
  0
LINE
  5
2D6
100
AcDbEntity
  8
BASIC_DEVICE
100
AcDbLine
 62
7
  6
CONTINUOUS
 10
257.3227053108
 20
60.48163108
 11
267.8227053108
 21
60.48163108
  0
LINE
  5
2D7
100
AcDbEntity
  8
BASIC_DEVICE
100
AcDbLine
 62
7
  6
CONTINUOUS
 10
385.0237321134
 20
60.4816310799
 11
410.8237321134
 21
60.48163108
  0
LINE
  5
2D8
100
AcDbEntity
  8
BASIC_DEVICE
100
AcDbLine
 62
7
  6
CONTINUOUS
 10
421.0237321134
 20
60.4816310799
 11
446.8237321134
 21
60.48163108
  0
LINE
  5
2D9
100
AcDbEntity
  8
BASIC_DEVICE
100
AcDbLine
 62
7
  6
CONTINUOUS
 10
457.0237321134
 20
60.4816310799
 11
482.8237321134
 21
60.48163108
  0
LINE
  5
2DA
100
AcDbEntity
  8
DIRECT_HANDLE
100
AcDbLine
 62
7
  6
CONTINUOUS
 10
497.5237321134
 20
60.4816310799
 11
514.5237321134
 21
60.4816310799
  0
LINE
  5
2DB
100
AcDbEntity
  8
DIRECT_HANDLE
100
AcDbLine
 62
7
  6
CONTINUOUS
 10
102.8227053108
 20
60.5335645748
 11
80.3227053108
 21
60.5335645748
  0
LINE
  5
2DC
100
AcDbEntity
  8
CONTACT
100
AcDbLine
 62
40
  6
CONTINUOUS
 10
254.8227053108
 20
63.1816310799
 11
257.3227053108
 21
63.1816310799
  0
LINE
  5
2DD
100
AcDbEntity
  8
CONTACT
100
AcDbLine
 62
40
  6
CONTINUOUS
 10
388.9237321134
 20
63.1816310799
 11
406.9237321134
 21
63.1816310799
  0
LINE
  5
2DE
100
AcDbEntity
  8
CONTACT
100
AcDbLine
 62
40
  6
CONTINUOUS
 10
424.9237321134
 20
63.1816310799
 11
442.9237321134
 21
63.1816310799
  0
LINE
  5
2DF
100
AcDbEntity
  8
CONTACT
100
AcDbLine
 62
40
  6
CONTINUOUS
 10
460.9237321134
 20
63.1816310799
 11
478.9237321134
 21
63.1816310799
  0
LINE
  5
2E0
100
AcDbEntity
  8
DIRECT_HANDLE
100
AcDbLine
 62
7
  6
CONTINUOUS
 10
508.3237321134
 20
63.4816310799
 11
503.7237321135
 21
63.4816310799
  0
LINE
  5
2E1
100
AcDbEntity
  8
BASIC_DEVICE
100
AcDbLine
 62
7
  6
CONTINUOUS
 10
485.2237321134
 20
63.98163108
 11
482.8237321134
 21
63.98163108
  0
LINE
  5
2E2
100
AcDbEntity
  8
BASIC_DEVICE
100
AcDbLine
 62
7
  6
CONTINUOUS
 10
449.2237321134
 20
63.98163108
 11
446.8237321134
 21
63.98163108
  0
LINE
  5
2E3
100
AcDbEntity
  8
BASIC_DEVICE
100
AcDbLine
 62
7
  6
CONTINUOUS
 10
413.2237321134
 20
63.98163108
 11
410.8237321134
 21
63.98163108
  0
LINE
  5
2E4
100
AcDbEntity
  8
BASIC_DEVICE
100
AcDbLine
 62
7
  6
CONTINUOUS
 10
267.8227053108
 20
63.98163108
 11
276.8227053108
 21
63.98163108
  0
LINE
  5
2E5
100
AcDbEntity
  8
BASIC_DEVICE
100
AcDbLine
 62
7
  6
CONTINUOUS
 10
382.6237321134
 20
63.9816310799
 11
385.0237321134
 21
63.9816310799
  0
LINE
  5
2E6
100
AcDbEntity
  8
BASIC_DEVICE
100
AcDbLine
 62
7
  6
CONTINUOUS
 10
418.6237321134
 20
63.9816310799
 11
421.0237321134
 21
63.9816310799
  0
LINE
  5
2E7
100
AcDbEntity
  8
BASIC_DEVICE
100
AcDbLine
 62
7
  6
CONTINUOUS
 10
454.6237321134
 20
63.9816310799
 11
457.0237321134
 21
63.9816310799
  0
LINE
  5
2E8
100
AcDbEntity
  8
DIRECT_HANDLE
100
AcDbLine
 62
7
  6
CONTINUOUS
 10
507.8237321135
 20
65.4816310798
 11
504.2237321135
 21
65.4816310798
  0
LINE
  5
2E9
100
AcDbEntity
  8
AXIS
100
AcDbLine
 62
4
  6
AM_ISO08W050
 10
260.3227053108
 20
70.9816310799
 11
251.8227053108
 21
70.9816310799
  0
LINE
  5
2EA
100
AcDbEntity
  8
AXIS
100
AcDbLine
 62
4
  6
AM_ISO08W050
 10
392.1737321134
 20
70.9816310799
 11
403.6737321134
 21
70.9816310799
  0
LINE
  5
2EB
100
AcDbEntity
  8
AXIS
100
AcDbLine
 62
4
  6
AM_ISO08W050
 10
428.1737321134
 20
70.9816310799
 11
439.6737321134
 21
70.9816310799
  0
LINE
  5
2EC
100
AcDbEntity
  8
AXIS
100
AcDbLine
 62
4
  6
AM_ISO08W050
 10
464.1737321134
 20
70.9816310799
 11
475.6737321134
 21
70.9816310799
  0
LINE
  5
2ED
100
AcDbEntity
  8
MOVING
100
AcDbLine
 62
1
  6
AM_ISO02W050X2
 10
170.7812635093
 20
82.8734969328
 11
176.9373707256
 21
79.9061130346
  0
LINE
  5
2EE
100
AcDbEntity
  8
DIRECT_HANDLE
100
AcDbLine
 62
7
  6
CONTINUOUS
 10
80.3227053108
 20
28.5335645747
 11
80.3227053108
 21
159.5335645753
  0
LINE
  5
2EF
100
AcDbEntity
  8
0
100
AcDbLine
 62
1
  6
CONTINUOUS
 10
81.0524454933
 20
498.5494513817
 11
81.0524454933
 21
459.1494513817
  0
LINE
  5
2F0
100
AcDbEntity
  8
DIRECT_HANDLE
100
AcDbLine
 62
7
  6
CONTINUOUS
 10
93.8227053108
 20
161.5335645753
 11
93.8227053108
 21
125.4296975846
  0
LINE
  5
2F1
100
AcDbEntity
  8
BASIC_DEVICE
100
AcDbLine
 62
7
  6
CONTINUOUS
 10
229.3227053108
 20
80.4816310799
 11
219.3227053108
 21
80.4816310799
  0
LINE
  5
2F2
100
AcDbEntity
  8
CAGE_COMMANDE
100
AcDbLine
 62
7
  6
CONTINUOUS
 10
524.1237321134
 20
82.4816310799
 11
487.9237321134
 21
82.4816310799
  0
LINE
  5
2F3
100
AcDbEntity
  8
BASIC_DEVICE
100
AcDbLine
 62
7
  6
CONTINUOUS
 10
482.8237321134
 20
82.48163108
 11
457.0237321134
 21
82.4816310799
  0
LINE
  5
2F4
100
AcDbEntity
  8
BASIC_DEVICE
100
AcDbLine
 62
7
  6
CONTINUOUS
 10
446.8237321134
 20
82.48163108
 11
421.0237321134
 21
82.4816310799
  0
LINE
  5
2F5
100
AcDbEntity
  8
BASIC_DEVICE
100
AcDbLine
 62
7
  6
CONTINUOUS
 10
410.8237321134
 20
82.48163108
 11
385.0237321134
 21
82.4816310799
  0
LINE
  5
2F6
100
AcDbEntity
  8
BASIC_DEVICE
100
AcDbLine
 62
7
  6
CONTINUOUS
 10
229.3227053108
 20
82.4816310799
 11
174.8227053108
 21
82.4816310799
  0
LINE
  5
2F7
100
AcDbEntity
  8
COVER_FUSE
100
AcDbLine
 62
6
  6
CONTINUOUS
 10
180.3227053108
 20
82.4816310799
 11
150.3227053108
 21
82.4816310799
  0
LINE
  5
2F8
100
AcDbEntity
  8
CAGE_COMMANDE
100
AcDbLine
 62
7
  6
CONTINUOUS
 10
200.2227053108
 20
82.4816310799
 11
276.8227053108
 21
82.4816310799
  0
LINE
  5
2F9
100
AcDbEntity
  8
COVER_FUSE
100
AcDbLine
 62
6
  6
CONTINUOUS
 10
382.9237321134
 20
82.4816310799
 11
412.9237321134
 21
82.4816310799
  0
LINE
  5
2FA
100
AcDbEntity
  8
COVER_FUSE
100
AcDbLine
 62
6
  6
CONTINUOUS
 10
418.9237321134
 20
82.4816310799
 11
448.9237321134
 21
82.4816310799
  0
LINE
  5
2FB
100
AcDbEntity
  8
COVER_FUSE
100
AcDbLine
 62
6
  6
CONTINUOUS
 10
454.9237321134
 20
82.4816310799
 11
484.9237321134
 21
82.4816310799
  0
LINE
  5
2FC
100
AcDbEntity
  8
BASIC_DEVICE
100
AcDbLine
 62
7
  6
CONTINUOUS
 10
257.3227053108
 20
84.4816310799
 11
229.3227053108
 21
84.4816310799
  0
LINE
  5
2FD
100
AcDbEntity
  8
BASIC_DEVICE
100
AcDbLine
 62
7
  6
CONTINUOUS
 10
480.4237321134
 20
84.98163108
 11
459.4237321134
 21
84.9816310799
  0
LINE
  5
2FE
100
AcDbEntity
  8
BASIC_DEVICE
100
AcDbLine
 62
7
  6
CONTINUOUS
 10
444.4237321134
 20
84.98163108
 11
423.4237321134
 21
84.9816310799
  0
LINE
  5
2FF
100
AcDbEntity
  8
BASIC_DEVICE
100
AcDbLine
 62
7
  6
CONTINUOUS
 10
408.4237321134
 20
84.98163108
 11
387.4237321134
 21
84.9816310799
  0
LINE
  5
300
100
AcDbEntity
  8
BASIC_DEVICE
100
AcDbLine
 62
7
  6
CONTINUOUS
 10
198.3227053108
 20
84.9816310799
 11
202.6227053108
 21
84.9816310799
  0
LINE
  5
301
100
AcDbEntity
  8
BASIC_DEVICE
100
AcDbLine
 62
7
  6
CONTINUOUS
 10
208.6227053108
 20
84.9816310799
 11
212.6227053108
 21
84.9816310799
  0
LINE
  5
302
100
AcDbEntity
  8
BASIC_DEVICE
100
AcDbLine
 62
7
  6
CONTINUOUS
 10
457.0237321134
 20
85.4816310799
 11
455.2237321134
 21
85.4816310799
  0
LINE
  5
303
100
AcDbEntity
  8
BASIC_DEVICE
100
AcDbLine
 62
7
  6
CONTINUOUS
 10
421.0237321134
 20
85.4816310799
 11
419.2237321134
 21
85.4816310799
  0
LINE
  5
304
100
AcDbEntity
  8
BASIC_DEVICE
100
AcDbLine
 62
7
  6
CONTINUOUS
 10
385.0237321134
 20
85.4816310799
 11
383.2237321134
 21
85.4816310799
  0
LINE
  5
305
100
AcDbEntity
  8
BASIC_DEVICE
100
AcDbLine
 62
7
  6
CONTINUOUS
 10
208.6227053108
 20
85.4816310799
 11
212.6227053108
 21
85.4816310799
  0
LINE
  5
306
100
AcDbEntity
  8
BASIC_DEVICE
100
AcDbLine
 62
7
  6
CONTINUOUS
 10
410.8237321134
 20
85.4816310799
 11
412.6237321134
 21
85.4816310799
  0
LINE
  5
307
100
AcDbEntity
  8
BASIC_DEVICE
100
AcDbLine
 62
7
  6
CONTINUOUS
 10
446.8237321134
 20
85.4816310799
 11
448.6237321134
 21
85.4816310799
  0
LINE
  5
308
100
AcDbEntity
  8
BASIC_DEVICE
100
AcDbLine
 62
7
  6
CONTINUOUS
 10
482.8237321134
 20
85.4816310799
 11
484.6237321134
 21
85.4816310799
  0
LINE
  5
309
100
AcDbEntity
  8
BASIC_DEVICE
100
AcDbLine
 62
7
  6
CONTINUOUS
 10
473.676510613
 20
87.9816310799
 11
466.1709536139
 21
87.9816310799
  0
LINE
  5
30A
100
AcDbEntity
  8
BASIC_DEVICE
100
AcDbLine
 62
7
  6
CONTINUOUS
 10
437.676510613
 20
87.9816310799
 11
430.1709536139
 21
87.9816310799
  0
LINE
  5
30B
100
AcDbEntity
  8
BASIC_DEVICE
100
AcDbLine
 62
7
  6
CONTINUOUS
 10
401.676510613
 20
87.9816310799
 11
394.1709536139
 21
87.9816310799
  0
LINE
  5
30C
100
AcDbEntity
  8
BASIC_DEVICE
100
AcDbLine
 62
7
  6
CONTINUOUS
 10
198.3227053108
 20
87.9816310799
 11
202.6227053108
 21
87.9816310799
  0
LINE
  5
30D
100
AcDbEntity
  8
AXIS
100
AcDbLine
 62
4
  6
AM_ISO08W050X2
 10
379.9237321134
 20
88.4816310799
 11
388.0237321134
 21
88.4816310799
  0
LINE
  5
30E
100
AcDbEntity
  8
AXIS
100
AcDbLine
 62
4
  6
AM_ISO08W050X2
 10
407.8237321134
 20
88.4816310799
 11
424.0237321134
 21
88.4816310799
  0
LINE
  5
30F
100
AcDbEntity
  8
AXIS
100
AcDbLine
 62
4
  6
AM_ISO08W050X2
 10
443.8237321134
 20
88.4816310799
 11
460.0237321134
 21
88.4816310799
  0
LINE
  5
310
100
AcDbEntity
  8
AXIS
100
AcDbLine
 62
4
  6
AM_ISO08W050X2
 10
479.8237321134
 20
88.4816310799
 11
487.9237321134
 21
88.4816310799
  0
LINE
  5
311
100
AcDbEntity
  8
BASIC_DEVICE
100
AcDbLine
 62
7
  6
CONTINUOUS
 10
484.6237321134
 20
91.4816310799
 11
482.8237321134
 21
91.4816310799
  0
LINE
  5
312
100
AcDbEntity
  8
BASIC_DEVICE
100
AcDbLine
 62
7
  6
CONTINUOUS
 10
448.6237321134
 20
91.4816310799
 11
446.8237321134
 21
91.4816310799
  0
LINE
  5
313
100
AcDbEntity
  8
BASIC_DEVICE
100
AcDbLine
 62
7
  6
CONTINUOUS
 10
412.6237321134
 20
91.4816310799
 11
410.8237321134
 21
91.4816310799
  0
LINE
  5
314
100
AcDbEntity
  8
BASIC_DEVICE
100
AcDbLine
 62
7
  6
CONTINUOUS
 10
383.2237321134
 20
91.4816310799
 11
385.0237321134
 21
91.4816310799
  0
LINE
  5
315
100
AcDbEntity
  8
BASIC_DEVICE
100
AcDbLine
 62
7
  6
CONTINUOUS
 10
419.2237321134
 20
91.4816310799
 11
421.0237321134
 21
91.4816310799
  0
LINE
  5
316
100
AcDbEntity
  8
BASIC_DEVICE
100
AcDbLine
 62
7
  6
CONTINUOUS
 10
455.2237321134
 20
91.4816310799
 11
457.0237321134
 21
91.4816310799
  0
LINE
  5
317
100
AcDbEntity
  8
COVER_FUSE
100
AcDbLine
 62
6
  6
CONTINUOUS
 10
484.9237321134
 20
94.4816310799
 11
482.8237321134
 21
94.4816310799
  0
LINE
  5
318
100
AcDbEntity
  8
BASIC_DEVICE
100
AcDbLine
 62
7
  6
CONTINUOUS
 10
482.8237321134
 20
94.4816310799
 11
480.4237321134
 21
94.4816310799
  0
LINE
  5
319
100
AcDbEntity
  8
COVER_FUSE
100
AcDbLine
 62
6
  6
CONTINUOUS
 10
448.9237321134
 20
94.4816310799
 11
446.8237321134
 21
94.4816310799
  0
LINE
  5
31A
100
AcDbEntity
  8
BASIC_DEVICE
100
AcDbLine
 62
7
  6
CONTINUOUS
 10
446.8237321134
 20
94.4816310799
 11
444.4237321134
 21
94.4816310799
  0
LINE
  5
31B
100
AcDbEntity
  8
COVER_FUSE
100
AcDbLine
 62
6
  6
CONTINUOUS
 10
412.9237321134
 20
94.4816310799
 11
410.8237321134
 21
94.4816310799
  0
LINE
  5
31C
100
AcDbEntity
  8
BASIC_DEVICE
100
AcDbLine
 62
7
  6
CONTINUOUS
 10
410.8237321134
 20
94.4816310799
 11
408.4237321134
 21
94.4816310799
  0
LINE
  5
31D
100
AcDbEntity
  8
COVER_FUSE
100
AcDbLine
 62
6
  6
CONTINUOUS
 10
161.3227053108
 20
94.4816310799
 11
180.3227053108
 21
94.4816310799
  0
LINE
  5
31E
100
AcDbEntity
  8
BASIC_DEVICE
100
AcDbLine
 62
7
  6
CONTINUOUS
 10
174.8227053108
 20
94.4816310799
 11
196.8227053108
 21
94.4816310799
  0
LINE
  5
31F
100
AcDbEntity
  8
COVER_FUSE
100
AcDbLine
 62
6
  6
CONTINUOUS
 10
382.9237321134
 20
94.4816310799
 11
385.0237321134
 21
94.4816310799
  0
LINE
  5
320
100
AcDbEntity
  8
BASIC_DEVICE
100
AcDbLine
 62
7
  6
CONTINUOUS
 10
385.0237321134
 20
94.4816310799
 11
387.4237321134
 21
94.4816310799
  0
LINE
  5
321
100
AcDbEntity
  8
COVER_FUSE
100
AcDbLine
 62
6
  6
CONTINUOUS
 10
418.9237321134
 20
94.4816310799
 11
421.0237321134
 21
94.4816310799
  0
LINE
  5
322
100
AcDbEntity
  8
BASIC_DEVICE
100
AcDbLine
 62
7
  6
CONTINUOUS
 10
421.0237321134
 20
94.4816310799
 11
423.4237321134
 21
94.4816310799
  0
LINE
  5
323
100
AcDbEntity
  8
COVER_FUSE
100
AcDbLine
 62
6
  6
CONTINUOUS
 10
454.9237321134
 20
94.4816310799
 11
457.0237321134
 21
94.4816310799
  0
LINE
  5
324
100
AcDbEntity
  8
BASIC_DEVICE
100
AcDbLine
 62
7
  6
CONTINUOUS
 10
457.0237321134
 20
94.4816310799
 11
459.4237321134
 21
94.4816310799
  0
LINE
  5
325
100
AcDbEntity
  8
COVER_FUSE
100
AcDbLine
 62
6
  6
CONTINUOUS
 10
174.3227053108
 20
95.4816310799
 11
169.8227053108
 21
95.4816310799
  0
LINE
  5
326
100
AcDbEntity
  8
MOVING
100
AcDbLine
 62
1
  6
AM_ISO02W050X2
 10
169.0130176183
 20
81.938988255
 11
182.7970206156
 21
55.8573613623
  0
LINE
  5
327
100
AcDbEntity
  8
DIRECT_HANDLE
100
AcDbLine
 62
7
  6
CONTINUOUS
 10
102.8227053108
 20
107.4296975846
 11
102.8227053107
 21
28.5335645748
  0
LINE
  5
328
100
AcDbEntity
  8
BASIC_DEVICE
100
AcDbLine
 62
7
  6
CONTINUOUS
 10
459.4237321134
 20
100.4816310799
 11
451.9237321134
 21
100.4816310799
  0
LINE
  5
329
100
AcDbEntity
  8
BASIC_DEVICE
100
AcDbLine
 62
7
  6
CONTINUOUS
 10
423.4237321134
 20
100.4816310799
 11
415.9237321134
 21
100.4816310799
  0
LINE
  5
32A
100
AcDbEntity
  8
BASIC_DEVICE
100
AcDbLine
 62
7
  6
CONTINUOUS
 10
387.4237321134
 20
100.4816310799
 11
379.9237321134
 21
100.4816310799
  0
LINE
  5
32B
100
AcDbEntity
  8
BASIC_DEVICE
100
AcDbLine
 62
7
  6
CONTINUOUS
 10
174.8227053108
 20
100.4816310799
 11
170.3227053108
 21
100.4816310799
  0
LINE
  5
32C
100
AcDbEntity
  8
COVER_FUSE
100
AcDbLine
 62
6
  6
CONTINUOUS
 10
379.9237321134
 20
100.4816310799
 11
385.0237321134
 21
100.4816310799
  0
LINE
  5
32D
100
AcDbEntity
  8
COVER_FUSE
100
AcDbLine
 62
6
  6
CONTINUOUS
 10
410.8237321134
 20
100.4816310799
 11
421.0237321134
 21
100.4816310799
  0
LINE
  5
32E
100
AcDbEntity
  8
COVER_FUSE
100
AcDbLine
 62
6
  6
CONTINUOUS
 10
446.8237321134
 20
100.4816310799
 11
457.0237321134
 21
100.4816310799
  0
LINE
  5
32F
100
AcDbEntity
  8
COVER_FUSE
100
AcDbLine
 62
6
  6
CONTINUOUS
 10
482.8237321134
 20
100.4816310799
 11
487.9237321134
 21
100.4816310799
  0
LINE
  5
330
100
AcDbEntity
  8
0
100
AcDbLine
 62
7
  6
CONTINUOUS
 10
375.9237321134
 20
100.7316310799
 11
379.9237321134
 21
100.7316310799
  0
LINE
  5
331
100
AcDbEntity
  8
CAGE_COMMANDE
100
AcDbLine
 62
7
  6
CONTINUOUS
 10
230.1287742879
 20
100.9316310799
 11
234.5166363338
 21
100.9316310799
  0
LINE
  5
332
100
AcDbEntity
  8
BASIC_DEVICE
100
AcDbLine
 62
7
  6
CONTINUOUS
 10
394.1709536139
 20
100.9816371412
 11
401.6765106129
 21
100.9816371412
  0
LINE
  5
333
100
AcDbEntity
  8
BASIC_DEVICE
100
AcDbLine
 62
7
  6
CONTINUOUS
 10
430.1709536139
 20
100.9816371412
 11
437.6765106129
 21
100.9816371412
  0
LINE
  5
334
100
AcDbEntity
  8
BASIC_DEVICE
100
AcDbLine
 62
7
  6
CONTINUOUS
 10
466.1709536139
 20
100.9816371412
 11
473.6765106129
 21
100.9816371412
  0
LINE
  5
335
100
AcDbEntity
  8
BASIC_DEVICE
100
AcDbLine
 62
7
  6
CONTINUOUS
 10
487.9237321134
 20
101.48163108
 11
480.4237321134
 21
101.48163108
  0
LINE
  5
336
100
AcDbEntity
  8
BASIC_DEVICE
100
AcDbLine
 62
7
  6
CONTINUOUS
 10
451.9237321134
 20
101.48163108
 11
444.4237321134
 21
101.48163108
  0
LINE
  5
337
100
AcDbEntity
  8
BASIC_DEVICE
100
AcDbLine
 62
7
  6
CONTINUOUS
 10
415.9237321134
 20
101.48163108
 11
408.4237321134
 21
101.48163108
  0
LINE
  5
338
100
AcDbEntity
  8
BASIC_DEVICE
100
AcDbLine
 62
7
  6
CONTINUOUS
 10
179.8227053108
 20
101.4816310799
 11
227.2791450604
 21
101.4816310799
  0
LINE
  5
339
100
AcDbEntity
  8
BASIC_DEVICE
100
AcDbLine
 62
7
  6
CONTINUOUS
 10
237.3662655613
 20
101.4816310799
 11
267.8227053108
 21
101.4816310799
  0
LINE
  5
33A
100
AcDbEntity
  8
COVER_FUSE
100
AcDbLine
 62
6
  6
CONTINUOUS
 10
179.8227053108
 20
101.5378637233
 11
150.3227053108
 21
101.5378637233
  0
LINE
  5
33B
100
AcDbEntity
  8
FUSE
100
AcDbLine
 62
3
  6
CONTINUOUS
 10
394.9237321134
 20
102.2316310799
 11
400.9237321134
 21
102.2316310799
  0
LINE
  5
33C
100
AcDbEntity
  8
FUSE
100
AcDbLine
 62
3
  6
CONTINUOUS
 10
430.9237321134
 20
102.2316310799
 11
436.9237321134
 21
102.2316310799
  0
LINE
  5
33D
100
AcDbEntity
  8
FUSE
100
AcDbLine
 62
3
  6
CONTINUOUS
 10
466.9237321134
 20
102.2316310799
 11
472.9237321134
 21
102.2316310799
  0
LINE
  5
33E
100
AcDbEntity
  8
0
100
AcDbLine
 62
7
  6
CONTINUOUS
 10
379.9237321134
 20
103.3982977466
 11
375.9237321134
 21
103.3982977466
  0
LINE
  5
33F
100
AcDbEntity
  8
BASIC_DEVICE
100
AcDbLine
 62
7
  6
CONTINUOUS
 10
485.9237321134
 20
103.9816310799
 11
480.4237321134
 21
103.98163108
  0
LINE
  5
340
100
AcDbEntity
  8
BASIC_DEVICE
100
AcDbLine
 62
7
  6
CONTINUOUS
 10
449.9237321134
 20
103.9816310799
 11
444.4237321134
 21
103.98163108
  0
LINE
  5
341
100
AcDbEntity
  8
BASIC_DEVICE
100
AcDbLine
 62
7
  6
CONTINUOUS
 10
413.9237321134
 20
103.9816310799
 11
408.4237321134
 21
103.98163108
  0
LINE
  5
342
100
AcDbEntity
  8
BASIC_DEVICE
100
AcDbLine
 62
7
  6
CONTINUOUS
 10
172.3227053108
 20
103.9816310799
 11
180.8227053108
 21
103.9816310799
  0
LINE
  5
343
100
AcDbEntity
  8
0
100
AcDbLine
 62
7
  6
CONTINUOUS
 10
379.9237321134
 20
106.0649644133
 11
375.9237321134
 21
106.0649644133
  0
LINE
  5
344
100
AcDbEntity
  8
BASIC_DEVICE
100
AcDbLine
 62
7
  6
CONTINUOUS
 10
170.3227053108
 20
106.4816310799
 11
172.3227053108
 21
106.4816310799
  0
LINE
  5
345
100
AcDbEntity
  8
BASIC_DEVICE
100
AcDbLine
 62
7
  6
CONTINUOUS
 10
379.9237321134
 20
106.4816310799
 11
387.4237321134
 21
106.4816310799
  0
LINE
  5
346
100
AcDbEntity
  8
BASIC_DEVICE
100
AcDbLine
 62
7
  6
CONTINUOUS
 10
415.9237321134
 20
106.4816310799
 11
423.4237321134
 21
106.4816310799
  0
LINE
  5
347
100
AcDbEntity
  8
BASIC_DEVICE
100
AcDbLine
 62
7
  6
CONTINUOUS
 10
451.9237321134
 20
106.4816310799
 11
459.4237321134
 21
106.4816310799
  0
LINE
  5
348
100
AcDbEntity
  8
SUPPORT_FUSE
100
AcDbLine
 62
40
  6
CONTINUOUS
 10
393.0737321134
 20
106.9816310799
 11
395.0737321134
 21
106.9816310799
  0
LINE
  5
349
100
AcDbEntity
  8
SUPPORT_FUSE
100
AcDbLine
 62
40
  6
CONTINUOUS
 10
400.7737321134
 20
106.9816310799
 11
402.7737321134
 21
106.9816310799
  0
LINE
  5
34A
100
AcDbEntity
  8
SUPPORT_FUSE
100
AcDbLine
 62
40
  6
CONTINUOUS
 10
429.0737321134
 20
106.9816310799
 11
431.0737321134
 21
106.9816310799
  0
LINE
  5
34B
100
AcDbEntity
  8
SUPPORT_FUSE
100
AcDbLine
 62
40
  6
CONTINUOUS
 10
436.7737321134
 20
106.9816310799
 11
438.7737321134
 21
106.9816310799
  0
LINE
  5
34C
100
AcDbEntity
  8
SUPPORT_FUSE
100
AcDbLine
 62
40
  6
CONTINUOUS
 10
465.0737321134
 20
106.9816310799
 11
467.0737321134
 21
106.9816310799
  0
LINE
  5
34D
100
AcDbEntity
  8
SUPPORT_FUSE
100
AcDbLine
 62
40
  6
CONTINUOUS
 10
472.7737321134
 20
106.9816310799
 11
474.7737321134
 21
106.9816310799
  0
LINE
  5
34E
100
AcDbEntity
  8
CAGE_COMMANDE
100
AcDbLine
 62
7
  6
CONTINUOUS
 10
234.5166363338
 20
108.5316310799
 11
230.1287742879
 21
108.5316310799
  0
LINE
  5
34F
100
AcDbEntity
  8
0
100
AcDbLine
 62
7
  6
CONTINUOUS
 10
379.9237321134
 20
108.7316310799
 11
375.9237321134
 21
108.7316310799
  0
LINE
  5
350
100
AcDbEntity
  8
DIRECT_HANDLE
100
AcDbLine
 62
7
  6
CONTINUOUS
 10
123.8227053108
 20
109.4296975846
 11
104.8227053108
 21
109.4296975846
  0
LINE
  5
351
100
AcDbEntity
  8
BASIC_DEVICE
100
AcDbLine
 62
7
  6
CONTINUOUS
 10
479.9237321135
 20
110.98163108
 11
459.9237321134
 21
110.9816310799
  0
LINE
  5
352
100
AcDbEntity
  8
BASIC_DEVICE
100
AcDbLine
 62
7
  6
CONTINUOUS
 10
443.9237321135
 20
110.98163108
 11
423.9237321134
 21
110.9816310799
  0
LINE
  5
353
100
AcDbEntity
  8
BASIC_DEVICE
100
AcDbLine
 62
7
  6
CONTINUOUS
 10
407.9237321135
 20
110.98163108
 11
387.9237321134
 21
110.9816310799
  0
LINE
  5
354
100
AcDbEntity
  8
SUPPORT_FUSE
100
AcDbLine
 62
40
  6
CONTINUOUS
 10
386.4237321134
 20
110.9816310799
 11
409.4237321134
 21
110.9816310799
  0
LINE
  5
355
100
AcDbEntity
  8
SUPPORT_FUSE
100
AcDbLine
 62
40
  6
CONTINUOUS
 10
422.4237321134
 20
110.9816310799
 11
445.4237321134
 21
110.9816310799
  0
LINE
  5
356
100
AcDbEntity
  8
SUPPORT_FUSE
100
AcDbLine
 62
40
  6
CONTINUOUS
 10
458.4237321134
 20
110.9816310799
 11
481.4237321134
 21
110.9816310799
  0
LINE
  5
357
100
AcDbEntity
  8
DIRECT_HANDLE
100
AcDbLine
 62
7
  6
CONTINUOUS
 10
504.2237321135
 20
111.4816310799
 11
507.8237321135
 21
111.4816310799
  0
LINE
  5
358
100
AcDbEntity
  8
SUPPORT_FUSE
100
AcDbLine
 62
40
  6
CONTINUOUS
 10
481.4237321134
 20
112.9816310799
 11
458.4237321134
 21
112.9816310799
  0
LINE
  5
359
100
AcDbEntity
  8
SUPPORT_FUSE
100
AcDbLine
 62
40
  6
CONTINUOUS
 10
445.4237321134
 20
112.9816310799
 11
422.4237321134
 21
112.9816310799
  0
LINE
  5
35A
100
AcDbEntity
  8
SUPPORT_FUSE
100
AcDbLine
 62
40
  6
CONTINUOUS
 10
409.4237321134
 20
112.9816310799
 11
386.4237321134
 21
112.9816310799
  0
LINE
  5
35B
100
AcDbEntity
  8
BASIC_DEVICE
100
AcDbLine
 62
7
  6
CONTINUOUS
 10
387.9237321134
 20
112.9816310799
 11
407.9237321134
 21
112.98163108
  0
LINE
  5
35C
100
AcDbEntity
  8
BASIC_DEVICE
100
AcDbLine
 62
7
  6
CONTINUOUS
 10
423.9237321134
 20
112.9816310799
 11
443.9237321134
 21
112.98163108
  0
LINE
  5
35D
100
AcDbEntity
  8
BASIC_DEVICE
100
AcDbLine
 62
7
  6
CONTINUOUS
 10
459.9237321134
 20
112.9816310799
 11
479.9237321134
 21
112.98163108
  0
LINE
  5
35E
100
AcDbEntity
  8
FUSE
100
AcDbLine
 62
3
  6
CONTINUOUS
 10
484.9237321134
 20
114.4816310799
 11
454.9237321134
 21
114.4816310799
  0
LINE
  5
35F
100
AcDbEntity
  8
FUSE
100
AcDbLine
 62
3
  6
CONTINUOUS
 10
448.9237321134
 20
114.4816310799
 11
418.9237321134
 21
114.4816310799
  0
LINE
  5
360
100
AcDbEntity
  8
FUSE
100
AcDbLine
 62
3
  6
CONTINUOUS
 10
412.9237321134
 20
114.4816310799
 11
382.9237321134
 21
114.4816310799
  0
LINE
  5
361
100
AcDbEntity
  8
COVER_FUSE
100
AcDbLine
 62
6
  6
CONTINUOUS
 10
393.6737321134
 20
114.4816310799
 11
402.1737321134
 21
114.4816310799
  0
LINE
  5
362
100
AcDbEntity
  8
COVER_FUSE
100
AcDbLine
 62
6
  6
CONTINUOUS
 10
429.6737321134
 20
114.4816310799
 11
438.1737321134
 21
114.4816310799
  0
LINE
  5
363
100
AcDbEntity
  8
COVER_FUSE
100
AcDbLine
 62
6
  6
CONTINUOUS
 10
465.6737321134
 20
114.4816310799
 11
474.1737321134
 21
114.4816310799
  0
LINE
  5
364
100
AcDbEntity
  8
DIRECT_HANDLE
100
AcDbLine
 62
7
  6
CONTINUOUS
 10
504.2237321135
 20
117.4816310799
 11
507.8237321135
 21
117.4816310799
  0
LINE
  5
365
100
AcDbEntity
  8
BASIC_DEVICE
100
AcDbLine
 62
7
  6
CONTINUOUS
 10
480.9237321134
 20
119.48163108
 11
458.9237321134
 21
119.4816310799
  0
LINE
  5
366
100
AcDbEntity
  8
BASIC_DEVICE
100
AcDbLine
 62
7
  6
CONTINUOUS
 10
444.9237321134
 20
119.48163108
 11
422.9237321134
 21
119.4816310799
  0
LINE
  5
367
100
AcDbEntity
  8
BASIC_DEVICE
100
AcDbLine
 62
7
  6
CONTINUOUS
 10
408.9237321134
 20
119.48163108
 11
386.9237321134
 21
119.4816310799
  0
LINE
  5
368
100
AcDbEntity
  8
COVER_FUSE
100
AcDbLine
 62
6
  6
CONTINUOUS
 10
474.1737321134
 20
120.4816310799
 11
465.6737321134
 21
120.4816310799
  0
LINE
  5
369
100
AcDbEntity
  8
COVER_FUSE
100
AcDbLine
 62
6
  6
CONTINUOUS
 10
438.1737321134
 20
120.4816310799
 11
429.6737321134
 21
120.4816310799
  0
LINE
  5
36A
100
AcDbEntity
  8
COVER_FUSE
100
AcDbLine
 62
6
  6
CONTINUOUS
 10
402.1737321134
 20
120.4816310799
 11
393.6737321134
 21
120.4816310799
  0
LINE
  5
36B
100
AcDbEntity
  8
CAGE_COMMANDE
100
AcDbLine
 62
7
  6
CONTINUOUS
 10
195.7589092809
 20
130.9208068567
 11
195.9391926526
 21
130.886783554
  0
LINE
  5
36C
100
AcDbEntity
  8
CAGE_COMMANDE
100
AcDbLine
 62
7
  6
CONTINUOUS
 10
188.7991149771
 20
127.1624581801
 11
188.5164941486
 21
127.2341166956
  0
LINE
  5
36D
100
AcDbEntity
  8
CAGE_COMMANDE
100
AcDbLine
 62
7
  6
CONTINUOUS
 10
196.1474348851
 20
134.7960298141
 11
195.8686489242
 21
134.8677329211
  0
LINE
  5
36E
100
AcDbEntity
  8
CAGE_COMMANDE
100
AcDbLine
 62
7
  6
CONTINUOUS
 10
187.3123457021
 20
128.4665361432
 11
186.6280447815
 21
128.6470424723
  0
LINE
  5
36F
100
AcDbEntity
  8
CAGE_COMMANDE
100
AcDbLine
 62
7
  6
CONTINUOUS
 10
185.3236546779
 20
134.5110010454
 11
185.2237251612
 21
134.5382018509
  0
LINE
  5
370
100
AcDbEntity
  8
BASIC_DEVICE
100
AcDbLine
 62
7
  6
CONTINUOUS
 10
267.8227053108
 20
101.4816310799
 11
276.8227053108
 21
98.8021391556
  0
LINE
  5
371
100
AcDbEntity
  8
CAGE_COMMANDE
100
AcDbLine
 62
7
  6
CONTINUOUS
 10
196.4374133085
 20
134.3628235425
 11
196.2455361509
 21
134.426188042
  0
LINE
  5
372
100
AcDbEntity
  8
CAGE_COMMANDE
100
AcDbLine
 62
7
  6
CONTINUOUS
 10
195.9391926526
 20
130.886783554
 11
196.012590236
 21
130.8585125529
  0
LINE
  5
373
100
AcDbEntity
  8
CAGE_COMMANDE
100
AcDbLine
 62
7
  6
CONTINUOUS
 10
185.2237251612
 20
134.5382018509
 11
185.0718911566
 21
134.6096374091
  0
LINE
  5
374
100
AcDbEntity
  8
CAGE_COMMANDE
100
AcDbLine
 62
7
  6
CONTINUOUS
 10
196.2964596261
 20
134.7079616323
 11
196.1474348851
 21
134.7960298141
  0
LINE
  5
375
100
AcDbEntity
  8
CAGE_COMMANDE
100
AcDbLine
 62
7
  6
CONTINUOUS
 10
196.012590236
 20
130.8585125529
 11
196.2105764271
 21
130.7312484562
  0
LINE
  5
376
100
AcDbEntity
  8
CAGE_COMMANDE
100
AcDbLine
 62
7
  6
CONTINUOUS
 10
188.5164941486
 20
127.2341166956
 11
188.3238589357
 21
127.3819820581
  0
LINE
  5
377
100
AcDbEntity
  8
CAGE_COMMANDE
100
AcDbLine
 62
7
  6
CONTINUOUS
 10
185.0718911566
 20
134.6096374091
 11
184.9693307424
 21
134.6896345322
  0
LINE
  5
378
100
AcDbEntity
  8
CAGE_COMMANDE
100
AcDbLine
 62
7
  6
CONTINUOUS
 10
196.3950959898
 20
134.6180651996
 11
196.2964596261
 21
134.7079616323
  0
LINE
  5
379
100
AcDbEntity
  8
CAGE_COMMANDE
100
AcDbLine
 62
7
  6
CONTINUOUS
 10
196.6196587055
 20
134.400324981
 11
196.3950959898
 21
134.6180651996
  0
LINE
  5
37A
100
AcDbEntity
  8
CAGE_COMMANDE
100
AcDbLine
 62
7
  6
CONTINUOUS
 10
196.5462611221
 20
134.2514786058
 11
196.4374133085
 21
134.3628235425
  0
LINE
  5
37B
100
AcDbEntity
  8
CAGE_COMMANDE
100
AcDbLine
 62
7
  6
CONTINUOUS
 10
188.3238589357
 20
127.3819820581
 11
188.2199607769
 21
127.4897150845
  0
LINE
  5
37C
100
AcDbEntity
  8
CAGE_COMMANDE
100
AcDbLine
 62
7
  6
CONTINUOUS
 10
196.2105764271
 20
130.7312484562
 11
196.3162582452
 21
130.614329584
  0
LINE
  5
37D
100
AcDbEntity
  8
CAGE_COMMANDE
100
AcDbLine
 62
7
  6
CONTINUOUS
 10
184.9693307424
 20
134.6896345322
 11
184.9063229748
 21
134.7616497796
  0
LINE
  5
37E
100
AcDbEntity
  8
MOVING
100
AcDbLine
 62
1
  6
AM_ISO02W050X2
 10
176.9373707256
 20
79.9061130346
 11
179.0400152506
 21
75.9275597798
  0
LINE
  5
37F
100
AcDbEntity
  8
MOVING
100
AcDbLine
 62
1
  6
AM_ISO02W050X2
 10
183.8958000767
 20
68.8797690818
 11
175.0179676377
 21
85.6781050466
  0
LINE
  5
380
100
AcDbEntity
  8
MOVING
100
AcDbLine
 62
1
  6
AM_ISO02W050X2
 10
185.6274429839
 20
91.2851571133
 11
199.6450731506
 21
64.7614687478
  0
LINE
  5
381
100
AcDbEntity
  8
DIRECT_HANDLE
100
AcDbLine
 62
7
  6
CONTINUOUS
 10
125.8227053108
 20
111.4296975846
 11
125.8227053108
 21
159.5335645753
  0
LINE
  5
382
100
AcDbEntity
  8
CAGE_COMMANDE
100
AcDbLine
 62
7
  6
CONTINUOUS
 10
189.4811863235
 20
134.9350660627
 11
188.6288200979
 21
134.859617271
  0
LINE
  5
383
100
AcDbEntity
  8
CAGE_COMMANDE
100
AcDbLine
 62
7
  6
CONTINUOUS
 10
241.6409354513
 20
136.4982269207
 11
246.0236483086
 21
136.8814971864
  0
LINE
  5
384
100
AcDbEntity
  8
CAGE_COMMANDE
100
AcDbLine
 62
7
  6
CONTINUOUS
 10
192.674560892
 20
134.4730091007
 11
191.5804642291
 21
134.3842274551
  0
LINE
  5
385
100
AcDbEntity
  8
CAGE_COMMANDE
100
AcDbLine
 62
7
  6
CONTINUOUS
 10
190.0516897757
 20
134.9776063389
 11
189.4811863235
 21
134.9350660627
  0
LINE
  5
386
100
AcDbEntity
  8
CAGE_COMMANDE
100
AcDbLine
 62
7
  6
CONTINUOUS
 10
190.9117703281
 20
135.027415027
 11
190.0516897757
 21
134.9776063389
  0
LINE
  5
387
100
AcDbEntity
  8
CAGE_COMMANDE
100
AcDbLine
 62
7
  6
CONTINUOUS
 10
193.2210741256
 20
134.5021719315
 11
192.674560892
 21
134.4730091007
  0
LINE
  5
388
100
AcDbEntity
  8
CAGE_COMMANDE
100
AcDbLine
 62
7
  6
CONTINUOUS
 10
191.77604248
 20
135.0615275126
 11
190.9117703281
 21
135.027415027
  0
LINE
  5
389
100
AcDbEntity
  8
CAGE_COMMANDE
100
AcDbLine
 62
7
  6
CONTINUOUS
 10
195.6015905237
 20
130.9146532318
 11
195.7589092809
 21
130.9208068567
  0
LINE
  5
38A
100
AcDbEntity
  8
CAGE_COMMANDE
100
AcDbLine
 62
7
  6
CONTINUOUS
 10
194.0393278655
 20
134.5253595034
 11
193.2210741256
 21
134.5021719315
  0
LINE
  5
38B
100
AcDbEntity
  8
CAGE_COMMANDE
100
AcDbLine
 62
7
  6
CONTINUOUS
 10
218.7416356517
 20
138.9023055024
 11
218.824559564
 21
138.9040868969
  0
LINE
  5
38C
100
AcDbEntity
  8
CAGE_COMMANDE
100
AcDbLine
 62
7
  6
CONTINUOUS
 10
192.9343508805
 20
135.072051103
 11
191.77604248
 21
135.0615275126
  0
LINE
  5
38D
100
AcDbEntity
  8
BASIC_DEVICE
100
AcDbLine
 62
7
  6
CONTINUOUS
 10
386.9237321134
 20
121.4816310799
 11
408.9237321134
 21
121.48163108
  0
LINE
  5
38E
100
AcDbEntity
  8
BASIC_DEVICE
100
AcDbLine
 62
7
  6
CONTINUOUS
 10
422.9237321134
 20
121.4816310799
 11
444.9237321134
 21
121.48163108
  0
LINE
  5
38F
100
AcDbEntity
  8
BASIC_DEVICE
100
AcDbLine
 62
7
  6
CONTINUOUS
 10
458.9237321134
 20
121.4816310799
 11
480.9237321134
 21
121.48163108
  0
LINE
  5
390
100
AcDbEntity
  8
CAGE_COMMANDE
100
AcDbLine
 62
7
  6
CONTINUOUS
 10
276.0727053108
 20
122.9816310799
 11
270.9727053108
 21
122.9816310799
  0
LINE
  5
391
100
AcDbEntity
  8
BASIC_DEVICE
100
AcDbLine
 62
7
  6
CONTINUOUS
 10
276.8227053108
 20
122.98163108
 11
270.8227053108
 21
122.9816310799
  0
LINE
  5
392
100
AcDbEntity
  8
DIRECT_HANDLE
100
AcDbLine
 62
7
  6
CONTINUOUS
 10
95.8227053108
 20
123.4296975846
 11
125.8227053108
 21
123.4296975846
  0
LINE
  5
393
100
AcDbEntity
  8
CAGE_COMMANDE
100
AcDbLine
 62
7
  6
CONTINUOUS
 10
196.4725068068
 20
125.668509676
 11
199.6518796492
 21
125.668509676
  0
LINE
  5
394
100
AcDbEntity
  8
DIRECT_HANDLE
100
AcDbLine
 62
7
  6
CONTINUOUS
 10
504.2237321135
 20
126.9816310799
 11
507.8237321135
 21
126.9816310799
  0
LINE
  5
395
100
AcDbEntity
  8
DIRECT_HANDLE
100
AcDbLine
 62
7
  6
CONTINUOUS
 10
503.7237321135
 20
127.4816310799
 11
508.3237321134
 21
127.4816310799
  0
LINE
  5
396
100
AcDbEntity
  8
BASIC_DEVICE
100
AcDbLine
 62
7
  6
CONTINUOUS
 10
175.8227053108
 20
130.2816310799
 11
175.4227053108
 21
130.2816310799
  0
LINE
  5
397
100
AcDbEntity
  8
BASIC_DEVICE
100
AcDbLine
 62
7
  6
CONTINUOUS
 10
379.9237321134
 20
130.2816310799
 11
381.9237321134
 21
130.2816310799
  0
LINE
  5
398
100
AcDbEntity
  8
BASIC_DEVICE
100
AcDbLine
 62
7
  6
CONTINUOUS
 10
415.9237321134
 20
130.2816310799
 11
417.9237321134
 21
130.2816310799
  0
LINE
  5
399
100
AcDbEntity
  8
BASIC_DEVICE
100
AcDbLine
 62
7
  6
CONTINUOUS
 10
451.9237321134
 20
130.2816310799
 11
453.9237321134
 21
130.2816310799
  0
LINE
  5
39A
100
AcDbEntity
  8
CAGE_COMMANDE
100
AcDbLine
 62
7
  6
CONTINUOUS
 10
199.5282720542
 20
132.7487455794
 11
196.5961144017
 21
132.7487455794
  0
LINE
  5
39B
100
AcDbEntity
  8
MOVING
100
AcDbLine
 62
1
  6
AM_ISO02W050X2
 10
487.9198651232
 20
132.9816310799
 11
393.0237321134
 21
132.9816310799
  0
LINE
  5
39C
100
AcDbEntity
  8
BASIC_DEVICE
100
AcDbLine
 62
7
  6
CONTINUOUS
 10
381.9237321134
 20
133.4816310799
 11
379.9237321134
 21
133.4816310799
  0
LINE
  5
39D
100
AcDbEntity
  8
BASIC_DEVICE
100
AcDbLine
 62
7
  6
CONTINUOUS
 10
175.4227053108
 20
133.4816310799
 11
206.3227053108
 21
133.4816310799
  0
LINE
  5
39E
100
AcDbEntity
  8
BASIC_DEVICE
100
AcDbLine
 62
7
  6
CONTINUOUS
 10
413.9237321134
 20
133.48163108
 11
417.9237321134
 21
133.4816310799
  0
LINE
  5
39F
100
AcDbEntity
  8
BASIC_DEVICE
100
AcDbLine
 62
7
  6
CONTINUOUS
 10
449.9237321134
 20
133.48163108
 11
453.9237321134
 21
133.4816310799
  0
LINE
  5
3A0
100
AcDbEntity
  8
BASIC_DEVICE
100
AcDbLine
 62
7
  6
CONTINUOUS
 10
485.9237321134
 20
133.48163108
 11
487.9237321134
 21
133.48163108
  0
LINE
  5
3A1
100
AcDbEntity
  8
CAGE_COMMANDE
100
AcDbLine
 62
7
  6
CONTINUOUS
 10
200.0647967953
 20
134.1767432779
 11
200.1648600864
 21
134.1767432779
  0
LINE
  5
3A2
100
AcDbEntity
  8
CAGE_COMMANDE
100
AcDbLine
 62
7
  6
CONTINUOUS
 10
503.5237321134
 20
135.9816310799
 11
508.5237321134
 21
135.9816310799
  0
LINE
  5
3A3
100
AcDbEntity
  8
BASIC_DEVICE
100
AcDbLine
 62
7
  6
CONTINUOUS
 10
270.8227053108
 20
136.4816310799
 11
267.8227053108
 21
136.4816310799
  0
LINE
  5
3A4
100
AcDbEntity
  8
CAGE_COMMANDE
100
AcDbLine
 62
7
  6
CONTINUOUS
 10
267.3227053108
 20
136.4816310799
 11
270.3227053108
 21
136.4816310799
  0
LINE
  5
3A5
100
AcDbEntity
  8
CAGE_COMMANDE
100
AcDbLine
 62
7
  6
CONTINUOUS
 10
502.5237321134
 20
136.4816310799
 11
503.5237321134
 21
136.4816310799
  0
LINE
  5
3A6
100
AcDbEntity
  8
CAGE_COMMANDE
100
AcDbLine
 62
7
  6
CONTINUOUS
 10
508.5237321134
 20
136.4816310799
 11
509.5237321134
 21
136.4816310799
  0
LINE
  5
3A7
100
AcDbEntity
  8
CAGE_COMMANDE
100
AcDbLine
 62
7
  6
CONTINUOUS
 10
208.0227053108
 20
137.9816310799
 11
215.854002768
 21
137.9816310799
  0
LINE
  5
3A8
100
AcDbEntity
  8
CAGE_COMMANDE
100
AcDbLine
 62
7
  6
CONTINUOUS
 10
199.4756541025
 20
138.3265160051
 11
196.6484648045
 21
138.3265160051
  0
LINE
  5
3A9
100
AcDbEntity
  8
CAGE_COMMANDE
100
AcDbLine
 62
7
  6
CONTINUOUS
 10
197.6617616975
 20
138.4778595034
 11
199.534604045
 21
138.4778595034
  0
LINE
  5
3AA
100
AcDbEntity
  8
BASIC_DEVICE
100
AcDbLine
 62
7
  6
CONTINUOUS
 10
471.9237321134
 20
141.4816310799
 11
467.9237321134
 21
141.4816310799
  0
LINE
  5
3AB
100
AcDbEntity
  8
BASIC_DEVICE
100
AcDbLine
 62
7
  6
CONTINUOUS
 10
435.9237321134
 20
141.4816310799
 11
431.9237321134
 21
141.4816310799
  0
LINE
  5
3AC
100
AcDbEntity
  8
BASIC_DEVICE
100
AcDbLine
 62
7
  6
CONTINUOUS
 10
399.9237321134
 20
141.4816310799
 11
395.9237321134
 21
141.4816310799
  0
LINE
  5
3AD
100
AcDbEntity
  8
AXIS
100
AcDbLine
 62
4
  6
AM_ISO08W050
 10
248.8227053108
 20
141.4816310799
 11
176.9647932769
 21
141.4816310799
  0
LINE
  5
3AE
100
AcDbEntity
  8
DIRECT_HANDLE
100
AcDbLine
 62
4
  6
GEN7
 10
130.5727053108
 20
141.4816310799
 11
119.8227053108
 21
141.4816310799
  0
LINE
  5
3AF
100
AcDbEntity
  8
AXIS
100
AcDbLine
 62
4
  6
AM_ISO08W050X2
 10
248.8227053108
 20
141.4816310799
 11
256.9727053108
 21
141.4816310799
  0
LINE
  5
3B0
100
AcDbEntity
  8
DIRECT_HANDLE
100
AcDbLine
 62
4
  6
GEN7
 10
496.0237321134
 20
141.4816310799
 11
516.0237321134
 21
141.4816310799
  0
LINE
  5
3B1
100
AcDbEntity
  8
AXIS
100
AcDbLine
 62
4
  6
AM_ISO08W050X2
 10
494.9237321134
 20
141.4816310799
 11
517.1237321134
 21
141.4816310799
  0
LINE
  5
3B2
100
AcDbEntity
  8
CAGE_COMMANDE
100
AcDbLine
 62
7
  6
CONTINUOUS
 10
208.0856902543
 20
141.4902263082
 11
211.0856475993
 21
141.4902263082
  0
LINE
  5
3B3
100
AcDbEntity
  8
CAGE_COMMANDE
100
AcDbLine
 62
7
  6
CONTINUOUS
 10
195.8826506503
 20
134.4713146242
 11
195.7034374742
 21
134.4716267646
  0
LINE
  5
3B4
100
AcDbEntity
  8
CAGE_COMMANDE
100
AcDbLine
 62
7
  6
CONTINUOUS
 10
188.8975729748
 20
127.1622798141
 11
188.7991149771
 21
127.1624581801
  0
LINE
  5
3B5
100
AcDbEntity
  8
CAGE_COMMANDE
100
AcDbLine
 62
7
  6
CONTINUOUS
 10
196.4625183143
 20
125.3874495494
 11
199.6624032395
 21
125.3802703204
  0
LINE
  5
3B6
100
AcDbEntity
  8
CAGE_COMMANDE
100
AcDbLine
 62
7
  6
CONTINUOUS
 10
246.0236483086
 20
136.8814971864
 11
250.4115272537
 21
136.8706305881
  0
LINE
  5
3B7
100
AcDbEntity
  8
CAGE_COMMANDE
100
AcDbLine
 62
7
  6
CONTINUOUS
 10
194.8549507078
 20
134.5143008153
 11
194.0393278655
 21
134.5253595034
  0
LINE
  5
3B8
100
AcDbEntity
  8
CAGE_COMMANDE
100
AcDbLine
 62
7
  6
CONTINUOUS
 10
193.5112755065
 20
135.060457317
 11
192.9343508805
 21
135.072051103
  0
LINE
  5
3B9
100
AcDbEntity
  8
CAGE_COMMANDE
100
AcDbLine
 62
7
  6
CONTINUOUS
 10
195.7034374742
 20
134.4716267646
 11
194.8549507078
 21
134.5143008153
  0
LINE
  5
3BA
100
AcDbEntity
  8
CAGE_COMMANDE
100
AcDbLine
 62
7
  6
CONTINUOUS
 10
194.6587035847
 20
134.997226592
 11
193.5112755065
 21
135.060457317
  0
LINE
  5
3BB
100
AcDbEntity
  8
CAGE_COMMANDE
100
AcDbLine
 62
7
  6
CONTINUOUS
 10
195.8686489242
 20
134.8677329211
 11
195.7768736397
 21
134.8735335772
  0
LINE
  5
3BC
100
AcDbEntity
  8
CAGE_COMMANDE
100
AcDbLine
 62
7
  6
CONTINUOUS
 10
185.4990329863
 20
134.4967317704
 11
185.3236546779
 21
134.5110010454
  0
LINE
  5
3BD
100
AcDbEntity
  8
CAGE_COMMANDE
100
AcDbLine
 62
7
  6
CONTINUOUS
 10
196.0905361509
 20
134.4537455794
 11
195.8826506503
 21
134.4713146242
  0
LINE
  5
3BE
100
AcDbEntity
  8
CAGE_COMMANDE
100
AcDbLine
 62
7
  6
CONTINUOUS
 10
195.2285827562
 20
134.942824981
 11
194.6587035847
 21
134.997226592
  0
LINE
  5
3BF
100
AcDbEntity
  8
CAGE_COMMANDE
100
AcDbLine
 62
7
  6
CONTINUOUS
 10
218.6141768779
 20
138.916289449
 11
218.7416356517
 21
138.9023055024
  0
LINE
  5
3C0
100
AcDbEntity
  8
CAGE_COMMANDE
100
AcDbLine
 62
7
  6
CONTINUOUS
 10
199.6504527217
 20
133.5106356829
 11
199.9643767723
 21
133.4713059936
  0
LINE
  5
3C1
100
AcDbEntity
  8
CAGE_COMMANDE
100
AcDbLine
 62
7
  6
CONTINUOUS
 10
195.7768736397
 20
134.8735335772
 11
195.2285827562
 21
134.942824981
  0
LINE
  5
3C2
100
AcDbEntity
  8
CAGE_COMMANDE
100
AcDbLine
 62
7
  6
CONTINUOUS
 10
219.1003194268
 20
144.0341466708
 11
218.8320859556
 21
144.0753414177
  0
LINE
  5
3C3
100
AcDbEntity
  8
CAGE_COMMANDE
100
AcDbLine
 62
7
  6
CONTINUOUS
 10
196.2455361509
 20
134.426188042
 11
196.0905361509
 21
134.4537455794
  0
LINE
  5
3C4
100
AcDbEntity
  8
CAGE_COMMANDE
100
AcDbLine
 62
7
  6
CONTINUOUS
 10
219.3403623307
 20
143.965562984
 11
219.1003194268
 21
144.0341466708
  0
LINE
  5
3C5
100
AcDbEntity
  8
CAGE_COMMANDE
100
AcDbLine
 62
7
  6
CONTINUOUS
 10
219.3403623307
 20
143.965562984
 11
220.1547713442
 21
143.6344017533
  0
LINE
  5
3C6
100
AcDbEntity
  8
CAGE_COMMANDE
100
AcDbLine
 62
7
  6
CONTINUOUS
 10
218.5366862188
 20
138.9517391988
 11
218.6141768779
 21
138.916289449
  0
LINE
  5
3C7
100
AcDbEntity
  8
CAGE_COMMANDE
100
AcDbLine
 62
7
  6
CONTINUOUS
 10
220.1547713442
 20
143.6344017533
 11
220.6334320363
 21
143.3903061771
  0
LINE
  5
3C8
100
AcDbEntity
  8
CAGE_COMMANDE
100
AcDbLine
 62
7
  6
CONTINUOUS
 10
220.6334320363
 20
143.3903061771
 11
221.0523269443
 21
143.1287084002
  0
LINE
  5
3C9
100
AcDbEntity
  8
CAGE_COMMANDE
100
AcDbLine
 62
7
  6
CONTINUOUS
 10
221.0523269443
 20
143.1287084002
 11
221.407581535
 21
142.8520578402
  0
LINE
  5
3CA
100
AcDbEntity
  8
CAGE_COMMANDE
100
AcDbLine
 62
7
  6
CONTINUOUS
 10
221.407581535
 20
142.8520578402
 11
221.6958111591
 21
142.5627593794
  0
LINE
  5
3CB
100
AcDbEntity
  8
CAGE_COMMANDE
100
AcDbLine
 62
7
  6
CONTINUOUS
 10
189.2178290162
 20
127.2696115172
 11
188.9859087055
 21
127.621928836
  0
LINE
  5
3CC
100
AcDbEntity
  8
CAGE_COMMANDE
100
AcDbLine
 62
7
  6
CONTINUOUS
 10
184.9063229748
 20
134.7616497796
 11
184.8552657251
 21
134.8406212986
  0
LINE
  5
3CD
100
AcDbEntity
  8
CAGE_COMMANDE
100
AcDbLine
 62
7
  6
CONTINUOUS
 10
188.9859087055
 20
127.621928836
 11
188.6918278655
 21
128.0887570868
  0
LINE
  5
3CE
100
AcDbEntity
  8
CAGE_COMMANDE
100
AcDbLine
 62
7
  6
CONTINUOUS
 10
185.940533274
 20
133.5323963274
 11
185.6789596261
 21
133.9547668682
  0
LINE
  5
3CF
100
AcDbEntity
  8
CAGE_COMMANDE
100
AcDbLine
 62
7
  6
CONTINUOUS
 10
188.6918278655
 20
128.0887570868
 11
188.4439883948
 21
128.4956989741
  0
LINE
  5
3D0
100
AcDbEntity
  8
CAGE_COMMANDE
100
AcDbLine
 62
7
  6
CONTINUOUS
 10
188.4439883948
 20
128.4956989741
 11
188.1161963925
 21
129.0539397681
  0
LINE
  5
3D1
100
AcDbEntity
  8
CAGE_COMMANDE
100
AcDbLine
 62
7
  6
CONTINUOUS
 10
186.6280447815
 20
128.6470424723
 11
184.611528671
 21
132.1076092157
  0
LINE
  5
3D2
100
AcDbEntity
  8
CAGE_COMMANDE
100
AcDbLine
 62
7
  6
CONTINUOUS
 10
184.7920350001
 20
132.7919101363
 11
187.3123457021
 21
128.4665361432
  0
LINE
  5
3D3
100
AcDbEntity
  8
CAGE_COMMANDE
100
AcDbLine
 62
7
  6
CONTINUOUS
 10
188.1161963925
 20
129.0539397681
 11
187.760311755
 21
129.687005073
  0
LINE
  5
3D4
100
AcDbEntity
  8
CAGE_COMMANDE
100
AcDbLine
 62
7
  6
CONTINUOUS
 10
187.760311755
 20
129.687005073
 11
187.4989610646
 21
130.1739886749
  0
LINE
  5
3D5
100
AcDbEntity
  8
CAGE_COMMANDE
100
AcDbLine
 62
7
  6
CONTINUOUS
 10
196.3162582452
 20
130.614329584
 11
196.41462706
 21
130.4296316553
  0
LINE
  5
3D6
100
AcDbEntity
  8
CAGE_COMMANDE
100
AcDbLine
 62
7
  6
CONTINUOUS
 10
187.4989610646
 20
130.1739886749
 11
187.1321961048
 21
130.8888347623
  0
LINE
  5
3D7
100
AcDbEntity
  8
CAGE_COMMANDE
100
AcDbLine
 62
7
  6
CONTINUOUS
 10
188.2199607769
 20
127.4897150845
 11
185.451052549
 21
132.9277803895
  0
LINE
  5
3D8
100
AcDbEntity
  8
CAGE_COMMANDE
100
AcDbLine
 62
7
  6
CONTINUOUS
 10
187.1321961048
 20
130.8888347623
 11
186.7780951267
 21
131.6209377543
  0
LINE
  5
3D9
100
AcDbEntity
  8
CAGE_COMMANDE
100
AcDbLine
 62
7
  6
CONTINUOUS
 10
186.7780951267
 20
131.6209377543
 11
186.5388618126
 21
132.1416771099
  0
LINE
  5
3DA
100
AcDbEntity
  8
CAGE_COMMANDE
100
AcDbLine
 62
7
  6
CONTINUOUS
 10
184.8552657251
 20
134.8406212986
 11
184.8292242982
 21
134.8975200328
  0
LINE
  5
3DB
100
AcDbEntity
  8
CAGE_COMMANDE
100
AcDbLine
 62
7
  6
CONTINUOUS
 10
185.6789596261
 20
133.9547668682
 11
185.6238445513
 21
134.08158505
  0
LINE
  5
3DC
100
AcDbEntity
  8
CAGE_COMMANDE
100
AcDbLine
 62
7
  6
CONTINUOUS
 10
186.5388618126
 20
132.1416771099
 11
186.1489092809
 21
133.0424250961
  0
LINE
  5
3DD
100
AcDbEntity
  8
CAGE_COMMANDE
100
AcDbLine
 62
7
  6
CONTINUOUS
 10
186.1489092809
 20
133.0424250961
 11
185.940533274
 21
133.5323963274
  0
LINE
  5
3DE
100
AcDbEntity
  8
COVER_FUSE
100
AcDbLine
 62
6
  6
CONTINUOUS
 10
150.3227053108
 20
82.4816310799
 11
150.3227053108
 21
202.5378637233
  0
LINE
  5
3DF
100
AcDbEntity
  8
COVER_FUSE
100
AcDbLine
 62
6
  6
CONTINUOUS
 10
152.1227053108
 20
202.5378637233
 11
152.1227053108
 21
200.5378637233
  0
LINE
  5
3E0
100
AcDbEntity
  8
COVER_FUSE
100
AcDbLine
 62
6
  6
CONTINUOUS
 10
152.3227053108
 20
171.4816310799
 11
152.3227053108
 21
177.4816310799
  0
LINE
  5
3E1
100
AcDbEntity
  8
COVER_FUSE
100
AcDbLine
 62
6
  6
CONTINUOUS
 10
153.3227053108
 20
177.4816310799
 11
153.3227053108
 21
176.4816310799
  0
LINE
  5
3E2
100
AcDbEntity
  8
COVER_FUSE
100
AcDbLine
 62
6
  6
CONTINUOUS
 10
153.3227053108
 20
172.4816310799
 11
153.3227053108
 21
171.4816310799
  0
LINE
  5
3E3
100
AcDbEntity
  8
COVER_FUSE
100
AcDbLine
 62
6
  6
CONTINUOUS
 10
161.3227053108
 20
82.4816310799
 11
161.3227053108
 21
94.4816310799
  0
LINE
  5
3E4
100
AcDbEntity
  8
CAGE_COMMANDE
100
AcDbLine
 62
7
  6
CONTINUOUS
 10
219.0821046684
 20
138.9419415292
 11
219.3393502853
 21
139.0145517553
  0
LINE
  5
3E5
100
AcDbEntity
  8
CAGE_COMMANDE
100
AcDbLine
 62
7
  6
CONTINUOUS
 10
189.1366725145
 20
127.215834187
 11
188.8975729748
 21
127.1622798141
  0
LINE
  5
3E6
100
AcDbEntity
  8
CAGE_COMMANDE
100
AcDbLine
 62
7
  6
CONTINUOUS
 10
195.4992530669
 20
130.8925358555
 11
195.6015905237
 21
130.9146532318
  0
LINE
  5
3E7
100
AcDbEntity
  8
CAGE_COMMANDE
100
AcDbLine
 62
7
  6
CONTINUOUS
 10
187.0145637688
 20
133.7118324608
 11
185.9588157826
 21
133.5088520236
  0
LINE
  5
3E8
100
AcDbEntity
  8
CAGE_COMMANDE
100
AcDbLine
 62
7
  6
CONTINUOUS
 10
187.810744724
 20
133.8552832664
 11
187.0145637688
 21
133.7118324608
  0
LINE
  5
3E9
100
AcDbEntity
  8
CAGE_COMMANDE
100
AcDbLine
 62
7
  6
CONTINUOUS
 10
188.6104038149
 20
133.9906184217
 11
187.810744724
 21
133.8552832664
  0
LINE
  5
3EA
100
AcDbEntity
  8
CAGE_COMMANDE
100
AcDbLine
 62
7
  6
CONTINUOUS
 10
189.4144328712
 20
134.1148948889
 11
188.6104038149
 21
133.9906184217
  0
LINE
  5
3EB
100
AcDbEntity
  8
CAGE_COMMANDE
100
AcDbLine
 62
7
  6
CONTINUOUS
 10
185.5683727447
 20
149.4536966726
 11
185.7585108344
 21
149.4825027715
  0
LINE
  5
3EC
100
AcDbEntity
  8
CAGE_COMMANDE
100
AcDbLine
 62
7
  6
CONTINUOUS
 10
218.824559564
 20
138.9040868969
 11
219.0821046684
 21
138.9419415292
  0
LINE
  5
3ED
100
AcDbEntity
  8
CAGE_COMMANDE
100
AcDbLine
 62
7
  6
CONTINUOUS
 10
189.9526966802
 20
134.1915922422
 11
189.4144328712
 21
134.1148948889
  0
LINE
  5
3EE
100
AcDbEntity
  8
CAGE_COMMANDE
100
AcDbLine
 62
7
  6
CONTINUOUS
 10
195.7088330439
 20
149.4915994344
 11
195.9134187746
 21
149.5207176737
  0
LINE
  5
3EF
100
AcDbEntity
  8
CAGE_COMMANDE
100
AcDbLine
 62
7
  6
CONTINUOUS
 10
186.3734274052
 20
134.6075416093
 11
185.8139380496
 21
134.5348574896
  0
LINE
  5
3F0
100
AcDbEntity
  8
CAGE_COMMANDE
100
AcDbLine
 62
7
  6
CONTINUOUS
 10
190.7634590508
 20
134.2964268222
 11
189.9526966802
 21
134.1915922422
  0
LINE
  5
3F1
100
AcDbEntity
  8
CAGE_COMMANDE
100
AcDbLine
 62
7
  6
CONTINUOUS
 10
186.9347004202
 20
134.6767030017
 11
186.3734274052
 21
134.6075416093
  0
LINE
  5
3F2
100
AcDbEntity
  8
CAGE_COMMANDE
100
AcDbLine
 62
7
  6
CONTINUOUS
 10
185.8139380496
 20
134.5348574896
 11
185.4990329863
 21
134.4967317704
  0
LINE
  5
3F3
100
AcDbEntity
  8
CAGE_COMMANDE
100
AcDbLine
 62
7
  6
CONTINUOUS
 10
187.7796644593
 20
134.7739124378
 11
186.9347004202
 21
134.6767030017
  0
LINE
  5
3F4
100
AcDbEntity
  8
CAGE_COMMANDE
100
AcDbLine
 62
7
  6
CONTINUOUS
 10
191.5804642291
 20
134.3842274551
 11
190.7634590508
 21
134.2964268222
  0
LINE
  5
3F5
100
AcDbEntity
  8
CAGE_COMMANDE
100
AcDbLine
 62
7
  6
CONTINUOUS
 10
188.6288200979
 20
134.859617271
 11
187.7796644593
 21
134.7739124378
  0
LINE
  5
3F6
100
AcDbEntity
  8
CAGE_COMMANDE
100
AcDbLine
 62
7
  6
CONTINUOUS
 10
250.0041188885
 20
146.4650352392
 11
245.621762313
 21
146.0817649735
  0
LINE
  5
3F7
100
AcDbEntity
  8
CAGE_COMMANDE
100
AcDbLine
 62
7
  6
CONTINUOUS
 10
218.8320859556
 20
144.0753414177
 11
218.6099015312
 21
144.0630943308
  0
LINE
  5
3F8
100
AcDbEntity
  8
CAGE_COMMANDE
100
AcDbLine
 62
7
  6
CONTINUOUS
 10
196.4695637688
 20
152.4683485713
 11
197.6617616975
 21
152.4953710109
  0
LINE
  5
3F9
100
AcDbEntity
  8
CAGE_COMMANDE
100
AcDbLine
 62
7
  6
CONTINUOUS
 10
185.7585108344
 20
149.4825027715
 11
194.7580534121
 21
149.4923128981
  0
LINE
  5
3FA
100
AcDbEntity
  8
CAGE_COMMANDE
100
AcDbLine
 62
7
  6
CONTINUOUS
 10
196.6448974857
 20
144.5282104816
 11
197.6617616975
 21
144.5282104816
  0
LINE
  5
3FB
100
AcDbEntity
  8
CAGE_COMMANDE
100
AcDbLine
 62
7
  6
CONTINUOUS
 10
215.854002768
 20
144.9816310799
 11
208.0227053108
 21
144.9816310799
  0
LINE
  5
3FC
100
AcDbEntity
  8
DIRECT_HANDLE
100
AcDbLine
 62
7
  6
CONTINUOUS
 10
93.8227053108
 20
145.7051559732
 11
80.3227053106
 21
145.7051559733
  0
LINE
  5
3FD
100
AcDbEntity
  8
CAGE_COMMANDE
100
AcDbLine
 62
7
  6
CONTINUOUS
 10
245.621762313
 20
146.0817649735
 11
241.2225714173
 21
146.0817649735
  0
LINE
  5
3FE
100
AcDbEntity
  8
CAGE_COMMANDE
100
AcDbLine
 62
7
  6
CONTINUOUS
 10
509.5237321134
 20
146.4816310799
 11
508.5237321134
 21
146.4816310799
  0
LINE
  5
3FF
100
AcDbEntity
  8
CAGE_COMMANDE
100
AcDbLine
 62
7
  6
CONTINUOUS
 10
503.5237321134
 20
146.4816310799
 11
502.5237321134
 21
146.4816310799
  0
LINE
  5
400
100
AcDbEntity
  8
CAGE_COMMANDE
100
AcDbLine
 62
7
  6
CONTINUOUS
 10
270.3227053108
 20
146.4816310799
 11
267.3227053108
 21
146.4816310799
  0
LINE
  5
401
100
AcDbEntity
  8
BASIC_DEVICE
100
AcDbLine
 62
7
  6
CONTINUOUS
 10
267.8227053108
 20
146.4816310799
 11
270.8227053108
 21
146.4816310799
  0
LINE
  5
402
100
AcDbEntity
  8
CAGE_COMMANDE
100
AcDbLine
 62
7
  6
CONTINUOUS
 10
508.5237321134
 20
146.9816310799
 11
503.5237321134
 21
146.9816310799
  0
LINE
  5
403
100
AcDbEntity
  8
COVER_FUSE
100
AcDbLine
 62
6
  6
CONTINUOUS
 10
179.8227053108
 20
148.5378637233
 11
172.8227053108
 21
148.5378637233
  0
LINE
  5
404
100
AcDbEntity
  8
BASIC_DEVICE
100
AcDbLine
 62
7
  6
CONTINUOUS
 10
381.9237321134
 20
149.4816310799
 11
379.9237321134
 21
149.4816310799
  0
LINE
  5
405
100
AcDbEntity
  8
BASIC_DEVICE
100
AcDbLine
 62
7
  6
CONTINUOUS
 10
175.4227053108
 20
149.4816310799
 11
206.3227053108
 21
149.4816310799
  0
LINE
  5
406
100
AcDbEntity
  8
BASIC_DEVICE
100
AcDbLine
 62
7
  6
CONTINUOUS
 10
413.9237321134
 20
149.4816310799
 11
417.9237321134
 21
149.4816310799
  0
LINE
  5
407
100
AcDbEntity
  8
BASIC_DEVICE
100
AcDbLine
 62
7
  6
CONTINUOUS
 10
449.9237321134
 20
149.4816310799
 11
453.9237321134
 21
149.4816310799
  0
LINE
  5
408
100
AcDbEntity
  8
BASIC_DEVICE
100
AcDbLine
 62
7
  6
CONTINUOUS
 10
485.9237321134
 20
149.4816310799
 11
487.9237321134
 21
149.4816310799
  0
LINE
  5
409
100
AcDbEntity
  8
MOVING
100
AcDbLine
 62
1
  6
AM_ISO02W050X2
 10
393.0237321133
 20
149.9816310799
 11
487.9198651232
 21
149.9816310799
  0
LINE
  5
40A
100
AcDbEntity
  8
BASIC_DEVICE
100
AcDbLine
 62
7
  6
CONTINUOUS
 10
487.9237321134
 20
152.68163108
 11
485.9237321134
 21
152.68163108
  0
LINE
  5
40B
100
AcDbEntity
  8
BASIC_DEVICE
100
AcDbLine
 62
7
  6
CONTINUOUS
 10
451.9237321134
 20
152.68163108
 11
449.9237321134
 21
152.68163108
  0
LINE
  5
40C
100
AcDbEntity
  8
BASIC_DEVICE
100
AcDbLine
 62
7
  6
CONTINUOUS
 10
415.9237321134
 20
152.68163108
 11
413.9237321134
 21
152.68163108
  0
LINE
  5
40D
100
AcDbEntity
  8
BASIC_DEVICE
100
AcDbLine
 62
7
  6
CONTINUOUS
 10
175.8227053108
 20
152.6816310799
 11
175.4227053108
 21
152.6816310799
  0
LINE
  5
40E
100
AcDbEntity
  8
COVER_FUSE
100
AcDbLine
 62
6
  6
CONTINUOUS
 10
172.8227053108
 20
153.5378637233
 11
175.8227053108
 21
153.5378637233
  0
LINE
  5
40F
100
AcDbEntity
  8
DIRECT_HANDLE
100
AcDbLine
 62
7
  6
CONTINUOUS
 10
93.8227053108
 20
153.8170067754
 11
80.3227053106
 21
153.8170067755
  0
LINE
  5
410
100
AcDbEntity
  8
CAGE_COMMANDE
100
AcDbLine
 62
7
  6
CONTINUOUS
 10
200.2227053108
 20
157.4816310799
 11
192.4227053108
 21
157.4816310799
  0
LINE
  5
411
100
AcDbEntity
  8
CAGE_COMMANDE
100
AcDbLine
 62
7
  6
CONTINUOUS
 10
500.3237321134
 20
157.4816310799
 11
511.7237321134
 21
157.4816310799
  0
LINE
  5
412
100
AcDbEntity
  8
CAGE_COMMANDE
100
AcDbLine
 62
7
  6
CONTINUOUS
 10
200.2227053108
 20
159.9816310799
 11
194.9227053108
 21
159.9816310799
  0
LINE
  5
413
100
AcDbEntity
  8
CAGE_COMMANDE
100
AcDbLine
 62
7
  6
CONTINUOUS
 10
270.9727053108
 20
159.9816310799
 11
276.0727053108
 21
159.9816310799
  0
LINE
  5
414
100
AcDbEntity
  8
BASIC_DEVICE
100
AcDbLine
 62
7
  6
CONTINUOUS
 10
270.8227053108
 20
159.9816310799
 11
276.8227053108
 21
159.9816310799
  0
LINE
  5
415
100
AcDbEntity
  8
CAGE_COMMANDE
100
AcDbLine
 62
7
  6
CONTINUOUS
 10
192.4227053108
 20
160.8066310799
 11
193.4227053108
 21
160.8066310799
  0
LINE
  5
416
100
AcDbEntity
  8
CAGE_COMMANDE
100
AcDbLine
 62
7
  6
CONTINUOUS
 10
500.3237321134
 20
160.9816310799
 11
491.0237321134
 21
160.9816310799
  0
LINE
  5
417
100
AcDbEntity
  8
CAGE_COMMANDE
100
AcDbLine
 62
7
  6
CONTINUOUS
 10
511.7237321134
 20
160.9816310799
 11
521.0237321134
 21
160.9816310799
  0
LINE
  5
418
100
AcDbEntity
  8
BASIC_DEVICE
100
AcDbLine
 62
7
  6
CONTINUOUS
 10
480.9237321134
 20
161.4816310799
 11
458.9237321134
 21
161.4816310799
  0
LINE
  5
419
100
AcDbEntity
  8
BASIC_DEVICE
100
AcDbLine
 62
7
  6
CONTINUOUS
 10
444.9237321134
 20
161.4816310799
 11
422.9237321134
 21
161.4816310799
  0
LINE
  5
41A
100
AcDbEntity
  8
BASIC_DEVICE
100
AcDbLine
 62
7
  6
CONTINUOUS
 10
408.9237321134
 20
161.4816310799
 11
386.9237321134
 21
161.4816310799
  0
LINE
  5
41B
100
AcDbEntity
  8
DIRECT_HANDLE
100
AcDbLine
 62
7
  6
CONTINUOUS
 10
82.3227053108
 20
161.5335645753
 11
123.8227053108
 21
161.5335645753
  0
LINE
  5
41C
100
AcDbEntity
  8
COVER_FUSE
100
AcDbLine
 62
6
  6
CONTINUOUS
 10
393.6737321134
 20
161.9816310799
 11
402.1737321134
 21
161.9816310799
  0
LINE
  5
41D
100
AcDbEntity
  8
COVER_FUSE
100
AcDbLine
 62
6
  6
CONTINUOUS
 10
429.6737321134
 20
161.9816310799
 11
438.1737321134
 21
161.9816310799
  0
LINE
  5
41E
100
AcDbEntity
  8
COVER_FUSE
100
AcDbLine
 62
6
  6
CONTINUOUS
 10
465.6737321134
 20
161.9816310799
 11
474.1737321134
 21
161.9816310799
  0
LINE
  5
41F
100
AcDbEntity
  8
BASIC_DEVICE
100
AcDbLine
 62
7
  6
CONTINUOUS
 10
386.9237321134
 20
163.4816310799
 11
408.9237321134
 21
163.4816310799
  0
LINE
  5
420
100
AcDbEntity
  8
BASIC_DEVICE
100
AcDbLine
 62
7
  6
CONTINUOUS
 10
422.9237321134
 20
163.4816310799
 11
444.9237321134
 21
163.4816310799
  0
LINE
  5
421
100
AcDbEntity
  8
BASIC_DEVICE
100
AcDbLine
 62
7
  6
CONTINUOUS
 10
458.9237321134
 20
163.4816310799
 11
480.9237321134
 21
163.4816310799
  0
LINE
  5
422
100
AcDbEntity
  8
CAGE_COMMANDE
100
AcDbLine
 62
7
  6
CONTINUOUS
 10
193.4227053108
 20
165.0066310799
 11
200.2227053108
 21
165.0066310799
  0
LINE
  5
423
100
AcDbEntity
  8
CAGE_COMMANDE
100
AcDbLine
 62
7
  6
CONTINUOUS
 10
492.6237321134
 20
165.7316310799
 11
519.4237321134
 21
165.7316310799
  0
LINE
  5
424
100
AcDbEntity
  8
CAGE_COMMANDE
100
AcDbLine
 62
7
  6
CONTINUOUS
 10
194.7580534121
 20
149.4923128981
 11
195.7088330439
 21
149.4915994344
  0
LINE
  5
425
100
AcDbEntity
  8
CAGE_COMMANDE
100
AcDbLine
 62
7
  6
CONTINUOUS
 10
250.4227501339
 20
146.0817649735
 11
250.0041188885
 21
146.4650352392
  0
LINE
  5
426
100
AcDbEntity
  8
CAGE_COMMANDE
100
AcDbLine
 62
7
  6
CONTINUOUS
 10
241.2169599772
 20
136.8871086265
 11
241.6409354513
 21
136.4982269207
  0
LINE
  5
427
100
AcDbEntity
  8
CAGE_COMMANDE
100
AcDbLine
 62
7
  6
CONTINUOUS
 10
221.6958111591
 20
142.5627593794
 11
221.9142546551
 21
142.2634405748
  0
LINE
  5
428
100
AcDbEntity
  8
CAGE_COMMANDE
100
AcDbLine
 62
7
  6
CONTINUOUS
 10
218.5487106314
 20
143.8063508539
 11
218.7182993843
 21
143.5465790063
  0
LINE
  5
429
100
AcDbEntity
  8
CAGE_COMMANDE
100
AcDbLine
 62
7
  6
CONTINUOUS
 10
218.7182993843
 20
143.5465790063
 11
218.9058802212
 21
143.2589728703
  0
LINE
  5
42A
100
AcDbEntity
  8
CAGE_COMMANDE
100
AcDbLine
 62
7
  6
CONTINUOUS
 10
227.934843265
 20
104.7316310799
 11
230.1287742879
 21
100.9316310799
  0
LINE
  5
42B
100
AcDbEntity
  8
CAGE_COMMANDE
100
AcDbLine
 62
7
  6
CONTINUOUS
 10
236.7105673567
 20
104.7316310799
 11
234.5166363338
 21
108.5316310799
  0
LINE
  5
42C
100
AcDbEntity
  8
CAGE_COMMANDE
100
AcDbLine
 62
7
  6
CONTINUOUS
 10
218.5019490268
 20
139.0123956802
 11
218.5366862188
 21
138.9517391988
  0
LINE
  5
42D
100
AcDbEntity
  8
CAGE_COMMANDE
100
AcDbLine
 62
7
  6
CONTINUOUS
 10
218.9058802212
 20
143.2589728703
 11
219.1082466322
 21
142.8557542337
  0
LINE
  5
42E
100
AcDbEntity
  8
CAGE_COMMANDE
100
AcDbLine
 62
7
  6
CONTINUOUS
 10
185.451052549
 20
132.9277803895
 11
184.8422450116
 21
134.8690706657
  0
LINE
  5
42F
100
AcDbEntity
  8
CAGE_COMMANDE
100
AcDbLine
 62
7
  6
CONTINUOUS
 10
185.6238445513
 20
134.08158505
 11
185.5472809725
 21
134.3454328636
  0
LINE
  5
430
100
AcDbEntity
  8
CAGE_COMMANDE
100
AcDbLine
 62
7
  6
CONTINUOUS
 10
184.8422450116
 20
134.8690706657
 11
184.3494645168
 21
136.9977343596
  0
LINE
  5
431
100
AcDbEntity
  8
CAGE_COMMANDE
100
AcDbLine
 62
7
  6
CONTINUOUS
 10
185.514283274
 20
134.5815447738
 11
185.0947219967
 21
136.6418497221
  0
LINE
  5
432
100
AcDbEntity
  8
CAGE_COMMANDE
100
AcDbLine
 62
7
  6
CONTINUOUS
 10
184.3494645168
 20
136.9977343596
 11
184.1705188897
 21
138.1608140489
  0
LINE
  5
433
100
AcDbEntity
  8
CAGE_COMMANDE
100
AcDbLine
 62
7
  6
CONTINUOUS
 10
184.8790775778
 20
138.1938117474
 11
184.7904297067
 21
139.1154731398
  0
LINE
  5
434
100
AcDbEntity
  8
CAGE_COMMANDE
100
AcDbLine
 62
7
  6
CONTINUOUS
 10
196.4599320082
 20
150.2426092157
 11
196.5181684869
 21
149.5773042675
  0
LINE
  5
435
100
AcDbEntity
  8
CAGE_COMMANDE
100
AcDbLine
 62
7
  6
CONTINUOUS
 10
184.0390631935
 20
139.3096690546
 11
183.9748068643
 21
140.2563908613
  0
LINE
  5
436
100
AcDbEntity
  8
CAGE_COMMANDE
100
AcDbLine
 62
7
  6
CONTINUOUS
 10
184.7904297067
 20
139.1154731398
 11
184.7369199253
 21
139.9128134735
  0
LINE
  5
437
100
AcDbEntity
  8
CAGE_COMMANDE
100
AcDbLine
 62
7
  6
CONTINUOUS
 10
184.7369199253
 20
139.9128134735
 11
184.704947831
 21
140.7342778003
  0
LINE
  5
438
100
AcDbEntity
  8
CAGE_COMMANDE
100
AcDbLine
 62
7
  6
CONTINUOUS
 10
183.9748068643
 20
140.2563908613
 11
183.9475614673
 21
141.0655925299
  0
LINE
  5
439
100
AcDbEntity
  8
CAGE_COMMANDE
100
AcDbLine
 62
7
  6
CONTINUOUS
 10
184.704947831
 20
140.7342778003
 11
184.6953408622
 21
141.4816310799
  0
LINE
  5
43A
100
AcDbEntity
  8
CAGE_COMMANDE
100
AcDbLine
 62
7
  6
CONTINUOUS
 10
183.9475614673
 20
141.0655925299
 11
183.9444400634
 21
141.3938750385
  0
LINE
  5
43B
100
AcDbEntity
  8
COVER_FUSE
100
AcDbLine
 62
6
  6
CONTINUOUS
 10
174.8227053108
 20
190.4816310799
 11
174.8304117552
 21
187.4816310799
  0
LINE
  5
43C
100
AcDbEntity
  8
COVER_FUSE
100
AcDbLine
 62
6
  6
CONTINUOUS
 10
168.8227053108
 20
175.5378637233
 11
168.8227053108
 21
183.0378637233
  0
LINE
  5
43D
100
AcDbEntity
  8
COVER_FUSE
100
AcDbLine
 62
6
  6
CONTINUOUS
 10
169.8227053108
 20
95.4816310799
 11
169.8227053108
 21
94.4816310799
  0
LINE
  5
43E
100
AcDbEntity
  8
BASIC_DEVICE
100
AcDbLine
 62
7
  6
CONTINUOUS
 10
170.3227053108
 20
182.4816310799
 11
170.3227053108
 21
176.4816310799
  0
LINE
  5
43F
100
AcDbEntity
  8
BASIC_DEVICE
100
AcDbLine
 62
7
  6
CONTINUOUS
 10
170.3227053108
 20
100.4816310799
 11
170.3227053108
 21
106.4816310799
  0
LINE
  5
440
100
AcDbEntity
  8
BASIC_DEVICE
100
AcDbLine
 62
7
  6
CONTINUOUS
 10
172.3227053108
 20
106.4816310799
 11
172.3227053108
 21
103.9816310799
  0
LINE
  5
441
100
AcDbEntity
  8
BASIC_DEVICE
100
AcDbLine
 62
7
  6
CONTINUOUS
 10
172.3227053108
 20
176.4816310799
 11
172.3227053108
 21
178.9816310799
  0
LINE
  5
442
100
AcDbEntity
  8
COVER_FUSE
100
AcDbLine
 62
6
  6
CONTINUOUS
 10
172.8227053108
 20
148.5378637233
 11
172.8227053108
 21
153.5378637233
  0
LINE
  5
443
100
AcDbEntity
  8
COVER_FUSE
100
AcDbLine
 62
6
  6
CONTINUOUS
 10
174.8227053108
 20
200.5378637233
 11
174.8227053108
 21
190.4816310799
  0
LINE
  5
444
100
AcDbEntity
  8
BASIC_DEVICE
100
AcDbLine
 62
7
  6
CONTINUOUS
 10
174.8227053108
 20
82.4816310799
 11
174.8227053108
 21
100.4816310799
  0
LINE
  5
445
100
AcDbEntity
  8
BASIC_DEVICE
100
AcDbLine
 62
7
  6
CONTINUOUS
 10
174.8227053108
 20
182.4816310799
 11
174.8227053108
 21
200.4816310799
  0
LINE
  5
446
100
AcDbEntity
  8
COVER_FUSE
100
AcDbLine
 62
6
  6
CONTINUOUS
 10
174.8418269704
 20
183.0378637233
 11
174.8418269704
 21
187.4816310799
  0
LINE
  5
447
100
AcDbEntity
  8
BASIC_DEVICE
100
AcDbLine
 62
7
  6
CONTINUOUS
 10
175.8227053108
 20
178.9816310799
 11
175.8227053108
 21
152.6816310799
  0
LINE
  5
448
100
AcDbEntity
  8
BASIC_DEVICE
100
AcDbLine
 62
7
  6
CONTINUOUS
 10
175.8227053108
 20
103.9816310799
 11
175.8227053108
 21
130.2816310799
  0
LINE
  5
449
100
AcDbEntity
  8
COVER_FUSE
100
AcDbLine
 62
6
  6
CONTINUOUS
 10
175.8227053108
 20
153.5378637233
 11
175.8227053108
 21
175.5378637233
  0
LINE
  5
44A
100
AcDbEntity
  8
BASIC_DEVICE
100
AcDbLine
 62
7
  6
CONTINUOUS
 10
177.8227053108
 20
181.4816310799
 11
177.8227053108
 21
182.4816310799
  0
LINE
  5
44B
100
AcDbEntity
  8
COVER_FUSE
100
AcDbLine
 62
6
  6
CONTINUOUS
 10
179.8227053108
 20
187.4816310799
 11
179.8227053108
 21
99.5378637233
  0
LINE
  5
44C
100
AcDbEntity
  8
BASIC_DEVICE
100
AcDbLine
 62
7
  6
CONTINUOUS
 10
179.8227053108
 20
133.4816310799
 11
179.8227053108
 21
101.4816310799
  0
LINE
  5
44D
100
AcDbEntity
  8
COVER_FUSE
100
AcDbLine
 62
6
  6
CONTINUOUS
 10
187.3227053108
 20
194.8378637233
 11
187.3227053108
 21
195.6378637233
  0
LINE
  5
44E
100
AcDbEntity
  8
CAGE_COMMANDE
100
AcDbLine
 62
7
  6
CONTINUOUS
 10
183.9444400634
 20
141.3938750385
 11
183.9447273956
 21
141.4816310799
  0
LINE
  5
44F
100
AcDbEntity
  8
CAGE_COMMANDE
100
AcDbLine
 62
7
  6
CONTINUOUS
 10
183.9447273956
 20
141.4816310799
 11
183.959868717
 21
142.3685557059
  0
LINE
  5
450
100
AcDbEntity
  8
CAGE_COMMANDE
100
AcDbLine
 62
7
  6
CONTINUOUS
 10
184.6953408622
 20
141.4816310799
 11
184.7140890853
 21
142.5433543251
  0
LINE
  5
451
100
AcDbEntity
  8
BASIC_DEVICE
100
AcDbLine
 62
7
  6
CONTINUOUS
 10
415.9237321134
 20
445.6788595714
 11
414.6737321134
 21
445.1788595714
  0
LINE
  5
452
100
AcDbEntity
  8
COVER_FUSE
100
AcDbLine
 62
6
  6
CONTINUOUS
 10
474.1737321134
 20
167.9816310799
 11
465.6737321134
 21
167.9816310799
  0
LINE
  5
453
100
AcDbEntity
  8
COVER_FUSE
100
AcDbLine
 62
6
  6
CONTINUOUS
 10
438.1737321134
 20
167.9816310799
 11
429.6737321134
 21
167.9816310799
  0
LINE
  5
454
100
AcDbEntity
  8
COVER_FUSE
100
AcDbLine
 62
6
  6
CONTINUOUS
 10
402.1737321134
 20
167.9816310799
 11
393.6737321134
 21
167.9816310799
  0
LINE
  5
455
100
AcDbEntity
  8
FUSE
100
AcDbLine
 62
3
  6
CONTINUOUS
 10
382.9237321134
 20
168.4816310799
 11
412.9237321134
 21
168.4816310799
  0
LINE
  5
456
100
AcDbEntity
  8
FUSE
100
AcDbLine
 62
3
  6
CONTINUOUS
 10
418.9237321134
 20
168.4816310799
 11
448.9237321134
 21
168.4816310799
  0
LINE
  5
457
100
AcDbEntity
  8
FUSE
100
AcDbLine
 62
3
  6
CONTINUOUS
 10
454.9237321134
 20
168.4816310799
 11
484.9237321134
 21
168.4816310799
  0
LINE
  5
458
100
AcDbEntity
  8
CAGE_COMMANDE
100
AcDbLine
 62
7
  6
CONTINUOUS
 10
492.6237321134
 20
168.4816310799
 11
519.4237321134
 21
168.4816310799
  0
LINE
  5
459
100
AcDbEntity
  8
BASIC_DEVICE
100
AcDbLine
 62
7
  6
CONTINUOUS
 10
479.9237321134
 20
169.9816310799
 11
459.9237321134
 21
169.9816310799
  0
LINE
  5
45A
100
AcDbEntity
  8
SUPPORT_FUSE
100
AcDbLine
 62
40
  6
CONTINUOUS
 10
481.4237321134
 20
169.9816310799
 11
458.4237321134
 21
169.9816310799
  0
LINE
  5
45B
100
AcDbEntity
  8
BASIC_DEVICE
100
AcDbLine
 62
7
  6
CONTINUOUS
 10
443.9237321134
 20
169.9816310799
 11
423.9237321134
 21
169.9816310799
  0
LINE
  5
45C
100
AcDbEntity
  8
SUPPORT_FUSE
100
AcDbLine
 62
40
  6
CONTINUOUS
 10
445.4237321134
 20
169.9816310799
 11
422.4237321134
 21
169.9816310799
  0
LINE
  5
45D
100
AcDbEntity
  8
BASIC_DEVICE
100
AcDbLine
 62
7
  6
CONTINUOUS
 10
407.9237321134
 20
169.9816310799
 11
387.9237321134
 21
169.9816310799
  0
LINE
  5
45E
100
AcDbEntity
  8
SUPPORT_FUSE
100
AcDbLine
 62
40
  6
CONTINUOUS
 10
409.4237321134
 20
169.9816310799
 11
386.4237321134
 21
169.9816310799
  0
LINE
  5
45F
100
AcDbEntity
  8
COVER_FUSE
100
AcDbLine
 62
6
  6
CONTINUOUS
 10
153.3227053108
 20
171.4816310799
 11
152.3227053108
 21
171.4816310799
  0
LINE
  5
460
100
AcDbEntity
  8
CAGE_COMMANDE
100
AcDbLine
 62
7
  6
CONTINUOUS
 10
518.4437321134
 20
171.6066310799
 11
513.5037321134
 21
171.6066310799
  0
LINE
  5
461
100
AcDbEntity
  8
CAGE_COMMANDE
100
AcDbLine
 62
7
  6
CONTINUOUS
 10
493.6037321134
 20
171.6066310799
 11
498.5437321134
 21
171.6066310799
  0
LINE
  5
462
100
AcDbEntity
  8
SUPPORT_FUSE
100
AcDbLine
 62
40
  6
CONTINUOUS
 10
386.4237321134
 20
171.9816310799
 11
409.4237321134
 21
171.9816310799
  0
LINE
  5
463
100
AcDbEntity
  8
BASIC_DEVICE
100
AcDbLine
 62
7
  6
CONTINUOUS
 10
387.9237321134
 20
171.9816310799
 11
407.9237321134
 21
171.9816310799
  0
LINE
  5
464
100
AcDbEntity
  8
SUPPORT_FUSE
100
AcDbLine
 62
40
  6
CONTINUOUS
 10
422.4237321134
 20
171.9816310799
 11
445.4237321134
 21
171.9816310799
  0
LINE
  5
465
100
AcDbEntity
  8
BASIC_DEVICE
100
AcDbLine
 62
7
  6
CONTINUOUS
 10
423.9237321134
 20
171.9816310799
 11
443.9237321134
 21
171.9816310799
  0
LINE
  5
466
100
AcDbEntity
  8
SUPPORT_FUSE
100
AcDbLine
 62
40
  6
CONTINUOUS
 10
458.4237321134
 20
171.9816310799
 11
481.4237321134
 21
171.9816310799
  0
LINE
  5
467
100
AcDbEntity
  8
BASIC_DEVICE
100
AcDbLine
 62
7
  6
CONTINUOUS
 10
459.9237321134
 20
171.9816310799
 11
479.9237321134
 21
171.9816310799
  0
LINE
  5
468
100
AcDbEntity
  8
CAGE_COMMANDE
100
AcDbLine
 62
7
  6
CONTINUOUS
 10
518.4437321134
 20
172.2066310799
 11
513.5037321134
 21
172.2066310799
  0
LINE
  5
469
100
AcDbEntity
  8
CAGE_COMMANDE
100
AcDbLine
 62
7
  6
CONTINUOUS
 10
493.6037321134
 20
172.2066310799
 11
498.5437321134
 21
172.2066310799
  0
LINE
  5
46A
100
AcDbEntity
  8
CAGE_COMMANDE
100
AcDbLine
 62
7
  6
CONTINUOUS
 10
192.4227053108
 20
174.0066310799
 11
200.2227053108
 21
174.0066310799
  0
LINE
  5
46B
100
AcDbEntity
  8
CAGE_COMMANDE
100
AcDbLine
 62
7
  6
CONTINUOUS
 10
491.0237321134
 20
174.0066310799
 11
521.0237321134
 21
174.0066310799
  0
LINE
  5
46C
100
AcDbEntity
  8
0
100
AcDbLine
 62
7
  6
CONTINUOUS
 10
375.9237321134
 20
174.2316310799
 11
379.9237321134
 21
174.2316310799
  0
LINE
  5
46D
100
AcDbEntity
  8
CAGE_COMMANDE
100
AcDbLine
 62
7
  6
CONTINUOUS
 10
230.1287742879
 20
174.4316310799
 11
234.5166363338
 21
174.4316310799
  0
LINE
  5
46E
100
AcDbEntity
  8
CAGE_COMMANDE
100
AcDbLine
 62
7
  6
CONTINUOUS
 10
500.4237321134
 20
174.6816310799
 11
497.2737321134
 21
174.6816310799
  0
LINE
  5
46F
100
AcDbEntity
  8
CAGE_COMMANDE
100
AcDbLine
 62
7
  6
CONTINUOUS
 10
495.4237321134
 20
174.6816310799
 11
492.2737321134
 21
174.6816310799
  0
LINE
  5
470
100
AcDbEntity
  8
CAGE_COMMANDE
100
AcDbLine
 62
7
  6
CONTINUOUS
 10
511.6237321134
 20
174.6816310799
 11
514.7737321134
 21
174.6816310799
  0
LINE
  5
471
100
AcDbEntity
  8
CAGE_COMMANDE
100
AcDbLine
 62
7
  6
CONTINUOUS
 10
516.6237321134
 20
174.6816310799
 11
519.7737321134
 21
174.6816310799
  0
LINE
  5
472
100
AcDbEntity
  8
COVER_FUSE
100
AcDbLine
 62
6
  6
CONTINUOUS
 10
175.8227053108
 20
175.5378637233
 11
168.8227053108
 21
175.5378637233
  0
LINE
  5
473
100
AcDbEntity
  8
SUPPORT_FUSE
100
AcDbLine
 62
40
  6
CONTINUOUS
 10
393.0737321134
 20
175.9816310799
 11
395.0737321134
 21
175.9816310799
  0
LINE
  5
474
100
AcDbEntity
  8
SUPPORT_FUSE
100
AcDbLine
 62
40
  6
CONTINUOUS
 10
400.7737321134
 20
175.9816310799
 11
402.7737321134
 21
175.9816310799
  0
LINE
  5
475
100
AcDbEntity
  8
SUPPORT_FUSE
100
AcDbLine
 62
40
  6
CONTINUOUS
 10
429.0737321134
 20
175.9816310799
 11
431.0737321134
 21
175.9816310799
  0
LINE
  5
476
100
AcDbEntity
  8
SUPPORT_FUSE
100
AcDbLine
 62
40
  6
CONTINUOUS
 10
436.7737321134
 20
175.9816310799
 11
438.7737321134
 21
175.9816310799
  0
LINE
  5
477
100
AcDbEntity
  8
SUPPORT_FUSE
100
AcDbLine
 62
40
  6
CONTINUOUS
 10
465.0737321134
 20
175.9816310799
 11
467.0737321134
 21
175.9816310799
  0
LINE
  5
478
100
AcDbEntity
  8
SUPPORT_FUSE
100
AcDbLine
 62
40
  6
CONTINUOUS
 10
472.7737321134
 20
175.9816310799
 11
474.7737321134
 21
175.9816310799
  0
LINE
  5
479
100
AcDbEntity
  8
BASIC_DEVICE
100
AcDbLine
 62
7
  6
CONTINUOUS
 10
487.9237321134
 20
176.4816310799
 11
480.4237321134
 21
176.4816310799
  0
LINE
  5
47A
100
AcDbEntity
  8
BASIC_DEVICE
100
AcDbLine
 62
7
  6
CONTINUOUS
 10
451.9237321134
 20
176.4816310799
 11
444.4237321134
 21
176.4816310799
  0
LINE
  5
47B
100
AcDbEntity
  8
BASIC_DEVICE
100
AcDbLine
 62
7
  6
CONTINUOUS
 10
415.9237321134
 20
176.4816310799
 11
408.4237321134
 21
176.4816310799
  0
LINE
  5
47C
100
AcDbEntity
  8
BASIC_DEVICE
100
AcDbLine
 62
7
  6
CONTINUOUS
 10
170.3227053108
 20
176.4816310799
 11
172.3227053108
 21
176.4816310799
  0
LINE
  5
47D
100
AcDbEntity
  8
0
100
AcDbLine
 62
7
  6
CONTINUOUS
 10
379.9237321134
 20
176.8982977466
 11
375.9237321134
 21
176.8982977466
  0
LINE
  5
47E
100
AcDbEntity
  8
COVER_FUSE
100
AcDbLine
 62
6
  6
CONTINUOUS
 10
152.3227053108
 20
177.4816310799
 11
153.3227053108
 21
177.4816310799
  0
LINE
  5
47F
100
AcDbEntity
  8
BASIC_DEVICE
100
AcDbLine
 62
7
  6
CONTINUOUS
 10
172.3227053108
 20
178.9816310799
 11
175.8227053108
 21
178.9816310799
  0
LINE
  5
480
100
AcDbEntity
  8
BASIC_DEVICE
100
AcDbLine
 62
7
  6
CONTINUOUS
 10
381.9237321134
 20
178.9816310799
 11
387.4237321134
 21
178.9816310799
  0
LINE
  5
481
100
AcDbEntity
  8
BASIC_DEVICE
100
AcDbLine
 62
7
  6
CONTINUOUS
 10
417.9237321134
 20
178.9816310799
 11
423.4237321134
 21
178.9816310799
  0
LINE
  5
482
100
AcDbEntity
  8
BASIC_DEVICE
100
AcDbLine
 62
7
  6
CONTINUOUS
 10
453.9237321134
 20
178.9816310799
 11
459.4237321134
 21
178.9816310799
  0
LINE
  5
483
100
AcDbEntity
  8
0
100
AcDbLine
 62
7
  6
CONTINUOUS
 10
379.9237321134
 20
179.5649644133
 11
375.9237321134
 21
179.5649644133
  0
LINE
  5
484
100
AcDbEntity
  8
FUSE
100
AcDbLine
 62
3
  6
CONTINUOUS
 10
394.9237321134
 20
180.7316310799
 11
400.9237321134
 21
180.7316310799
  0
LINE
  5
485
100
AcDbEntity
  8
FUSE
100
AcDbLine
 62
3
  6
CONTINUOUS
 10
430.9237321134
 20
180.7316310799
 11
436.9237321134
 21
180.7316310799
  0
LINE
  5
486
100
AcDbEntity
  8
FUSE
100
AcDbLine
 62
3
  6
CONTINUOUS
 10
466.9237321134
 20
180.7316310799
 11
472.9237321134
 21
180.7316310799
  0
LINE
  5
487
100
AcDbEntity
  8
BASIC_DEVICE
100
AcDbLine
 62
7
  6
CONTINUOUS
 10
267.8227053108
 20
181.4816310799
 11
237.3662655613
 21
181.4816310799
  0
LINE
  5
488
100
AcDbEntity
  8
BASIC_DEVICE
100
AcDbLine
 62
7
  6
CONTINUOUS
 10
227.2791450604
 20
181.4816310799
 11
177.8227053108
 21
181.4816310799
  0
LINE
  5
489
100
AcDbEntity
  8
BASIC_DEVICE
100
AcDbLine
 62
7
  6
CONTINUOUS
 10
379.9237321134
 20
181.4816310799
 11
387.4237321134
 21
181.4816310799
  0
LINE
  5
48A
100
AcDbEntity
  8
BASIC_DEVICE
100
AcDbLine
 62
7
  6
CONTINUOUS
 10
415.9237321134
 20
181.4816310799
 11
423.4237321134
 21
181.4816310799
  0
LINE
  5
48B
100
AcDbEntity
  8
BASIC_DEVICE
100
AcDbLine
 62
7
  6
CONTINUOUS
 10
451.9237321134
 20
181.4816310799
 11
459.4237321134
 21
181.4816310799
  0
LINE
  5
48C
100
AcDbEntity
  8
COVER_FUSE
100
AcDbLine
 62
6
  6
CONTINUOUS
 10
168.8227053108
 20
181.5378637233
 11
150.3227053108
 21
181.5378637233
  0
LINE
  5
48D
100
AcDbEntity
  8
BASIC_DEVICE
100
AcDbLine
 62
7
  6
CONTINUOUS
 10
473.6765106129
 20
181.9816250187
 11
466.1709536139
 21
181.9816250187
  0
LINE
  5
48E
100
AcDbEntity
  8
BASIC_DEVICE
100
AcDbLine
 62
7
  6
CONTINUOUS
 10
437.6765106129
 20
181.9816250187
 11
430.1709536139
 21
181.9816250187
  0
LINE
  5
48F
100
AcDbEntity
  8
BASIC_DEVICE
100
AcDbLine
 62
7
  6
CONTINUOUS
 10
401.6765106129
 20
181.9816250187
 11
394.1709536139
 21
181.9816250187
  0
LINE
  5
490
100
AcDbEntity
  8
CAGE_COMMANDE
100
AcDbLine
 62
7
  6
CONTINUOUS
 10
234.5166363338
 20
182.0316310799
 11
230.1287742879
 21
182.0316310799
  0
LINE
  5
491
100
AcDbEntity
  8
0
100
AcDbLine
 62
7
  6
CONTINUOUS
 10
379.9237321134
 20
182.2316310799
 11
375.9237321134
 21
182.2316310799
  0
LINE
  5
492
100
AcDbEntity
  8
COVER_FUSE
100
AcDbLine
 62
6
  6
CONTINUOUS
 10
487.9237321134
 20
182.4816310799
 11
482.9237321134
 21
182.4816310799
  0
LINE
  5
493
100
AcDbEntity
  8
COVER_FUSE
100
AcDbLine
 62
6
  6
CONTINUOUS
 10
456.9237321134
 20
182.4816310799
 11
446.9237321134
 21
182.4816310799
  0
LINE
  5
494
100
AcDbEntity
  8
COVER_FUSE
100
AcDbLine
 62
6
  6
CONTINUOUS
 10
420.9237321134
 20
182.4816310799
 11
410.9237321134
 21
182.4816310799
  0
LINE
  5
495
100
AcDbEntity
  8
COVER_FUSE
100
AcDbLine
 62
6
  6
CONTINUOUS
 10
384.9237321134
 20
182.4816310799
 11
379.9237321134
 21
182.4816310799
  0
LINE
  5
496
100
AcDbEntity
  8
BASIC_DEVICE
100
AcDbLine
 62
7
  6
CONTINUOUS
 10
177.8227053108
 20
182.4816310799
 11
170.3227053108
 21
182.4816310799
  0
LINE
  5
497
100
AcDbEntity
  8
BASIC_DEVICE
100
AcDbLine
 62
7
  6
CONTINUOUS
 10
408.4237321134
 20
182.4816310799
 11
415.9237321134
 21
182.4816310799
  0
LINE
  5
498
100
AcDbEntity
  8
BASIC_DEVICE
100
AcDbLine
 62
7
  6
CONTINUOUS
 10
444.4237321134
 20
182.4816310799
 11
451.9237321134
 21
182.4816310799
  0
LINE
  5
499
100
AcDbEntity
  8
BASIC_DEVICE
100
AcDbLine
 62
7
  6
CONTINUOUS
 10
480.4237321134
 20
182.4816310799
 11
487.9237321134
 21
182.4816310799
  0
LINE
  5
49A
100
AcDbEntity
  8
COVER_FUSE
100
AcDbLine
 62
6
  6
CONTINUOUS
 10
168.8227053108
 20
183.0378637233
 11
174.8418269704
 21
183.0378637233
  0
LINE
  5
49B
100
AcDbEntity
  8
TERMINAL_SCHROUD
100
AcDbLine
 62
2
  6
CONTINUOUS
 10
234.3227053108
 20
184.4816310799
 11
241.1227053108
 21
184.4816310799
  0
LINE
  5
49C
100
AcDbEntity
  8
TERMINAL_SCHROUD
100
AcDbLine
 62
2
  6
CONTINUOUS
 10
387.9237321134
 20
184.4816310799
 11
389.9237321134
 21
184.4816310799
  0
LINE
  5
49D
100
AcDbEntity
  8
TERMINAL_SCHROUD
100
AcDbLine
 62
2
  6
CONTINUOUS
 10
391.9237321134
 20
184.4816310799
 11
403.9237321134
 21
184.4816310799
  0
LINE
  5
49E
100
AcDbEntity
  8
TERMINAL_SCHROUD
100
AcDbLine
 62
2
  6
CONTINUOUS
 10
405.9237321134
 20
184.4816310799
 11
407.9237321134
 21
184.4816310799
  0
LINE
  5
49F
100
AcDbEntity
  8
TERMINAL_SCHROUD
100
AcDbLine
 62
2
  6
CONTINUOUS
 10
423.9237321134
 20
184.4816310799
 11
425.9237321134
 21
184.4816310799
  0
LINE
  5
4A0
100
AcDbEntity
  8
TERMINAL_SCHROUD
100
AcDbLine
 62
2
  6
CONTINUOUS
 10
427.9237321134
 20
184.4816310799
 11
439.9237321134
 21
184.4816310799
  0
LINE
  5
4A1
100
AcDbEntity
  8
TERMINAL_SCHROUD
100
AcDbLine
 62
2
  6
CONTINUOUS
 10
441.9237321134
 20
184.4816310799
 11
443.9237321134
 21
184.4816310799
  0
LINE
  5
4A2
100
AcDbEntity
  8
TERMINAL_SCHROUD
100
AcDbLine
 62
2
  6
CONTINUOUS
 10
459.9237321134
 20
184.4816310799
 11
461.9237321134
 21
184.4816310799
  0
LINE
  5
4A3
100
AcDbEntity
  8
TERMINAL_SCHROUD
100
AcDbLine
 62
2
  6
CONTINUOUS
 10
463.9237321134
 20
184.4816310799
 11
475.9237321134
 21
184.4816310799
  0
LINE
  5
4A4
100
AcDbEntity
  8
TERMINAL_SCHROUD
100
AcDbLine
 62
2
  6
CONTINUOUS
 10
477.9237321134
 20
184.4816310799
 11
479.9237321134
 21
184.4816310799
  0
LINE
  5
4A5
100
AcDbEntity
  8
CAGE_COMMANDE
100
AcDbLine
 62
7
  6
CONTINUOUS
 10
519.7737321134
 20
186.6816310799
 11
516.6237321134
 21
186.6816310799
  0
LINE
  5
4A6
100
AcDbEntity
  8
CAGE_COMMANDE
100
AcDbLine
 62
7
  6
CONTINUOUS
 10
514.7737321134
 20
186.6816310799
 11
511.6237321134
 21
186.6816310799
  0
LINE
  5
4A7
100
AcDbEntity
  8
CAGE_COMMANDE
100
AcDbLine
 62
7
  6
CONTINUOUS
 10
492.2737321134
 20
186.6816310799
 11
495.4237321134
 21
186.6816310799
  0
LINE
  5
4A8
100
AcDbEntity
  8
CAGE_COMMANDE
100
AcDbLine
 62
7
  6
CONTINUOUS
 10
497.2737321134
 20
186.6816310799
 11
500.4237321134
 21
186.6816310799
  0
LINE
  5
4A9
100
AcDbEntity
  8
CAGE_COMMANDE
100
AcDbLine
 62
7
  6
CONTINUOUS
 10
192.4227053108
 20
187.3566310799
 11
200.2227053108
 21
187.3566310799
  0
LINE
  5
4AA
100
AcDbEntity
  8
CAGE_COMMANDE
100
AcDbLine
 62
7
  6
CONTINUOUS
 10
491.0237321134
 20
187.3566310799
 11
521.0237321134
 21
187.3566310799
  0
LINE
  5
4AB
100
AcDbEntity
  8
COVER_FUSE
100
AcDbLine
 62
6
  6
CONTINUOUS
 10
174.8304117552
 20
187.4816310799
 11
179.8227053108
 21
187.4816310799
  0
LINE
  5
4AC
100
AcDbEntity
  8
BASIC_DEVICE
100
AcDbLine
 62
7
  6
CONTINUOUS
 10
482.8237321134
 20
188.48163108
 11
480.4237321134
 21
188.48163108
  0
LINE
  5
4AD
100
AcDbEntity
  8
BASIC_DEVICE
100
AcDbLine
 62
7
  6
CONTINUOUS
 10
446.8237321134
 20
188.48163108
 11
444.4237321134
 21
188.48163108
  0
LINE
  5
4AE
100
AcDbEntity
  8
BASIC_DEVICE
100
AcDbLine
 62
7
  6
CONTINUOUS
 10
410.8237321134
 20
188.48163108
 11
408.4237321134
 21
188.48163108
  0
LINE
  5
4AF
100
AcDbEntity
  8
BASIC_DEVICE
100
AcDbLine
 62
7
  6
CONTINUOUS
 10
385.0237321134
 20
188.4816310799
 11
387.4237321134
 21
188.4816310799
  0
LINE
  5
4B0
100
AcDbEntity
  8
BASIC_DEVICE
100
AcDbLine
 62
7
  6
CONTINUOUS
 10
421.0237321134
 20
188.4816310799
 11
423.4237321134
 21
188.4816310799
  0
LINE
  5
4B1
100
AcDbEntity
  8
BASIC_DEVICE
100
AcDbLine
 62
7
  6
CONTINUOUS
 10
457.0237321134
 20
188.4816310799
 11
459.4237321134
 21
188.4816310799
  0
LINE
  5
4B2
100
AcDbEntity
  8
CAGE_COMMANDE
100
AcDbLine
 62
7
  6
CONTINUOUS
 10
519.2237321134
 20
189.1566310799
 11
511.3237321134
 21
189.1566310799
  0
LINE
  5
4B3
100
AcDbEntity
  8
CAGE_COMMANDE
100
AcDbLine
 62
7
  6
CONTINUOUS
 10
492.8237321134
 20
189.1566310799
 11
500.7237321134
 21
189.1566310799
  0
LINE
  5
4B4
100
AcDbEntity
  8
TERMINAL_SCHROUD
100
AcDbLine
 62
2
  6
CONTINUOUS
 10
245.3227053108
 20
189.9816310799
 11
241.1227053108
 21
189.9816310799
  0
LINE
  5
4B5
100
AcDbEntity
  8
CAGE_COMMANDE
100
AcDbLine
 62
7
  6
CONTINUOUS
 10
227.934843265
 20
178.2316310799
 11
230.1287742879
 21
174.4316310799
  0
LINE
  5
4B6
100
AcDbEntity
  8
CAGE_COMMANDE
100
AcDbLine
 62
7
  6
CONTINUOUS
 10
221.9142546551
 20
142.2634405748
 11
222.060997024
 21
141.9569516575
  0
LINE
  5
4B7
100
AcDbEntity
  8
CAGE_COMMANDE
100
AcDbLine
 62
7
  6
CONTINUOUS
 10
219.1082466322
 20
142.8557542337
 11
219.1899681032
 21
142.6418087587
  0
LINE
  5
4B8
100
AcDbEntity
  8
CAGE_COMMANDE
100
AcDbLine
 62
7
  6
CONTINUOUS
 10
219.1899681032
 20
142.6418087587
 11
219.2983214214
 21
142.2676268518
  0
LINE
  5
4B9
100
AcDbEntity
  8
CAGE_COMMANDE
100
AcDbLine
 62
7
  6
CONTINUOUS
 10
196.41462706
 20
130.4296316553
 11
196.4590401785
 21
130.1984248084
  0
LINE
  5
4BA
100
AcDbEntity
  8
CAGE_COMMANDE
100
AcDbLine
 62
7
  6
CONTINUOUS
 10
185.5472809725
 20
134.3454328636
 11
185.514283274
 21
134.5815447738
  0
LINE
  5
4BB
100
AcDbEntity
  8
CAGE_COMMANDE
100
AcDbLine
 62
7
  6
CONTINUOUS
 10
185.0947219967
 20
136.6418497221
 11
184.8790775778
 21
138.1938117474
  0
LINE
  5
4BC
100
AcDbEntity
  8
CAGE_COMMANDE
100
AcDbLine
 62
7
  6
CONTINUOUS
 10
196.4599320082
 20
152.4953710109
 11
196.5071543902
 21
152.144971126
  0
LINE
  5
4BD
100
AcDbEntity
  8
CAGE_COMMANDE
100
AcDbLine
 62
7
  6
CONTINUOUS
 10
199.6368077274
 20
133.6275545552
 11
199.6504527217
 21
133.5106356829
  0
LINE
  5
4BE
100
AcDbEntity
  8
CAGE_COMMANDE
100
AcDbLine
 62
7
  6
CONTINUOUS
 10
184.1705188897
 20
138.1608140489
 11
184.0390631935
 21
139.3096690546
  0
LINE
  5
4BF
100
AcDbEntity
  8
CAGE_COMMANDE
100
AcDbLine
 62
7
  6
CONTINUOUS
 10
218.5262650612
 20
144.0167780748
 11
218.5487106314
 21
143.8063508539
  0
LINE
  5
4C0
100
AcDbEntity
  8
CAGE_COMMANDE
100
AcDbLine
 62
7
  6
CONTINUOUS
 10
199.6301190047
 20
133.724273485
 11
199.6368077274
 21
133.6275545552
  0
LINE
  5
4C1
100
AcDbEntity
  8
CAGE_COMMANDE
100
AcDbLine
 62
7
  6
CONTINUOUS
 10
196.5071543902
 20
152.144971126
 11
196.5343106043
 21
151.6386794114
  0
LINE
  5
4C2
100
AcDbEntity
  8
CAGE_COMMANDE
100
AcDbLine
 62
7
  6
CONTINUOUS
 10
195.7088330439
 20
149.4915994344
 11
195.8314150347
 21
146.273476592
  0
LINE
  5
4C3
100
AcDbEntity
  8
CAGE_COMMANDE
100
AcDbLine
 62
7
  6
CONTINUOUS
 10
196.6034719967
 20
144.4669863734
 11
196.6286215939
 21
143.7580709534
  0
LINE
  5
4C4
100
AcDbEntity
  8
CAGE_COMMANDE
100
AcDbLine
 62
7
  6
CONTINUOUS
 10
196.5181684869
 20
149.5773042675
 11
196.5444774627
 21
148.7728738878
  0
LINE
  5
4C5
100
AcDbEntity
  8
CAGE_COMMANDE
100
AcDbLine
 62
7
  6
CONTINUOUS
 10
196.5343106043
 20
151.6386794114
 11
196.5831828712
 21
149.9417058786
  0
LINE
  5
4C6
100
AcDbEntity
  8
CAGE_COMMANDE
100
AcDbLine
 62
7
  6
CONTINUOUS
 10
199.535540792
 20
138.3580897112
 11
199.6301190047
 21
133.724273485
  0
LINE
  5
4C7
100
AcDbEntity
  8
CAGE_COMMANDE
100
AcDbLine
 62
7
  6
CONTINUOUS
 10
196.5444774627
 20
148.7728738878
 11
196.586661007
 21
146.3733169257
  0
LINE
  5
4C8
100
AcDbEntity
  8
CAGE_COMMANDE
100
AcDbLine
 62
7
  6
CONTINUOUS
 10
199.6518796492
 20
125.668509676
 11
199.5282720542
 21
132.7487455794
  0
LINE
  5
4C9
100
AcDbEntity
  8
CAGE_COMMANDE
100
AcDbLine
 62
7
  6
CONTINUOUS
 10
196.5831828712
 20
149.9417058786
 11
196.615467106
 21
147.9423128981
  0
LINE
  5
4CA
100
AcDbEntity
  8
CAGE_COMMANDE
100
AcDbLine
 62
7
  6
CONTINUOUS
 10
199.5282720542
 20
132.7487455794
 11
199.4909043902
 21
135.8002746358
  0
LINE
  5
4CB
100
AcDbEntity
  8
CAGE_COMMANDE
100
AcDbLine
 62
7
  6
CONTINUOUS
 10
195.8314150347
 20
146.273476592
 11
195.8524622153
 21
144.21696192
  0
LINE
  5
4CC
100
AcDbEntity
  8
CAGE_COMMANDE
100
AcDbLine
 62
7
  6
CONTINUOUS
 10
196.586661007
 20
146.3733169257
 11
196.6034719967
 21
144.4669863734
  0
LINE
  5
4CD
100
AcDbEntity
  8
CAGE_COMMANDE
100
AcDbLine
 62
7
  6
CONTINUOUS
 10
196.615467106
 20
147.9423128981
 11
196.6448974857
 21
144.5282104816
  0
LINE
  5
4CE
100
AcDbEntity
  8
CAGE_COMMANDE
100
AcDbLine
 62
7
  6
CONTINUOUS
 10
199.534604045
 20
138.4778595034
 11
199.535540792
 21
138.3580897112
  0
LINE
  5
4CF
100
AcDbEntity
  8
CAGE_COMMANDE
100
AcDbLine
 62
7
  6
CONTINUOUS
 10
199.4909043902
 20
135.8002746358
 11
199.4756541025
 21
138.3265160051
  0
LINE
  5
4D0
100
AcDbEntity
  8
CAGE_COMMANDE
100
AcDbLine
 62
7
  6
CONTINUOUS
 10
195.8524622153
 20
144.21696192
 11
195.861910565
 21
141.4816310799
  0
LINE
  5
4D1
100
AcDbEntity
  8
CAGE_COMMANDE
100
AcDbLine
 62
7
  6
CONTINUOUS
 10
196.6191236077
 20
142.8818482836
 11
196.6273730324
 21
139.2925905161
  0
LINE
  5
4D2
100
AcDbEntity
  8
CAGE_COMMANDE
100
AcDbLine
 62
7
  6
CONTINUOUS
 10
196.4599320082
 20
127.7736290661
 11
196.4625183143
 21
125.3874495494
  0
LINE
  5
4D3
100
AcDbEntity
  8
CAGE_COMMANDE
100
AcDbLine
 62
7
  6
CONTINUOUS
 10
196.4581483488
 20
130.2249567416
 11
196.4599320082
 21
127.7736290661
  0
LINE
  5
4D4
100
AcDbEntity
  8
CAGE_COMMANDE
100
AcDbLine
 62
7
  6
CONTINUOUS
 10
192.4227053108
 20
200.4816310799
 11
192.4227053108
 21
187.3566310799
  0
LINE
  5
4D5
100
AcDbEntity
  8
CAGE_COMMANDE
100
AcDbLine
 62
7
  6
CONTINUOUS
 10
192.4227053108
 20
157.4816310799
 11
192.4227053108
 21
174.0066310799
  0
LINE
  5
4D6
100
AcDbEntity
  8
CAGE_COMMANDE
100
AcDbLine
 62
7
  6
CONTINUOUS
 10
193.4227053108
 20
196.1816310799
 11
193.4227053108
 21
193.8566310799
  0
LINE
  5
4D7
100
AcDbEntity
  8
CAGE_COMMANDE
100
AcDbLine
 62
7
  6
CONTINUOUS
 10
193.4227053108
 20
160.8066310799
 11
193.4227053108
 21
165.0066310799
  0
LINE
  5
4D8
100
AcDbEntity
  8
CAGE_COMMANDE
100
AcDbLine
 62
7
  6
CONTINUOUS
 10
194.9227053108
 20
159.9816310799
 11
194.9227053108
 21
165.0066310799
  0
LINE
  5
4D9
100
AcDbEntity
  8
BASIC_DEVICE
100
AcDbLine
 62
7
  6
CONTINUOUS
 10
196.8227053108
 20
94.4816310799
 11
196.8227053108
 21
101.4816310799
  0
LINE
  5
4DA
100
AcDbEntity
  8
CAGE_COMMANDE
100
AcDbLine
 62
7
  6
CONTINUOUS
 10
197.6617616975
 20
152.4953710109
 11
197.6617616975
 21
138.4778595034
  0
LINE
  5
4DB
100
AcDbEntity
  8
CAGE_COMMANDE
100
AcDbLine
 62
7
  6
CONTINUOUS
 10
198.0227053108
 20
157.4816310799
 11
198.0227053108
 21
149.4915994344
  0
LINE
  5
4DC
100
AcDbEntity
  8
BASIC_DEVICE
100
AcDbLine
 62
7
  6
CONTINUOUS
 10
198.3227053108
 20
200.4816310799
 11
198.3227053108
 21
194.9816310799
  0
LINE
  5
4DD
100
AcDbEntity
  8
BASIC_DEVICE
100
AcDbLine
 62
7
  6
CONTINUOUS
 10
198.3227053108
 20
82.4816310799
 11
198.3227053108
 21
87.9816310799
  0
LINE
  5
4DE
100
AcDbEntity
  8
CAGE_COMMANDE
100
AcDbLine
 62
7
  6
CONTINUOUS
 10
199.6641868989
 20
129.4233356254
 11
199.6641868989
 21
133.4713059936
  0
LINE
  5
4DF
100
AcDbEntity
  8
CAGE_COMMANDE
100
AcDbLine
 62
7
  6
CONTINUOUS
 10
200.2227053108
 20
200.4816310799
 11
200.2227053108
 21
82.4816310799
  0
LINE
  5
4E0
100
AcDbEntity
  8
0
100
AcDbLine
 62
1
  6
CONTINUOUS
 10
201.0524454933
 20
498.5494513817
 11
201.0524454933
 21
459.1494513817
  0
LINE
  5
4E1
100
AcDbEntity
  8
BASIC_DEVICE
100
AcDbLine
 62
7
  6
CONTINUOUS
 10
202.6227053108
 20
87.9816310799
 11
202.6227053108
 21
82.4816310799
  0
LINE
  5
4E2
100
AcDbEntity
  8
BASIC_DEVICE
100
AcDbLine
 62
7
  6
CONTINUOUS
 10
202.6227053108
 20
194.9816310799
 11
202.6227053108
 21
200.4816310799
  0
LINE
  5
4E3
100
AcDbEntity
  8
BASIC_DEVICE
100
AcDbLine
 62
7
  6
CONTINUOUS
 10
206.3227053108
 20
149.4816310799
 11
206.3227053108
 21
133.4816310799
  0
LINE
  5
4E4
100
AcDbEntity
  8
CAGE_COMMANDE
100
AcDbLine
 62
7
  6
CONTINUOUS
 10
208.0856902543
 20
144.8859215429
 11
208.0856902543
 21
141.4902263082
  0
LINE
  5
4E5
100
AcDbEntity
  8
BASIC_DEVICE
100
AcDbLine
 62
7
  6
CONTINUOUS
 10
208.6227053108
 20
200.4816310799
 11
208.6227053108
 21
197.4816310799
  0
LINE
  5
4E6
100
AcDbEntity
  8
BASIC_DEVICE
100
AcDbLine
 62
7
  6
CONTINUOUS
 10
208.6227053108
 20
82.4816310799
 11
208.6227053108
 21
85.4816310799
  0
LINE
  5
4E7
100
AcDbEntity
  8
CAGE_COMMANDE
100
AcDbLine
 62
7
  6
CONTINUOUS
 10
199.6624032395
 20
125.3802703204
 11
199.6641868989
 21
129.4233356254
  0
LINE
  5
4E8
100
AcDbEntity
  8
CAGE_COMMANDE
100
AcDbLine
 62
7
  6
CONTINUOUS
 10
196.5420695226
 20
134.3114987439
 11
196.5405088206
 21
133.4031702054
  0
LINE
  5
4E9
100
AcDbEntity
  8
CAGE_COMMANDE
100
AcDbLine
 62
7
  6
CONTINUOUS
 10
195.861910565
 20
141.4816310799
 11
195.8507231474
 21
138.4792864309
  0
LINE
  5
4EA
100
AcDbEntity
  8
CAGE_COMMANDE
100
AcDbLine
 62
7
  6
CONTINUOUS
 10
196.4599320082
 20
150.2426092157
 11
196.4695637688
 21
152.4683485713
  0
LINE
  5
4EB
100
AcDbEntity
  8
CAGE_COMMANDE
100
AcDbLine
 62
7
  6
CONTINUOUS
 10
196.6484648045
 20
138.3265160051
 11
196.6140401785
 21
133.9709089856
  0
LINE
  5
4EC
100
AcDbEntity
  8
CAGE_COMMANDE
100
AcDbLine
 62
7
  6
CONTINUOUS
 10
195.8507231474
 20
138.4792864309
 11
195.8326190047
 21
136.7775862008
  0
LINE
  5
4ED
100
AcDbEntity
  8
CAGE_COMMANDE
100
AcDbLine
 62
7
  6
CONTINUOUS
 10
196.6286215939
 20
143.7580709534
 11
196.6191236077
 21
142.8818482836
  0
LINE
  5
4EE
100
AcDbEntity
  8
CAGE_COMMANDE
100
AcDbLine
 62
7
  6
CONTINUOUS
 10
196.5405088206
 20
133.4031702054
 11
196.5162510531
 21
131.5087455794
  0
LINE
  5
4EF
100
AcDbEntity
  8
CAGE_COMMANDE
100
AcDbLine
 62
7
  6
CONTINUOUS
 10
196.6041854604
 20
138.5990145667
 11
196.5420695226
 21
134.3114987439
  0
LINE
  5
4F0
100
AcDbEntity
  8
CAGE_COMMANDE
100
AcDbLine
 62
7
  6
CONTINUOUS
 10
196.6140401785
 20
133.9709089856
 11
196.5961144017
 21
132.7487455794
  0
LINE
  5
4F1
100
AcDbEntity
  8
CAGE_COMMANDE
100
AcDbLine
 62
7
  6
CONTINUOUS
 10
196.5961144017
 20
132.7487455794
 11
196.4725068068
 21
125.668509676
  0
LINE
  5
4F2
100
AcDbEntity
  8
CAGE_COMMANDE
100
AcDbLine
 62
7
  6
CONTINUOUS
 10
195.8326190047
 20
136.7775862008
 11
195.7755419046
 21
134.8280465
  0
LINE
  5
4F3
100
AcDbEntity
  8
CAGE_COMMANDE
100
AcDbLine
 62
7
  6
CONTINUOUS
 10
196.6273730324
 20
139.2925905161
 11
196.6041854604
 21
138.5990145667
  0
LINE
  5
4F4
100
AcDbEntity
  8
CAGE_COMMANDE
100
AcDbLine
 62
7
  6
CONTINUOUS
 10
199.4770364386
 20
138.362858065
 11
199.4756541025
 21
138.3265160051
  0
LINE
  5
4F5
100
AcDbEntity
  8
CAGE_COMMANDE
100
AcDbLine
 62
7
  6
CONTINUOUS
 10
196.5162510531
 20
131.5087455794
 11
196.4581483488
 21
130.2249567416
  0
LINE
  5
4F6
100
AcDbEntity
  8
CAGE_COMMANDE
100
AcDbLine
 62
7
  6
CONTINUOUS
 10
184.7140890853
 20
142.5433543251
 11
184.7551578425
 21
143.358665027
  0
LINE
  5
4F7
100
AcDbEntity
  8
CAGE_COMMANDE
100
AcDbLine
 62
7
  6
CONTINUOUS
 10
183.959868717
 20
142.3685557059
 11
184.0248385099
 21
143.4841900558
  0
LINE
  5
4F8
100
AcDbEntity
  8
CAGE_COMMANDE
100
AcDbLine
 62
7
  6
CONTINUOUS
 10
196.4542688897
 20
150.1544964424
 11
196.4599320082
 21
150.2426092157
  0
LINE
  5
4F9
100
AcDbEntity
  8
CAGE_COMMANDE
100
AcDbLine
 62
7
  6
CONTINUOUS
 10
184.7551578425
 20
143.358665027
 11
184.8155793039
 21
144.1473100213
  0
LINE
  5
4FA
100
AcDbEntity
  8
CAGE_COMMANDE
100
AcDbLine
 62
7
  6
CONTINUOUS
 10
195.6757015709
 20
134.5048474206
 11
195.411274068
 21
131.4153264194
  0
LINE
  5
4FB
100
AcDbEntity
  8
CAGE_COMMANDE
100
AcDbLine
 62
7
  6
CONTINUOUS
 10
184.0248385099
 20
143.4841900558
 11
184.0989049656
 21
144.2589670984
  0
LINE
  5
4FC
100
AcDbEntity
  8
CAGE_COMMANDE
100
AcDbLine
 62
7
  6
CONTINUOUS
 10
184.8155793039
 20
144.1473100213
 11
184.9489970254
 21
145.3442346473
  0
LINE
  5
4FD
100
AcDbEntity
  8
CAGE_COMMANDE
100
AcDbLine
 62
7
  6
CONTINUOUS
 10
184.0989049656
 20
144.2589670984
 11
184.1659705582
 21
144.802448111
  0
LINE
  5
4FE
100
AcDbEntity
  8
CAGE_COMMANDE
100
AcDbLine
 62
7
  6
CONTINUOUS
 10
185.4537280381
 20
132.9465534045
 11
185.451052549
 21
132.9277803895
  0
LINE
  5
4FF
100
AcDbEntity
  8
CAGE_COMMANDE
100
AcDbLine
 62
7
  6
CONTINUOUS
 10
184.9489970254
 20
145.3442346473
 11
185.0927599714
 21
146.3085700903
  0
LINE
  5
500
100
AcDbEntity
  8
CAGE_COMMANDE
100
AcDbLine
 62
7
  6
CONTINUOUS
 10
184.1659705582
 20
144.802448111
 11
184.371760259
 21
146.0866828636
  0
LINE
  5
501
100
AcDbEntity
  8
BASIC_DEVICE
100
AcDbLine
 62
7
  6
CONTINUOUS
 10
451.9237321134
 20
445.6788595714
 11
450.6737321134
 21
445.1788595714
  0
LINE
  5
502
100
AcDbEntity
  8
BASIC_DEVICE
100
AcDbLine
 62
7
  6
CONTINUOUS
 10
487.9237321134
 20
445.6788595714
 11
486.6737321134
 21
445.1788595714
  0
LINE
  5
503
100
AcDbEntity
  8
CAGE_COMMANDE
100
AcDbLine
 62
7
  6
CONTINUOUS
 10
492.1737321134
 20
191.3566310799
 11
500.7237321134
 21
191.3566310799
  0
LINE
  5
504
100
AcDbEntity
  8
CAGE_COMMANDE
100
AcDbLine
 62
7
  6
CONTINUOUS
 10
511.3237321134
 20
191.3566310799
 11
519.8737321134
 21
191.3566310799
  0
LINE
  5
505
100
AcDbEntity
  8
BASIC_DEVICE
100
AcDbLine
 62
7
  6
CONTINUOUS
 10
484.6237321134
 20
191.4816310799
 11
482.8237321134
 21
191.4816310799
  0
LINE
  5
506
100
AcDbEntity
  8
BASIC_DEVICE
100
AcDbLine
 62
7
  6
CONTINUOUS
 10
448.6237321134
 20
191.4816310799
 11
446.8237321134
 21
191.4816310799
  0
LINE
  5
507
100
AcDbEntity
  8
BASIC_DEVICE
100
AcDbLine
 62
7
  6
CONTINUOUS
 10
412.6237321134
 20
191.4816310799
 11
410.8237321134
 21
191.4816310799
  0
LINE
  5
508
100
AcDbEntity
  8
BASIC_DEVICE
100
AcDbLine
 62
7
  6
CONTINUOUS
 10
383.2237321134
 20
191.4816310799
 11
385.0237321134
 21
191.4816310799
  0
LINE
  5
509
100
AcDbEntity
  8
BASIC_DEVICE
100
AcDbLine
 62
7
  6
CONTINUOUS
 10
419.2237321134
 20
191.4816310799
 11
421.0237321134
 21
191.4816310799
  0
LINE
  5
50A
100
AcDbEntity
  8
BASIC_DEVICE
100
AcDbLine
 62
7
  6
CONTINUOUS
 10
455.2237321134
 20
191.4816310799
 11
457.0237321134
 21
191.4816310799
  0
LINE
  5
50B
100
AcDbEntity
  8
CAGE_COMMANDE
100
AcDbLine
 62
7
  6
CONTINUOUS
 10
499.9737321134
 20
193.7816310799
 11
497.9737321134
 21
193.7816310799
  0
LINE
  5
50C
100
AcDbEntity
  8
CAGE_COMMANDE
100
AcDbLine
 62
7
  6
CONTINUOUS
 10
494.1737321134
 20
193.7816310799
 11
492.1737321134
 21
193.7816310799
  0
LINE
  5
50D
100
AcDbEntity
  8
CAGE_COMMANDE
100
AcDbLine
 62
7
  6
CONTINUOUS
 10
512.0737321134
 20
193.7816310799
 11
514.0737321134
 21
193.7816310799
  0
LINE
  5
50E
100
AcDbEntity
  8
CAGE_COMMANDE
100
AcDbLine
 62
7
  6
CONTINUOUS
 10
517.8737321134
 20
193.7816310799
 11
519.8737321134
 21
193.7816310799
  0
LINE
  5
50F
100
AcDbEntity
  8
CAGE_COMMANDE
100
AcDbLine
 62
7
  6
CONTINUOUS
 10
193.4227053108
 20
193.8566310799
 11
200.2227053108
 21
193.8566310799
  0
LINE
  5
510
100
AcDbEntity
  8
COVER_FUSE
100
AcDbLine
 62
6
  6
CONTINUOUS
 10
174.8227053108
 20
194.8378637233
 11
187.3227053108
 21
194.8378637233
  0
LINE
  5
511
100
AcDbEntity
  8
BASIC_DEVICE
100
AcDbLine
 62
7
  6
CONTINUOUS
 10
198.3227053108
 20
194.9816310799
 11
202.6227053108
 21
194.9816310799
  0
LINE
  5
512
100
AcDbEntity
  8
BASIC_DEVICE
100
AcDbLine
 62
7
  6
CONTINUOUS
 10
394.1709536138
 20
194.9816310799
 11
401.6765106129
 21
194.9816310799
  0
LINE
  5
513
100
AcDbEntity
  8
BASIC_DEVICE
100
AcDbLine
 62
7
  6
CONTINUOUS
 10
430.1709536138
 20
194.9816310799
 11
437.6765106129
 21
194.9816310799
  0
LINE
  5
514
100
AcDbEntity
  8
BASIC_DEVICE
100
AcDbLine
 62
7
  6
CONTINUOUS
 10
466.1709536138
 20
194.9816310799
 11
473.6765106129
 21
194.9816310799
  0
LINE
  5
515
100
AcDbEntity
  8
CAGE_COMMANDE
100
AcDbLine
 62
7
  6
CONTINUOUS
 10
501.1237321134
 20
195.9816310799
 11
491.0237321134
 21
195.9816310799
  0
LINE
  5
516
100
AcDbEntity
  8
CAGE_COMMANDE
100
AcDbLine
 62
7
  6
CONTINUOUS
 10
510.9237321134
 20
195.9816310799
 11
521.0237321134
 21
195.9816310799
  0
LINE
  5
517
100
AcDbEntity
  8
CAGE_COMMANDE
100
AcDbLine
 62
7
  6
CONTINUOUS
 10
192.4227053108
 20
196.1816310799
 11
193.4227053108
 21
196.1816310799
  0
LINE
  5
518
100
AcDbEntity
  8
COVER_FUSE
100
AcDbLine
 62
6
  6
CONTINUOUS
 10
182.8442443417
 20
196.8378637233
 11
174.8227053108
 21
196.8378637233
  0
LINE
  5
519
100
AcDbEntity
  8
BASIC_DEVICE
100
AcDbLine
 62
7
  6
CONTINUOUS
 10
457.0237321134
 20
197.4816310799
 11
455.2237321134
 21
197.4816310799
  0
LINE
  5
51A
100
AcDbEntity
  8
BASIC_DEVICE
100
AcDbLine
 62
7
  6
CONTINUOUS
 10
421.0237321134
 20
197.4816310799
 11
419.2237321134
 21
197.4816310799
  0
LINE
  5
51B
100
AcDbEntity
  8
BASIC_DEVICE
100
AcDbLine
 62
7
  6
CONTINUOUS
 10
385.0237321134
 20
197.4816310799
 11
383.2237321134
 21
197.4816310799
  0
LINE
  5
51C
100
AcDbEntity
  8
BASIC_DEVICE
100
AcDbLine
 62
7
  6
CONTINUOUS
 10
208.6227053108
 20
197.4816310799
 11
212.6227053108
 21
197.4816310799
  0
LINE
  5
51D
100
AcDbEntity
  8
BASIC_DEVICE
100
AcDbLine
 62
7
  6
CONTINUOUS
 10
410.8237321134
 20
197.4816310799
 11
412.6237321134
 21
197.4816310799
  0
LINE
  5
51E
100
AcDbEntity
  8
BASIC_DEVICE
100
AcDbLine
 62
7
  6
CONTINUOUS
 10
446.8237321134
 20
197.4816310799
 11
448.6237321134
 21
197.4816310799
  0
LINE
  5
51F
100
AcDbEntity
  8
BASIC_DEVICE
100
AcDbLine
 62
7
  6
CONTINUOUS
 10
482.8237321134
 20
197.4816310799
 11
484.6237321134
 21
197.4816310799
  0
LINE
  5
520
100
AcDbEntity
  8
BASIC_DEVICE
100
AcDbLine
 62
7
  6
CONTINUOUS
 10
198.3227053108
 20
197.9816310799
 11
202.6227053108
 21
197.9816310799
  0
LINE
  5
521
100
AcDbEntity
  8
BASIC_DEVICE
100
AcDbLine
 62
7
  6
CONTINUOUS
 10
208.6227053108
 20
197.9816310799
 11
212.6227053108
 21
197.9816310799
  0
LINE
  5
522
100
AcDbEntity
  8
BASIC_DEVICE
100
AcDbLine
 62
7
  6
CONTINUOUS
 10
229.3227053108
 20
197.98163108
 11
257.3227053108
 21
197.98163108
  0
LINE
  5
523
100
AcDbEntity
  8
BASIC_DEVICE
100
AcDbLine
 62
7
  6
CONTINUOUS
 10
387.4237321134
 20
197.9816310799
 11
408.4237321134
 21
197.98163108
  0
LINE
  5
524
100
AcDbEntity
  8
BASIC_DEVICE
100
AcDbLine
 62
7
  6
CONTINUOUS
 10
423.4237321134
 20
197.9816310799
 11
444.4237321134
 21
197.98163108
  0
LINE
  5
525
100
AcDbEntity
  8
BASIC_DEVICE
100
AcDbLine
 62
7
  6
CONTINUOUS
 10
459.4237321134
 20
197.9816310799
 11
480.4237321134
 21
197.98163108
  0
LINE
  5
526
100
AcDbEntity
  8
TERMINAL_SCHROUD
100
AcDbLine
 62
2
  6
CONTINUOUS
 10
232.3227053108
 20
198.4816310799
 11
263.3227053108
 21
198.4816310799
  0
LINE
  5
527
100
AcDbEntity
  8
TERMINAL_SCHROUD
100
AcDbLine
 62
2
  6
CONTINUOUS
 10
383.4237321134
 20
198.4816310799
 11
387.9237321134
 21
198.4816310799
  0
LINE
  5
528
100
AcDbEntity
  8
TERMINAL_SCHROUD
100
AcDbLine
 62
2
  6
CONTINUOUS
 10
407.9237321134
 20
198.4816310799
 11
412.4237321134
 21
198.4816310799
  0
LINE
  5
529
100
AcDbEntity
  8
TERMINAL_SCHROUD
100
AcDbLine
 62
2
  6
CONTINUOUS
 10
419.4237321134
 20
198.4816310799
 11
423.9237321134
 21
198.4816310799
  0
LINE
  5
52A
100
AcDbEntity
  8
TERMINAL_SCHROUD
100
AcDbLine
 62
2
  6
CONTINUOUS
 10
443.9237321134
 20
198.4816310799
 11
448.4237321134
 21
198.4816310799
  0
LINE
  5
52B
100
AcDbEntity
  8
TERMINAL_SCHROUD
100
AcDbLine
 62
2
  6
CONTINUOUS
 10
455.4237321134
 20
198.4816310799
 11
459.9237321134
 21
198.4816310799
  0
LINE
  5
52C
100
AcDbEntity
  8
TERMINAL_SCHROUD
100
AcDbLine
 62
2
  6
CONTINUOUS
 10
479.9237321134
 20
198.4816310799
 11
484.4237321134
 21
198.4816310799
  0
LINE
  5
52D
100
AcDbEntity
  8
COVER_FUSE
100
AcDbLine
 62
6
  6
CONTINUOUS
 10
482.9237321134
 20
200.4816310799
 11
456.9237321134
 21
200.4816310799
  0
LINE
  5
52E
100
AcDbEntity
  8
COVER_FUSE
100
AcDbLine
 62
6
  6
CONTINUOUS
 10
446.9237321134
 20
200.4816310799
 11
420.9237321134
 21
200.4816310799
  0
LINE
  5
52F
100
AcDbEntity
  8
COVER_FUSE
100
AcDbLine
 62
6
  6
CONTINUOUS
 10
410.9237321134
 20
200.4816310799
 11
384.9237321134
 21
200.4816310799
  0
LINE
  5
530
100
AcDbEntity
  8
CAGE_COMMANDE
100
AcDbLine
 62
7
  6
CONTINUOUS
 10
276.8227053108
 20
200.4816310799
 11
192.4227053108
 21
200.4816310799
  0
LINE
  5
531
100
AcDbEntity
  8
BASIC_DEVICE
100
AcDbLine
 62
7
  6
CONTINUOUS
 10
174.8227053108
 20
200.4816310799
 11
229.3227053108
 21
200.4816310799
  0
LINE
  5
532
100
AcDbEntity
  8
BASIC_DEVICE
100
AcDbLine
 62
7
  6
CONTINUOUS
 10
385.0237321134
 20
200.4816310799
 11
410.8237321134
 21
200.48163108
  0
LINE
  5
533
100
AcDbEntity
  8
BASIC_DEVICE
100
AcDbLine
 62
7
  6
CONTINUOUS
 10
421.0237321134
 20
200.4816310799
 11
446.8237321134
 21
200.48163108
  0
LINE
  5
534
100
AcDbEntity
  8
BASIC_DEVICE
100
AcDbLine
 62
7
  6
CONTINUOUS
 10
457.0237321134
 20
200.4816310799
 11
482.8237321134
 21
200.48163108
  0
LINE
  5
535
100
AcDbEntity
  8
CAGE_COMMANDE
100
AcDbLine
 62
7
  6
CONTINUOUS
 10
487.9237321134
 20
200.4816310799
 11
524.1237321134
 21
200.4816310799
  0
LINE
  5
536
100
AcDbEntity
  8
COVER_FUSE
100
AcDbLine
 62
6
  6
CONTINUOUS
 10
152.1227053108
 20
200.5378637233
 11
174.8227053108
 21
200.5378637233
  0
LINE
  5
537
100
AcDbEntity
  8
TERMINAL_SCHROUD
100
AcDbLine
 62
2
  6
CONTINUOUS
 10
229.3227053108
 20
200.8816310799
 11
232.3227053108
 21
200.8816310799
  0
LINE
  5
538
100
AcDbEntity
  8
TERMINAL_SCHROUD
100
AcDbLine
 62
2
  6
CONTINUOUS
 10
387.9237321134
 20
200.8816310799
 11
389.9237321134
 21
200.8816310799
  0
LINE
  5
539
100
AcDbEntity
  8
TERMINAL_SCHROUD
100
AcDbLine
 62
2
  6
CONTINUOUS
 10
394.5237321134
 20
200.8816310799
 11
401.3237321134
 21
200.8816310799
  0
LINE
  5
53A
100
AcDbEntity
  8
TERMINAL_SCHROUD
100
AcDbLine
 62
2
  6
CONTINUOUS
 10
423.9237321134
 20
200.8816310799
 11
425.9237321134
 21
200.8816310799
  0
LINE
  5
53B
100
AcDbEntity
  8
TERMINAL_SCHROUD
100
AcDbLine
 62
2
  6
CONTINUOUS
 10
430.5237321134
 20
200.8816310799
 11
437.3237321134
 21
200.8816310799
  0
LINE
  5
53C
100
AcDbEntity
  8
TERMINAL_SCHROUD
100
AcDbLine
 62
2
  6
CONTINUOUS
 10
459.9237321134
 20
200.8816310799
 11
461.9237321134
 21
200.8816310799
  0
LINE
  5
53D
100
AcDbEntity
  8
TERMINAL_SCHROUD
100
AcDbLine
 62
2
  6
CONTINUOUS
 10
466.5237321134
 20
200.8816310799
 11
473.3237321134
 21
200.8816310799
  0
LINE
  5
53E
100
AcDbEntity
  8
BASIC_DEVICE
100
AcDbLine
 62
7
  6
CONTINUOUS
 10
229.3227053108
 20
202.4816310799
 11
219.3227053108
 21
202.4816310799
  0
LINE
  5
53F
100
AcDbEntity
  8
COVER_FUSE
100
AcDbLine
 62
6
  6
CONTINUOUS
 10
150.3227053108
 20
202.5378637233
 11
152.1227053108
 21
202.5378637233
  0
LINE
  5
540
100
AcDbEntity
  8
TERMINAL_SCHROUD
100
AcDbLine
 62
2
  6
CONTINUOUS
 10
230.3227053108
 20
202.8816310799
 11
232.3227053108
 21
202.8816310799
  0
LINE
  5
541
100
AcDbEntity
  8
TERMINAL_SCHROUD
100
AcDbLine
 62
2
  6
CONTINUOUS
 10
473.3237321134
 20
203.6816310799
 11
466.5237321134
 21
203.6816310799
  0
LINE
  5
542
100
AcDbEntity
  8
TERMINAL_SCHROUD
100
AcDbLine
 62
2
  6
CONTINUOUS
 10
437.3237321134
 20
203.6816310799
 11
430.5237321134
 21
203.6816310799
  0
LINE
  5
543
100
AcDbEntity
  8
TERMINAL_SCHROUD
100
AcDbLine
 62
2
  6
CONTINUOUS
 10
401.3237321134
 20
203.6816310799
 11
394.5237321134
 21
203.6816310799
  0
LINE
  5
544
100
AcDbEntity
  8
COVER_FUSE
100
AcDbLine
 62
6
  6
CONTINUOUS
 10
384.9237321134
 20
203.9816310799
 11
410.9237321134
 21
203.9816310799
  0
LINE
  5
545
100
AcDbEntity
  8
COVER_FUSE
100
AcDbLine
 62
6
  6
CONTINUOUS
 10
420.9237321134
 20
203.9816310799
 11
446.9237321134
 21
203.9816310799
  0
LINE
  5
546
100
AcDbEntity
  8
COVER_FUSE
100
AcDbLine
 62
6
  6
CONTINUOUS
 10
456.9237321134
 20
203.9816310799
 11
482.9237321134
 21
203.9816310799
  0
LINE
  5
547
100
AcDbEntity
  8
TERMINAL_SCHROUD
100
AcDbLine
 62
2
  6
CONTINUOUS
 10
232.3227053108
 20
205.3816310799
 11
230.3227053108
 21
205.3816310799
  0
LINE
  5
548
100
AcDbEntity
  8
TERMINAL_SCHROUD
100
AcDbLine
 62
2
  6
CONTINUOUS
 10
461.9237321134
 20
207.3816310799
 11
459.9237321134
 21
207.3816310799
  0
LINE
  5
549
100
AcDbEntity
  8
TERMINAL_SCHROUD
100
AcDbLine
 62
2
  6
CONTINUOUS
 10
425.9237321134
 20
207.3816310799
 11
423.9237321134
 21
207.3816310799
  0
LINE
  5
54A
100
AcDbEntity
  8
TERMINAL_SCHROUD
100
AcDbLine
 62
2
  6
CONTINUOUS
 10
389.9237321134
 20
207.3816310799
 11
387.9237321134
 21
207.3816310799
  0
LINE
  5
54B
100
AcDbEntity
  8
TERMINAL_SCHROUD
100
AcDbLine
 62
2
  6
CONTINUOUS
 10
232.3227053108
 20
207.3816310799
 11
229.3227053108
 21
207.3816310799
  0
LINE
  5
54C
100
AcDbEntity
  8
AXIS
100
AcDbLine
 62
4
  6
AM_ISO08W050
 10
260.3227053108
 20
211.9816310799
 11
251.8227053108
 21
211.9816310799
  0
LINE
  5
54D
100
AcDbEntity
  8
AXIS
100
AcDbLine
 62
4
  6
AM_ISO08W050
 10
392.1737321134
 20
211.9816310799
 11
403.6737321134
 21
211.9816310799
  0
LINE
  5
54E
100
AcDbEntity
  8
AXIS
100
AcDbLine
 62
4
  6
AM_ISO08W050
 10
428.1737321134
 20
211.9816310799
 11
439.6737321134
 21
211.9816310799
  0
LINE
  5
54F
100
AcDbEntity
  8
AXIS
100
AcDbLine
 62
4
  6
AM_ISO08W050
 10
464.1737321134
 20
211.9816310799
 11
475.6737321134
 21
211.9816310799
  0
LINE
  5
550
100
AcDbEntity
  8
CAGE_COMMANDE
100
AcDbLine
 62
7
  6
CONTINUOUS
 10
236.7105673567
 20
178.2316310799
 11
234.5166363338
 21
182.0316310799
  0
LINE
  5
551
100
AcDbEntity
  8
CAGE_COMMANDE
100
AcDbLine
 62
7
  6
CONTINUOUS
 10
222.060997024
 20
141.9569516575
 11
222.134657685
 21
141.6462764632
  0
LINE
  5
552
100
AcDbEntity
  8
CAGE_COMMANDE
100
AcDbLine
 62
7
  6
CONTINUOUS
 10
219.2983214214
 20
142.2676268518
 11
219.3419655857
 21
142.0360455716
  0
LINE
  5
553
100
AcDbEntity
  8
CAGE_COMMANDE
100
AcDbLine
 62
7
  6
CONTINUOUS
 10
222.134657685
 20
141.6462764632
 11
222.1530951177
 21
141.4902263082
  0
LINE
  5
554
100
AcDbEntity
  8
CAGE_COMMANDE
100
AcDbLine
 62
7
  6
CONTINUOUS
 10
219.3419655857
 20
142.0360455716
 11
219.3768809172
 21
141.7235889828
  0
LINE
  5
555
100
AcDbEntity
  8
CAGE_COMMANDE
100
AcDbLine
 62
7
  6
CONTINUOUS
 10
240.8613720371
 20
145.4106835983
 11
241.2225714173
 21
141.2806880822
  0
LINE
  5
556
100
AcDbEntity
  8
CAGE_COMMANDE
100
AcDbLine
 62
7
  6
CONTINUOUS
 10
219.3768809172
 20
141.7235889828
 11
219.3855181826
 21
141.4902263082
  0
LINE
  5
557
100
AcDbEntity
  8
CAGE_COMMANDE
100
AcDbLine
 62
7
  6
CONTINUOUS
 10
211.0856475993
 20
144.990221079
 11
211.0856475993
 21
141.4902263082
  0
LINE
  5
558
100
AcDbEntity
  8
BASIC_DEVICE
100
AcDbLine
 62
7
  6
CONTINUOUS
 10
212.6227053108
 20
85.4816310799
 11
212.6227053108
 21
82.4816310799
  0
LINE
  5
559
100
AcDbEntity
  8
BASIC_DEVICE
100
AcDbLine
 62
7
  6
CONTINUOUS
 10
212.6227053108
 20
197.4816310799
 11
212.6227053108
 21
200.4816310799
  0
LINE
  5
55A
100
AcDbEntity
  8
BASIC_DEVICE
100
AcDbLine
 62
7
  6
CONTINUOUS
 10
219.3227053108
 20
202.4816310799
 11
219.3227053108
 21
200.4816310799
  0
LINE
  5
55B
100
AcDbEntity
  8
BASIC_DEVICE
100
AcDbLine
 62
7
  6
CONTINUOUS
 10
219.3227053108
 20
80.4816310799
 11
219.3227053108
 21
82.4816310799
  0
LINE
  5
55C
100
AcDbEntity
  8
TERMINAL_SCHROUD
100
AcDbLine
 62
2
  6
CONTINUOUS
 10
228.3227053108
 20
206.3816310799
 11
228.3227053108
 21
201.8816310799
  0
LINE
  5
55D
100
AcDbEntity
  8
BASIC_DEVICE
100
AcDbLine
 62
7
  6
CONTINUOUS
 10
229.3227053108
 20
84.4816310799
 11
229.3227053108
 21
80.4816310799
  0
LINE
  5
55E
100
AcDbEntity
  8
BASIC_DEVICE
100
AcDbLine
 62
7
  6
CONTINUOUS
 10
229.3227053108
 20
197.98163108
 11
229.3227053108
 21
202.4816310799
  0
LINE
  5
55F
100
AcDbEntity
  8
TERMINAL_SCHROUD
100
AcDbLine
 62
2
  6
CONTINUOUS
 10
230.3227053108
 20
205.3816310799
 11
230.3227053108
 21
202.8816310799
  0
LINE
  5
560
100
AcDbEntity
  8
TERMINAL_SCHROUD
100
AcDbLine
 62
2
  6
CONTINUOUS
 10
232.3227053108
 20
269.4816310799
 11
232.3227053108
 21
198.4816310799
  0
LINE
  5
561
100
AcDbEntity
  8
CAGE_COMMANDE
100
AcDbLine
 62
7
  6
CONTINUOUS
 10
219.3855181826
 20
141.4902263082
 11
219.3619617385
 21
141.0899469724
  0
LINE
  5
562
100
AcDbEntity
  8
CAGE_COMMANDE
100
AcDbLine
 62
7
  6
CONTINUOUS
 10
200.0145867838
 20
133.6725027715
 11
200.0647967953
 21
134.1767432779
  0
LINE
  5
563
100
AcDbEntity
  8
CAGE_COMMANDE
100
AcDbLine
 62
7
  6
CONTINUOUS
 10
195.411274068
 20
131.4153264194
 11
195.3310539875
 21
130.820788157
  0
LINE
  5
564
100
AcDbEntity
  8
CAGE_COMMANDE
100
AcDbLine
 62
7
  6
CONTINUOUS
 10
185.4819544478
 20
133.1011966726
 11
185.4537280381
 21
132.9465534045
  0
LINE
  5
565
100
AcDbEntity
  8
CAGE_COMMANDE
100
AcDbLine
 62
7
  6
CONTINUOUS
 10
185.0927599714
 20
146.3085700903
 11
185.2713042752
 21
147.2824035195
  0
LINE
  5
566
100
AcDbEntity
  8
CAGE_COMMANDE
100
AcDbLine
 62
7
  6
CONTINUOUS
 10
184.371760259
 20
146.0866828636
 11
184.4946097988
 21
146.7019561662
  0
LINE
  5
567
100
AcDbEntity
  8
CAGE_COMMANDE
100
AcDbLine
 62
7
  6
CONTINUOUS
 10
185.2713042752
 20
147.2824035195
 11
185.4494918471
 21
148.1068108843
  0
LINE
  5
568
100
AcDbEntity
  8
CAGE_COMMANDE
100
AcDbLine
 62
7
  6
CONTINUOUS
 10
184.4946097988
 20
146.7019561662
 11
184.6679368989
 21
147.4559981685
  0
LINE
  5
569
100
AcDbEntity
  8
CAGE_COMMANDE
100
AcDbLine
 62
7
  6
CONTINUOUS
 10
185.4494918471
 20
148.1068108843
 11
185.6060971405
 21
148.7510686519
  0
LINE
  5
56A
100
AcDbEntity
  8
CAGE_COMMANDE
100
AcDbLine
 62
7
  6
CONTINUOUS
 10
184.6679368989
 20
147.4559981685
 11
184.8295810301
 21
148.0801005851
  0
LINE
  5
56B
100
AcDbEntity
  8
CAGE_COMMANDE
100
AcDbLine
 62
7
  6
CONTINUOUS
 10
184.611528671
 20
132.1076092157
 11
184.7920350001
 21
132.7919101363
  0
LINE
  5
56C
100
AcDbEntity
  8
CAGE_COMMANDE
100
AcDbLine
 62
7
  6
CONTINUOUS
 10
185.6060971405
 20
148.7510686519
 11
185.7375528367
 21
149.2475948314
  0
LINE
  5
56D
100
AcDbEntity
  8
CAGE_COMMANDE
100
AcDbLine
 62
7
  6
CONTINUOUS
 10
185.7375528367
 20
149.2475948314
 11
185.8009173361
 21
149.4745654873
  0
LINE
  5
56E
100
AcDbEntity
  8
CAGE_COMMANDE
100
AcDbLine
 62
7
  6
CONTINUOUS
 10
184.8295810301
 20
148.0801005851
 11
184.9770896607
 21
148.5983428176
  0
LINE
  5
56F
100
AcDbEntity
  8
CAGE_COMMANDE
100
AcDbLine
 62
7
  6
CONTINUOUS
 10
184.9770896607
 20
148.5983428176
 11
185.1567933431
 21
149.1176552456
  0
LINE
  5
570
100
AcDbEntity
  8
COVER_FUSE
100
AcDbLine
 62
6
  6
CONTINUOUS
 10
384.9237321134
 20
456.1788595714
 11
382.9237321134
 21
454.1788595714
  0
LINE
  5
571
100
AcDbEntity
  8
TERMINAL_SCHROUD
100
AcDbLine
 62
2
  6
CONTINUOUS
 10
232.3227053108
 20
217.4816310799
 11
263.3227053108
 21
217.4816310799
  0
LINE
  5
572
100
AcDbEntity
  8
TERMINAL_SCHROUD
100
AcDbLine
 62
2
  6
CONTINUOUS
 10
380.4237321134
 20
217.4816310799
 11
383.4237321134
 21
217.4816310799
  0
LINE
  5
573
100
AcDbEntity
  8
TERMINAL_SCHROUD
100
AcDbLine
 62
2
  6
CONTINUOUS
 10
412.4237321134
 20
217.4816310799
 11
415.4237321134
 21
217.4816310799
  0
LINE
  5
574
100
AcDbEntity
  8
TERMINAL_SCHROUD
100
AcDbLine
 62
2
  6
CONTINUOUS
 10
416.4237321134
 20
217.4816310799
 11
419.4237321134
 21
217.4816310799
  0
LINE
  5
575
100
AcDbEntity
  8
TERMINAL_SCHROUD
100
AcDbLine
 62
2
  6
CONTINUOUS
 10
448.4237321134
 20
217.4816310799
 11
451.4237321134
 21
217.4816310799
  0
LINE
  5
576
100
AcDbEntity
  8
TERMINAL_SCHROUD
100
AcDbLine
 62
2
  6
CONTINUOUS
 10
452.4237321134
 20
217.4816310799
 11
455.4237321134
 21
217.4816310799
  0
LINE
  5
577
100
AcDbEntity
  8
TERMINAL_SCHROUD
100
AcDbLine
 62
2
  6
CONTINUOUS
 10
484.4237321134
 20
217.4816310799
 11
487.4237321134
 21
217.4816310799
  0
LINE
  5
578
100
AcDbEntity
  8
BASIC_DEVICE
100
AcDbLine
 62
7
  6
CONTINUOUS
 10
485.2237321134
 20
218.9816310799
 11
482.8237321134
 21
218.9816310799
  0
LINE
  5
579
100
AcDbEntity
  8
BASIC_DEVICE
100
AcDbLine
 62
7
  6
CONTINUOUS
 10
449.2237321134
 20
218.9816310799
 11
446.8237321134
 21
218.9816310799
  0
LINE
  5
57A
100
AcDbEntity
  8
BASIC_DEVICE
100
AcDbLine
 62
7
  6
CONTINUOUS
 10
413.2237321134
 20
218.9816310799
 11
410.8237321134
 21
218.9816310799
  0
LINE
  5
57B
100
AcDbEntity
  8
BASIC_DEVICE
100
AcDbLine
 62
7
  6
CONTINUOUS
 10
276.8227053108
 20
218.9816310799
 11
267.8227053108
 21
218.9816310799
  0
LINE
  5
57C
100
AcDbEntity
  8
BASIC_DEVICE
100
AcDbLine
 62
7
  6
CONTINUOUS
 10
382.6237321134
 20
218.9816310799
 11
385.0237321134
 21
218.9816310799
  0
LINE
  5
57D
100
AcDbEntity
  8
BASIC_DEVICE
100
AcDbLine
 62
7
  6
CONTINUOUS
 10
418.6237321134
 20
218.9816310799
 11
421.0237321134
 21
218.9816310799
  0
LINE
  5
57E
100
AcDbEntity
  8
BASIC_DEVICE
100
AcDbLine
 62
7
  6
CONTINUOUS
 10
454.6237321134
 20
218.9816310799
 11
457.0237321134
 21
218.9816310799
  0
LINE
  5
57F
100
AcDbEntity
  8
CONTACT
100
AcDbLine
 62
40
  6
CONTINUOUS
 10
254.8227053108
 20
219.7816310799
 11
257.3227053108
 21
219.7816310799
  0
LINE
  5
580
100
AcDbEntity
  8
CONTACT
100
AcDbLine
 62
40
  6
CONTINUOUS
 10
388.9237321134
 20
219.7816310799
 11
406.9237321134
 21
219.7816310799
  0
LINE
  5
581
100
AcDbEntity
  8
CONTACT
100
AcDbLine
 62
40
  6
CONTINUOUS
 10
424.9237321134
 20
219.7816310799
 11
442.9237321134
 21
219.7816310799
  0
LINE
  5
582
100
AcDbEntity
  8
CONTACT
100
AcDbLine
 62
40
  6
CONTINUOUS
 10
460.9237321134
 20
219.7816310799
 11
478.9237321134
 21
219.7816310799
  0
LINE
  5
583
100
AcDbEntity
  8
BASIC_DEVICE
100
AcDbLine
 62
7
  6
CONTINUOUS
 10
482.8237321134
 20
222.48163108
 11
457.0237321134
 21
222.4816310799
  0
LINE
  5
584
100
AcDbEntity
  8
BASIC_DEVICE
100
AcDbLine
 62
7
  6
CONTINUOUS
 10
446.8237321134
 20
222.48163108
 11
421.0237321134
 21
222.4816310799
  0
LINE
  5
585
100
AcDbEntity
  8
BASIC_DEVICE
100
AcDbLine
 62
7
  6
CONTINUOUS
 10
410.8237321134
 20
222.48163108
 11
385.0237321134
 21
222.4816310799
  0
LINE
  5
586
100
AcDbEntity
  8
BASIC_DEVICE
100
AcDbLine
 62
7
  6
CONTINUOUS
 10
257.3227053108
 20
222.48163108
 11
267.8227053108
 21
222.48163108
  0
LINE
  5
587
100
AcDbEntity
  8
TERMINAL_SCHROUD
100
AcDbLine
 62
2
  6
CONTINUOUS
 10
263.3227053108
 20
222.9816310799
 11
275.8227053108
 21
222.9816310799
  0
LINE
  5
588
100
AcDbEntity
  8
TERMINAL_SCHROUD
100
AcDbLine
 62
2
  6
CONTINUOUS
 10
388.4182370026
 20
231.4816310799
 11
407.4292272243
 21
231.4816310799
  0
LINE
  5
589
100
AcDbEntity
  8
TERMINAL_SCHROUD
100
AcDbLine
 62
2
  6
CONTINUOUS
 10
424.4182370026
 20
231.4816310799
 11
443.4292272243
 21
231.4816310799
  0
LINE
  5
58A
100
AcDbEntity
  8
TERMINAL_SCHROUD
100
AcDbLine
 62
2
  6
CONTINUOUS
 10
460.4182370026
 20
231.4816310799
 11
479.4292272243
 21
231.4816310799
  0
LINE
  5
58B
100
AcDbEntity
  8
TERMINAL_SCHROUD
100
AcDbLine
 62
2
  6
CONTINUOUS
 10
479.4292272243
 20
231.8860718395
 11
460.4182370026
 21
231.8860718395
  0
LINE
  5
58C
100
AcDbEntity
  8
TERMINAL_SCHROUD
100
AcDbLine
 62
2
  6
CONTINUOUS
 10
443.4292272243
 20
231.8860718395
 11
424.4182370026
 21
231.8860718395
  0
LINE
  5
58D
100
AcDbEntity
  8
TERMINAL_SCHROUD
100
AcDbLine
 62
2
  6
CONTINUOUS
 10
407.4292272243
 20
231.8860718395
 11
388.4182370026
 21
231.8860718395
  0
LINE
  5
58E
100
AcDbEntity
  8
CAGE_COMMANDE
100
AcDbLine
 62
7
  6
CONTINUOUS
 10
250.7839392143
 20
137.5523605753
 11
250.4227501339
 21
141.6825740777
  0
LINE
  5
58F
100
AcDbEntity
  8
TERMINAL_SCHROUD
100
AcDbLine
 62
2
  6
CONTINUOUS
 10
234.3227053108
 20
198.4816310799
 11
234.3227053108
 21
184.4816310799
  0
LINE
  5
590
100
AcDbEntity
  8
0
100
AcDbLine
 62
1
  6
CONTINUOUS
 10
235.0524454933
 20
498.5494513817
 11
235.0524454933
 21
459.1494513817
  0
LINE
  5
591
100
AcDbEntity
  8
TERMINAL_SCHROUD
100
AcDbLine
 62
2
  6
CONTINUOUS
 10
235.6807613156
 20
273.9816310799
 11
235.6807613156
 21
275.4816310799
  0
LINE
  5
592
100
AcDbEntity
  8
TERMINAL_SCHROUD
100
AcDbLine
 62
2
  6
CONTINUOUS
 10
238.1991737017
 20
273.9816310799
 11
238.1991737017
 21
275.4816310799
  0
LINE
  5
593
100
AcDbEntity
  8
TERMINAL_SCHROUD
100
AcDbLine
 62
2
  6
CONTINUOUS
 10
240.3227053108
 20
258.9816310799
 11
240.3227053108
 21
273.9816310799
  0
LINE
  5
594
100
AcDbEntity
  8
TERMINAL_SCHROUD
100
AcDbLine
 62
2
  6
CONTINUOUS
 10
241.1227053108
 20
184.4816310799
 11
241.1227053108
 21
198.4816310799
  0
LINE
  5
595
100
AcDbEntity
  8
AXIS
100
AcDbLine
 62
4
  6
AM_ISO08W050X2
 10
245.8227053108
 20
136.2958009083
 11
245.8227053108
 21
130.3316310799
  0
LINE
  5
596
100
AcDbEntity
  8
AXIS
100
AcDbLine
 62
4
  6
AM_ISO08W050
 10
245.8227053108
 20
136.2958009083
 11
245.8227053108
 21
146.6674612515
  0
LINE
  5
597
100
AcDbEntity
  8
AXIS
100
AcDbLine
 62
4
  6
AM_ISO08W050X2
 10
245.8227053108
 20
146.6674612515
 11
245.8227053108
 21
152.6316310799
  0
LINE
  5
598
100
AcDbEntity
  8
TERMINAL_SCHROUD
100
AcDbLine
 62
2
  6
CONTINUOUS
 10
248.6227053108
 20
273.9816310799
 11
248.6227053108
 21
275.4816310799
  0
LINE
  5
599
100
AcDbEntity
  8
CAGE_COMMANDE
100
AcDbLine
 62
7
  6
CONTINUOUS
 10
250.4227501339
 20
141.6825740777
 11
250.4227501339
 21
146.0817649735
  0
LINE
  5
59A
100
AcDbEntity
  8
TERMINAL_SCHROUD
100
AcDbLine
 62
2
  6
CONTINUOUS
 10
250.8227053108
 20
275.4816310799
 11
250.8227053108
 21
273.9816310799
  0
LINE
  5
59B
100
AcDbEntity
  8
CONTACT
100
AcDbLine
 62
40
  6
CONTINUOUS
 10
254.8227053108
 20
84.9816310799
 11
254.8227053108
 21
63.1816310799
  0
LINE
  5
59C
100
AcDbEntity
  8
CONTACT
100
AcDbLine
 62
40
  6
CONTINUOUS
 10
254.8227053108
 20
197.98163108
 11
254.8227053108
 21
219.7816310799
  0
LINE
  5
59D
100
AcDbEntity
  8
CAGE_COMMANDE
100
AcDbLine
 62
7
  6
CONTINUOUS
 10
241.2225714173
 20
141.2806880822
 11
241.2169599772
 21
136.8871086265
  0
LINE
  5
59E
100
AcDbEntity
  8
CAGE_COMMANDE
100
AcDbLine
 62
7
  6
CONTINUOUS
 10
222.1530951177
 20
141.4902263082
 11
222.134657685
 21
141.3341761533
  0
LINE
  5
59F
100
AcDbEntity
  8
CAGE_COMMANDE
100
AcDbLine
 62
7
  6
CONTINUOUS
 10
219.3619617385
 20
141.0899469724
 11
219.3280707089
 21
140.8576531345
  0
LINE
  5
5A0
100
AcDbEntity
  8
CAGE_COMMANDE
100
AcDbLine
 62
7
  6
CONTINUOUS
 10
219.3280707089
 20
140.8576531345
 11
219.2583291157
 21
140.5549942153
  0
LINE
  5
5A1
100
AcDbEntity
  8
CAGE_COMMANDE
100
AcDbLine
 62
7
  6
CONTINUOUS
 10
222.134657685
 20
141.3341761533
 11
222.060997024
 21
141.023500959
  0
LINE
  5
5A2
100
AcDbEntity
  8
CAGE_COMMANDE
100
AcDbLine
 62
7
  6
CONTINUOUS
 10
199.9643767723
 20
133.4713059936
 11
200.0145867838
 21
133.6725027715
  0
LINE
  5
5A3
100
AcDbEntity
  8
CAGE_COMMANDE
100
AcDbLine
 62
7
  6
CONTINUOUS
 10
196.3905476584
 20
149.9283730247
 11
196.4542688897
 21
150.1544964424
  0
LINE
  5
5A4
100
AcDbEntity
  8
CAGE_COMMANDE
100
AcDbLine
 62
7
  6
CONTINUOUS
 10
195.7755419046
 20
134.8280465
 11
195.6757015709
 21
134.5048474206
  0
LINE
  5
5A5
100
AcDbEntity
  8
TERMINAL_SCHROUD
100
AcDbLine
 62
2
  6
CONTINUOUS
 10
235.6807613156
 20
273.9816310799
 11
232.3227053108
 21
269.4816310799
  0
LINE
  5
5A6
100
AcDbEntity
  8
COVER_FUSE
100
AcDbLine
 62
6
  6
CONTINUOUS
 10
385.0237321134
 20
445.1788595714
 11
387.5237321134
 21
447.6788595714
  0
LINE
  5
5A7
100
AcDbEntity
  8
COVER_FUSE
100
AcDbLine
 62
6
  6
CONTINUOUS
 10
420.9237321134
 20
456.1788595714
 11
418.9237321134
 21
454.1788595714
  0
LINE
  5
5A8
100
AcDbEntity
  8
TERMINAL_SCHROUD
100
AcDbLine
 62
2
  6
CONTINUOUS
 10
487.4237321134
 20
247.9816310799
 11
481.9237321134
 21
247.9816310799
  0
LINE
  5
5A9
100
AcDbEntity
  8
TERMINAL_SCHROUD
100
AcDbLine
 62
2
  6
CONTINUOUS
 10
451.4237321134
 20
247.9816310799
 11
445.9237321134
 21
247.9816310799
  0
LINE
  5
5AA
100
AcDbEntity
  8
TERMINAL_SCHROUD
100
AcDbLine
 62
2
  6
CONTINUOUS
 10
415.4237321134
 20
247.9816310799
 11
409.9237321134
 21
247.9816310799
  0
LINE
  5
5AB
100
AcDbEntity
  8
TERMINAL_SCHROUD
100
AcDbLine
 62
2
  6
CONTINUOUS
 10
380.4237321134
 20
247.9816310799
 11
385.9237321134
 21
247.9816310799
  0
LINE
  5
5AC
100
AcDbEntity
  8
TERMINAL_SCHROUD
100
AcDbLine
 62
2
  6
CONTINUOUS
 10
416.4237321134
 20
247.9816310799
 11
421.9237321134
 21
247.9816310799
  0
LINE
  5
5AD
100
AcDbEntity
  8
TERMINAL_SCHROUD
100
AcDbLine
 62
2
  6
CONTINUOUS
 10
452.4237321134
 20
247.9816310799
 11
457.9237321134
 21
247.9816310799
  0
LINE
  5
5AE
100
AcDbEntity
  8
TERMINAL_SCHROUD
100
AcDbLine
 62
2
  6
CONTINUOUS
 10
487.4237321134
 20
258.9816310799
 11
481.9237321134
 21
258.9816310799
  0
LINE
  5
5AF
100
AcDbEntity
  8
TERMINAL_SCHROUD
100
AcDbLine
 62
2
  6
CONTINUOUS
 10
451.4237321134
 20
258.9816310799
 11
445.9237321134
 21
258.9816310799
  0
LINE
  5
5B0
100
AcDbEntity
  8
TERMINAL_SCHROUD
100
AcDbLine
 62
2
  6
CONTINUOUS
 10
415.4237321134
 20
258.9816310799
 11
409.9237321134
 21
258.9816310799
  0
LINE
  5
5B1
100
AcDbEntity
  8
TERMINAL_SCHROUD
100
AcDbLine
 62
2
  6
CONTINUOUS
 10
380.4237321134
 20
258.9816310799
 11
385.9237321134
 21
258.9816310799
  0
LINE
  5
5B2
100
AcDbEntity
  8
TERMINAL_SCHROUD
100
AcDbLine
 62
2
  6
CONTINUOUS
 10
416.4237321134
 20
258.9816310799
 11
421.9237321134
 21
258.9816310799
  0
LINE
  5
5B3
100
AcDbEntity
  8
TERMINAL_SCHROUD
100
AcDbLine
 62
2
  6
CONTINUOUS
 10
452.4237321134
 20
258.9816310799
 11
457.9237321134
 21
258.9816310799
  0
LINE
  5
5B4
100
AcDbEntity
  8
BASIC_DEVICE
100
AcDbLine
 62
7
  6
CONTINUOUS
 10
257.3227053108
 20
84.4816310799
 11
257.3227053108
 21
60.48163108
  0
LINE
  5
5B5
100
AcDbEntity
  8
BASIC_DEVICE
100
AcDbLine
 62
7
  6
CONTINUOUS
 10
257.3227053108
 20
197.98163108
 11
257.3227053108
 21
222.48163108
  0
LINE
  5
5B6
100
AcDbEntity
  8
TERMINAL_SCHROUD
100
AcDbLine
 62
2
  6
CONTINUOUS
 10
263.3227053108
 20
198.4816310799
 11
263.3227053108
 21
222.9816310799
  0
LINE
  5
5B7
100
AcDbEntity
  8
CAGE_COMMANDE
100
AcDbLine
 62
7
  6
CONTINUOUS
 10
267.3227053108
 20
146.4816310799
 11
267.3227053108
 21
136.4816310799
  0
LINE
  5
5B8
100
AcDbEntity
  8
BASIC_DEVICE
100
AcDbLine
 62
7
  6
CONTINUOUS
 10
267.8227053108
 20
60.48163108
 11
267.8227053108
 21
101.4816310799
  0
LINE
  5
5B9
100
AcDbEntity
  8
BASIC_DEVICE
100
AcDbLine
 62
7
  6
CONTINUOUS
 10
267.8227053108
 20
136.4816310799
 11
267.8227053108
 21
146.4816310799
  0
LINE
  5
5BA
100
AcDbEntity
  8
BASIC_DEVICE
100
AcDbLine
 62
7
  6
CONTINUOUS
 10
267.8227053108
 20
181.4816310799
 11
267.8227053108
 21
222.48163108
  0
LINE
  5
5BB
100
AcDbEntity
  8
0
100
AcDbLine
 62
1
  6
CONTINUOUS
 10
267.8336639268
 20
498.5494513817
 11
267.8336639268
 21
459.1494513817
  0
LINE
  5
5BC
100
AcDbEntity
  8
CAGE_COMMANDE
100
AcDbLine
 62
7
  6
CONTINUOUS
 10
270.2227053108
 20
123.7316310799
 11
270.2227053108
 21
127.7470033092
  0
LINE
  5
5BD
100
AcDbEntity
  8
CAGE_COMMANDE
100
AcDbLine
 62
7
  6
CONTINUOUS
 10
270.2227053108
 20
155.2162588507
 11
270.2227053108
 21
159.2316310799
  0
LINE
  5
5BE
100
AcDbEntity
  8
CAGE_COMMANDE
100
AcDbLine
 62
7
  6
CONTINUOUS
 10
270.3227053108
 20
136.4816310799
 11
270.3227053108
 21
146.4816310799
  0
LINE
  5
5BF
100
AcDbEntity
  8
BASIC_DEVICE
100
AcDbLine
 62
7
  6
CONTINUOUS
 10
270.8227053108
 20
122.9816310799
 11
270.8227053108
 21
136.4816310799
  0
LINE
  5
5C0
100
AcDbEntity
  8
BASIC_DEVICE
100
AcDbLine
 62
7
  6
CONTINUOUS
 10
270.8227053108
 20
146.4816310799
 11
270.8227053108
 21
159.9816310799
  0
LINE
  5
5C1
100
AcDbEntity
  8
TERMINAL_SCHROUD
100
AcDbLine
 62
2
  6
CONTINUOUS
 10
275.8227053108
 20
222.9816310799
 11
275.8227053108
 21
273.9816310799
  0
LINE
  5
5C2
100
AcDbEntity
  8
CAGE_COMMANDE
100
AcDbLine
 62
7
  6
CONTINUOUS
 10
276.8227053108
 20
82.4816310799
 11
276.8227053108
 21
122.2316310799
  0
LINE
  5
5C3
100
AcDbEntity
  8
BASIC_DEVICE
100
AcDbLine
 62
7
  6
CONTINUOUS
 10
276.8227053108
 20
63.98163108
 11
276.8227053108
 21
122.98163108
  0
LINE
  5
5C4
100
AcDbEntity
  8
CAGE_COMMANDE
100
AcDbLine
 62
7
  6
CONTINUOUS
 10
276.8227053108
 20
160.7316310799
 11
276.8227053108
 21
200.4816310799
  0
LINE
  5
5C5
100
AcDbEntity
  8
BASIC_DEVICE
100
AcDbLine
 62
7
  6
CONTINUOUS
 10
276.8227053108
 20
159.9816310799
 11
276.8227053108
 21
218.9816310799
  0
LINE
  5
5C6
100
AcDbEntity
  8
CAGE_COMMANDE
100
AcDbLine
 62
7
  6
CONTINUOUS
 10
218.5590872542
 20
139.1929845439
 11
218.5019490268
 21
139.0123956802
  0
LINE
  5
5C7
100
AcDbEntity
  8
CAGE_COMMANDE
100
AcDbLine
 62
7
  6
CONTINUOUS
 10
219.2583291157
 20
140.5549942153
 11
219.1341659216
 21
140.1894075366
  0
LINE
  5
5C8
100
AcDbEntity
  8
CAGE_COMMANDE
100
AcDbLine
 62
7
  6
CONTINUOUS
 10
199.534604045
 20
138.4778595034
 11
199.4770364386
 21
138.362858065
  0
LINE
  5
5C9
100
AcDbEntity
  8
CAGE_COMMANDE
100
AcDbLine
 62
7
  6
CONTINUOUS
 10
185.1567933431
 20
149.1176552456
 11
185.2230116975
 21
149.2126351076
  0
LINE
  5
5CA
100
AcDbEntity
  8
TERMINAL_SCHROUD
100
AcDbLine
 62
2
  6
CONTINUOUS
 10
232.3227053108
 20
247.9816310799
 11
240.3227053108
 21
258.9816310799
  0
LINE
  5
5CB
100
AcDbEntity
  8
COVER_FUSE
100
AcDbLine
 62
6
  6
CONTINUOUS
 10
421.0237321134
 20
445.1788595714
 11
423.5237321134
 21
447.6788595714
  0
LINE
  5
5CC
100
AcDbEntity
  8
COVER_FUSE
100
AcDbLine
 62
6
  6
CONTINUOUS
 10
456.9237321134
 20
456.1788595714
 11
454.9237321134
 21
454.1788595714
  0
LINE
  5
5CD
100
AcDbEntity
  8
TERMINAL_SCHROUD
100
AcDbLine
 62
2
  6
CONTINUOUS
 10
385.9237321134
 20
269.4816310799
 11
409.9237321134
 21
269.4816310799
  0
LINE
  5
5CE
100
AcDbEntity
  8
TERMINAL_SCHROUD
100
AcDbLine
 62
2
  6
CONTINUOUS
 10
421.9237321134
 20
269.4816310799
 11
445.9237321134
 21
269.4816310799
  0
LINE
  5
5CF
100
AcDbEntity
  8
TERMINAL_SCHROUD
100
AcDbLine
 62
2
  6
CONTINUOUS
 10
457.9237321134
 20
269.4816310799
 11
481.9237321134
 21
269.4816310799
  0
LINE
  5
5D0
100
AcDbEntity
  8
TERMINAL_SCHROUD
100
AcDbLine
 62
2
  6
CONTINUOUS
 10
487.4237321134
 20
273.9816310799
 11
452.4237321134
 21
273.9816310799
  0
LINE
  5
5D1
100
AcDbEntity
  8
TERMINAL_SCHROUD
100
AcDbLine
 62
2
  6
CONTINUOUS
 10
451.4237321134
 20
273.9816310799
 11
416.4237321134
 21
273.9816310799
  0
LINE
  5
5D2
100
AcDbEntity
  8
TERMINAL_SCHROUD
100
AcDbLine
 62
2
  6
CONTINUOUS
 10
415.4237321134
 20
273.9816310799
 11
380.4237321134
 21
273.9816310799
  0
LINE
  5
5D3
100
AcDbEntity
  8
TERMINAL_SCHROUD
100
AcDbLine
 62
2
  6
CONTINUOUS
 10
275.8227053108
 20
273.9816310799
 11
235.6807613156
 21
273.9816310799
  0
LINE
  5
5D4
100
AcDbEntity
  8
TERMINAL_SCHROUD
100
AcDbLine
 62
2
  6
CONTINUOUS
 10
235.6807613156
 20
275.4816310799
 11
250.8227053108
 21
275.4816310799
  0
LINE
  5
5D5
100
AcDbEntity
  8
TERMINAL_SCHROUD
100
AcDbLine
 62
2
  6
CONTINUOUS
 10
384.9237321134
 20
275.4816310799
 11
410.9237321134
 21
275.4816310799
  0
LINE
  5
5D6
100
AcDbEntity
  8
TERMINAL_SCHROUD
100
AcDbLine
 62
2
  6
CONTINUOUS
 10
420.9237321134
 20
275.4816310799
 11
446.9237321134
 21
275.4816310799
  0
LINE
  5
5D7
100
AcDbEntity
  8
TERMINAL_SCHROUD
100
AcDbLine
 62
2
  6
CONTINUOUS
 10
456.9237321134
 20
275.4816310799
 11
482.9237321134
 21
275.4816310799
  0
LINE
  5
5D8
100
AcDbEntity
  8
TERMINAL_SCHROUD
100
AcDbLine
 62
2
  6
CONTINUOUS
 10
399.3692328553
 20
234.8170516696
 11
398.4232590192
 21
235.0539959983
  0
LINE
  5
5D9
100
AcDbEntity
  8
TERMINAL_SCHROUD
100
AcDbLine
 62
2
  6
CONTINUOUS
 10
397.4816541372
 20
235.2898460062
 11
396.5356803012
 21
235.5267903349
  0
LINE
  5
5DA
100
AcDbEntity
  8
TERMINAL_SCHROUD
100
AcDbLine
 62
2
  6
CONTINUOUS
 10
435.3692328553
 20
234.8170516696
 11
434.4232590192
 21
235.0539959983
  0
LINE
  5
5DB
100
AcDbEntity
  8
TERMINAL_SCHROUD
100
AcDbLine
 62
2
  6
CONTINUOUS
 10
433.4816541372
 20
235.2898460062
 11
432.5356803012
 21
235.5267903349
  0
LINE
  5
5DC
100
AcDbEntity
  8
TERMINAL_SCHROUD
100
AcDbLine
 62
2
  6
CONTINUOUS
 10
398.0362386664
 20
244.1943174881
 11
397.0977615938
 21
244.442183164
  0
LINE
  5
5DD
100
AcDbEntity
  8
0
100
AcDbLine
 62
7
  6
CONTINUOUS
 10
280.9336639268
 20
498.5494513817
 11
280.9336639268
 21
459.1494513817
  0
LINE
  5
5DE
100
AcDbEntity
  8
CAGE_COMMANDE
100
AcDbLine
 62
7
  6
CONTINUOUS
 10
219.1341659216
 20
140.1894075366
 11
219.0100472624
 21
139.9144938362
  0
LINE
  5
5DF
100
AcDbEntity
  8
CAGE_COMMANDE
100
AcDbLine
 62
7
  6
CONTINUOUS
 10
222.060997024
 20
141.023500959
 11
221.9142546551
 21
140.7170120417
  0
LINE
  5
5E0
100
AcDbEntity
  8
CAGE_COMMANDE
100
AcDbLine
 62
7
  6
CONTINUOUS
 10
219.0100472624
 20
139.9144938362
 11
218.8283895621
 21
139.5951788787
  0
LINE
  5
5E1
100
AcDbEntity
  8
CAGE_COMMANDE
100
AcDbLine
 62
7
  6
CONTINUOUS
 10
230.1287742879
 20
182.0316310799
 11
227.934843265
 21
178.2316310799
  0
LINE
  5
5E2
100
AcDbEntity
  8
CAGE_COMMANDE
100
AcDbLine
 62
7
  6
CONTINUOUS
 10
234.5166363338
 20
174.4316310799
 11
236.7105673567
 21
178.2316310799
  0
LINE
  5
5E3
100
AcDbEntity
  8
CAGE_COMMANDE
100
AcDbLine
 62
7
  6
CONTINUOUS
 10
185.5920508229
 20
133.2611909188
 11
185.4819544478
 21
133.1011966726
  0
LINE
  5
5E4
100
AcDbEntity
  8
CAGE_COMMANDE
100
AcDbLine
 62
7
  6
CONTINUOUS
 10
196.2400959898
 20
149.7117030017
 11
196.3905476584
 21
149.9283730247
  0
LINE
  5
5E5
100
AcDbEntity
  8
CAGE_COMMANDE
100
AcDbLine
 62
7
  6
CONTINUOUS
 10
185.2230116975
 20
149.2126351076
 11
185.3021615824
 21
149.2978048429
  0
LINE
  5
5E6
100
AcDbEntity
  8
COVER_FUSE
100
AcDbLine
 62
6
  6
CONTINUOUS
 10
457.0237321134
 20
445.1788595714
 11
459.5237321134
 21
447.6788595714
  0
LINE
  5
5E7
100
AcDbEntity
  8
TERMINAL_SCHROUD
100
AcDbLine
 62
2
  6
CONTINUOUS
 10
471.3692328553
 20
234.8170516696
 11
470.4232590192
 21
235.0539959983
  0
LINE
  5
5E8
100
AcDbEntity
  8
TERMINAL_SCHROUD
100
AcDbLine
 62
2
  6
CONTINUOUS
 10
469.4816541372
 20
235.2898460062
 11
468.5356803012
 21
235.5267903349
  0
LINE
  5
5E9
100
AcDbEntity
  8
TERMINAL_SCHROUD
100
AcDbLine
 62
2
  6
CONTINUOUS
 10
434.0362386664
 20
244.1943174881
 11
433.0977615938
 21
244.442183164
  0
LINE
  5
5EA
100
AcDbEntity
  8
TERMINAL_SCHROUD
100
AcDbLine
 62
2
  6
CONTINUOUS
 10
470.0362386664
 20
244.1943174881
 11
469.0977615938
 21
244.442183164
  0
LINE
  5
5EB
100
AcDbEntity
  8
BASIC_DEVICE
100
AcDbLine
 62
7
  6
CONTINUOUS
 10
394.1709536139
 20
87.9816310799
 11
390.4181751145
 21
94.4816341106
  0
LINE
  5
5EC
100
AcDbEntity
  8
BASIC_DEVICE
100
AcDbLine
 62
7
  6
CONTINUOUS
 10
401.6765106129
 20
100.9816371412
 11
405.4292891124
 21
94.4816341106
  0
LINE
  5
5ED
100
AcDbEntity
  8
CAGE_COMMANDE
100
AcDbLine
 62
7
  6
CONTINUOUS
 10
241.2225714173
 20
146.0817649735
 11
240.8613720371
 21
145.4106835983
  0
LINE
  5
5EE
100
AcDbEntity
  8
CAGE_COMMANDE
100
AcDbLine
 62
7
  6
CONTINUOUS
 10
250.4115272537
 20
136.8706305881
 11
250.7839392143
 21
137.5523605753
  0
LINE
  5
5EF
100
AcDbEntity
  8
CAGE_COMMANDE
100
AcDbLine
 62
7
  6
CONTINUOUS
 10
230.1287742879
 20
108.5316310799
 11
227.934843265
 21
104.7316310799
  0
LINE
  5
5F0
100
AcDbEntity
  8
CAGE_COMMANDE
100
AcDbLine
 62
7
  6
CONTINUOUS
 10
218.7161617109
 20
139.4307561698
 11
218.5590872542
 21
139.1929845439
  0
LINE
  5
5F1
100
AcDbEntity
  8
CAGE_COMMANDE
100
AcDbLine
 62
7
  6
CONTINUOUS
 10
218.8283895621
 20
139.5951788787
 11
218.7161617109
 21
139.4307561698
  0
LINE
  5
5F2
100
AcDbEntity
  8
CAGE_COMMANDE
100
AcDbLine
 62
7
  6
CONTINUOUS
 10
221.9142546551
 20
140.7170120417
 11
221.6958111591
 21
140.417693237
  0
LINE
  5
5F3
100
AcDbEntity
  8
CAGE_COMMANDE
100
AcDbLine
 62
7
  6
CONTINUOUS
 10
219.3432125618
 20
139.0190759095
 11
219.3167532212
 21
138.9880822359
  0
LINE
  5
5F4
100
AcDbEntity
  8
TERMINAL_SCHROUD
100
AcDbLine
 62
2
  6
CONTINUOUS
 10
241.1227053108
 20
185.9816310799
 11
245.3227053108
 21
189.9816310799
  0
LINE
  5
5F5
100
AcDbEntity
  8
CAGE_COMMANDE
100
AcDbLine
 62
7
  6
CONTINUOUS
 10
185.6859604892
 20
133.3475646242
 11
185.5920508229
 21
133.2611909188
  0
LINE
  5
5F6
100
AcDbEntity
  8
BASIC_DEVICE
100
AcDbLine
 62
7
  6
CONTINUOUS
 10
430.1709536139
 20
87.9816310799
 11
426.4181751145
 21
94.4816341106
  0
LINE
  5
5F7
100
AcDbEntity
  8
BASIC_DEVICE
100
AcDbLine
 62
7
  6
CONTINUOUS
 10
437.6765106129
 20
100.9816371412
 11
441.4292891124
 21
94.4816341106
  0
LINE
  5
5F8
100
AcDbEntity
  8
CAGE_COMMANDE
100
AcDbLine
 62
7
  6
CONTINUOUS
 10
234.5166363338
 20
100.9316310799
 11
236.7105673567
 21
104.7316310799
  0
LINE
  5
5F9
100
AcDbEntity
  8
CAGE_COMMANDE
100
AcDbLine
 62
7
  6
CONTINUOUS
 10
221.6958111591
 20
140.417693237
 11
221.407581535
 21
140.1283947763
  0
LINE
  5
5FA
100
AcDbEntity
  8
CAGE_COMMANDE
100
AcDbLine
 62
7
  6
CONTINUOUS
 10
196.050136266
 20
149.5737369488
 11
196.2400959898
 21
149.7117030017
  0
LINE
  5
5FB
100
AcDbEntity
  8
CAGE_COMMANDE
100
AcDbLine
 62
7
  6
CONTINUOUS
 10
185.7986877619
 20
133.4260010454
 11
185.6859604892
 21
133.3475646242
  0
LINE
  5
5FC
100
AcDbEntity
  8
CAGE_COMMANDE
100
AcDbLine
 62
7
  6
CONTINUOUS
 10
185.3021615824
 20
149.2978048429
 11
185.4616207309
 21
149.4067864309
  0
LINE
  5
5FD
100
AcDbEntity
  8
BASIC_DEVICE
100
AcDbLine
 62
7
  6
CONTINUOUS
 10
379.9237321134
 20
340.6788595714
 11
487.9237321134
 21
340.6788595714
  0
LINE
  5
5FE
100
AcDbEntity
  8
CAGE_COMMANDE
100
AcDbLine
 62
7
  6
CONTINUOUS
 10
487.9237321134
 20
340.6788595714
 11
524.1237321134
 21
340.6788595714
  0
LINE
  5
5FF
100
AcDbEntity
  8
TERMINAL_SCHROUD
100
AcDbLine
 62
2
  6
CONTINUOUS
 10
380.4237321134
 20
341.6788595714
 11
382.4237321134
 21
341.6788595714
  0
LINE
  5
600
100
AcDbEntity
  8
TERMINAL_SCHROUD
100
AcDbLine
 62
2
  6
CONTINUOUS
 10
413.4237321134
 20
341.6788595714
 11
415.4237321134
 21
341.6788595714
  0
LINE
  5
601
100
AcDbEntity
  8
TERMINAL_SCHROUD
100
AcDbLine
 62
2
  6
CONTINUOUS
 10
416.4237321134
 20
341.6788595714
 11
418.4237321134
 21
341.6788595714
  0
LINE
  5
602
100
AcDbEntity
  8
TERMINAL_SCHROUD
100
AcDbLine
 62
2
  6
CONTINUOUS
 10
449.4237321134
 20
341.6788595714
 11
451.4237321134
 21
341.6788595714
  0
LINE
  5
603
100
AcDbEntity
  8
TERMINAL_SCHROUD
100
AcDbLine
 62
2
  6
CONTINUOUS
 10
452.4237321134
 20
341.6788595714
 11
454.4237321134
 21
341.6788595714
  0
LINE
  5
604
100
AcDbEntity
  8
TERMINAL_SCHROUD
100
AcDbLine
 62
2
  6
CONTINUOUS
 10
485.4237321134
 20
341.6788595714
 11
487.4237321134
 21
341.6788595714
  0
LINE
  5
605
100
AcDbEntity
  8
CAGE_COMMANDE
100
AcDbLine
 62
7
  6
CONTINUOUS
 10
497.6237321134
 20
347.3788595714
 11
507.9237321134
 21
347.3788595714
  0
LINE
  5
606
100
AcDbEntity
  8
BASIC_DEVICE
100
AcDbLine
 62
7
  6
CONTINUOUS
 10
379.9237321134
 20
349.6788595474
 11
487.9237321134
 21
349.6788595474
  0
LINE
  5
607
100
AcDbEntity
  8
CAGE_COMMANDE
100
AcDbLine
 62
7
  6
CONTINUOUS
 10
501.0237321134
 20
137.9816310799
 11
502.5237321134
 21
136.4816310799
  0
LINE
  5
608
100
AcDbEntity
  8
DIRECT_HANDLE
100
AcDbLine
 62
7
  6
CONTINUOUS
 10
496.9379456758
 20
147.0674175176
 11
490.2402899128
 21
153.7650732806
  0
LINE
  5
609
100
AcDbEntity
  8
CAGE_COMMANDE
100
AcDbLine
 62
7
  6
CONTINUOUS
 10
511.0237321134
 20
144.9816310799
 11
509.5237321134
 21
146.4816310799
  0
LINE
  5
60A
100
AcDbEntity
  8
CAGE_COMMANDE
100
AcDbLine
 62
7
  6
CONTINUOUS
 10
505.2865331028
 20
126.0059554043
 11
497.9145429963
 21
134.0491986475
  0
LINE
  5
60B
100
AcDbEntity
  8
BASIC_DEVICE
100
AcDbLine
 62
7
  6
CONTINUOUS
 10
394.1709536139
 20
181.9816250187
 11
390.4181751144
 21
188.4816280493
  0
LINE
  5
60C
100
AcDbEntity
  8
BASIC_DEVICE
100
AcDbLine
 62
7
  6
CONTINUOUS
 10
401.6765106129
 20
194.9816310799
 11
405.4292891123
 21
188.4816280493
  0
LINE
  5
60D
100
AcDbEntity
  8
BASIC_DEVICE
100
AcDbLine
 62
7
  6
CONTINUOUS
 10
466.1709536139
 20
87.9816310799
 11
462.4181751145
 21
94.4816341106
  0
LINE
  5
60E
100
AcDbEntity
  8
CAGE_COMMANDE
100
AcDbLine
 62
7
  6
CONTINUOUS
 10
505.0237321134
 20
402.8788595714
 11
506.0237321134
 21
403.8788595714
  0
LINE
  5
60F
100
AcDbEntity
  8
CAGE_COMMANDE
100
AcDbLine
 62
7
  6
CONTINUOUS
 10
506.0237321134
 20
399.4288595714
 11
507.0237321134
 21
400.4288595714
  0
LINE
  5
610
100
AcDbEntity
  8
CAGE_COMMANDE
100
AcDbLine
 62
7
  6
CONTINUOUS
 10
221.407581535
 20
140.1283947763
 11
221.0523269443
 21
139.8515660768
  0
LINE
  5
611
100
AcDbEntity
  8
COVER_FUSE
100
AcDbLine
 62
6
  6
CONTINUOUS
 10
179.8227053108
 20
99.5378637233
 11
174.3227053108
 21
95.4816310799
  0
LINE
  5
612
100
AcDbEntity
  8
CAGE_COMMANDE
100
AcDbLine
 62
7
  6
CONTINUOUS
 10
187.5159504202
 20
128.5954055333
 11
187.3123457021
 21
128.4665361432
  0
LINE
  5
613
100
AcDbEntity
  8
CAGE_COMMANDE
100
AcDbLine
 62
7
  6
CONTINUOUS
 10
221.0523269443
 20
139.8515660768
 11
220.6334320363
 21
139.5899682999
  0
LINE
  5
614
100
AcDbEntity
  8
CAGE_COMMANDE
100
AcDbLine
 62
7
  6
CONTINUOUS
 10
184.7920350001
 20
132.7919101363
 11
185.3735079576
 21
133.1440936806
  0
LINE
  5
615
100
AcDbEntity
  8
CAGE_COMMANDE
100
AcDbLine
 62
7
  6
CONTINUOUS
 10
195.3310539875
 20
130.820788157
 11
189.1366725145
 21
127.215834187
  0
LINE
  5
616
100
AcDbEntity
  8
CAGE_COMMANDE
100
AcDbLine
 62
7
  6
CONTINUOUS
 10
218.6099015312
 20
144.0630943308
 11
218.5262650612
 21
144.0167780748
  0
LINE
  5
617
100
AcDbEntity
  8
CAGE_COMMANDE
100
AcDbLine
 62
7
  6
CONTINUOUS
 10
185.9588157826
 20
133.5088520236
 11
185.7986877619
 21
133.4260010454
  0
LINE
  5
618
100
AcDbEntity
  8
TERMINAL_SCHROUD
100
AcDbLine
 62
2
  6
CONTINUOUS
 10
400.0190493677
 20
241.6633881454
 11
396.9729405685
 21
240.1684236942
  0
LINE
  5
619
100
AcDbEntity
  8
TERMINAL_SCHROUD
100
AcDbLine
 62
2
  6
CONTINUOUS
 10
395.4913805095
 20
238.3600509278
 11
398.590117757
 21
239.8808442855
  0
LINE
  5
61A
100
AcDbEntity
  8
CAGE_COMMANDE
100
AcDbLine
 62
7
  6
CONTINUOUS
 10
185.4616207309
 20
149.4067864309
 11
185.5683727447
 21
149.4536966726
  0
LINE
  5
61B
100
AcDbEntity
  8
CAGE_COMMANDE
100
AcDbLine
 62
7
  6
CONTINUOUS
 10
195.9134187746
 20
149.5207176737
 11
196.050136266
 21
149.5737369488
  0
LINE
  5
61C
100
AcDbEntity
  8
BASIC_DEVICE
100
AcDbLine
 62
7
  6
CONTINUOUS
 10
276.8227053108
 20
184.1611230043
 11
267.8227053108
 21
181.4816310799
  0
LINE
  5
61D
100
AcDbEntity
  8
TERMINAL_SCHROUD
100
AcDbLine
 62
2
  6
CONTINUOUS
 10
487.4237321134
 20
354.1788595714
 11
484.4237321134
 21
354.1788595714
  0
LINE
  5
61E
100
AcDbEntity
  8
TERMINAL_SCHROUD
100
AcDbLine
 62
2
  6
CONTINUOUS
 10
451.4237321134
 20
354.1788595714
 11
448.4237321134
 21
354.1788595714
  0
LINE
  5
61F
100
AcDbEntity
  8
TERMINAL_SCHROUD
100
AcDbLine
 62
2
  6
CONTINUOUS
 10
415.4237321134
 20
354.1788595714
 11
412.4237321134
 21
354.1788595714
  0
LINE
  5
620
100
AcDbEntity
  8
TERMINAL_SCHROUD
100
AcDbLine
 62
2
  6
CONTINUOUS
 10
380.4237321134
 20
354.1788595714
 11
383.4237321134
 21
354.1788595714
  0
LINE
  5
621
100
AcDbEntity
  8
TERMINAL_SCHROUD
100
AcDbLine
 62
2
  6
CONTINUOUS
 10
416.4237321134
 20
354.1788595714
 11
419.4237321134
 21
354.1788595714
  0
LINE
  5
622
100
AcDbEntity
  8
TERMINAL_SCHROUD
100
AcDbLine
 62
2
  6
CONTINUOUS
 10
452.4237321134
 20
354.1788595714
 11
455.4237321134
 21
354.1788595714
  0
LINE
  5
623
100
AcDbEntity
  8
BASIC_DEVICE
100
AcDbLine
 62
7
  6
CONTINUOUS
 10
387.5237321134
 20
357.6788595714
 11
408.3237321134
 21
357.6788595714
  0
LINE
  5
624
100
AcDbEntity
  8
BASIC_DEVICE
100
AcDbLine
 62
7
  6
CONTINUOUS
 10
423.5237321134
 20
357.6788595714
 11
444.3237321134
 21
357.6788595714
  0
LINE
  5
625
100
AcDbEntity
  8
BASIC_DEVICE
100
AcDbLine
 62
7
  6
CONTINUOUS
 10
459.5237321134
 20
357.6788595714
 11
480.3237321134
 21
357.6788595714
  0
LINE
  5
626
100
AcDbEntity
  8
CONTACT
100
AcDbLine
 62
40
  6
CONTINUOUS
 10
479.9237321134
 20
358.1788595714
 11
459.9237321134
 21
358.1788595714
  0
LINE
  5
627
100
AcDbEntity
  8
CONTACT
100
AcDbLine
 62
40
  6
CONTINUOUS
 10
443.9237321134
 20
358.1788595714
 11
423.9237321134
 21
358.1788595714
  0
LINE
  5
628
100
AcDbEntity
  8
CONTACT
100
AcDbLine
 62
40
  6
CONTINUOUS
 10
407.9237321134
 20
358.1788595714
 11
387.9237321134
 21
358.1788595714
  0
LINE
  5
629
100
AcDbEntity
  8
CAGE_COMMANDE
100
AcDbLine
 62
7
  6
CONTINUOUS
 10
497.6237321134
 20
359.3788595714
 11
507.9237321134
 21
359.3788595714
  0
LINE
  5
62A
100
AcDbEntity
  8
BASIC_DEVICE
100
AcDbLine
 62
7
  6
CONTINUOUS
 10
482.8237321134
 20
359.6788595714
 11
480.3237321134
 21
359.6788595714
  0
LINE
  5
62B
100
AcDbEntity
  8
BASIC_DEVICE
100
AcDbLine
 62
7
  6
CONTINUOUS
 10
446.8237321134
 20
359.6788595714
 11
444.3237321134
 21
359.6788595714
  0
LINE
  5
62C
100
AcDbEntity
  8
BASIC_DEVICE
100
AcDbLine
 62
7
  6
CONTINUOUS
 10
410.8237321134
 20
359.6788595714
 11
408.3237321134
 21
359.6788595714
  0
LINE
  5
62D
100
AcDbEntity
  8
BASIC_DEVICE
100
AcDbLine
 62
7
  6
CONTINUOUS
 10
385.0237321134
 20
359.6788595714
 11
387.5237321134
 21
359.6788595714
  0
LINE
  5
62E
100
AcDbEntity
  8
BASIC_DEVICE
100
AcDbLine
 62
7
  6
CONTINUOUS
 10
421.0237321134
 20
359.6788595714
 11
423.5237321134
 21
359.6788595714
  0
LINE
  5
62F
100
AcDbEntity
  8
BASIC_DEVICE
100
AcDbLine
 62
7
  6
CONTINUOUS
 10
457.0237321134
 20
359.6788595714
 11
459.5237321134
 21
359.6788595714
  0
LINE
  5
630
100
AcDbEntity
  8
CONTACT
100
AcDbLine
 62
40
  6
CONTINUOUS
 10
387.9237321134
 20
360.6788595714
 11
407.9237321134
 21
360.6788595714
  0
LINE
  5
631
100
AcDbEntity
  8
BASIC_DEVICE
100
AcDbLine
 62
7
  6
CONTINUOUS
 10
387.5237321134
 20
360.6788595714
 11
408.3237321134
 21
360.6788595714
  0
LINE
  5
632
100
AcDbEntity
  8
BASIC_DEVICE
100
AcDbLine
 62
7
  6
CONTINUOUS
 10
423.5237321134
 20
360.6788595714
 11
444.3237321134
 21
360.6788595714
  0
LINE
  5
633
100
AcDbEntity
  8
CONTACT
100
AcDbLine
 62
40
  6
CONTINUOUS
 10
423.9237321134
 20
360.6788595714
 11
443.9237321134
 21
360.6788595714
  0
LINE
  5
634
100
AcDbEntity
  8
BASIC_DEVICE
100
AcDbLine
 62
7
  6
CONTINUOUS
 10
459.5237321134
 20
360.6788595714
 11
480.3237321134
 21
360.6788595714
  0
LINE
  5
635
100
AcDbEntity
  8
CONTACT
100
AcDbLine
 62
40
  6
CONTINUOUS
 10
459.9237321134
 20
360.6788595714
 11
479.9237321134
 21
360.6788595714
  0
LINE
  5
636
100
AcDbEntity
  8
TERMINAL_SCHROUD
100
AcDbLine
 62
2
  6
CONTINUOUS
 10
484.4237321134
 20
365.6788595714
 11
479.9237321134
 21
365.6788595714
  0
LINE
  5
637
100
AcDbEntity
  8
TERMINAL_SCHROUD
100
AcDbLine
 62
2
  6
CONTINUOUS
 10
448.4237321134
 20
365.6788595714
 11
443.9237321134
 21
365.6788595714
  0
LINE
  5
638
100
AcDbEntity
  8
TERMINAL_SCHROUD
100
AcDbLine
 62
2
  6
CONTINUOUS
 10
412.4237321134
 20
365.6788595714
 11
407.9237321134
 21
365.6788595714
  0
LINE
  5
639
100
AcDbEntity
  8
TERMINAL_SCHROUD
100
AcDbLine
 62
2
  6
CONTINUOUS
 10
383.4237321134
 20
365.6788595714
 11
387.9237321134
 21
365.6788595714
  0
LINE
  5
63A
100
AcDbEntity
  8
TERMINAL_SCHROUD
100
AcDbLine
 62
2
  6
CONTINUOUS
 10
419.4237321134
 20
365.6788595714
 11
423.9237321134
 21
365.6788595714
  0
LINE
  5
63B
100
AcDbEntity
  8
TERMINAL_SCHROUD
100
AcDbLine
 62
2
  6
CONTINUOUS
 10
455.4237321134
 20
365.6788595714
 11
459.9237321134
 21
365.6788595714
  0
LINE
  5
63C
100
AcDbEntity
  8
TERMINAL_SCHROUD
100
AcDbLine
 62
2
  6
CONTINUOUS
 10
387.9237321134
 20
366.6788595714
 11
391.1737321134
 21
366.6788595714
  0
LINE
  5
63D
100
AcDbEntity
  8
TERMINAL_SCHROUD
100
AcDbLine
 62
2
  6
CONTINUOUS
 10
404.6737321134
 20
366.6788595714
 11
407.9237321134
 21
366.6788595714
  0
LINE
  5
63E
100
AcDbEntity
  8
TERMINAL_SCHROUD
100
AcDbLine
 62
2
  6
CONTINUOUS
 10
423.9237321134
 20
366.6788595714
 11
427.1737321134
 21
366.6788595714
  0
LINE
  5
63F
100
AcDbEntity
  8
TERMINAL_SCHROUD
100
AcDbLine
 62
2
  6
CONTINUOUS
 10
440.6737321134
 20
366.6788595714
 11
443.9237321134
 21
366.6788595714
  0
LINE
  5
640
100
AcDbEntity
  8
TERMINAL_SCHROUD
100
AcDbLine
 62
2
  6
CONTINUOUS
 10
459.9237321134
 20
366.6788595714
 11
463.1737321134
 21
366.6788595714
  0
LINE
  5
641
100
AcDbEntity
  8
TERMINAL_SCHROUD
100
AcDbLine
 62
2
  6
CONTINUOUS
 10
476.6737321134
 20
366.6788595714
 11
479.9237321134
 21
366.6788595714
  0
LINE
  5
642
100
AcDbEntity
  8
BASIC_DEVICE
100
AcDbLine
 62
7
  6
CONTINUOUS
 10
457.0237321134
 20
367.1788595714
 11
453.7237321134
 21
367.1788595714
  0
LINE
  5
643
100
AcDbEntity
  8
BASIC_DEVICE
100
AcDbLine
 62
7
  6
CONTINUOUS
 10
421.0237321134
 20
367.1788595714
 11
417.7237321134
 21
367.1788595714
  0
LINE
  5
644
100
AcDbEntity
  8
BASIC_DEVICE
100
AcDbLine
 62
7
  6
CONTINUOUS
 10
385.0237321134
 20
367.1788595714
 11
381.7237321134
 21
367.1788595714
  0
LINE
  5
645
100
AcDbEntity
  8
BASIC_DEVICE
100
AcDbLine
 62
7
  6
CONTINUOUS
 10
410.8237321134
 20
367.1788595714
 11
414.1237321134
 21
367.1788595714
  0
LINE
  5
646
100
AcDbEntity
  8
BASIC_DEVICE
100
AcDbLine
 62
7
  6
CONTINUOUS
 10
446.8237321134
 20
367.1788595714
 11
450.1237321134
 21
367.1788595714
  0
LINE
  5
647
100
AcDbEntity
  8
BASIC_DEVICE
100
AcDbLine
 62
7
  6
CONTINUOUS
 10
482.8237321134
 20
367.1788595714
 11
486.1237321134
 21
367.1788595714
  0
LINE
  5
648
100
AcDbEntity
  8
BASIC_DEVICE
100
AcDbLine
 62
7
  6
CONTINUOUS
 10
389.9237321134
 20
367.6788595714
 11
405.9237321134
 21
367.6788595714
  0
LINE
  5
649
100
AcDbEntity
  8
BASIC_DEVICE
100
AcDbLine
 62
7
  6
CONTINUOUS
 10
425.9237321134
 20
367.6788595714
 11
441.9237321134
 21
367.6788595714
  0
LINE
  5
64A
100
AcDbEntity
  8
BASIC_DEVICE
100
AcDbLine
 62
7
  6
CONTINUOUS
 10
461.9237321134
 20
367.6788595714
 11
477.9237321134
 21
367.6788595714
  0
LINE
  5
64B
100
AcDbEntity
  8
TERMINAL_SCHROUD
100
AcDbLine
 62
2
  6
CONTINUOUS
 10
387.9237321134
 20
368.8788595714
 11
389.9737321134
 21
368.8788595714
  0
LINE
  5
64C
100
AcDbEntity
  8
TERMINAL_SCHROUD
100
AcDbLine
 62
2
  6
CONTINUOUS
 10
405.8737321134
 20
368.8788595714
 11
407.9237321134
 21
368.8788595714
  0
LINE
  5
64D
100
AcDbEntity
  8
TERMINAL_SCHROUD
100
AcDbLine
 62
2
  6
CONTINUOUS
 10
423.9237321134
 20
368.8788595714
 11
425.9737321134
 21
368.8788595714
  0
LINE
  5
64E
100
AcDbEntity
  8
TERMINAL_SCHROUD
100
AcDbLine
 62
2
  6
CONTINUOUS
 10
441.8737321134
 20
368.8788595714
 11
443.9237321134
 21
368.8788595714
  0
LINE
  5
64F
100
AcDbEntity
  8
TERMINAL_SCHROUD
100
AcDbLine
 62
2
  6
CONTINUOUS
 10
459.9237321134
 20
368.8788595714
 11
461.9737321134
 21
368.8788595714
  0
LINE
  5
650
100
AcDbEntity
  8
TERMINAL_SCHROUD
100
AcDbLine
 62
2
  6
CONTINUOUS
 10
477.8737321134
 20
368.8788595714
 11
479.9237321134
 21
368.8788595714
  0
LINE
  5
651
100
AcDbEntity
  8
AXIS
100
AcDbLine
 62
4
  6
AM_ISO08W050
 10
527.1237321134
 20
371.6788595714
 11
484.9237321134
 21
371.6788595714
  0
LINE
  5
652
100
AcDbEntity
  8
BASIC_DEVICE
100
AcDbLine
 62
7
  6
CONTINUOUS
 10
389.9237321134
 20
371.6788595714
 11
405.9237321134
 21
371.6788595714
  0
LINE
  5
653
100
AcDbEntity
  8
BASIC_DEVICE
100
AcDbLine
 62
7
  6
CONTINUOUS
 10
425.9237321134
 20
371.6788595714
 11
441.9237321134
 21
371.6788595714
  0
LINE
  5
654
100
AcDbEntity
  8
BASIC_DEVICE
100
AcDbLine
 62
7
  6
CONTINUOUS
 10
461.9237321134
 20
371.6788595714
 11
477.9237321134
 21
371.6788595714
  0
LINE
  5
655
100
AcDbEntity
  8
TERMINAL_SCHROUD
100
AcDbLine
 62
2
  6
CONTINUOUS
 10
391.9237321134
 20
372.1788595714
 11
403.9237321134
 21
372.1788595714
  0
LINE
  5
656
100
AcDbEntity
  8
TERMINAL_SCHROUD
100
AcDbLine
 62
2
  6
CONTINUOUS
 10
427.9237321134
 20
372.1788595714
 11
439.9237321134
 21
372.1788595714
  0
LINE
  5
657
100
AcDbEntity
  8
TERMINAL_SCHROUD
100
AcDbLine
 62
2
  6
CONTINUOUS
 10
463.9237321134
 20
372.1788595714
 11
475.9237321134
 21
372.1788595714
  0
LINE
  5
658
100
AcDbEntity
  8
BASIC_DEVICE
100
AcDbLine
 62
7
  6
CONTINUOUS
 10
387.9237321134
 20
375.6788595714
 11
407.9237321134
 21
375.6788595714
  0
LINE
  5
659
100
AcDbEntity
  8
BASIC_DEVICE
100
AcDbLine
 62
7
  6
CONTINUOUS
 10
423.9237321134
 20
375.6788595714
 11
443.9237321134
 21
375.6788595714
  0
LINE
  5
65A
100
AcDbEntity
  8
BASIC_DEVICE
100
AcDbLine
 62
7
  6
CONTINUOUS
 10
459.9237321134
 20
375.6788595714
 11
479.9237321134
 21
375.6788595714
  0
LINE
  5
65B
100
AcDbEntity
  8
AM_12
100
AcDbLine
 62
4
  6
CONTINUOUS
 10
523.5720909644
 20
147.1927585547
 11
527.0720909644
 21
143.6927585547
  0
LINE
  5
65C
100
AcDbEntity
  8
BASIC_DEVICE
100
AcDbLine
 62
7
  6
CONTINUOUS
 10
473.6765106129
 20
100.9816371412
 11
477.4292891124
 21
94.4816341106
  0
LINE
  5
65D
100
AcDbEntity
  8
BASIC_DEVICE
100
AcDbLine
 62
7
  6
CONTINUOUS
 10
430.1709536139
 20
181.9816250187
 11
426.4181751144
 21
188.4816280493
  0
LINE
  5
65E
100
AcDbEntity
  8
TERMINAL_SCHROUD
100
AcDbLine
 62
2
  6
CONTINUOUS
 10
398.0596800118
 20
248.5793634365
 11
407.5598986887
 21
232.1123177299
  0
LINE
  5
65F
100
AcDbEntity
  8
TERMINAL_SCHROUD
100
AcDbLine
 62
2
  6
CONTINUOUS
 10
407.910219445
 20
232.3144258586
 11
398.4100007681
 21
248.7814715651
  0
LINE
  5
660
100
AcDbEntity
  8
0
100
AcDbLine
 62
7
  6
CONTINUOUS
 10
375.9237321134
 20
389.1788595714
 11
375.9237321134
 21
381.1788595714
  0
LINE
  5
661
100
AcDbEntity
  8
0
100
AcDbLine
 62
7
  6
CONTINUOUS
 10
375.9237321134
 20
182.2316310799
 11
375.9237321134
 21
174.2316310799
  0
LINE
  5
662
100
AcDbEntity
  8
0
100
AcDbLine
 62
7
  6
CONTINUOUS
 10
375.9237321134
 20
108.7316310799
 11
375.9237321134
 21
100.7316310799
  0
LINE
  5
663
100
AcDbEntity
  8
COVER_FUSE
100
AcDbLine
 62
6
  6
CONTINUOUS
 10
379.9237321134
 20
464.6788595714
 11
379.9237321134
 21
437.6788595714
  0
LINE
  5
664
100
AcDbEntity
  8
BASIC_DEVICE
100
AcDbLine
 62
7
  6
CONTINUOUS
 10
379.9237321134
 20
447.1788595714
 11
379.9237321134
 21
340.6788595714
  0
LINE
  5
665
100
AcDbEntity
  8
COVER_FUSE
100
AcDbLine
 62
6
  6
CONTINUOUS
 10
379.9237321134
 20
182.4816310799
 11
379.9237321134
 21
100.4816310799
  0
LINE
  5
666
100
AcDbEntity
  8
0
100
AcDbLine
 62
7
  6
CONTINUOUS
 10
379.9237321134
 20
100.7316310799
 11
379.9237321134
 21
108.7316310799
  0
LINE
  5
667
100
AcDbEntity
  8
0
100
AcDbLine
 62
7
  6
CONTINUOUS
 10
379.9237321134
 20
174.2316310799
 11
379.9237321134
 21
182.2316310799
  0
LINE
  5
668
100
AcDbEntity
  8
BASIC_DEVICE
100
AcDbLine
 62
7
  6
CONTINUOUS
 10
379.9237321134
 20
98.4816310799
 11
379.9237321134
 21
184.4816310799
  0
LINE
  5
669
100
AcDbEntity
  8
0
100
AcDbLine
 62
7
  6
CONTINUOUS
 10
379.9237321134
 20
381.1788595714
 11
379.9237321134
 21
389.1788595714
  0
LINE
  5
66A
100
AcDbEntity
  8
TERMINAL_SCHROUD
100
AcDbLine
 62
2
  6
CONTINUOUS
 10
380.4237321134
 20
385.1788595714
 11
380.4237321134
 21
341.6788595714
  0
LINE
  5
66B
100
AcDbEntity
  8
TERMINAL_SCHROUD
100
AcDbLine
 62
2
  6
CONTINUOUS
 10
380.4237321134
 20
273.9816310799
 11
380.4237321134
 21
217.4816310799
  0
LINE
  5
66C
100
AcDbEntity
  8
BASIC_DEVICE
100
AcDbLine
 62
7
  6
CONTINUOUS
 10
381.7237321134
 20
367.1788595714
 11
381.7237321134
 21
376.1788595714
  0
LINE
  5
66D
100
AcDbEntity
  8
BASIC_DEVICE
100
AcDbLine
 62
7
  6
CONTINUOUS
 10
381.9237321134
 20
106.4816310799
 11
381.9237321134
 21
178.9816310799
  0
LINE
  5
66E
100
AcDbEntity
  8
COVER_FUSE
100
AcDbLine
 62
6
  6
CONTINUOUS
 10
381.9237321134
 20
437.6788595714
 11
381.9237321134
 21
447.6788595714
  0
LINE
  5
66F
100
AcDbEntity
  8
TERMINAL_SCHROUD
100
AcDbLine
 62
2
  6
CONTINUOUS
 10
382.4237321134
 20
341.6788595714
 11
382.4237321134
 21
354.1788595714
  0
LINE
  5
670
100
AcDbEntity
  8
BASIC_DEVICE
100
AcDbLine
 62
7
  6
CONTINUOUS
 10
382.6237321134
 20
95.4816310799
 11
382.6237321134
 21
63.9816310799
  0
LINE
  5
671
100
AcDbEntity
  8
BASIC_DEVICE
100
AcDbLine
 62
7
  6
CONTINUOUS
 10
382.6237321134
 20
187.4816310799
 11
382.6237321134
 21
218.9816310799
  0
LINE
  5
672
100
AcDbEntity
  8
BASIC_DEVICE
100
AcDbLine
 62
7
  6
CONTINUOUS
 10
382.6237321134
 20
340.6788595714
 11
382.6237321134
 21
349.6788595474
  0
LINE
  5
673
100
AcDbEntity
  8
COVER_FUSE
100
AcDbLine
 62
6
  6
CONTINUOUS
 10
382.9237321134
 20
454.1788595714
 11
382.9237321134
 21
431.1788595714
  0
LINE
  5
674
100
AcDbEntity
  8
COVER_FUSE
100
AcDbLine
 62
6
  6
CONTINUOUS
 10
382.9237321134
 20
82.4816310799
 11
382.9237321134
 21
94.4816310799
  0
LINE
  5
675
100
AcDbEntity
  8
FUSE
100
AcDbLine
 62
3
  6
CONTINUOUS
 10
382.9237321134
 20
114.4816310799
 11
382.9237321134
 21
168.4816310799
  0
LINE
  5
676
100
AcDbEntity
  8
BASIC_DEVICE
100
AcDbLine
 62
7
  6
CONTINUOUS
 10
383.2237321134
 20
440.1788595714
 11
383.2237321134
 21
434.1788595714
  0
LINE
  5
677
100
AcDbEntity
  8
BASIC_DEVICE
100
AcDbLine
 62
7
  6
CONTINUOUS
 10
383.2237321134
 20
197.4816310799
 11
383.2237321134
 21
191.4816310799
  0
LINE
  5
678
100
AcDbEntity
  8
BASIC_DEVICE
100
AcDbLine
 62
7
  6
CONTINUOUS
 10
383.2237321134
 20
85.4816310799
 11
383.2237321134
 21
91.4816310799
  0
LINE
  5
679
100
AcDbEntity
  8
TERMINAL_SCHROUD
100
AcDbLine
 62
2
  6
CONTINUOUS
 10
383.4237321134
 20
217.4816310799
 11
383.4237321134
 21
198.4816310799
  0
LINE
  5
67A
100
AcDbEntity
  8
TERMINAL_SCHROUD
100
AcDbLine
 62
2
  6
CONTINUOUS
 10
383.4237321134
 20
354.1788595714
 11
383.4237321134
 21
365.6788595714
  0
LINE
  5
67B
100
AcDbEntity
  8
COVER_FUSE
100
AcDbLine
 62
6
  6
CONTINUOUS
 10
384.9237321134
 20
182.4816310799
 11
384.9237321134
 21
203.9816310799
  0
LINE
  5
67C
100
AcDbEntity
  8
TERMINAL_SCHROUD
100
AcDbLine
 62
2
  6
CONTINUOUS
 10
384.9237321134
 20
273.9816310799
 11
384.9237321134
 21
275.4816310799
  0
LINE
  5
67D
100
AcDbEntity
  8
COVER_FUSE
100
AcDbLine
 62
6
  6
CONTINUOUS
 10
384.9237321134
 20
456.1788595714
 11
384.9237321134
 21
464.6788595714
  0
LINE
  5
67E
100
AcDbEntity
  8
COVER_FUSE
100
AcDbLine
 62
6
  6
CONTINUOUS
 10
385.0237321134
 20
100.4816310799
 11
385.0237321134
 21
82.4816310799
  0
LINE
  5
67F
100
AcDbEntity
  8
BASIC_DEVICE
100
AcDbLine
 62
7
  6
CONTINUOUS
 10
385.0237321134
 20
60.4816310799
 11
385.0237321134
 21
100.4816310799
  0
LINE
  5
680
100
AcDbEntity
  8
BASIC_DEVICE
100
AcDbLine
 62
7
  6
CONTINUOUS
 10
385.0237321134
 20
181.4816310799
 11
385.0237321134
 21
222.4816310799
  0
LINE
  5
681
100
AcDbEntity
  8
COVER_FUSE
100
AcDbLine
 62
6
  6
CONTINUOUS
 10
385.0237321134
 20
431.1788595714
 11
385.0237321134
 21
445.1788595714
  0
LINE
  5
682
100
AcDbEntity
  8
BASIC_DEVICE
100
AcDbLine
 62
7
  6
CONTINUOUS
 10
385.0237321134
 20
349.6788595474
 11
385.0237321134
 21
447.1788595714
  0
LINE
  5
683
100
AcDbEntity
  8
TERMINAL_SCHROUD
100
AcDbLine
 62
2
  6
CONTINUOUS
 10
385.9237321134
 20
247.9816310799
 11
385.9237321134
 21
273.9816310799
  0
LINE
  5
684
100
AcDbEntity
  8
SUPPORT_FUSE
100
AcDbLine
 62
40
  6
CONTINUOUS
 10
386.4237321134
 20
112.9816310799
 11
386.4237321134
 21
110.9816310799
  0
LINE
  5
685
100
AcDbEntity
  8
SUPPORT_FUSE
100
AcDbLine
 62
40
  6
CONTINUOUS
 10
386.4237321134
 20
169.9816310799
 11
386.4237321134
 21
171.9816310799
  0
LINE
  5
686
100
AcDbEntity
  8
BASIC_DEVICE
100
AcDbLine
 62
7
  6
CONTINUOUS
 10
386.9237321134
 20
119.4816310799
 11
386.9237321134
 21
121.4816310799
  0
LINE
  5
687
100
AcDbEntity
  8
BASIC_DEVICE
100
AcDbLine
 62
7
  6
CONTINUOUS
 10
386.9237321134
 20
161.4816310799
 11
386.9237321134
 21
163.4816310799
  0
LINE
  5
688
100
AcDbEntity
  8
COVER_FUSE
100
AcDbLine
 62
6
  6
CONTINUOUS
 10
387.1237321134
 20
456.1788595714
 11
387.1237321134
 21
460.1788595714
  0
LINE
  5
689
100
AcDbEntity
  8
BASIC_DEVICE
100
AcDbLine
 62
7
  6
CONTINUOUS
 10
387.4237321134
 20
419.1788595714
 11
387.4237321134
 21
415.1788595714
  0
LINE
  5
68A
100
AcDbEntity
  8
BASIC_DEVICE
100
AcDbLine
 62
7
  6
CONTINUOUS
 10
387.4237321134
 20
409.1788595714
 11
387.4237321134
 21
405.6788595714
  0
LINE
  5
68B
100
AcDbEntity
  8
BASIC_DEVICE
100
AcDbLine
 62
7
  6
CONTINUOUS
 10
387.4237321134
 20
84.9816310799
 11
387.4237321134
 21
106.4816310799
  0
LINE
  5
68C
100
AcDbEntity
  8
BASIC_DEVICE
100
AcDbLine
 62
7
  6
CONTINUOUS
 10
387.4237321134
 20
178.9816310799
 11
387.4237321134
 21
197.9816310799
  0
LINE
  5
68D
100
AcDbEntity
  8
BASIC_DEVICE
100
AcDbLine
 62
7
  6
CONTINUOUS
 10
387.5237321134
 20
222.4816310799
 11
387.5237321134
 21
200.4816310799
  0
LINE
  5
68E
100
AcDbEntity
  8
BASIC_DEVICE
100
AcDbLine
 62
7
  6
CONTINUOUS
 10
387.5237321134
 20
60.4816310799
 11
387.5237321134
 21
82.4816310799
  0
LINE
  5
68F
100
AcDbEntity
  8
BASIC_DEVICE
100
AcDbLine
 62
7
  6
CONTINUOUS
 10
387.5237321134
 20
357.6788595714
 11
387.5237321134
 21
360.6788595714
  0
LINE
  5
690
100
AcDbEntity
  8
TERMINAL_SCHROUD
100
AcDbLine
 62
2
  6
CONTINUOUS
 10
387.9237321134
 20
207.3816310799
 11
387.9237321134
 21
200.8816310799
  0
LINE
  5
691
100
AcDbEntity
  8
TERMINAL_SCHROUD
100
AcDbLine
 62
2
  6
CONTINUOUS
 10
387.9237321134
 20
198.4816310799
 11
387.9237321134
 21
184.4816310799
  0
LINE
  5
692
100
AcDbEntity
  8
CONTACT
100
AcDbLine
 62
40
  6
CONTINUOUS
 10
387.9237321134
 20
82.4816310799
 11
387.9237321134
 21
64.1816310799
  0
LINE
  5
693
100
AcDbEntity
  8
BASIC_DEVICE
100
AcDbLine
 62
7
  6
CONTINUOUS
 10
387.9237321134
 20
110.9816310799
 11
387.9237321134
 21
112.9816310799
  0
LINE
  5
694
100
AcDbEntity
  8
BASIC_DEVICE
100
AcDbLine
 62
7
  6
CONTINUOUS
 10
387.9237321134
 20
169.9816310799
 11
387.9237321134
 21
171.9816310799
  0
LINE
  5
695
100
AcDbEntity
  8
CONTACT
100
AcDbLine
 62
40
  6
CONTINUOUS
 10
387.9237321134
 20
200.4816310799
 11
387.9237321134
 21
218.7816310799
  0
LINE
  5
696
100
AcDbEntity
  8
CONTACT
100
AcDbLine
 62
40
  6
CONTINUOUS
 10
387.9237321134
 20
358.1788595714
 11
387.9237321134
 21
360.6788595714
  0
LINE
  5
697
100
AcDbEntity
  8
TERMINAL_SCHROUD
100
AcDbLine
 62
2
  6
CONTINUOUS
 10
387.9237321134
 20
365.6788595714
 11
387.9237321134
 21
376.3788595714
  0
LINE
  5
698
100
AcDbEntity
  8
BASIC_DEVICE
100
AcDbLine
 62
7
  6
CONTINUOUS
 10
387.9237321134
 20
375.6788595714
 11
387.9237321134
 21
382.1788595714
  0
LINE
  5
699
100
AcDbEntity
  8
TERMINAL_SCHROUD
100
AcDbLine
 62
2
  6
CONTINUOUS
 10
387.9237321134
 20
385.1788595714
 11
387.9237321134
 21
389.1788595714
  0
LINE
  5
69A
100
AcDbEntity
  8
BASIC_DEVICE
100
AcDbLine
 62
7
  6
CONTINUOUS
 10
387.9237321134
 20
389.1788595714
 11
387.9237321134
 21
394.1788595714
  0
LINE
  5
69B
100
AcDbEntity
  8
COVER_FUSE
100
AcDbLine
 62
6
  6
CONTINUOUS
 10
387.9237321134
 20
456.1788595714
 11
387.9237321134
 21
460.1788595714
  0
LINE
  5
69C
100
AcDbEntity
  8
BASIC_DEVICE
100
AcDbLine
 62
7
  6
CONTINUOUS
 10
389.4237321134
 20
409.1788595714
 11
389.4237321134
 21
405.6788595714
  0
LINE
  5
69D
100
AcDbEntity
  8
BASIC_DEVICE
100
AcDbLine
 62
7
  6
CONTINUOUS
 10
389.4237321134
 20
415.1788595714
 11
389.4237321134
 21
419.1788595714
  0
LINE
  5
69E
100
AcDbEntity
  8
TERMINAL_SCHROUD
100
AcDbLine
 62
2
  6
CONTINUOUS
 10
389.9237321134
 20
184.4816310799
 11
389.9237321134
 21
208.4816310799
  0
LINE
  5
69F
100
AcDbEntity
  8
TERMINAL_SCHROUD
100
AcDbLine
 62
2
  6
CONTINUOUS
 10
389.9237321134
 20
273.9816310799
 11
389.9237321134
 21
275.4816310799
  0
LINE
  5
6A0
100
AcDbEntity
  8
BASIC_DEVICE
100
AcDbLine
 62
7
  6
CONTINUOUS
 10
389.9237321134
 20
367.6788595714
 11
389.9237321134
 21
371.6788595714
  0
LINE
  5
6A1
100
AcDbEntity
  8
TERMINAL_SCHROUD
100
AcDbLine
 62
2
  6
CONTINUOUS
 10
389.9237321134
 20
376.3788595714
 11
389.9237321134
 21
389.1788595714
  0
LINE
  5
6A2
100
AcDbEntity
  8
TERMINAL_SCHROUD
100
AcDbLine
 62
2
  6
CONTINUOUS
 10
389.9737321134
 20
368.8788595714
 11
389.9737321134
 21
371.4288595714
  0
LINE
  5
6A3
100
AcDbEntity
  8
BASIC_DEVICE
100
AcDbLine
 62
7
  6
CONTINUOUS
 10
390.4237321134
 20
431.1788595714
 11
390.4237321134
 21
436.1788595714
  0
LINE
  5
6A4
100
AcDbEntity
  8
BASIC_DEVICE
100
AcDbLine
 62
7
  6
CONTINUOUS
 10
390.9237321134
 20
419.1788595714
 11
390.9237321134
 21
415.1788595714
  0
LINE
  5
6A5
100
AcDbEntity
  8
MOVING
100
AcDbLine
 62
1
  6
AM_ISO02W050X2
 10
391.0237321134
 20
134.9816310799
 11
391.0237321133
 21
147.9816310799
  0
LINE
  5
6A6
100
AcDbEntity
  8
MOVING
100
AcDbLine
 62
1
  6
AM_ISO02W050X2
 10
391.0756656082
 20
516.6788595715
 11
391.0756656082
 21
535.1788595714
  0
LINE
  5
6A7
100
AcDbEntity
  8
TERMINAL_SCHROUD
100
AcDbLine
 62
2
  6
CONTINUOUS
 10
391.9237321134
 20
385.1788595714
 11
391.9237321134
 21
372.1788595714
  0
LINE
  5
6A8
100
AcDbEntity
  8
TERMINAL_SCHROUD
100
AcDbLine
 62
2
  6
CONTINUOUS
 10
391.9237321134
 20
208.4816310799
 11
391.9237321134
 21
184.4816310799
  0
LINE
  5
6A9
100
AcDbEntity
  8
TERMINAL_SCHROUD
100
AcDbLine
 62
2
  6
CONTINUOUS
 10
392.1737321134
 20
367.6788595714
 11
392.1737321134
 21
371.4288595714
  0
LINE
  5
6AA
100
AcDbEntity
  8
SUPPORT_FUSE
100
AcDbLine
 62
40
  6
CONTINUOUS
 10
393.0737321134
 20
110.9816310799
 11
393.0737321134
 21
106.9816310799
  0
LINE
  5
6AB
100
AcDbEntity
  8
SUPPORT_FUSE
100
AcDbLine
 62
40
  6
CONTINUOUS
 10
393.0737321134
 20
171.9816310799
 11
393.0737321134
 21
175.9816310799
  0
LINE
  5
6AC
100
AcDbEntity
  8
COVER_FUSE
100
AcDbLine
 62
6
  6
CONTINUOUS
 10
393.6737321134
 20
167.9816310799
 11
393.6737321134
 21
161.9816310799
  0
LINE
  5
6AD
100
AcDbEntity
  8
COVER_FUSE
100
AcDbLine
 62
6
  6
CONTINUOUS
 10
393.6737321134
 20
120.4816310799
 11
393.6737321134
 21
114.4816310799
  0
LINE
  5
6AE
100
AcDbEntity
  8
BASIC_DEVICE
100
AcDbLine
 62
7
  6
CONTINUOUS
 10
393.9237321134
 20
420.6788595714
 11
393.9237321134
 21
431.1788595714
  0
LINE
  5
6AF
100
AcDbEntity
  8
BASIC_DEVICE
100
AcDbLine
 62
7
  6
CONTINUOUS
 10
393.9237321134
 20
436.1788595714
 11
393.9237321134
 21
442.6788595714
  0
LINE
  5
6B0
100
AcDbEntity
  8
BASIC_DEVICE
100
AcDbLine
 62
7
  6
CONTINUOUS
 10
394.1737321134
 20
200.4816310799
 11
394.1737321134
 21
197.9816310799
  0
LINE
  5
6B1
100
AcDbEntity
  8
BASIC_DEVICE
100
AcDbLine
 62
7
  6
CONTINUOUS
 10
394.1737321134
 20
82.4816310799
 11
394.1737321134
 21
84.9816310799
  0
LINE
  5
6B2
100
AcDbEntity
  8
TERMINAL_SCHROUD
100
AcDbLine
 62
2
  6
CONTINUOUS
 10
394.5237321134
 20
203.6816310799
 11
394.5237321134
 21
200.8816310799
  0
LINE
  5
6B3
100
AcDbEntity
  8
FUSE
100
AcDbLine
 62
3
  6
CONTINUOUS
 10
394.9237321134
 20
114.4816310799
 11
394.9237321134
 21
102.2316310799
  0
LINE
  5
6B4
100
AcDbEntity
  8
FUSE
100
AcDbLine
 62
3
  6
CONTINUOUS
 10
394.9237321134
 20
168.4816310799
 11
394.9237321134
 21
180.7316310799
  0
LINE
  5
6B5
100
AcDbEntity
  8
SUPPORT_FUSE
100
AcDbLine
 62
40
  6
CONTINUOUS
 10
395.0737321134
 20
175.9816310799
 11
395.0737321134
 21
169.9816310799
  0
LINE
  5
6B6
100
AcDbEntity
  8
SUPPORT_FUSE
100
AcDbLine
 62
40
  6
CONTINUOUS
 10
395.0737321134
 20
106.9816310799
 11
395.0737321134
 21
112.9816310799
  0
LINE
  5
6B7
100
AcDbEntity
  8
BASIC_DEVICE
100
AcDbLine
 62
7
  6
CONTINUOUS
 10
395.9237321134
 20
169.9816310799
 11
395.9237321134
 21
163.4816310799
  0
LINE
  5
6B8
100
AcDbEntity
  8
BASIC_DEVICE
100
AcDbLine
 62
7
  6
CONTINUOUS
 10
395.9237321134
 20
161.4816310799
 11
395.9237321134
 21
141.4816310799
  0
LINE
  5
6B9
100
AcDbEntity
  8
MOVING
100
AcDbLine
 62
1
  6
AM_ISO02W050X2
 10
83.01993926
 20
44.9750805279
 11
82.3126409036
 21
44.6012770568
  0
LINE
  5
6BA
100
AcDbEntity
  8
CAGE_COMMANDE
100
AcDbLine
 62
7
  6
CONTINUOUS
 10
220.6334320363
 20
139.5899682999
 11
220.1547713442
 21
139.3458727237
  0
LINE
  5
6BB
100
AcDbEntity
  8
TERMINAL_SCHROUD
100
AcDbLine
 62
2
  6
CONTINUOUS
 10
436.0190493677
 20
241.6633881454
 11
432.9729405685
 21
240.1684236942
  0
LINE
  5
6BC
100
AcDbEntity
  8
TERMINAL_SCHROUD
100
AcDbLine
 62
2
  6
CONTINUOUS
 10
431.4913805095
 20
238.3600509278
 11
434.590117757
 21
239.8808442855
  0
LINE
  5
6BD
100
AcDbEntity
  8
CAGE_COMMANDE
100
AcDbLine
 62
7
  6
CONTINUOUS
 10
195.3310539875
 20
130.820788157
 11
195.4992530669
 21
130.8925358555
  0
LINE
  5
6BE
100
AcDbEntity
  8
CAGE_COMMANDE
100
AcDbLine
 62
7
  6
CONTINUOUS
 10
220.1547713442
 20
139.3458727237
 11
219.6207092843
 21
139.1216396957
  0
LINE
  5
6BF
100
AcDbEntity
  8
CAGE_COMMANDE
100
AcDbLine
 62
7
  6
CONTINUOUS
 10
219.6207092843
 20
139.1216396957
 11
219.3432125618
 21
139.0190759095
  0
LINE
  5
6C0
100
AcDbEntity
  8
BASIC_DEVICE
100
AcDbLine
 62
7
  6
CONTINUOUS
 10
486.1237321134
 20
376.1788595714
 11
482.8237321134
 21
376.1788595714
  0
LINE
  5
6C1
100
AcDbEntity
  8
BASIC_DEVICE
100
AcDbLine
 62
7
  6
CONTINUOUS
 10
450.1237321134
 20
376.1788595714
 11
446.8237321134
 21
376.1788595714
  0
LINE
  5
6C2
100
AcDbEntity
  8
BASIC_DEVICE
100
AcDbLine
 62
7
  6
CONTINUOUS
 10
414.1237321134
 20
376.1788595714
 11
410.8237321134
 21
376.1788595714
  0
LINE
  5
6C3
100
AcDbEntity
  8
BASIC_DEVICE
100
AcDbLine
 62
7
  6
CONTINUOUS
 10
381.7237321134
 20
376.1788595714
 11
385.0237321134
 21
376.1788595714
  0
LINE
  5
6C4
100
AcDbEntity
  8
BASIC_DEVICE
100
AcDbLine
 62
7
  6
CONTINUOUS
 10
417.7237321134
 20
376.1788595714
 11
421.0237321134
 21
376.1788595714
  0
LINE
  5
6C5
100
AcDbEntity
  8
BASIC_DEVICE
100
AcDbLine
 62
7
  6
CONTINUOUS
 10
453.7237321134
 20
376.1788595714
 11
457.0237321134
 21
376.1788595714
  0
LINE
  5
6C6
100
AcDbEntity
  8
TERMINAL_SCHROUD
100
AcDbLine
 62
2
  6
CONTINUOUS
 10
479.9237321134
 20
376.3788595714
 11
477.9237321134
 21
376.3788595714
  0
LINE
  5
6C7
100
AcDbEntity
  8
TERMINAL_SCHROUD
100
AcDbLine
 62
2
  6
CONTINUOUS
 10
443.9237321134
 20
376.3788595714
 11
441.9237321134
 21
376.3788595714
  0
LINE
  5
6C8
100
AcDbEntity
  8
TERMINAL_SCHROUD
100
AcDbLine
 62
2
  6
CONTINUOUS
 10
407.9237321134
 20
376.3788595714
 11
405.9237321134
 21
376.3788595714
  0
LINE
  5
6C9
100
AcDbEntity
  8
TERMINAL_SCHROUD
100
AcDbLine
 62
2
  6
CONTINUOUS
 10
387.9237321134
 20
376.3788595714
 11
389.9237321134
 21
376.3788595714
  0
LINE
  5
6CA
100
AcDbEntity
  8
TERMINAL_SCHROUD
100
AcDbLine
 62
2
  6
CONTINUOUS
 10
423.9237321134
 20
376.3788595714
 11
425.9237321134
 21
376.3788595714
  0
LINE
  5
6CB
100
AcDbEntity
  8
TERMINAL_SCHROUD
100
AcDbLine
 62
2
  6
CONTINUOUS
 10
459.9237321134
 20
376.3788595714
 11
461.9237321134
 21
376.3788595714
  0
LINE
  5
6CC
100
AcDbEntity
  8
TERMINAL_SCHROUD
100
AcDbLine
 62
2
  6
CONTINUOUS
 10
391.9237321134
 20
377.1788595714
 11
403.9237321134
 21
377.1788595714
  0
LINE
  5
6CD
100
AcDbEntity
  8
TERMINAL_SCHROUD
100
AcDbLine
 62
2
  6
CONTINUOUS
 10
427.9237321134
 20
377.1788595714
 11
439.9237321134
 21
377.1788595714
  0
LINE
  5
6CE
100
AcDbEntity
  8
TERMINAL_SCHROUD
100
AcDbLine
 62
2
  6
CONTINUOUS
 10
463.9237321134
 20
377.1788595714
 11
475.9237321134
 21
377.1788595714
  0
LINE
  5
6CF
100
AcDbEntity
  8
BASIC_DEVICE
100
AcDbLine
 62
7
  6
CONTINUOUS
 10
487.9237321134
 20
380.1352993209
 11
482.8237321134
 21
380.1352993209
  0
LINE
  5
6D0
100
AcDbEntity
  8
BASIC_DEVICE
100
AcDbLine
 62
7
  6
CONTINUOUS
 10
457.0237321134
 20
380.1352993209
 11
446.8237321134
 21
380.1352993209
  0
LINE
  5
6D1
100
AcDbEntity
  8
BASIC_DEVICE
100
AcDbLine
 62
7
  6
CONTINUOUS
 10
421.0237321134
 20
380.1352993209
 11
410.8237321134
 21
380.1352993209
  0
LINE
  5
6D2
100
AcDbEntity
  8
BASIC_DEVICE
100
AcDbLine
 62
7
  6
CONTINUOUS
 10
385.0237321134
 20
380.1352993209
 11
379.9237321134
 21
380.1352993209
  0
LINE
  5
6D3
100
AcDbEntity
  8
0
100
AcDbLine
 62
7
  6
CONTINUOUS
 10
375.9237321134
 20
381.1788595714
 11
379.9237321134
 21
381.1788595714
  0
LINE
  5
6D4
100
AcDbEntity
  8
TERMINAL_SCHROUD
100
AcDbLine
 62
2
  6
CONTINUOUS
 10
391.9237321134
 20
381.1788595714
 11
403.9237321134
 21
381.1788595714
  0
LINE
  5
6D5
100
AcDbEntity
  8
TERMINAL_SCHROUD
100
AcDbLine
 62
2
  6
CONTINUOUS
 10
427.9237321134
 20
381.1788595714
 11
439.9237321134
 21
381.1788595714
  0
LINE
  5
6D6
100
AcDbEntity
  8
TERMINAL_SCHROUD
100
AcDbLine
 62
2
  6
CONTINUOUS
 10
463.9237321134
 20
381.1788595714
 11
475.9237321134
 21
381.1788595714
  0
LINE
  5
6D7
100
AcDbEntity
  8
BASIC_DEVICE
100
AcDbLine
 62
7
  6
CONTINUOUS
 10
387.9237321134
 20
382.1788595714
 11
407.9237321134
 21
382.1788595714
  0
LINE
  5
6D8
100
AcDbEntity
  8
BASIC_DEVICE
100
AcDbLine
 62
7
  6
CONTINUOUS
 10
423.9237321134
 20
382.1788595714
 11
443.9237321134
 21
382.1788595714
  0
LINE
  5
6D9
100
AcDbEntity
  8
BASIC_DEVICE
100
AcDbLine
 62
7
  6
CONTINUOUS
 10
459.9237321134
 20
382.1788595714
 11
479.9237321134
 21
382.1788595714
  0
LINE
  5
6DA
100
AcDbEntity
  8
0
100
AcDbLine
 62
7
  6
CONTINUOUS
 10
379.9237321134
 20
383.8455262381
 11
375.9237321134
 21
383.8455262381
  0
LINE
  5
6DB
100
AcDbEntity
  8
TERMINAL_SCHROUD
100
AcDbLine
 62
2
  6
CONTINUOUS
 10
487.4237321134
 20
385.1788595714
 11
452.4237321134
 21
385.1788595714
  0
LINE
  5
6DC
100
AcDbEntity
  8
TERMINAL_SCHROUD
100
AcDbLine
 62
2
  6
CONTINUOUS
 10
451.4237321134
 20
385.1788595714
 11
416.4237321134
 21
385.1788595714
  0
LINE
  5
6DD
100
AcDbEntity
  8
TERMINAL_SCHROUD
100
AcDbLine
 62
2
  6
CONTINUOUS
 10
415.4237321134
 20
385.1788595714
 11
380.4237321134
 21
385.1788595714
  0
LINE
  5
6DE
100
AcDbEntity
  8
0
100
AcDbLine
 62
7
  6
CONTINUOUS
 10
379.9237321134
 20
386.5121929047
 11
375.9237321134
 21
386.5121929047
  0
LINE
  5
6DF
100
AcDbEntity
  8
BASIC_DEVICE
100
AcDbLine
 62
7
  6
CONTINUOUS
 10
385.0237321134
 20
388.1788595714
 11
410.8237321134
 21
388.1788595714
  0
LINE
  5
6E0
100
AcDbEntity
  8
BASIC_DEVICE
100
AcDbLine
 62
7
  6
CONTINUOUS
 10
421.0237321134
 20
388.1788595714
 11
446.8237321134
 21
388.1788595714
  0
LINE
  5
6E1
100
AcDbEntity
  8
BASIC_DEVICE
100
AcDbLine
 62
7
  6
CONTINUOUS
 10
457.0237321134
 20
388.1788595714
 11
482.8237321134
 21
388.1788595714
  0
LINE
  5
6E2
100
AcDbEntity
  8
0
100
AcDbLine
 62
7
  6
CONTINUOUS
 10
379.9237321134
 20
389.1788595714
 11
375.9237321134
 21
389.1788595714
  0
LINE
  5
6E3
100
AcDbEntity
  8
TERMINAL_SCHROUD
100
AcDbLine
 62
2
  6
CONTINUOUS
 10
387.9237321134
 20
389.1788595714
 11
389.9237321134
 21
389.1788595714
  0
LINE
  5
6E4
100
AcDbEntity
  8
BASIC_DEVICE
100
AcDbLine
 62
7
  6
CONTINUOUS
 10
387.9237321134
 20
389.1788595714
 11
407.9237321134
 21
389.1788595714
  0
LINE
  5
6E5
100
AcDbEntity
  8
TERMINAL_SCHROUD
100
AcDbLine
 62
2
  6
CONTINUOUS
 10
423.9237321134
 20
389.1788595714
 11
425.9237321134
 21
389.1788595714
  0
LINE
  5
6E6
100
AcDbEntity
  8
BASIC_DEVICE
100
AcDbLine
 62
7
  6
CONTINUOUS
 10
423.9237321134
 20
389.1788595714
 11
443.9237321134
 21
389.1788595714
  0
LINE
  5
6E7
100
AcDbEntity
  8
TERMINAL_SCHROUD
100
AcDbLine
 62
2
  6
CONTINUOUS
 10
459.9237321134
 20
389.1788595714
 11
461.9237321134
 21
389.1788595714
  0
LINE
  5
6E8
100
AcDbEntity
  8
BASIC_DEVICE
100
AcDbLine
 62
7
  6
CONTINUOUS
 10
459.9237321134
 20
389.1788595714
 11
479.9237321134
 21
389.1788595714
  0
LINE
  5
6E9
100
AcDbEntity
  8
BASIC_DEVICE
100
AcDbLine
 62
7
  6
CONTINUOUS
 10
379.9237321134
 20
390.2224198218
 11
385.0237321134
 21
390.2224198218
  0
LINE
  5
6EA
100
AcDbEntity
  8
BASIC_DEVICE
100
AcDbLine
 62
7
  6
CONTINUOUS
 10
410.8237321134
 20
390.2224198218
 11
421.0237321134
 21
390.2224198218
  0
LINE
  5
6EB
100
AcDbEntity
  8
BASIC_DEVICE
100
AcDbLine
 62
7
  6
CONTINUOUS
 10
446.8237321134
 20
390.2224198218
 11
457.0237321134
 21
390.2224198218
  0
LINE
  5
6EC
100
AcDbEntity
  8
BASIC_DEVICE
100
AcDbLine
 62
7
  6
CONTINUOUS
 10
482.8237321134
 20
390.2224198218
 11
487.9237321134
 21
390.2224198218
  0
LINE
  5
6ED
100
AcDbEntity
  8
BASIC_DEVICE
100
AcDbLine
 62
7
  6
CONTINUOUS
 10
479.9237321134
 20
394.1788595714
 11
472.9237321134
 21
394.1788595714
  0
LINE
  5
6EE
100
AcDbEntity
  8
BASIC_DEVICE
100
AcDbLine
 62
7
  6
CONTINUOUS
 10
443.9237321134
 20
394.1788595714
 11
436.9237321134
 21
394.1788595714
  0
LINE
  5
6EF
100
AcDbEntity
  8
BASIC_DEVICE
100
AcDbLine
 62
7
  6
CONTINUOUS
 10
407.9237321134
 20
394.1788595714
 11
400.9237321134
 21
394.1788595714
  0
LINE
  5
6F0
100
AcDbEntity
  8
BASIC_DEVICE
100
AcDbLine
 62
7
  6
CONTINUOUS
 10
387.9237321134
 20
394.1788595714
 11
397.9237321134
 21
394.1788595714
  0
LINE
  5
6F1
100
AcDbEntity
  8
BASIC_DEVICE
100
AcDbLine
 62
7
  6
CONTINUOUS
 10
423.9237321134
 20
394.1788595714
 11
433.9237321134
 21
394.1788595714
  0
LINE
  5
6F2
100
AcDbEntity
  8
BASIC_DEVICE
100
AcDbLine
 62
7
  6
CONTINUOUS
 10
459.9237321134
 20
394.1788595714
 11
469.9237321134
 21
394.1788595714
  0
LINE
  5
6F3
100
AcDbEntity
  8
BASIC_DEVICE
100
AcDbLine
 62
7
  6
CONTINUOUS
 10
472.9237321134
 20
399.1788595714
 11
469.9237321134
 21
399.1788595714
  0
LINE
  5
6F4
100
AcDbEntity
  8
BASIC_DEVICE
100
AcDbLine
 62
7
  6
CONTINUOUS
 10
436.9237321134
 20
399.1788595714
 11
433.9237321134
 21
399.1788595714
  0
LINE
  5
6F5
100
AcDbEntity
  8
BASIC_DEVICE
100
AcDbLine
 62
7
  6
CONTINUOUS
 10
400.9237321134
 20
399.1788595714
 11
397.9237321134
 21
399.1788595714
  0
LINE
  5
6F6
100
AcDbEntity
  8
AM_12
100
AcDbLine
 62
4
  6
CONTINUOUS
 10
522.008726503
 20
201.3000169878
 11
525.508726503
 21
197.8000169878
  0
LINE
  5
6F7
100
AcDbEntity
  8
AM_12
100
AcDbLine
 62
4
  6
CONTINUOUS
 10
448.3381658698
 20
275.7079296891
 11
451.8381658698
 21
272.2079296891
  0
LINE
  5
6F8
100
AcDbEntity
  8
BASIC_DEVICE
100
AcDbLine
 62
7
  6
CONTINUOUS
 10
437.6765106129
 20
194.9816310799
 11
441.4292891123
 21
188.4816280493
  0
LINE
  5
6F9
100
AcDbEntity
  8
BASIC_DEVICE
100
AcDbLine
 62
7
  6
CONTINUOUS
 10
466.1709536139
 20
181.9816250187
 11
462.4181751144
 21
188.4816280493
  0
LINE
  5
6FA
100
AcDbEntity
  8
TERMINAL_SCHROUD
100
AcDbLine
 62
2
  6
CONTINUOUS
 10
396.5356803012
 20
235.5267903349
 11
397.337804864
 21
232.7179925075
  0
LINE
  5
6FB
100
AcDbEntity
  8
TERMINAL_SCHROUD
100
AcDbLine
 62
2
  6
CONTINUOUS
 10
396.8237321134
 20
273.9816310799
 11
396.8237321134
 21
275.4816310799
  0
LINE
  5
6FC
100
AcDbEntity
  8
BASIC_DEVICE
100
AcDbLine
 62
7
  6
CONTINUOUS
 10
397.9237321134
 20
222.48163108
 11
397.9237321134
 21
194.9816310799
  0
LINE
  5
6FD
100
AcDbEntity
  8
BASIC_DEVICE
100
AcDbLine
 62
7
  6
CONTINUOUS
 10
397.9237321134
 20
181.9816250187
 11
397.9237321134
 21
171.9816310799
  0
LINE
  5
6FE
100
AcDbEntity
  8
BASIC_DEVICE
100
AcDbLine
 62
7
  6
CONTINUOUS
 10
397.9237321135
 20
110.9816310799
 11
397.9237321135
 21
100.9816371412
  0
LINE
  5
6FF
100
AcDbEntity
  8
BASIC_DEVICE
100
AcDbLine
 62
7
  6
CONTINUOUS
 10
397.9237321135
 20
87.9816310799
 11
397.9237321134
 21
60.48163108
  0
LINE
  5
700
100
AcDbEntity
  8
AXIS
100
AcDbLine
 62
4
  6
AM_ISO08W050
 10
397.9237321134
 20
65.2316310799
 11
397.9237321134
 21
76.7316310799
  0
LINE
  5
701
100
AcDbEntity
  8
AXIS
100
AcDbLine
 62
4
  6
AM_ISO08W050
 10
397.9237321134
 20
206.2316310799
 11
397.9237321134
 21
217.7316310799
  0
LINE
  5
702
100
AcDbEntity
  8
BASIC_DEVICE
100
AcDbLine
 62
7
  6
CONTINUOUS
 10
397.9237321134
 20
340.6788595714
 11
397.9237321134
 21
357.6788595714
  0
LINE
  5
703
100
AcDbEntity
  8
AXIS
100
AcDbLine
 62
4
  6
AM_ISO08W050
 10
397.9237321134
 20
355.1788595714
 11
397.9237321134
 21
363.6788595714
  0
LINE
  5
704
100
AcDbEntity
  8
BASIC_DEVICE
100
AcDbLine
 62
7
  6
CONTINUOUS
 10
397.9237321134
 20
360.6788595714
 11
397.9237321134
 21
367.6788595714
  0
LINE
  5
705
100
AcDbEntity
  8
BASIC_DEVICE
100
AcDbLine
 62
7
  6
CONTINUOUS
 10
397.9237321134
 20
371.6788595714
 11
397.9237321134
 21
375.6788595714
  0
LINE
  5
706
100
AcDbEntity
  8
BASIC_DEVICE
100
AcDbLine
 62
7
  6
CONTINUOUS
 10
397.9237321134
 20
382.1788595714
 11
397.9237321134
 21
420.6788595714
  0
LINE
  5
707
100
AcDbEntity
  8
TERMINAL_SCHROUD
100
AcDbLine
 62
2
  6
CONTINUOUS
 10
399.0237321134
 20
273.9816310799
 11
399.0237321134
 21
275.4816310799
  0
LINE
  5
708
100
AcDbEntity
  8
BASIC_DEVICE
100
AcDbLine
 62
7
  6
CONTINUOUS
 10
399.9237321134
 20
141.4816310799
 11
399.9237321134
 21
121.4816310799
  0
LINE
  5
709
100
AcDbEntity
  8
BASIC_DEVICE
100
AcDbLine
 62
7
  6
CONTINUOUS
 10
399.9237321134
 20
119.4816310799
 11
399.9237321134
 21
112.9816310799
  0
LINE
  5
70A
100
AcDbEntity
  8
SUPPORT_FUSE
100
AcDbLine
 62
40
  6
CONTINUOUS
 10
400.7737321134
 20
112.9816310799
 11
400.7737321134
 21
106.9816310799
  0
LINE
  5
70B
100
AcDbEntity
  8
SUPPORT_FUSE
100
AcDbLine
 62
40
  6
CONTINUOUS
 10
400.7737321134
 20
169.9816310799
 11
400.7737321134
 21
175.9816310799
  0
LINE
  5
70C
100
AcDbEntity
  8
FUSE
100
AcDbLine
 62
3
  6
CONTINUOUS
 10
400.9237321134
 20
180.7316310799
 11
400.9237321134
 21
168.4816310799
  0
LINE
  5
70D
100
AcDbEntity
  8
FUSE
100
AcDbLine
 62
3
  6
CONTINUOUS
 10
400.9237321134
 20
102.2316310799
 11
400.9237321134
 21
114.4816310799
  0
LINE
  5
70E
100
AcDbEntity
  8
BASIC_DEVICE
100
AcDbLine
 62
7
  6
CONTINUOUS
 10
400.9237321134
 20
389.1788595714
 11
400.9237321134
 21
399.1788595714
  0
LINE
  5
70F
100
AcDbEntity
  8
TERMINAL_SCHROUD
100
AcDbLine
 62
2
  6
CONTINUOUS
 10
401.3237321134
 20
200.8816310799
 11
401.3237321134
 21
203.6816310799
  0
LINE
  5
710
100
AcDbEntity
  8
BASIC_DEVICE
100
AcDbLine
 62
7
  6
CONTINUOUS
 10
401.6737321134
 20
200.48163108
 11
401.6737321134
 21
197.98163108
  0
LINE
  5
711
100
AcDbEntity
  8
BASIC_DEVICE
100
AcDbLine
 62
7
  6
CONTINUOUS
 10
401.6737321134
 20
82.48163108
 11
401.6737321134
 21
84.98163108
  0
LINE
  5
712
100
AcDbEntity
  8
BASIC_DEVICE
100
AcDbLine
 62
7
  6
CONTINUOUS
 10
401.9237321134
 20
420.6788595714
 11
401.9237321134
 21
431.1788595714
  0
LINE
  5
713
100
AcDbEntity
  8
BASIC_DEVICE
100
AcDbLine
 62
7
  6
CONTINUOUS
 10
401.9237321134
 20
436.1788595714
 11
401.9237321134
 21
442.6788595714
  0
LINE
  5
714
100
AcDbEntity
  8
COVER_FUSE
100
AcDbLine
 62
6
  6
CONTINUOUS
 10
402.1737321134
 20
114.4816310799
 11
402.1737321134
 21
120.4816310799
  0
LINE
  5
715
100
AcDbEntity
  8
COVER_FUSE
100
AcDbLine
 62
6
  6
CONTINUOUS
 10
402.1737321134
 20
161.9816310799
 11
402.1737321134
 21
167.9816310799
  0
LINE
  5
716
100
AcDbEntity
  8
SUPPORT_FUSE
100
AcDbLine
 62
40
  6
CONTINUOUS
 10
402.7737321134
 20
175.9816310799
 11
402.7737321134
 21
171.9816310799
  0
LINE
  5
717
100
AcDbEntity
  8
SUPPORT_FUSE
100
AcDbLine
 62
40
  6
CONTINUOUS
 10
402.7737321134
 20
106.9816310799
 11
402.7737321134
 21
110.9816310799
  0
LINE
  5
718
100
AcDbEntity
  8
MOVING
100
AcDbLine
 62
1
  6
AM_ISO02W050X2
 10
403.0237321133
 20
149.9816310799
 11
403.0237321133
 21
132.9816310799
  0
LINE
  5
719
100
AcDbEntity
  8
TERMINAL_SCHROUD
100
AcDbLine
 62
2
  6
CONTINUOUS
 10
403.6737321134
 20
371.4288595714
 11
403.6737321134
 21
367.6788595714
  0
LINE
  5
71A
100
AcDbEntity
  8
TERMINAL_SCHROUD
100
AcDbLine
 62
2
  6
CONTINUOUS
 10
403.9237321134
 20
184.4816310799
 11
403.9237321134
 21
208.4816310799
  0
LINE
  5
71B
100
AcDbEntity
  8
TERMINAL_SCHROUD
100
AcDbLine
 62
2
  6
CONTINUOUS
 10
403.9237321134
 20
372.1788595714
 11
403.9237321134
 21
385.1788595714
  0
LINE
  5
71C
100
AcDbEntity
  8
BASIC_DEVICE
100
AcDbLine
 62
7
  6
CONTINUOUS
 10
404.9237321134
 20
419.1788595714
 11
404.9237321134
 21
415.1788595714
  0
LINE
  5
71D
100
AcDbEntity
  8
BASIC_DEVICE
100
AcDbLine
 62
7
  6
CONTINUOUS
 10
405.4237321134
 20
431.1788595714
 11
405.4237321134
 21
436.1788595714
  0
LINE
  5
71E
100
AcDbEntity
  8
TERMINAL_SCHROUD
100
AcDbLine
 62
2
  6
CONTINUOUS
 10
405.8737321134
 20
371.4288595714
 11
405.8737321134
 21
368.8788595714
  0
LINE
  5
71F
100
AcDbEntity
  8
TERMINAL_SCHROUD
100
AcDbLine
 62
2
  6
CONTINUOUS
 10
405.9237321134
 20
208.4816310799
 11
405.9237321134
 21
184.4816310799
  0
LINE
  5
720
100
AcDbEntity
  8
TERMINAL_SCHROUD
100
AcDbLine
 62
2
  6
CONTINUOUS
 10
405.9237321134
 20
273.9816310799
 11
405.9237321134
 21
275.4816310799
  0
LINE
  5
721
100
AcDbEntity
  8
BASIC_DEVICE
100
AcDbLine
 62
7
  6
CONTINUOUS
 10
405.9237321134
 20
367.6788595714
 11
405.9237321134
 21
371.6788595714
  0
LINE
  5
722
100
AcDbEntity
  8
TERMINAL_SCHROUD
100
AcDbLine
 62
2
  6
CONTINUOUS
 10
405.9237321134
 20
376.3788595714
 11
405.9237321134
 21
385.1788595714
  0
LINE
  5
723
100
AcDbEntity
  8
BASIC_DEVICE
100
AcDbLine
 62
7
  6
CONTINUOUS
 10
406.4237321134
 20
409.1788595714
 11
406.4237321134
 21
405.6788595714
  0
LINE
  5
724
100
AcDbEntity
  8
BASIC_DEVICE
100
AcDbLine
 62
7
  6
CONTINUOUS
 10
406.4237321134
 20
415.1788595714
 11
406.4237321134
 21
419.1788595714
  0
LINE
  5
725
100
AcDbEntity
  8
CONTACT
100
AcDbLine
 62
40
  6
CONTINUOUS
 10
407.9237321134
 20
360.6788595714
 11
407.9237321134
 21
358.1788595714
  0
LINE
  5
726
100
AcDbEntity
  8
CONTACT
100
AcDbLine
 62
40
  6
CONTINUOUS
 10
407.9237321134
 20
218.7816310799
 11
407.9237321134
 21
200.48163108
  0
LINE
  5
727
100
AcDbEntity
  8
BASIC_DEVICE
100
AcDbLine
 62
7
  6
CONTINUOUS
 10
407.9237321134
 20
171.9816310799
 11
407.9237321134
 21
169.9816310799
  0
LINE
  5
728
100
AcDbEntity
  8
BASIC_DEVICE
100
AcDbLine
 62
7
  6
CONTINUOUS
 10
407.9237321134
 20
112.98163108
 11
407.9237321135
 21
110.98163108
  0
LINE
  5
729
100
AcDbEntity
  8
CONTACT
100
AcDbLine
 62
40
  6
CONTINUOUS
 10
407.9237321134
 20
64.1816310799
 11
407.9237321134
 21
82.4816310799
  0
LINE
  5
72A
100
AcDbEntity
  8
TERMINAL_SCHROUD
100
AcDbLine
 62
2
  6
CONTINUOUS
 10
407.9237321134
 20
184.4816310799
 11
407.9237321134
 21
198.4816310799
  0
LINE
  5
72B
100
AcDbEntity
  8
TERMINAL_SCHROUD
100
AcDbLine
 62
2
  6
CONTINUOUS
 10
407.9237321134
 20
365.6788595714
 11
407.9237321134
 21
376.3788595714
  0
LINE
  5
72C
100
AcDbEntity
  8
BASIC_DEVICE
100
AcDbLine
 62
7
  6
CONTINUOUS
 10
407.9237321134
 20
375.6788595714
 11
407.9237321134
 21
382.1788595714
  0
LINE
  5
72D
100
AcDbEntity
  8
BASIC_DEVICE
100
AcDbLine
 62
7
  6
CONTINUOUS
 10
407.9237321134
 20
389.1788595714
 11
407.9237321134
 21
394.1788595714
  0
LINE
  5
72E
100
AcDbEntity
  8
COVER_FUSE
100
AcDbLine
 62
6
  6
CONTINUOUS
 10
407.9237321134
 20
456.1788595714
 11
407.9237321134
 21
460.1788595714
  0
LINE
  5
72F
100
AcDbEntity
  8
BASIC_DEVICE
100
AcDbLine
 62
7
  6
CONTINUOUS
 10
408.3237321134
 20
222.48163108
 11
408.3237321134
 21
200.48163108
  0
LINE
  5
730
100
AcDbEntity
  8
BASIC_DEVICE
100
AcDbLine
 62
7
  6
CONTINUOUS
 10
408.3237321134
 20
60.48163108
 11
408.3237321134
 21
82.48163108
  0
LINE
  5
731
100
AcDbEntity
  8
BASIC_DEVICE
100
AcDbLine
 62
7
  6
CONTINUOUS
 10
408.3237321134
 20
357.6788595714
 11
408.3237321134
 21
360.6788595714
  0
LINE
  5
732
100
AcDbEntity
  8
BASIC_DEVICE
100
AcDbLine
 62
7
  6
CONTINUOUS
 10
408.4237321134
 20
419.1788595714
 11
408.4237321134
 21
415.1788595714
  0
LINE
  5
733
100
AcDbEntity
  8
BASIC_DEVICE
100
AcDbLine
 62
7
  6
CONTINUOUS
 10
408.4237321134
 20
409.1788595714
 11
408.4237321134
 21
405.6788595714
  0
LINE
  5
734
100
AcDbEntity
  8
BASIC_DEVICE
100
AcDbLine
 62
7
  6
CONTINUOUS
 10
408.4237321134
 20
103.98163108
 11
408.4237321134
 21
84.98163108
  0
LINE
  5
735
100
AcDbEntity
  8
BASIC_DEVICE
100
AcDbLine
 62
7
  6
CONTINUOUS
 10
408.4237321134
 20
176.4816310799
 11
408.4237321134
 21
197.98163108
  0
LINE
  5
736
100
AcDbEntity
  8
BASIC_DEVICE
100
AcDbLine
 62
7
  6
CONTINUOUS
 10
408.4237321134
 20
442.6788595714
 11
408.4237321134
 21
447.1788595714
  0
LINE
  5
737
100
AcDbEntity
  8
COVER_FUSE
100
AcDbLine
 62
6
  6
CONTINUOUS
 10
408.7237321134
 20
456.1788595714
 11
408.7237321134
 21
460.1788595714
  0
LINE
  5
738
100
AcDbEntity
  8
BASIC_DEVICE
100
AcDbLine
 62
7
  6
CONTINUOUS
 10
408.9237321134
 20
163.4816310799
 11
408.9237321134
 21
161.4816310799
  0
LINE
  5
739
100
AcDbEntity
  8
BASIC_DEVICE
100
AcDbLine
 62
7
  6
CONTINUOUS
 10
408.9237321134
 20
121.48163108
 11
408.9237321134
 21
119.48163108
  0
LINE
  5
73A
100
AcDbEntity
  8
SUPPORT_FUSE
100
AcDbLine
 62
40
  6
CONTINUOUS
 10
409.4237321134
 20
171.9816310799
 11
409.4237321134
 21
169.9816310799
  0
LINE
  5
73B
100
AcDbEntity
  8
SUPPORT_FUSE
100
AcDbLine
 62
40
  6
CONTINUOUS
 10
409.4237321134
 20
110.9816310799
 11
409.4237321134
 21
112.9816310799
  0
LINE
  5
73C
100
AcDbEntity
  8
TERMINAL_SCHROUD
100
AcDbLine
 62
2
  6
CONTINUOUS
 10
409.9237321134
 20
247.9816310799
 11
409.9237321134
 21
273.9816310799
  0
LINE
  5
73D
100
AcDbEntity
  8
COVER_FUSE
100
AcDbLine
 62
6
  6
CONTINUOUS
 10
410.8237321134
 20
445.1788595714
 11
410.8237321134
 21
431.1788595714
  0
LINE
  5
73E
100
AcDbEntity
  8
BASIC_DEVICE
100
AcDbLine
 62
7
  6
CONTINUOUS
 10
410.8237321134
 20
442.6788595714
 11
410.8237321134
 21
349.6788595474
  0
LINE
  5
73F
100
AcDbEntity
  8
BASIC_DEVICE
100
AcDbLine
 62
7
  6
CONTINUOUS
 10
410.8237321134
 20
60.48163108
 11
410.8237321134
 21
101.48163108
  0
LINE
  5
740
100
AcDbEntity
  8
COVER_FUSE
100
AcDbLine
 62
6
  6
CONTINUOUS
 10
410.8237321134
 20
82.4816310799
 11
410.8237321134
 21
100.4816310799
  0
LINE
  5
741
100
AcDbEntity
  8
BASIC_DEVICE
100
AcDbLine
 62
7
  6
CONTINUOUS
 10
410.8237321134
 20
182.4816310799
 11
410.8237321134
 21
222.48163108
  0
LINE
  5
742
100
AcDbEntity
  8
COVER_FUSE
100
AcDbLine
 62
6
  6
CONTINUOUS
 10
410.9237321134
 20
464.6788595714
 11
410.9237321134
 21
456.1788595714
  0
LINE
  5
743
100
AcDbEntity
  8
TERMINAL_SCHROUD
100
AcDbLine
 62
2
  6
CONTINUOUS
 10
410.9237321134
 20
275.4816310799
 11
410.9237321134
 21
273.9816310799
  0
LINE
  5
744
100
AcDbEntity
  8
COVER_FUSE
100
AcDbLine
 62
6
  6
CONTINUOUS
 10
410.9237321134
 20
182.4816310799
 11
410.9237321134
 21
203.9816310799
  0
LINE
  5
745
100
AcDbEntity
  8
TERMINAL_SCHROUD
100
AcDbLine
 62
2
  6
CONTINUOUS
 10
412.4237321134
 20
198.4816310799
 11
412.4237321134
 21
217.4816310799
  0
LINE
  5
746
100
AcDbEntity
  8
TERMINAL_SCHROUD
100
AcDbLine
 62
2
  6
CONTINUOUS
 10
412.4237321134
 20
354.1788595714
 11
412.4237321134
 21
365.6788595714
  0
LINE
  5
747
100
AcDbEntity
  8
BASIC_DEVICE
100
AcDbLine
 62
7
  6
CONTINUOUS
 10
412.6237321134
 20
440.1788595714
 11
412.6237321134
 21
434.1788595714
  0
LINE
  5
748
100
AcDbEntity
  8
BASIC_DEVICE
100
AcDbLine
 62
7
  6
CONTINUOUS
 10
412.6237321134
 20
197.4816310799
 11
412.6237321134
 21
191.4816310799
  0
LINE
  5
749
100
AcDbEntity
  8
BASIC_DEVICE
100
AcDbLine
 62
7
  6
CONTINUOUS
 10
412.6237321134
 20
85.4816310799
 11
412.6237321134
 21
91.4816310799
  0
LINE
  5
74A
100
AcDbEntity
  8
FUSE
100
AcDbLine
 62
3
  6
CONTINUOUS
 10
412.9237321134
 20
168.4816310799
 11
412.9237321134
 21
114.4816310799
  0
LINE
  5
74B
100
AcDbEntity
  8
COVER_FUSE
100
AcDbLine
 62
6
  6
CONTINUOUS
 10
412.9237321134
 20
82.4816310799
 11
412.9237321134
 21
94.4816310799
  0
LINE
  5
74C
100
AcDbEntity
  8
COVER_FUSE
100
AcDbLine
 62
6
  6
CONTINUOUS
 10
412.9237321134
 20
431.1788595714
 11
412.9237321134
 21
454.1788595714
  0
LINE
  5
74D
100
AcDbEntity
  8
BASIC_DEVICE
100
AcDbLine
 62
7
  6
CONTINUOUS
 10
413.2237321134
 20
95.48163108
 11
413.2237321134
 21
63.98163108
  0
LINE
  5
74E
100
AcDbEntity
  8
BASIC_DEVICE
100
AcDbLine
 62
7
  6
CONTINUOUS
 10
413.2237321134
 20
187.48163108
 11
413.2237321134
 21
218.9816310799
  0
LINE
  5
74F
100
AcDbEntity
  8
BASIC_DEVICE
100
AcDbLine
 62
7
  6
CONTINUOUS
 10
413.2237321134
 20
340.6788595714
 11
413.2237321134
 21
349.6788595474
  0
LINE
  5
750
100
AcDbEntity
  8
TERMINAL_SCHROUD
100
AcDbLine
 62
2
  6
CONTINUOUS
 10
413.4237321134
 20
354.1788595714
 11
413.4237321134
 21
341.6788595714
  0
LINE
  5
751
100
AcDbEntity
  8
COVER_FUSE
100
AcDbLine
 62
6
  6
CONTINUOUS
 10
413.9237321134
 20
447.6788595714
 11
413.9237321134
 21
437.6788595714
  0
LINE
  5
752
100
AcDbEntity
  8
BASIC_DEVICE
100
AcDbLine
 62
7
  6
CONTINUOUS
 10
413.9237321134
 20
176.4816310799
 11
413.9237321134
 21
103.9816310799
  0
LINE
  5
753
100
AcDbEntity
  8
BASIC_DEVICE
100
AcDbLine
 62
7
  6
CONTINUOUS
 10
413.9237321134
 20
437.6788595714
 11
413.9237321134
 21
443.6788595714
  0
LINE
  5
754
100
AcDbEntity
  8
BASIC_DEVICE
100
AcDbLine
 62
7
  6
CONTINUOUS
 10
414.1237321134
 20
367.1788595714
 11
414.1237321134
 21
376.1788595714
  0
LINE
  5
755
100
AcDbEntity
  8
MOVING
100
AcDbLine
 62
1
  6
AM_ISO02W050X2
 10
415.0237321133
 20
132.9816310798
 11
415.0237321134
 21
149.98163108
  0
LINE
  5
756
100
AcDbEntity
  8
TERMINAL_SCHROUD
100
AcDbLine
 62
2
  6
CONTINUOUS
 10
415.4237321134
 20
217.4816310799
 11
415.4237321134
 21
273.9816310799
  0
LINE
  5
757
100
AcDbEntity
  8
TERMINAL_SCHROUD
100
AcDbLine
 62
2
  6
CONTINUOUS
 10
415.4237321134
 20
341.6788595714
 11
415.4237321134
 21
385.1788595714
  0
LINE
  5
758
100
AcDbEntity
  8
COVER_FUSE
100
AcDbLine
 62
6
  6
CONTINUOUS
 10
415.9237321134
 20
464.6788595714
 11
415.9237321134
 21
437.6788595714
  0
LINE
  5
759
100
AcDbEntity
  8
BASIC_DEVICE
100
AcDbLine
 62
7
  6
CONTINUOUS
 10
415.9237321134
 20
447.1788595714
 11
415.9237321134
 21
340.6788595714
  0
LINE
  5
75A
100
AcDbEntity
  8
COVER_FUSE
100
AcDbLine
 62
6
  6
CONTINUOUS
 10
415.9237321134
 20
182.4816310799
 11
415.9237321134
 21
100.4816310799
  0
LINE
  5
75B
100
AcDbEntity
  8
BASIC_DEVICE
100
AcDbLine
 62
7
  6
CONTINUOUS
 10
415.9237321134
 20
98.4816310799
 11
415.9237321134
 21
184.4816310799
  0
LINE
  5
75C
100
AcDbEntity
  8
TERMINAL_SCHROUD
100
AcDbLine
 62
2
  6
CONTINUOUS
 10
416.4237321134
 20
385.1788595714
 11
416.4237321134
 21
341.6788595714
  0
LINE
  5
75D
100
AcDbEntity
  8
TERMINAL_SCHROUD
100
AcDbLine
 62
2
  6
CONTINUOUS
 10
416.4237321134
 20
273.9816310799
 11
416.4237321134
 21
217.4816310799
  0
LINE
  5
75E
100
AcDbEntity
  8
BASIC_DEVICE
100
AcDbLine
 62
7
  6
CONTINUOUS
 10
417.7237321134
 20
367.1788595714
 11
417.7237321134
 21
376.1788595714
  0
LINE
  5
75F
100
AcDbEntity
  8
BASIC_DEVICE
100
AcDbLine
 62
7
  6
CONTINUOUS
 10
417.9237321134
 20
106.4816310799
 11
417.9237321134
 21
178.9816310799
  0
LINE
  5
760
100
AcDbEntity
  8
COVER_FUSE
100
AcDbLine
 62
6
  6
CONTINUOUS
 10
417.9237321134
 20
437.6788595714
 11
417.9237321134
 21
447.6788595714
  0
LINE
  5
761
100
AcDbEntity
  8
TERMINAL_SCHROUD
100
AcDbLine
 62
2
  6
CONTINUOUS
 10
418.4237321134
 20
341.6788595714
 11
418.4237321134
 21
354.1788595714
  0
LINE
  5
762
100
AcDbEntity
  8
BASIC_DEVICE
100
AcDbLine
 62
7
  6
CONTINUOUS
 10
418.6237321134
 20
95.4816310799
 11
418.6237321134
 21
63.9816310799
  0
LINE
  5
763
100
AcDbEntity
  8
BASIC_DEVICE
100
AcDbLine
 62
7
  6
CONTINUOUS
 10
418.6237321134
 20
187.4816310799
 11
418.6237321134
 21
218.9816310799
  0
LINE
  5
764
100
AcDbEntity
  8
BASIC_DEVICE
100
AcDbLine
 62
7
  6
CONTINUOUS
 10
418.6237321134
 20
340.6788595714
 11
418.6237321134
 21
349.6788595474
  0
LINE
  5
765
100
AcDbEntity
  8
COVER_FUSE
100
AcDbLine
 62
6
  6
CONTINUOUS
 10
418.9237321134
 20
454.1788595714
 11
418.9237321134
 21
431.1788595714
  0
LINE
  5
766
100
AcDbEntity
  8
COVER_FUSE
100
AcDbLine
 62
6
  6
CONTINUOUS
 10
418.9237321134
 20
82.4816310799
 11
418.9237321134
 21
94.4816310799
  0
LINE
  5
767
100
AcDbEntity
  8
FUSE
100
AcDbLine
 62
3
  6
CONTINUOUS
 10
418.9237321134
 20
114.4816310799
 11
418.9237321134
 21
168.4816310799
  0
LINE
  5
768
100
AcDbEntity
  8
BASIC_DEVICE
100
AcDbLine
 62
7
  6
CONTINUOUS
 10
419.2237321134
 20
440.1788595714
 11
419.2237321134
 21
434.1788595714
  0
LINE
  5
769
100
AcDbEntity
  8
BASIC_DEVICE
100
AcDbLine
 62
7
  6
CONTINUOUS
 10
419.2237321134
 20
197.4816310799
 11
419.2237321134
 21
191.4816310799
  0
LINE
  5
76A
100
AcDbEntity
  8
BASIC_DEVICE
100
AcDbLine
 62
7
  6
CONTINUOUS
 10
419.2237321134
 20
85.4816310799
 11
419.2237321134
 21
91.4816310799
  0
LINE
  5
76B
100
AcDbEntity
  8
TERMINAL_SCHROUD
100
AcDbLine
 62
2
  6
CONTINUOUS
 10
398.590117757
 20
239.8808442855
 11
397.4816541372
 21
235.2898460062
  0
LINE
  5
76C
100
AcDbEntity
  8
TERMINAL_SCHROUD
100
AcDbLine
 62
2
  6
CONTINUOUS
 10
398.4232590192
 20
235.0539959983
 11
400.0190493677
 21
241.6633881454
  0
LINE
  5
76D
100
AcDbEntity
  8
TERMINAL_SCHROUD
100
AcDbLine
 62
2
  6
CONTINUOUS
 10
397.0977615938
 20
244.442183164
 11
395.4913805095
 21
238.3600509278
  0
LINE
  5
76E
100
AcDbEntity
  8
TERMINAL_SCHROUD
100
AcDbLine
 62
2
  6
CONTINUOUS
 10
396.9729405685
 20
240.1684236942
 11
398.0362386664
 21
244.1943174881
  0
LINE
  5
76F
100
AcDbEntity
  8
TERMINAL_SCHROUD
100
AcDbLine
 62
2
  6
CONTINUOUS
 10
397.4374634587
 20
248.7814715651
 11
387.9372447818
 21
232.3144258586
  0
LINE
  5
770
100
AcDbEntity
  8
TERMINAL_SCHROUD
100
AcDbLine
 62
2
  6
CONTINUOUS
 10
388.2875655381
 20
232.1123177299
 11
397.787784215
 21
248.5793634365
  0
LINE
  5
771
100
AcDbEntity
  8
TERMINAL_SCHROUD
100
AcDbLine
 62
2
  6
CONTINUOUS
 10
397.337804864
 20
232.7179925075
 11
399.3692328553
 21
234.8170516696
  0
LINE
  5
772
100
AcDbEntity
  8
AM_12
100
AcDbLine
 62
4
  6
CONTINUOUS
 10
448.3381658698
 20
272.2079296891
 11
451.8381658698
 21
275.7079296891
  0
LINE
  5
773
100
AcDbEntity
  8
MOVING
100
AcDbLine
 62
1
  6
AM_ISO02W050X2
 10
92.7120637321
 20
35.9590123128
 11
95.3608316991
 21
37.3675887737
  0
LINE
  5
774
100
AcDbEntity
  8
MOVING
100
AcDbLine
 62
1
  6
AM_ISO02W050X2
 10
93.0281608742
 20
41.781390057
 11
170.7812635093
 21
82.8734969328
  0
LINE
  5
775
100
AcDbEntity
  8
MOVING
100
AcDbLine
 62
1
  6
AM_ISO02W050X2
 10
124.907641807
 20
54.1052708506
 11
105.4569370057
 21
43.825675395
  0
LINE
  5
776
100
AcDbEntity
  8
MOVING
100
AcDbLine
 62
1
  6
AM_ISO02W050X2
 10
99.2843345748
 20
39.4540508058
 11
95.3554978902
 21
37.3776812274
  0
LINE
  5
777
100
AcDbEntity
  8
MOVING
100
AcDbLine
 62
1
  6
AM_ISO02W050X2
 10
83.8211177067
 20
31.2601939772
 11
92.7120637321
 21
35.9590123128
  0
LINE
  5
778
100
AcDbEntity
  8
MOVING
100
AcDbLine
 62
1
  6
AM_ISO02W050X2
 10
130.7300195513
 20
53.7891737085
 11
126.3094048237
 21
51.4529020141
  0
LINE
  5
779
100
AcDbEntity
  8
MOVING
100
AcDbLine
 62
1
  6
AM_ISO02W050X2
 10
179.0400152506
 20
75.9275597798
 11
179.9241381961
 21
76.3948141187
  0
LINE
  5
77A
100
AcDbEntity
  8
MOVING
100
AcDbLine
 62
1
  6
AM_ISO02W050X2
 10
108.7277173779
 20
37.6368147764
 11
102.0967952865
 21
34.1324072347
  0
LINE
  5
77B
100
AcDbEntity
  8
TERMINAL_SCHROUD
100
AcDbLine
 62
2
  6
CONTINUOUS
 10
472.0190493677
 20
241.6633881454
 11
468.9729405685
 21
240.1684236942
  0
LINE
  5
77C
100
AcDbEntity
  8
TERMINAL_SCHROUD
100
AcDbLine
 62
2
  6
CONTINUOUS
 10
467.4913805095
 20
238.3600509278
 11
470.590117757
 21
239.8808442855
  0
LINE
  5
77D
100
AcDbEntity
  8
CAGE_COMMANDE
100
AcDbLine
 62
7
  6
CONTINUOUS
 10
505.0237321134
 20
400.4288595714
 11
489.9237321134
 21
400.4288595714
  0
LINE
  5
77E
100
AcDbEntity
  8
CAGE_COMMANDE
100
AcDbLine
 62
7
  6
CONTINUOUS
 10
507.0237321134
 20
400.4288595714
 11
522.1237321134
 21
400.4288595714
  0
LINE
  5
77F
100
AcDbEntity
  8
CAGE_COMMANDE
100
AcDbLine
 62
7
  6
CONTINUOUS
 10
522.1237321134
 20
402.8788595714
 11
507.0237321134
 21
402.8788595714
  0
LINE
  5
780
100
AcDbEntity
  8
CAGE_COMMANDE
100
AcDbLine
 62
7
  6
CONTINUOUS
 10
489.9237321134
 20
402.8788595714
 11
505.0237321134
 21
402.8788595714
  0
LINE
  5
781
100
AcDbEntity
  8
BASIC_DEVICE
100
AcDbLine
 62
7
  6
CONTINUOUS
 10
461.4237321134
 20
405.6788595714
 11
457.0237321134
 21
405.6788595714
  0
LINE
  5
782
100
AcDbEntity
  8
BASIC_DEVICE
100
AcDbLine
 62
7
  6
CONTINUOUS
 10
425.4237321134
 20
405.6788595714
 11
421.0237321134
 21
405.6788595714
  0
LINE
  5
783
100
AcDbEntity
  8
BASIC_DEVICE
100
AcDbLine
 62
7
  6
CONTINUOUS
 10
389.4237321134
 20
405.6788595714
 11
385.0237321134
 21
405.6788595714
  0
LINE
  5
784
100
AcDbEntity
  8
BASIC_DEVICE
100
AcDbLine
 62
7
  6
CONTINUOUS
 10
406.4237321134
 20
405.6788595714
 11
410.8237321134
 21
405.6788595714
  0
LINE
  5
785
100
AcDbEntity
  8
BASIC_DEVICE
100
AcDbLine
 62
7
  6
CONTINUOUS
 10
442.4237321134
 20
405.6788595714
 11
446.8237321134
 21
405.6788595714
  0
LINE
  5
786
100
AcDbEntity
  8
BASIC_DEVICE
100
AcDbLine
 62
7
  6
CONTINUOUS
 10
478.4237321134
 20
405.6788595714
 11
482.8237321134
 21
405.6788595714
  0
LINE
  5
787
100
AcDbEntity
  8
BASIC_DEVICE
100
AcDbLine
 62
7
  6
CONTINUOUS
 10
482.8237321134
 20
409.1788595714
 11
478.4237321134
 21
409.1788595714
  0
LINE
  5
788
100
AcDbEntity
  8
BASIC_DEVICE
100
AcDbLine
 62
7
  6
CONTINUOUS
 10
446.8237321134
 20
409.1788595714
 11
442.4237321134
 21
409.1788595714
  0
LINE
  5
789
100
AcDbEntity
  8
BASIC_DEVICE
100
AcDbLine
 62
7
  6
CONTINUOUS
 10
410.8237321134
 20
409.1788595714
 11
406.4237321134
 21
409.1788595714
  0
LINE
  5
78A
100
AcDbEntity
  8
BASIC_DEVICE
100
AcDbLine
 62
7
  6
CONTINUOUS
 10
385.0237321134
 20
409.1788595714
 11
389.4237321134
 21
409.1788595714
  0
LINE
  5
78B
100
AcDbEntity
  8
BASIC_DEVICE
100
AcDbLine
 62
7
  6
CONTINUOUS
 10
421.0237321134
 20
409.1788595714
 11
425.4237321134
 21
409.1788595714
  0
LINE
  5
78C
100
AcDbEntity
  8
BASIC_DEVICE
100
AcDbLine
 62
7
  6
CONTINUOUS
 10
457.0237321134
 20
409.1788595714
 11
461.4237321134
 21
409.1788595714
  0
LINE
  5
78D
100
AcDbEntity
  8
BASIC_DEVICE
100
AcDbLine
 62
7
  6
CONTINUOUS
 10
462.9237321134
 20
415.1788595714
 11
457.0237321134
 21
415.1788595714
  0
LINE
  5
78E
100
AcDbEntity
  8
BASIC_DEVICE
100
AcDbLine
 62
7
  6
CONTINUOUS
 10
426.9237321134
 20
415.1788595714
 11
421.0237321134
 21
415.1788595714
  0
LINE
  5
78F
100
AcDbEntity
  8
BASIC_DEVICE
100
AcDbLine
 62
7
  6
CONTINUOUS
 10
390.9237321134
 20
415.1788595714
 11
385.0237321134
 21
415.1788595714
  0
LINE
  5
790
100
AcDbEntity
  8
BASIC_DEVICE
100
AcDbLine
 62
7
  6
CONTINUOUS
 10
404.9237321134
 20
415.1788595714
 11
410.8237321134
 21
415.1788595714
  0
LINE
  5
791
100
AcDbEntity
  8
BASIC_DEVICE
100
AcDbLine
 62
7
  6
CONTINUOUS
 10
440.9237321134
 20
415.1788595714
 11
446.8237321134
 21
415.1788595714
  0
LINE
  5
792
100
AcDbEntity
  8
BASIC_DEVICE
100
AcDbLine
 62
7
  6
CONTINUOUS
 10
476.9237321134
 20
415.1788595714
 11
482.8237321134
 21
415.1788595714
  0
LINE
  5
793
100
AcDbEntity
  8
CAGE_COMMANDE
100
AcDbLine
 62
7
  6
CONTINUOUS
 10
487.9237321134
 20
417.2788595714
 11
524.1237321134
 21
417.2788595714
  0
LINE
  5
794
100
AcDbEntity
  8
CAGE_COMMANDE
100
AcDbLine
 62
7
  6
CONTINUOUS
 10
516.5944638207
 20
417.5788595714
 11
514.0237321134
 21
417.5788595714
  0
LINE
  5
795
100
AcDbEntity
  8
CAGE_COMMANDE
100
AcDbLine
 62
7
  6
CONTINUOUS
 10
498.0237321134
 20
417.5788595714
 11
495.0237321134
 21
417.5788595714
  0
LINE
  5
796
100
AcDbEntity
  8
BASIC_DEVICE
100
AcDbLine
 62
7
  6
CONTINUOUS
 10
482.8237321134
 20
419.1788595714
 11
476.9237321134
 21
419.1788595714
  0
LINE
  5
797
100
AcDbEntity
  8
BASIC_DEVICE
100
AcDbLine
 62
7
  6
CONTINUOUS
 10
446.8237321134
 20
419.1788595714
 11
440.9237321134
 21
419.1788595714
  0
LINE
  5
798
100
AcDbEntity
  8
BASIC_DEVICE
100
AcDbLine
 62
7
  6
CONTINUOUS
 10
410.8237321134
 20
419.1788595714
 11
404.9237321134
 21
419.1788595714
  0
LINE
  5
799
100
AcDbEntity
  8
BASIC_DEVICE
100
AcDbLine
 62
7
  6
CONTINUOUS
 10
385.0237321134
 20
419.1788595714
 11
390.9237321134
 21
419.1788595714
  0
LINE
  5
79A
100
AcDbEntity
  8
BASIC_DEVICE
100
AcDbLine
 62
7
  6
CONTINUOUS
 10
421.0237321134
 20
419.1788595714
 11
426.9237321134
 21
419.1788595714
  0
LINE
  5
79B
100
AcDbEntity
  8
BASIC_DEVICE
100
AcDbLine
 62
7
  6
CONTINUOUS
 10
457.0237321134
 20
419.1788595714
 11
462.9237321134
 21
419.1788595714
  0
LINE
  5
79C
100
AcDbEntity
  8
BASIC_DEVICE
100
AcDbLine
 62
7
  6
CONTINUOUS
 10
393.9237321134
 20
420.6788595714
 11
401.9237321134
 21
420.6788595714
  0
LINE
  5
79D
100
AcDbEntity
  8
BASIC_DEVICE
100
AcDbLine
 62
7
  6
CONTINUOUS
 10
429.9237321134
 20
420.6788595714
 11
437.9237321134
 21
420.6788595714
  0
LINE
  5
79E
100
AcDbEntity
  8
BASIC_DEVICE
100
AcDbLine
 62
7
  6
CONTINUOUS
 10
465.9237321134
 20
420.6788595714
 11
473.9237321134
 21
420.6788595714
  0
LINE
  5
79F
100
AcDbEntity
  8
CAGE_COMMANDE
100
AcDbLine
 62
7
  6
CONTINUOUS
 10
495.0237321134
 20
420.7788595714
 11
516.5944638207
 21
420.7788595714
  0
LINE
  5
7A0
100
AcDbEntity
  8
BASIC_DEVICE
100
AcDbLine
 62
7
  6
CONTINUOUS
 10
473.6765106129
 20
194.9816310799
 11
477.4292891123
 21
188.4816280493
  0
LINE
  5
7A1
100
AcDbEntity
  8
TERMINAL_SCHROUD
100
AcDbLine
 62
2
  6
CONTINUOUS
 10
434.0596800118
 20
248.5793634365
 11
443.5598986887
 21
232.1123177299
  0
LINE
  5
7A2
100
AcDbEntity
  8
TERMINAL_SCHROUD
100
AcDbLine
 62
2
  6
CONTINUOUS
 10
443.910219445
 20
232.3144258586
 11
434.4100007681
 21
248.7814715651
  0
LINE
  5
7A3
100
AcDbEntity
  8
TERMINAL_SCHROUD
100
AcDbLine
 62
2
  6
CONTINUOUS
 10
432.5356803012
 20
235.5267903349
 11
433.337804864
 21
232.7179925075
  0
LINE
  5
7A4
100
AcDbEntity
  8
TERMINAL_SCHROUD
100
AcDbLine
 62
2
  6
CONTINUOUS
 10
419.4237321134
 20
217.4816310799
 11
419.4237321134
 21
198.4816310799
  0
LINE
  5
7A5
100
AcDbEntity
  8
TERMINAL_SCHROUD
100
AcDbLine
 62
2
  6
CONTINUOUS
 10
419.4237321134
 20
354.1788595714
 11
419.4237321134
 21
365.6788595714
  0
LINE
  5
7A6
100
AcDbEntity
  8
COVER_FUSE
100
AcDbLine
 62
6
  6
CONTINUOUS
 10
420.9237321134
 20
182.4816310799
 11
420.9237321134
 21
203.9816310799
  0
LINE
  5
7A7
100
AcDbEntity
  8
TERMINAL_SCHROUD
100
AcDbLine
 62
2
  6
CONTINUOUS
 10
420.9237321134
 20
273.9816310799
 11
420.9237321134
 21
275.4816310799
  0
LINE
  5
7A8
100
AcDbEntity
  8
COVER_FUSE
100
AcDbLine
 62
6
  6
CONTINUOUS
 10
420.9237321134
 20
456.1788595714
 11
420.9237321134
 21
464.6788595714
  0
LINE
  5
7A9
100
AcDbEntity
  8
COVER_FUSE
100
AcDbLine
 62
6
  6
CONTINUOUS
 10
421.0237321134
 20
100.4816310799
 11
421.0237321134
 21
82.4816310799
  0
LINE
  5
7AA
100
AcDbEntity
  8
BASIC_DEVICE
100
AcDbLine
 62
7
  6
CONTINUOUS
 10
421.0237321134
 20
60.4816310799
 11
421.0237321134
 21
100.4816310799
  0
LINE
  5
7AB
100
AcDbEntity
  8
BASIC_DEVICE
100
AcDbLine
 62
7
  6
CONTINUOUS
 10
421.0237321134
 20
181.4816310799
 11
421.0237321134
 21
222.4816310799
  0
LINE
  5
7AC
100
AcDbEntity
  8
COVER_FUSE
100
AcDbLine
 62
6
  6
CONTINUOUS
 10
421.0237321134
 20
431.1788595714
 11
421.0237321134
 21
445.1788595714
  0
LINE
  5
7AD
100
AcDbEntity
  8
BASIC_DEVICE
100
AcDbLine
 62
7
  6
CONTINUOUS
 10
421.0237321134
 20
349.6788595474
 11
421.0237321134
 21
447.1788595714
  0
LINE
  5
7AE
100
AcDbEntity
  8
TERMINAL_SCHROUD
100
AcDbLine
 62
2
  6
CONTINUOUS
 10
421.9237321134
 20
247.9816310799
 11
421.9237321134
 21
273.9816310799
  0
LINE
  5
7AF
100
AcDbEntity
  8
SUPPORT_FUSE
100
AcDbLine
 62
40
  6
CONTINUOUS
 10
422.4237321134
 20
112.9816310799
 11
422.4237321134
 21
110.9816310799
  0
LINE
  5
7B0
100
AcDbEntity
  8
SUPPORT_FUSE
100
AcDbLine
 62
40
  6
CONTINUOUS
 10
422.4237321134
 20
169.9816310799
 11
422.4237321134
 21
171.9816310799
  0
LINE
  5
7B1
100
AcDbEntity
  8
BASIC_DEVICE
100
AcDbLine
 62
7
  6
CONTINUOUS
 10
422.9237321134
 20
119.4816310799
 11
422.9237321134
 21
121.4816310799
  0
LINE
  5
7B2
100
AcDbEntity
  8
BASIC_DEVICE
100
AcDbLine
 62
7
  6
CONTINUOUS
 10
422.9237321134
 20
161.4816310799
 11
422.9237321134
 21
163.4816310799
  0
LINE
  5
7B3
100
AcDbEntity
  8
COVER_FUSE
100
AcDbLine
 62
6
  6
CONTINUOUS
 10
423.1237321134
 20
456.1788595714
 11
423.1237321134
 21
460.1788595714
  0
LINE
  5
7B4
100
AcDbEntity
  8
BASIC_DEVICE
100
AcDbLine
 62
7
  6
CONTINUOUS
 10
423.4237321134
 20
419.1788595714
 11
423.4237321134
 21
415.1788595714
  0
LINE
  5
7B5
100
AcDbEntity
  8
BASIC_DEVICE
100
AcDbLine
 62
7
  6
CONTINUOUS
 10
423.4237321134
 20
409.1788595714
 11
423.4237321134
 21
405.6788595714
  0
LINE
  5
7B6
100
AcDbEntity
  8
BASIC_DEVICE
100
AcDbLine
 62
7
  6
CONTINUOUS
 10
423.4237321134
 20
84.9816310799
 11
423.4237321134
 21
106.4816310799
  0
LINE
  5
7B7
100
AcDbEntity
  8
BASIC_DEVICE
100
AcDbLine
 62
7
  6
CONTINUOUS
 10
423.4237321134
 20
178.9816310799
 11
423.4237321134
 21
197.9816310799
  0
LINE
  5
7B8
100
AcDbEntity
  8
BASIC_DEVICE
100
AcDbLine
 62
7
  6
CONTINUOUS
 10
423.5237321134
 20
222.4816310799
 11
423.5237321134
 21
200.4816310799
  0
LINE
  5
7B9
100
AcDbEntity
  8
BASIC_DEVICE
100
AcDbLine
 62
7
  6
CONTINUOUS
 10
423.5237321134
 20
60.4816310799
 11
423.5237321134
 21
82.4816310799
  0
LINE
  5
7BA
100
AcDbEntity
  8
BASIC_DEVICE
100
AcDbLine
 62
7
  6
CONTINUOUS
 10
423.5237321134
 20
357.6788595714
 11
423.5237321134
 21
360.6788595714
  0
LINE
  5
7BB
100
AcDbEntity
  8
TERMINAL_SCHROUD
100
AcDbLine
 62
2
  6
CONTINUOUS
 10
423.9237321134
 20
207.3816310799
 11
423.9237321134
 21
200.8816310799
  0
LINE
  5
7BC
100
AcDbEntity
  8
TERMINAL_SCHROUD
100
AcDbLine
 62
2
  6
CONTINUOUS
 10
423.9237321134
 20
198.4816310799
 11
423.9237321134
 21
184.4816310799
  0
LINE
  5
7BD
100
AcDbEntity
  8
CONTACT
100
AcDbLine
 62
40
  6
CONTINUOUS
 10
423.9237321134
 20
82.4816310799
 11
423.9237321134
 21
64.1816310799
  0
LINE
  5
7BE
100
AcDbEntity
  8
BASIC_DEVICE
100
AcDbLine
 62
7
  6
CONTINUOUS
 10
423.9237321134
 20
110.9816310799
 11
423.9237321134
 21
112.9816310799
  0
LINE
  5
7BF
100
AcDbEntity
  8
BASIC_DEVICE
100
AcDbLine
 62
7
  6
CONTINUOUS
 10
423.9237321134
 20
169.9816310799
 11
423.9237321134
 21
171.9816310799
  0
LINE
  5
7C0
100
AcDbEntity
  8
CONTACT
100
AcDbLine
 62
40
  6
CONTINUOUS
 10
423.9237321134
 20
200.4816310799
 11
423.9237321134
 21
218.7816310799
  0
LINE
  5
7C1
100
AcDbEntity
  8
CONTACT
100
AcDbLine
 62
40
  6
CONTINUOUS
 10
423.9237321134
 20
358.1788595714
 11
423.9237321134
 21
360.6788595714
  0
LINE
  5
7C2
100
AcDbEntity
  8
TERMINAL_SCHROUD
100
AcDbLine
 62
2
  6
CONTINUOUS
 10
423.9237321134
 20
365.6788595714
 11
423.9237321134
 21
376.3788595714
  0
LINE
  5
7C3
100
AcDbEntity
  8
BASIC_DEVICE
100
AcDbLine
 62
7
  6
CONTINUOUS
 10
423.9237321134
 20
375.6788595714
 11
423.9237321134
 21
382.1788595714
  0
LINE
  5
7C4
100
AcDbEntity
  8
TERMINAL_SCHROUD
100
AcDbLine
 62
2
  6
CONTINUOUS
 10
423.9237321134
 20
385.1788595714
 11
423.9237321134
 21
389.1788595714
  0
LINE
  5
7C5
100
AcDbEntity
  8
BASIC_DEVICE
100
AcDbLine
 62
7
  6
CONTINUOUS
 10
423.9237321134
 20
389.1788595714
 11
423.9237321134
 21
394.1788595714
  0
LINE
  5
7C6
100
AcDbEntity
  8
COVER_FUSE
100
AcDbLine
 62
6
  6
CONTINUOUS
 10
423.9237321134
 20
456.1788595714
 11
423.9237321134
 21
460.1788595714
  0
LINE
  5
7C7
100
AcDbEntity
  8
MOVING
100
AcDbLine
 62
1
  6
AM_ISO02W050X2
 10
425.0237321134
 20
149.98163108
 11
425.0237321134
 21
132.9816310799
  0
LINE
  5
7C8
100
AcDbEntity
  8
BASIC_DEVICE
100
AcDbLine
 62
7
  6
CONTINUOUS
 10
425.4237321134
 20
409.1788595714
 11
425.4237321134
 21
405.6788595714
  0
LINE
  5
7C9
100
AcDbEntity
  8
BASIC_DEVICE
100
AcDbLine
 62
7
  6
CONTINUOUS
 10
425.4237321134
 20
415.1788595714
 11
425.4237321134
 21
419.1788595714
  0
LINE
  5
7CA
100
AcDbEntity
  8
TERMINAL_SCHROUD
100
AcDbLine
 62
2
  6
CONTINUOUS
 10
425.9237321134
 20
184.4816310799
 11
425.9237321134
 21
208.4816310799
  0
LINE
  5
7CB
100
AcDbEntity
  8
TERMINAL_SCHROUD
100
AcDbLine
 62
2
  6
CONTINUOUS
 10
425.9237321134
 20
273.9816310799
 11
425.9237321134
 21
275.4816310799
  0
LINE
  5
7CC
100
AcDbEntity
  8
BASIC_DEVICE
100
AcDbLine
 62
7
  6
CONTINUOUS
 10
425.9237321134
 20
367.6788595714
 11
425.9237321134
 21
371.6788595714
  0
LINE
  5
7CD
100
AcDbEntity
  8
TERMINAL_SCHROUD
100
AcDbLine
 62
2
  6
CONTINUOUS
 10
425.9237321134
 20
376.3788595714
 11
425.9237321134
 21
389.1788595714
  0
LINE
  5
7CE
100
AcDbEntity
  8
TERMINAL_SCHROUD
100
AcDbLine
 62
2
  6
CONTINUOUS
 10
425.9737321134
 20
368.8788595714
 11
425.9737321134
 21
371.4288595714
  0
LINE
  5
7CF
100
AcDbEntity
  8
BASIC_DEVICE
100
AcDbLine
 62
7
  6
CONTINUOUS
 10
426.4237321134
 20
431.1788595714
 11
426.4237321134
 21
436.1788595714
  0
LINE
  5
7D0
100
AcDbEntity
  8
BASIC_DEVICE
100
AcDbLine
 62
7
  6
CONTINUOUS
 10
426.9237321134
 20
419.1788595714
 11
426.9237321134
 21
415.1788595714
  0
LINE
  5
7D1
100
AcDbEntity
  8
TERMINAL_SCHROUD
100
AcDbLine
 62
2
  6
CONTINUOUS
 10
427.9237321134
 20
385.1788595714
 11
427.9237321134
 21
372.1788595714
  0
LINE
  5
7D2
100
AcDbEntity
  8
TERMINAL_SCHROUD
100
AcDbLine
 62
2
  6
CONTINUOUS
 10
427.9237321134
 20
208.4816310799
 11
427.9237321134
 21
184.4816310799
  0
LINE
  5
7D3
100
AcDbEntity
  8
TERMINAL_SCHROUD
100
AcDbLine
 62
2
  6
CONTINUOUS
 10
428.1737321134
 20
367.6788595714
 11
428.1737321134
 21
371.4288595714
  0
LINE
  5
7D4
100
AcDbEntity
  8
SUPPORT_FUSE
100
AcDbLine
 62
40
  6
CONTINUOUS
 10
429.0737321134
 20
110.9816310799
 11
429.0737321134
 21
106.9816310799
  0
LINE
  5
7D5
100
AcDbEntity
  8
SUPPORT_FUSE
100
AcDbLine
 62
40
  6
CONTINUOUS
 10
429.0737321134
 20
171.9816310799
 11
429.0737321134
 21
175.9816310799
  0
LINE
  5
7D6
100
AcDbEntity
  8
COVER_FUSE
100
AcDbLine
 62
6
  6
CONTINUOUS
 10
429.6737321134
 20
167.9816310799
 11
429.6737321134
 21
161.9816310799
  0
LINE
  5
7D7
100
AcDbEntity
  8
COVER_FUSE
100
AcDbLine
 62
6
  6
CONTINUOUS
 10
429.6737321134
 20
120.4816310799
 11
429.6737321134
 21
114.4816310799
  0
LINE
  5
7D8
100
AcDbEntity
  8
BASIC_DEVICE
100
AcDbLine
 62
7
  6
CONTINUOUS
 10
429.9237321134
 20
420.6788595714
 11
429.9237321134
 21
431.1788595714
  0
LINE
  5
7D9
100
AcDbEntity
  8
BASIC_DEVICE
100
AcDbLine
 62
7
  6
CONTINUOUS
 10
429.9237321134
 20
436.1788595714
 11
429.9237321134
 21
442.6788595714
  0
LINE
  5
7DA
100
AcDbEntity
  8
BASIC_DEVICE
100
AcDbLine
 62
7
  6
CONTINUOUS
 10
430.1737321134
 20
200.4816310799
 11
430.1737321134
 21
197.9816310799
  0
LINE
  5
7DB
100
AcDbEntity
  8
BASIC_DEVICE
100
AcDbLine
 62
7
  6
CONTINUOUS
 10
430.1737321134
 20
82.4816310799
 11
430.1737321134
 21
84.9816310799
  0
LINE
  5
7DC
100
AcDbEntity
  8
TERMINAL_SCHROUD
100
AcDbLine
 62
2
  6
CONTINUOUS
 10
430.5237321134
 20
203.6816310799
 11
430.5237321134
 21
200.8816310799
  0
LINE
  5
7DD
100
AcDbEntity
  8
FUSE
100
AcDbLine
 62
3
  6
CONTINUOUS
 10
430.9237321134
 20
114.4816310799
 11
430.9237321134
 21
102.2316310799
  0
LINE
  5
7DE
100
AcDbEntity
  8
FUSE
100
AcDbLine
 62
3
  6
CONTINUOUS
 10
430.9237321134
 20
168.4816310799
 11
430.9237321134
 21
180.7316310799
  0
LINE
  5
7DF
100
AcDbEntity
  8
SUPPORT_FUSE
100
AcDbLine
 62
40
  6
CONTINUOUS
 10
431.0737321134
 20
175.9816310799
 11
431.0737321134
 21
169.9816310799
  0
LINE
  5
7E0
100
AcDbEntity
  8
SUPPORT_FUSE
100
AcDbLine
 62
40
  6
CONTINUOUS
 10
431.0737321134
 20
106.9816310799
 11
431.0737321134
 21
112.9816310799
  0
LINE
  5
7E1
100
AcDbEntity
  8
BASIC_DEVICE
100
AcDbLine
 62
7
  6
CONTINUOUS
 10
431.9237321134
 20
169.9816310799
 11
431.9237321134
 21
163.4816310799
  0
LINE
  5
7E2
100
AcDbEntity
  8
BASIC_DEVICE
100
AcDbLine
 62
7
  6
CONTINUOUS
 10
431.9237321134
 20
161.4816310799
 11
431.9237321134
 21
141.4816310799
  0
LINE
  5
7E3
100
AcDbEntity
  8
TERMINAL_SCHROUD
100
AcDbLine
 62
2
  6
CONTINUOUS
 10
432.8237321134
 20
273.9816310799
 11
432.8237321134
 21
275.4816310799
  0
LINE
  5
7E4
100
AcDbEntity
  8
BASIC_DEVICE
100
AcDbLine
 62
7
  6
CONTINUOUS
 10
433.9237321134
 20
222.48163108
 11
433.9237321134
 21
194.9816310799
  0
LINE
  5
7E5
100
AcDbEntity
  8
BASIC_DEVICE
100
AcDbLine
 62
7
  6
CONTINUOUS
 10
433.9237321134
 20
181.9816250187
 11
433.9237321134
 21
171.9816310799
  0
LINE
  5
7E6
100
AcDbEntity
  8
BASIC_DEVICE
100
AcDbLine
 62
7
  6
CONTINUOUS
 10
433.9237321135
 20
110.9816310799
 11
433.9237321135
 21
100.9816371412
  0
LINE
  5
7E7
100
AcDbEntity
  8
BASIC_DEVICE
100
AcDbLine
 62
7
  6
CONTINUOUS
 10
433.9237321135
 20
87.9816310799
 11
433.9237321134
 21
60.48163108
  0
LINE
  5
7E8
100
AcDbEntity
  8
AXIS
100
AcDbLine
 62
4
  6
AM_ISO08W050
 10
433.9237321134
 20
65.2316310799
 11
433.9237321134
 21
76.7316310799
  0
LINE
  5
7E9
100
AcDbEntity
  8
AXIS
100
AcDbLine
 62
4
  6
AM_ISO08W050
 10
433.9237321134
 20
206.2316310799
 11
433.9237321134
 21
217.7316310799
  0
LINE
  5
7EA
100
AcDbEntity
  8
BASIC_DEVICE
100
AcDbLine
 62
7
  6
CONTINUOUS
 10
433.9237321134
 20
340.6788595714
 11
433.9237321134
 21
357.6788595714
  0
LINE
  5
7EB
100
AcDbEntity
  8
AXIS
100
AcDbLine
 62
4
  6
AM_ISO08W050
 10
433.9237321134
 20
355.1788595714
 11
433.9237321134
 21
363.6788595714
  0
LINE
  5
7EC
100
AcDbEntity
  8
BASIC_DEVICE
100
AcDbLine
 62
7
  6
CONTINUOUS
 10
433.9237321134
 20
360.6788595714
 11
433.9237321134
 21
367.6788595714
  0
LINE
  5
7ED
100
AcDbEntity
  8
BASIC_DEVICE
100
AcDbLine
 62
7
  6
CONTINUOUS
 10
433.9237321134
 20
371.6788595714
 11
433.9237321134
 21
375.6788595714
  0
LINE
  5
7EE
100
AcDbEntity
  8
BASIC_DEVICE
100
AcDbLine
 62
7
  6
CONTINUOUS
 10
433.9237321134
 20
382.1788595714
 11
433.9237321134
 21
420.6788595714
  0
LINE
  5
7EF
100
AcDbEntity
  8
TERMINAL_SCHROUD
100
AcDbLine
 62
2
  6
CONTINUOUS
 10
435.0237321134
 20
273.9816310799
 11
435.0237321134
 21
275.4816310799
  0
LINE
  5
7F0
100
AcDbEntity
  8
BASIC_DEVICE
100
AcDbLine
 62
7
  6
CONTINUOUS
 10
435.9237321134
 20
141.4816310799
 11
435.9237321134
 21
121.4816310799
  0
LINE
  5
7F1
100
AcDbEntity
  8
BASIC_DEVICE
100
AcDbLine
 62
7
  6
CONTINUOUS
 10
435.9237321134
 20
119.4816310799
 11
435.9237321134
 21
112.9816310799
  0
LINE
  5
7F2
100
AcDbEntity
  8
SUPPORT_FUSE
100
AcDbLine
 62
40
  6
CONTINUOUS
 10
436.7737321134
 20
112.9816310799
 11
436.7737321134
 21
106.9816310799
  0
LINE
  5
7F3
100
AcDbEntity
  8
SUPPORT_FUSE
100
AcDbLine
 62
40
  6
CONTINUOUS
 10
436.7737321134
 20
169.9816310799
 11
436.7737321134
 21
175.9816310799
  0
LINE
  5
7F4
100
AcDbEntity
  8
FUSE
100
AcDbLine
 62
3
  6
CONTINUOUS
 10
436.9237321134
 20
180.7316310799
 11
436.9237321134
 21
168.4816310799
  0
LINE
  5
7F5
100
AcDbEntity
  8
FUSE
100
AcDbLine
 62
3
  6
CONTINUOUS
 10
436.9237321134
 20
102.2316310799
 11
436.9237321134
 21
114.4816310799
  0
LINE
  5
7F6
100
AcDbEntity
  8
BASIC_DEVICE
100
AcDbLine
 62
7
  6
CONTINUOUS
 10
436.9237321134
 20
389.1788595714
 11
436.9237321134
 21
399.1788595714
  0
LINE
  5
7F7
100
AcDbEntity
  8
TERMINAL_SCHROUD
100
AcDbLine
 62
2
  6
CONTINUOUS
 10
437.3237321134
 20
200.8816310799
 11
437.3237321134
 21
203.6816310799
  0
LINE
  5
7F8
100
AcDbEntity
  8
BASIC_DEVICE
100
AcDbLine
 62
7
  6
CONTINUOUS
 10
437.6737321134
 20
200.48163108
 11
437.6737321134
 21
197.98163108
  0
LINE
  5
7F9
100
AcDbEntity
  8
BASIC_DEVICE
100
AcDbLine
 62
7
  6
CONTINUOUS
 10
437.6737321134
 20
82.48163108
 11
437.6737321134
 21
84.98163108
  0
LINE
  5
7FA
100
AcDbEntity
  8
BASIC_DEVICE
100
AcDbLine
 62
7
  6
CONTINUOUS
 10
437.9237321134
 20
420.6788595714
 11
437.9237321134
 21
431.1788595714
  0
LINE
  5
7FB
100
AcDbEntity
  8
BASIC_DEVICE
100
AcDbLine
 62
7
  6
CONTINUOUS
 10
437.9237321134
 20
436.1788595714
 11
437.9237321134
 21
442.6788595714
  0
LINE
  5
7FC
100
AcDbEntity
  8
COVER_FUSE
100
AcDbLine
 62
6
  6
CONTINUOUS
 10
438.1737321134
 20
114.4816310799
 11
438.1737321134
 21
120.4816310799
  0
LINE
  5
7FD
100
AcDbEntity
  8
COVER_FUSE
100
AcDbLine
 62
6
  6
CONTINUOUS
 10
438.1737321134
 20
161.9816310799
 11
438.1737321134
 21
167.9816310799
  0
LINE
  5
7FE
100
AcDbEntity
  8
SUPPORT_FUSE
100
AcDbLine
 62
40
  6
CONTINUOUS
 10
438.7737321134
 20
175.9816310799
 11
438.7737321134
 21
171.9816310799
  0
LINE
  5
7FF
100
AcDbEntity
  8
SUPPORT_FUSE
100
AcDbLine
 62
40
  6
CONTINUOUS
 10
438.7737321134
 20
106.9816310799
 11
438.7737321134
 21
110.9816310799
  0
LINE
  5
800
100
AcDbEntity
  8
TERMINAL_SCHROUD
100
AcDbLine
 62
2
  6
CONTINUOUS
 10
439.6737321134
 20
371.4288595714
 11
439.6737321134
 21
367.6788595714
  0
LINE
  5
801
100
AcDbEntity
  8
TERMINAL_SCHROUD
100
AcDbLine
 62
2
  6
CONTINUOUS
 10
439.9237321134
 20
184.4816310799
 11
439.9237321134
 21
208.4816310799
  0
LINE
  5
802
100
AcDbEntity
  8
TERMINAL_SCHROUD
100
AcDbLine
 62
2
  6
CONTINUOUS
 10
439.9237321134
 20
372.1788595714
 11
439.9237321134
 21
385.1788595714
  0
LINE
  5
803
100
AcDbEntity
  8
BASIC_DEVICE
100
AcDbLine
 62
7
  6
CONTINUOUS
 10
440.9237321134
 20
419.1788595714
 11
440.9237321134
 21
415.1788595714
  0
LINE
  5
804
100
AcDbEntity
  8
BASIC_DEVICE
100
AcDbLine
 62
7
  6
CONTINUOUS
 10
441.4237321134
 20
431.1788595714
 11
441.4237321134
 21
436.1788595714
  0
LINE
  5
805
100
AcDbEntity
  8
TERMINAL_SCHROUD
100
AcDbLine
 62
2
  6
CONTINUOUS
 10
441.8737321134
 20
371.4288595714
 11
441.8737321134
 21
368.8788595714
  0
LINE
  5
806
100
AcDbEntity
  8
TERMINAL_SCHROUD
100
AcDbLine
 62
2
  6
CONTINUOUS
 10
441.9237321134
 20
208.4816310799
 11
441.9237321134
 21
184.4816310799
  0
LINE
  5
807
100
AcDbEntity
  8
TERMINAL_SCHROUD
100
AcDbLine
 62
2
  6
CONTINUOUS
 10
441.9237321134
 20
273.9816310799
 11
441.9237321134
 21
275.4816310799
  0
LINE
  5
808
100
AcDbEntity
  8
BASIC_DEVICE
100
AcDbLine
 62
7
  6
CONTINUOUS
 10
441.9237321134
 20
367.6788595714
 11
441.9237321134
 21
371.6788595714
  0
LINE
  5
809
100
AcDbEntity
  8
TERMINAL_SCHROUD
100
AcDbLine
 62
2
  6
CONTINUOUS
 10
441.9237321134
 20
376.3788595714
 11
441.9237321134
 21
385.1788595714
  0
LINE
  5
80A
100
AcDbEntity
  8
BASIC_DEVICE
100
AcDbLine
 62
7
  6
CONTINUOUS
 10
442.4237321134
 20
409.1788595714
 11
442.4237321134
 21
405.6788595714
  0
LINE
  5
80B
100
AcDbEntity
  8
BASIC_DEVICE
100
AcDbLine
 62
7
  6
CONTINUOUS
 10
442.4237321134
 20
415.1788595714
 11
442.4237321134
 21
419.1788595714
  0
LINE
  5
80C
100
AcDbEntity
  8
TERMINAL_SCHROUD
100
AcDbLine
 62
2
  6
CONTINUOUS
 10
434.590117757
 20
239.8808442855
 11
433.4816541372
 21
235.2898460062
  0
LINE
  5
80D
100
AcDbEntity
  8
TERMINAL_SCHROUD
100
AcDbLine
 62
2
  6
CONTINUOUS
 10
434.4232590192
 20
235.0539959983
 11
436.0190493677
 21
241.6633881454
  0
LINE
  5
80E
100
AcDbEntity
  8
TERMINAL_SCHROUD
100
AcDbLine
 62
2
  6
CONTINUOUS
 10
433.0977615938
 20
244.442183164
 11
431.4913805095
 21
238.3600509278
  0
LINE
  5
80F
100
AcDbEntity
  8
TERMINAL_SCHROUD
100
AcDbLine
 62
2
  6
CONTINUOUS
 10
432.9729405685
 20
240.1684236942
 11
434.0362386664
 21
244.1943174881
  0
LINE
  5
810
100
AcDbEntity
  8
TERMINAL_SCHROUD
100
AcDbLine
 62
2
  6
CONTINUOUS
 10
433.4374634587
 20
248.7814715651
 11
423.9372447818
 21
232.3144258586
  0
LINE
  5
811
100
AcDbEntity
  8
TERMINAL_SCHROUD
100
AcDbLine
 62
2
  6
CONTINUOUS
 10
424.2875655381
 20
232.1123177299
 11
433.787784215
 21
248.5793634365
  0
LINE
  5
812
100
AcDbEntity
  8
BASIC_DEVICE
100
AcDbLine
 62
7
  6
CONTINUOUS
 10
390.4181751144
 20
188.4816280493
 11
394.1709536138
 21
194.9816310799
  0
LINE
  5
813
100
AcDbEntity
  8
BASIC_DEVICE
100
AcDbLine
 62
7
  6
CONTINUOUS
 10
405.4292891123
 20
188.4816280493
 11
401.6765106129
 21
181.9816250187
  0
LINE
  5
814
100
AcDbEntity
  8
TERMINAL_SCHROUD
100
AcDbLine
 62
2
  6
CONTINUOUS
 10
433.337804864
 20
232.7179925075
 11
435.3692328553
 21
234.8170516696
  0
LINE
  5
815
100
AcDbEntity
  8
MOVING
100
AcDbLine
 62
1
  6
AM_ISO02W050X2
 10
194.5052754229
 20
74.4868211485
 11
183.8958000767
 21
68.8797690818
  0
LINE
  5
816
100
AcDbEntity
  8
MOVING
100
AcDbLine
 62
1
  6
AM_ISO02W050X2
 10
114.25163031
 20
23.0246753897
 11
115.1357532555
 21
23.4919297286
  0
LINE
  5
817
100
AcDbEntity
  8
MOVING
100
AcDbLine
 62
1
  6
AM_ISO02W050X2
 10
118.6722450375
 20
25.3609470842
 11
119.5563679831
 21
25.8282014231
  0
LINE
  5
818
100
AcDbEntity
  8
MOVING
100
AcDbLine
 62
1
  6
AM_ISO02W050X2
 10
120.0236223219
 20
24.9440784776
 11
114.7188846489
 21
22.1405524442
  0
LINE
  5
819
100
AcDbEntity
  8
MOVING
100
AcDbLine
 62
1
  6
AM_ISO02W050X2
 10
92.6595453084
 20
10.2560944363
 11
94.4277911995
 21
11.190603114
  0
LINE
  5
81A
100
AcDbEntity
  8
MOVING
100
AcDbLine
 62
1
  6
AM_ISO02W050X2
 10
199.6450731506
 20
64.7614687478
 11
93.5006031185
 21
8.6646731343
  0
LINE
  5
81B
100
AcDbEntity
  8
CAGE_COMMANDE
100
AcDbLine
 62
7
  6
CONTINUOUS
 10
519.0237321134
 20
423.0788595714
 11
514.0237321134
 21
423.0788595714
  0
LINE
  5
81C
100
AcDbEntity
  8
CAGE_COMMANDE
100
AcDbLine
 62
7
  6
CONTINUOUS
 10
493.0237321134
 20
423.0788595714
 11
498.0237321134
 21
423.0788595714
  0
LINE
  5
81D
100
AcDbEntity
  8
CAGE_COMMANDE
100
AcDbLine
 62
7
  6
CONTINUOUS
 10
521.0237321134
 20
423.8788595714
 11
514.0237321134
 21
423.8788595714
  0
LINE
  5
81E
100
AcDbEntity
  8
CAGE_COMMANDE
100
AcDbLine
 62
7
  6
CONTINUOUS
 10
491.0237321134
 20
423.8788595714
 11
498.0237321134
 21
423.8788595714
  0
LINE
  5
81F
100
AcDbEntity
  8
CAGE_COMMANDE
100
AcDbLine
 62
7
  6
CONTINUOUS
 10
521.0237321134
 20
425.0788595714
 11
514.0237321134
 21
425.0788595714
  0
LINE
  5
820
100
AcDbEntity
  8
CAGE_COMMANDE
100
AcDbLine
 62
7
  6
CONTINUOUS
 10
491.0237321134
 20
425.0788595714
 11
498.0237321134
 21
425.0788595714
  0
LINE
  5
821
100
AcDbEntity
  8
BASIC_DEVICE
100
AcDbLine
 62
7
  6
CONTINUOUS
 10
465.9237321134
 20
431.1788595714
 11
462.4237321134
 21
431.1788595714
  0
LINE
  5
822
100
AcDbEntity
  8
BASIC_DEVICE
100
AcDbLine
 62
7
  6
CONTINUOUS
 10
429.9237321134
 20
431.1788595714
 11
426.4237321134
 21
431.1788595714
  0
LINE
  5
823
100
AcDbEntity
  8
BASIC_DEVICE
100
AcDbLine
 62
7
  6
CONTINUOUS
 10
393.9237321134
 20
431.1788595714
 11
390.4237321134
 21
431.1788595714
  0
LINE
  5
824
100
AcDbEntity
  8
COVER_FUSE
100
AcDbLine
 62
6
  6
CONTINUOUS
 10
382.9237321134
 20
431.1788595714
 11
385.0237321134
 21
431.1788595714
  0
LINE
  5
825
100
AcDbEntity
  8
BASIC_DEVICE
100
AcDbLine
 62
7
  6
CONTINUOUS
 10
401.9237321134
 20
431.1788595714
 11
405.4237321134
 21
431.1788595714
  0
LINE
  5
826
100
AcDbEntity
  8
COVER_FUSE
100
AcDbLine
 62
6
  6
CONTINUOUS
 10
410.8237321134
 20
431.1788595714
 11
412.9237321134
 21
431.1788595714
  0
LINE
  5
827
100
AcDbEntity
  8
COVER_FUSE
100
AcDbLine
 62
6
  6
CONTINUOUS
 10
418.9237321134
 20
431.1788595714
 11
421.0237321134
 21
431.1788595714
  0
LINE
  5
828
100
AcDbEntity
  8
BASIC_DEVICE
100
AcDbLine
 62
7
  6
CONTINUOUS
 10
437.9237321134
 20
431.1788595714
 11
441.4237321134
 21
431.1788595714
  0
LINE
  5
829
100
AcDbEntity
  8
COVER_FUSE
100
AcDbLine
 62
6
  6
CONTINUOUS
 10
446.8237321134
 20
431.1788595714
 11
448.9237321134
 21
431.1788595714
  0
LINE
  5
82A
100
AcDbEntity
  8
COVER_FUSE
100
AcDbLine
 62
6
  6
CONTINUOUS
 10
454.9237321134
 20
431.1788595714
 11
457.0237321134
 21
431.1788595714
  0
LINE
  5
82B
100
AcDbEntity
  8
BASIC_DEVICE
100
AcDbLine
 62
7
  6
CONTINUOUS
 10
473.9237321134
 20
431.1788595714
 11
477.4237321134
 21
431.1788595714
  0
LINE
  5
82C
100
AcDbEntity
  8
COVER_FUSE
100
AcDbLine
 62
6
  6
CONTINUOUS
 10
482.8237321134
 20
431.1788595714
 11
484.9237321134
 21
431.1788595714
  0
LINE
  5
82D
100
AcDbEntity
  8
BASIC_DEVICE
100
AcDbLine
 62
7
  6
CONTINUOUS
 10
484.6237321134
 20
434.1788595714
 11
482.8237321134
 21
434.1788595714
  0
LINE
  5
82E
100
AcDbEntity
  8
BASIC_DEVICE
100
AcDbLine
 62
7
  6
CONTINUOUS
 10
448.6237321134
 20
434.1788595714
 11
446.8237321134
 21
434.1788595714
  0
LINE
  5
82F
100
AcDbEntity
  8
BASIC_DEVICE
100
AcDbLine
 62
7
  6
CONTINUOUS
 10
412.6237321134
 20
434.1788595714
 11
410.8237321134
 21
434.1788595714
  0
LINE
  5
830
100
AcDbEntity
  8
BASIC_DEVICE
100
AcDbLine
 62
7
  6
CONTINUOUS
 10
383.2237321134
 20
434.1788595714
 11
385.0237321134
 21
434.1788595714
  0
LINE
  5
831
100
AcDbEntity
  8
BASIC_DEVICE
100
AcDbLine
 62
7
  6
CONTINUOUS
 10
419.2237321134
 20
434.1788595714
 11
421.0237321134
 21
434.1788595714
  0
LINE
  5
832
100
AcDbEntity
  8
BASIC_DEVICE
100
AcDbLine
 62
7
  6
CONTINUOUS
 10
455.2237321134
 20
434.1788595714
 11
457.0237321134
 21
434.1788595714
  0
LINE
  5
833
100
AcDbEntity
  8
BASIC_DEVICE
100
AcDbLine
 62
7
  6
CONTINUOUS
 10
477.4237321134
 20
436.1788595714
 11
473.9237321134
 21
436.1788595714
  0
LINE
  5
834
100
AcDbEntity
  8
BASIC_DEVICE
100
AcDbLine
 62
7
  6
CONTINUOUS
 10
441.4237321134
 20
436.1788595714
 11
437.9237321134
 21
436.1788595714
  0
LINE
  5
835
100
AcDbEntity
  8
BASIC_DEVICE
100
AcDbLine
 62
7
  6
CONTINUOUS
 10
405.4237321134
 20
436.1788595714
 11
401.9237321134
 21
436.1788595714
  0
LINE
  5
836
100
AcDbEntity
  8
BASIC_DEVICE
100
AcDbLine
 62
7
  6
CONTINUOUS
 10
390.4237321134
 20
436.1788595714
 11
393.9237321134
 21
436.1788595714
  0
LINE
  5
837
100
AcDbEntity
  8
BASIC_DEVICE
100
AcDbLine
 62
7
  6
CONTINUOUS
 10
426.4237321134
 20
436.1788595714
 11
429.9237321134
 21
436.1788595714
  0
LINE
  5
838
100
AcDbEntity
  8
BASIC_DEVICE
100
AcDbLine
 62
7
  6
CONTINUOUS
 10
462.4237321134
 20
436.1788595714
 11
465.9237321134
 21
436.1788595714
  0
LINE
  5
839
100
AcDbEntity
  8
AXIS
100
AcDbLine
 62
4
  6
AM_ISO08W050
 10
487.6237321134
 20
437.1788595714
 11
479.8237321134
 21
437.1788595714
  0
LINE
  5
83A
100
AcDbEntity
  8
AXIS
100
AcDbLine
 62
4
  6
AM_ISO08W050
 10
460.0237321134
 20
437.1788595714
 11
452.2237321134
 21
437.1788595714
  0
LINE
  5
83B
100
AcDbEntity
  8
AXIS
100
AcDbLine
 62
4
  6
AM_ISO08W050
 10
451.6237321134
 20
437.1788595714
 11
443.8237321134
 21
437.1788595714
  0
LINE
  5
83C
100
AcDbEntity
  8
AXIS
100
AcDbLine
 62
4
  6
AM_ISO08W050
 10
424.0237321134
 20
437.1788595714
 11
416.2237321134
 21
437.1788595714
  0
LINE
  5
83D
100
AcDbEntity
  8
AXIS
100
AcDbLine
 62
4
  6
AM_ISO08W050
 10
415.6237321134
 20
437.1788595714
 11
407.8237321134
 21
437.1788595714
  0
LINE
  5
83E
100
AcDbEntity
  8
AXIS
100
AcDbLine
 62
4
  6
AM_ISO08W050
 10
388.0237321134
 20
437.1788595714
 11
380.2237321134
 21
437.1788595714
  0
LINE
  5
83F
100
AcDbEntity
  8
AXIS
100
AcDbLine
 62
4
  6
AM_ISO08W050X2
 10
380.2237321134
 20
437.1788595714
 11
379.9237321134
 21
437.1788595714
  0
LINE
  5
840
100
AcDbEntity
  8
AXIS
100
AcDbLine
 62
4
  6
AM_ISO08W050X2
 10
415.6237321134
 20
437.1788595714
 11
416.2237321134
 21
437.1788595714
  0
LINE
  5
841
100
AcDbEntity
  8
AXIS
100
AcDbLine
 62
4
  6
AM_ISO08W050X2
 10
451.6237321134
 20
437.1788595714
 11
452.2237321134
 21
437.1788595714
  0
LINE
  5
842
100
AcDbEntity
  8
AXIS
100
AcDbLine
 62
4
  6
AM_ISO08W050X2
 10
487.6237321134
 20
437.1788595714
 11
487.9237321134
 21
437.1788595714
  0
LINE
  5
843
100
AcDbEntity
  8
COVER_FUSE
100
AcDbLine
 62
6
  6
CONTINUOUS
 10
379.9237321134
 20
437.6788595714
 11
381.9237321134
 21
437.6788595714
  0
LINE
  5
844
100
AcDbEntity
  8
BASIC_DEVICE
100
AcDbLine
 62
7
  6
CONTINUOUS
 10
412.6237321134
 20
437.6788595714
 11
415.9237321134
 21
437.6788595714
  0
LINE
  5
845
100
AcDbEntity
  8
COVER_FUSE
100
AcDbLine
 62
6
  6
CONTINUOUS
 10
413.9237321134
 20
437.6788595714
 11
417.9237321134
 21
437.6788595714
  0
LINE
  5
846
100
AcDbEntity
  8
BASIC_DEVICE
100
AcDbLine
 62
7
  6
CONTINUOUS
 10
448.6237321134
 20
437.6788595714
 11
451.9237321134
 21
437.6788595714
  0
LINE
  5
847
100
AcDbEntity
  8
COVER_FUSE
100
AcDbLine
 62
6
  6
CONTINUOUS
 10
449.9237321134
 20
437.6788595714
 11
453.9237321134
 21
437.6788595714
  0
LINE
  5
848
100
AcDbEntity
  8
BASIC_DEVICE
100
AcDbLine
 62
7
  6
CONTINUOUS
 10
484.6237321134
 20
437.6788595714
 11
487.9237321134
 21
437.6788595714
  0
LINE
  5
849
100
AcDbEntity
  8
COVER_FUSE
100
AcDbLine
 62
6
  6
CONTINUOUS
 10
485.9237321134
 20
437.6788595714
 11
487.9237321134
 21
437.6788595714
  0
LINE
  5
84A
100
AcDbEntity
  8
BASIC_DEVICE
100
AcDbLine
 62
7
  6
CONTINUOUS
 10
455.2237321134
 20
439.6788595714
 11
451.9237321134
 21
439.6788595714
  0
LINE
  5
84B
100
AcDbEntity
  8
BASIC_DEVICE
100
AcDbLine
 62
7
  6
CONTINUOUS
 10
419.2237321134
 20
439.6788595714
 11
415.9237321134
 21
439.6788595714
  0
LINE
  5
84C
100
AcDbEntity
  8
BASIC_DEVICE
100
AcDbLine
 62
7
  6
CONTINUOUS
 10
383.2237321134
 20
439.6788595714
 11
379.9237321134
 21
439.6788595714
  0
LINE
  5
84D
100
AcDbEntity
  8
BASIC_DEVICE
100
AcDbLine
 62
7
  6
CONTINUOUS
 10
457.0237321134
 20
440.1788595714
 11
455.2237321134
 21
440.1788595714
  0
LINE
  5
84E
100
AcDbEntity
  8
BASIC_DEVICE
100
AcDbLine
 62
7
  6
CONTINUOUS
 10
421.0237321134
 20
440.1788595714
 11
419.2237321134
 21
440.1788595714
  0
LINE
  5
84F
100
AcDbEntity
  8
BASIC_DEVICE
100
AcDbLine
 62
7
  6
CONTINUOUS
 10
385.0237321134
 20
440.1788595714
 11
383.2237321134
 21
440.1788595714
  0
LINE
  5
850
100
AcDbEntity
  8
BASIC_DEVICE
100
AcDbLine
 62
7
  6
CONTINUOUS
 10
410.8237321134
 20
440.1788595714
 11
412.6237321134
 21
440.1788595714
  0
LINE
  5
851
100
AcDbEntity
  8
BASIC_DEVICE
100
AcDbLine
 62
7
  6
CONTINUOUS
 10
446.8237321134
 20
440.1788595714
 11
448.6237321134
 21
440.1788595714
  0
LINE
  5
852
100
AcDbEntity
  8
BASIC_DEVICE
100
AcDbLine
 62
7
  6
CONTINUOUS
 10
482.8237321134
 20
440.1788595714
 11
484.6237321134
 21
440.1788595714
  0
LINE
  5
853
100
AcDbEntity
  8
BASIC_DEVICE
100
AcDbLine
 62
7
  6
CONTINUOUS
 10
465.9237321134
 20
442.6788595714
 11
457.0237321134
 21
442.6788595714
  0
LINE
  5
854
100
AcDbEntity
  8
BASIC_DEVICE
100
AcDbLine
 62
7
  6
CONTINUOUS
 10
429.9237321134
 20
442.6788595714
 11
421.0237321134
 21
442.6788595714
  0
LINE
  5
855
100
AcDbEntity
  8
BASIC_DEVICE
100
AcDbLine
 62
7
  6
CONTINUOUS
 10
393.9237321134
 20
442.6788595714
 11
385.0237321134
 21
442.6788595714
  0
LINE
  5
856
100
AcDbEntity
  8
BASIC_DEVICE
100
AcDbLine
 62
7
  6
CONTINUOUS
 10
401.9237321134
 20
442.6788595714
 11
410.8237321134
 21
442.6788595714
  0
LINE
  5
857
100
AcDbEntity
  8
BASIC_DEVICE
100
AcDbLine
 62
7
  6
CONTINUOUS
 10
437.9237321134
 20
442.6788595714
 11
446.8237321134
 21
442.6788595714
  0
LINE
  5
858
100
AcDbEntity
  8
BASIC_DEVICE
100
AcDbLine
 62
7
  6
CONTINUOUS
 10
473.9237321134
 20
442.6788595714
 11
482.8237321134
 21
442.6788595714
  0
LINE
  5
859
100
AcDbEntity
  8
BASIC_DEVICE
100
AcDbLine
 62
7
  6
CONTINUOUS
 10
413.9237321134
 20
443.6788595714
 11
415.9237321134
 21
443.6788595714
  0
LINE
  5
85A
100
AcDbEntity
  8
BASIC_DEVICE
100
AcDbLine
 62
7
  6
CONTINUOUS
 10
449.9237321134
 20
443.6788595714
 11
451.9237321134
 21
443.6788595714
  0
LINE
  5
85B
100
AcDbEntity
  8
BASIC_DEVICE
100
AcDbLine
 62
7
  6
CONTINUOUS
 10
485.9237321134
 20
443.6788595714
 11
487.9237321134
 21
443.6788595714
  0
LINE
  5
85C
100
AcDbEntity
  8
BASIC_DEVICE
100
AcDbLine
 62
7
  6
CONTINUOUS
 10
486.6737321134
 20
445.1788595714
 11
481.6737321134
 21
445.1788595714
  0
LINE
  5
85D
100
AcDbEntity
  8
BASIC_DEVICE
100
AcDbLine
 62
7
  6
CONTINUOUS
 10
450.6737321134
 20
445.1788595714
 11
445.6737321134
 21
445.1788595714
  0
LINE
  5
85E
100
AcDbEntity
  8
BASIC_DEVICE
100
AcDbLine
 62
7
  6
CONTINUOUS
 10
414.6737321134
 20
445.1788595714
 11
409.6737321134
 21
445.1788595714
  0
LINE
  5
85F
100
AcDbEntity
  8
TERMINAL_SCHROUD
100
AcDbLine
 62
2
  6
CONTINUOUS
 10
470.0596800118
 20
248.5793634365
 11
479.5598986887
 21
232.1123177299
  0
LINE
  5
860
100
AcDbEntity
  8
TERMINAL_SCHROUD
100
AcDbLine
 62
2
  6
CONTINUOUS
 10
479.910219445
 20
232.3144258586
 11
470.4100007681
 21
248.7814715651
  0
LINE
  5
861
100
AcDbEntity
  8
CONTACT
100
AcDbLine
 62
40
  6
CONTINUOUS
 10
443.9237321134
 20
360.6788595714
 11
443.9237321134
 21
358.1788595714
  0
LINE
  5
862
100
AcDbEntity
  8
CONTACT
100
AcDbLine
 62
40
  6
CONTINUOUS
 10
443.9237321134
 20
218.7816310799
 11
443.9237321134
 21
200.48163108
  0
LINE
  5
863
100
AcDbEntity
  8
BASIC_DEVICE
100
AcDbLine
 62
7
  6
CONTINUOUS
 10
443.9237321134
 20
171.9816310799
 11
443.9237321134
 21
169.9816310799
  0
LINE
  5
864
100
AcDbEntity
  8
BASIC_DEVICE
100
AcDbLine
 62
7
  6
CONTINUOUS
 10
443.9237321134
 20
112.98163108
 11
443.9237321135
 21
110.98163108
  0
LINE
  5
865
100
AcDbEntity
  8
CONTACT
100
AcDbLine
 62
40
  6
CONTINUOUS
 10
443.9237321134
 20
64.1816310799
 11
443.9237321134
 21
82.4816310799
  0
LINE
  5
866
100
AcDbEntity
  8
TERMINAL_SCHROUD
100
AcDbLine
 62
2
  6
CONTINUOUS
 10
443.9237321134
 20
184.4816310799
 11
443.9237321134
 21
198.4816310799
  0
LINE
  5
867
100
AcDbEntity
  8
TERMINAL_SCHROUD
100
AcDbLine
 62
2
  6
CONTINUOUS
 10
443.9237321134
 20
365.6788595714
 11
443.9237321134
 21
376.3788595714
  0
LINE
  5
868
100
AcDbEntity
  8
BASIC_DEVICE
100
AcDbLine
 62
7
  6
CONTINUOUS
 10
443.9237321134
 20
375.6788595714
 11
443.9237321134
 21
382.1788595714
  0
LINE
  5
869
100
AcDbEntity
  8
BASIC_DEVICE
100
AcDbLine
 62
7
  6
CONTINUOUS
 10
443.9237321134
 20
389.1788595714
 11
443.9237321134
 21
394.1788595714
  0
LINE
  5
86A
100
AcDbEntity
  8
COVER_FUSE
100
AcDbLine
 62
6
  6
CONTINUOUS
 10
443.9237321134
 20
456.1788595714
 11
443.9237321134
 21
460.1788595714
  0
LINE
  5
86B
100
AcDbEntity
  8
BASIC_DEVICE
100
AcDbLine
 62
7
  6
CONTINUOUS
 10
444.3237321134
 20
222.48163108
 11
444.3237321134
 21
200.48163108
  0
LINE
  5
86C
100
AcDbEntity
  8
BASIC_DEVICE
100
AcDbLine
 62
7
  6
CONTINUOUS
 10
444.3237321134
 20
60.48163108
 11
444.3237321134
 21
82.48163108
  0
LINE
  5
86D
100
AcDbEntity
  8
BASIC_DEVICE
100
AcDbLine
 62
7
  6
CONTINUOUS
 10
444.3237321134
 20
357.6788595714
 11
444.3237321134
 21
360.6788595714
  0
LINE
  5
86E
100
AcDbEntity
  8
BASIC_DEVICE
100
AcDbLine
 62
7
  6
CONTINUOUS
 10
444.4237321134
 20
419.1788595714
 11
444.4237321134
 21
415.1788595714
  0
LINE
  5
86F
100
AcDbEntity
  8
BASIC_DEVICE
100
AcDbLine
 62
7
  6
CONTINUOUS
 10
444.4237321134
 20
409.1788595714
 11
444.4237321134
 21
405.6788595714
  0
LINE
  5
870
100
AcDbEntity
  8
BASIC_DEVICE
100
AcDbLine
 62
7
  6
CONTINUOUS
 10
444.4237321134
 20
103.98163108
 11
444.4237321134
 21
84.98163108
  0
LINE
  5
871
100
AcDbEntity
  8
BASIC_DEVICE
100
AcDbLine
 62
7
  6
CONTINUOUS
 10
444.4237321134
 20
176.4816310799
 11
444.4237321134
 21
197.98163108
  0
LINE
  5
872
100
AcDbEntity
  8
BASIC_DEVICE
100
AcDbLine
 62
7
  6
CONTINUOUS
 10
444.4237321134
 20
442.6788595714
 11
444.4237321134
 21
447.1788595714
  0
LINE
  5
873
100
AcDbEntity
  8
COVER_FUSE
100
AcDbLine
 62
6
  6
CONTINUOUS
 10
444.7237321134
 20
456.1788595714
 11
444.7237321134
 21
460.1788595714
  0
LINE
  5
874
100
AcDbEntity
  8
BASIC_DEVICE
100
AcDbLine
 62
7
  6
CONTINUOUS
 10
444.9237321134
 20
163.4816310799
 11
444.9237321134
 21
161.4816310799
  0
LINE
  5
875
100
AcDbEntity
  8
BASIC_DEVICE
100
AcDbLine
 62
7
  6
CONTINUOUS
 10
444.9237321134
 20
121.48163108
 11
444.9237321134
 21
119.48163108
  0
LINE
  5
876
100
AcDbEntity
  8
SUPPORT_FUSE
100
AcDbLine
 62
40
  6
CONTINUOUS
 10
445.4237321134
 20
171.9816310799
 11
445.4237321134
 21
169.9816310799
  0
LINE
  5
877
100
AcDbEntity
  8
SUPPORT_FUSE
100
AcDbLine
 62
40
  6
CONTINUOUS
 10
445.4237321134
 20
110.9816310799
 11
445.4237321134
 21
112.9816310799
  0
LINE
  5
878
100
AcDbEntity
  8
TERMINAL_SCHROUD
100
AcDbLine
 62
2
  6
CONTINUOUS
 10
445.9237321134
 20
247.9816310799
 11
445.9237321134
 21
273.9816310799
  0
LINE
  5
879
100
AcDbEntity
  8
COVER_FUSE
100
AcDbLine
 62
6
  6
CONTINUOUS
 10
446.8237321134
 20
445.1788595714
 11
446.8237321134
 21
431.1788595714
  0
LINE
  5
87A
100
AcDbEntity
  8
BASIC_DEVICE
100
AcDbLine
 62
7
  6
CONTINUOUS
 10
446.8237321134
 20
442.6788595714
 11
446.8237321134
 21
349.6788595474
  0
LINE
  5
87B
100
AcDbEntity
  8
BASIC_DEVICE
100
AcDbLine
 62
7
  6
CONTINUOUS
 10
446.8237321134
 20
60.48163108
 11
446.8237321134
 21
101.48163108
  0
LINE
  5
87C
100
AcDbEntity
  8
COVER_FUSE
100
AcDbLine
 62
6
  6
CONTINUOUS
 10
446.8237321134
 20
82.4816310799
 11
446.8237321134
 21
100.4816310799
  0
LINE
  5
87D
100
AcDbEntity
  8
BASIC_DEVICE
100
AcDbLine
 62
7
  6
CONTINUOUS
 10
446.8237321134
 20
182.4816310799
 11
446.8237321134
 21
222.48163108
  0
LINE
  5
87E
100
AcDbEntity
  8
COVER_FUSE
100
AcDbLine
 62
6
  6
CONTINUOUS
 10
446.9237321134
 20
464.6788595714
 11
446.9237321134
 21
456.1788595714
  0
LINE
  5
87F
100
AcDbEntity
  8
TERMINAL_SCHROUD
100
AcDbLine
 62
2
  6
CONTINUOUS
 10
446.9237321134
 20
275.4816310799
 11
446.9237321134
 21
273.9816310799
  0
LINE
  5
880
100
AcDbEntity
  8
COVER_FUSE
100
AcDbLine
 62
6
  6
CONTINUOUS
 10
446.9237321134
 20
182.4816310799
 11
446.9237321134
 21
203.9816310799
  0
LINE
  5
881
100
AcDbEntity
  8
TERMINAL_SCHROUD
100
AcDbLine
 62
2
  6
CONTINUOUS
 10
448.4237321134
 20
198.4816310799
 11
448.4237321134
 21
217.4816310799
  0
LINE
  5
882
100
AcDbEntity
  8
TERMINAL_SCHROUD
100
AcDbLine
 62
2
  6
CONTINUOUS
 10
448.4237321134
 20
354.1788595714
 11
448.4237321134
 21
365.6788595714
  0
LINE
  5
883
100
AcDbEntity
  8
BASIC_DEVICE
100
AcDbLine
 62
7
  6
CONTINUOUS
 10
448.6237321134
 20
440.1788595714
 11
448.6237321134
 21
434.1788595714
  0
LINE
  5
884
100
AcDbEntity
  8
BASIC_DEVICE
100
AcDbLine
 62
7
  6
CONTINUOUS
 10
448.6237321134
 20
197.4816310799
 11
448.6237321134
 21
191.4816310799
  0
LINE
  5
885
100
AcDbEntity
  8
BASIC_DEVICE
100
AcDbLine
 62
7
  6
CONTINUOUS
 10
448.6237321134
 20
85.4816310799
 11
448.6237321134
 21
91.4816310799
  0
LINE
  5
886
100
AcDbEntity
  8
FUSE
100
AcDbLine
 62
3
  6
CONTINUOUS
 10
448.9237321134
 20
168.4816310799
 11
448.9237321134
 21
114.4816310799
  0
LINE
  5
887
100
AcDbEntity
  8
COVER_FUSE
100
AcDbLine
 62
6
  6
CONTINUOUS
 10
448.9237321134
 20
82.4816310799
 11
448.9237321134
 21
94.4816310799
  0
LINE
  5
888
100
AcDbEntity
  8
COVER_FUSE
100
AcDbLine
 62
6
  6
CONTINUOUS
 10
448.9237321134
 20
431.1788595714
 11
448.9237321134
 21
454.1788595714
  0
LINE
  5
889
100
AcDbEntity
  8
BASIC_DEVICE
100
AcDbLine
 62
7
  6
CONTINUOUS
 10
449.2237321134
 20
95.48163108
 11
449.2237321134
 21
63.98163108
  0
LINE
  5
88A
100
AcDbEntity
  8
BASIC_DEVICE
100
AcDbLine
 62
7
  6
CONTINUOUS
 10
449.2237321134
 20
187.48163108
 11
449.2237321134
 21
218.9816310799
  0
LINE
  5
88B
100
AcDbEntity
  8
BASIC_DEVICE
100
AcDbLine
 62
7
  6
CONTINUOUS
 10
449.2237321134
 20
340.6788595714
 11
449.2237321134
 21
349.6788595474
  0
LINE
  5
88C
100
AcDbEntity
  8
TERMINAL_SCHROUD
100
AcDbLine
 62
2
  6
CONTINUOUS
 10
449.4237321134
 20
354.1788595714
 11
449.4237321134
 21
341.6788595714
  0
LINE
  5
88D
100
AcDbEntity
  8
COVER_FUSE
100
AcDbLine
 62
6
  6
CONTINUOUS
 10
449.9237321134
 20
447.6788595714
 11
449.9237321134
 21
437.6788595714
  0
LINE
  5
88E
100
AcDbEntity
  8
BASIC_DEVICE
100
AcDbLine
 62
7
  6
CONTINUOUS
 10
449.9237321134
 20
176.4816310799
 11
449.9237321134
 21
103.9816310799
  0
LINE
  5
88F
100
AcDbEntity
  8
BASIC_DEVICE
100
AcDbLine
 62
7
  6
CONTINUOUS
 10
449.9237321134
 20
437.6788595714
 11
449.9237321134
 21
443.6788595714
  0
LINE
  5
890
100
AcDbEntity
  8
BASIC_DEVICE
100
AcDbLine
 62
7
  6
CONTINUOUS
 10
450.1237321134
 20
367.1788595714
 11
450.1237321134
 21
376.1788595714
  0
LINE
  5
891
100
AcDbEntity
  8
TERMINAL_SCHROUD
100
AcDbLine
 62
2
  6
CONTINUOUS
 10
451.4237321134
 20
217.4816310799
 11
451.4237321134
 21
273.9816310799
  0
LINE
  5
892
100
AcDbEntity
  8
TERMINAL_SCHROUD
100
AcDbLine
 62
2
  6
CONTINUOUS
 10
451.4237321134
 20
341.6788595714
 11
451.4237321134
 21
385.1788595714
  0
LINE
  5
893
100
AcDbEntity
  8
COVER_FUSE
100
AcDbLine
 62
6
  6
CONTINUOUS
 10
451.9237321134
 20
464.6788595714
 11
451.9237321134
 21
437.6788595714
  0
LINE
  5
894
100
AcDbEntity
  8
BASIC_DEVICE
100
AcDbLine
 62
7
  6
CONTINUOUS
 10
451.9237321134
 20
447.1788595714
 11
451.9237321134
 21
340.6788595714
  0
LINE
  5
895
100
AcDbEntity
  8
COVER_FUSE
100
AcDbLine
 62
6
  6
CONTINUOUS
 10
451.9237321134
 20
182.4816310799
 11
451.9237321134
 21
100.4816310799
  0
LINE
  5
896
100
AcDbEntity
  8
BASIC_DEVICE
100
AcDbLine
 62
7
  6
CONTINUOUS
 10
451.9237321134
 20
98.4816310799
 11
451.9237321134
 21
184.4816310799
  0
LINE
  5
897
100
AcDbEntity
  8
TERMINAL_SCHROUD
100
AcDbLine
 62
2
  6
CONTINUOUS
 10
452.4237321134
 20
385.1788595714
 11
452.4237321134
 21
341.6788595714
  0
LINE
  5
898
100
AcDbEntity
  8
TERMINAL_SCHROUD
100
AcDbLine
 62
2
  6
CONTINUOUS
 10
452.4237321134
 20
273.9816310799
 11
452.4237321134
 21
217.4816310799
  0
LINE
  5
899
100
AcDbEntity
  8
BASIC_DEVICE
100
AcDbLine
 62
7
  6
CONTINUOUS
 10
453.7237321134
 20
367.1788595714
 11
453.7237321134
 21
376.1788595714
  0
LINE
  5
89A
100
AcDbEntity
  8
BASIC_DEVICE
100
AcDbLine
 62
7
  6
CONTINUOUS
 10
453.9237321134
 20
106.4816310799
 11
453.9237321134
 21
178.9816310799
  0
LINE
  5
89B
100
AcDbEntity
  8
COVER_FUSE
100
AcDbLine
 62
6
  6
CONTINUOUS
 10
453.9237321134
 20
437.6788595714
 11
453.9237321134
 21
447.6788595714
  0
LINE
  5
89C
100
AcDbEntity
  8
TERMINAL_SCHROUD
100
AcDbLine
 62
2
  6
CONTINUOUS
 10
454.4237321134
 20
341.6788595714
 11
454.4237321134
 21
354.1788595714
  0
LINE
  5
89D
100
AcDbEntity
  8
BASIC_DEVICE
100
AcDbLine
 62
7
  6
CONTINUOUS
 10
454.6237321134
 20
95.4816310799
 11
454.6237321134
 21
63.9816310799
  0
LINE
  5
89E
100
AcDbEntity
  8
BASIC_DEVICE
100
AcDbLine
 62
7
  6
CONTINUOUS
 10
454.6237321134
 20
187.4816310799
 11
454.6237321134
 21
218.9816310799
  0
LINE
  5
89F
100
AcDbEntity
  8
BASIC_DEVICE
100
AcDbLine
 62
7
  6
CONTINUOUS
 10
454.6237321134
 20
340.6788595714
 11
454.6237321134
 21
349.6788595474
  0
LINE
  5
8A0
100
AcDbEntity
  8
COVER_FUSE
100
AcDbLine
 62
6
  6
CONTINUOUS
 10
454.9237321134
 20
454.1788595714
 11
454.9237321134
 21
431.1788595714
  0
LINE
  5
8A1
100
AcDbEntity
  8
COVER_FUSE
100
AcDbLine
 62
6
  6
CONTINUOUS
 10
454.9237321134
 20
82.4816310799
 11
454.9237321134
 21
94.4816310799
  0
LINE
  5
8A2
100
AcDbEntity
  8
FUSE
100
AcDbLine
 62
3
  6
CONTINUOUS
 10
454.9237321134
 20
114.4816310799
 11
454.9237321134
 21
168.4816310799
  0
LINE
  5
8A3
100
AcDbEntity
  8
BASIC_DEVICE
100
AcDbLine
 62
7
  6
CONTINUOUS
 10
455.2237321134
 20
440.1788595714
 11
455.2237321134
 21
434.1788595714
  0
LINE
  5
8A4
100
AcDbEntity
  8
BASIC_DEVICE
100
AcDbLine
 62
7
  6
CONTINUOUS
 10
455.2237321134
 20
197.4816310799
 11
455.2237321134
 21
191.4816310799
  0
LINE
  5
8A5
100
AcDbEntity
  8
BASIC_DEVICE
100
AcDbLine
 62
7
  6
CONTINUOUS
 10
455.2237321134
 20
85.4816310799
 11
455.2237321134
 21
91.4816310799
  0
LINE
  5
8A6
100
AcDbEntity
  8
TERMINAL_SCHROUD
100
AcDbLine
 62
2
  6
CONTINUOUS
 10
455.4237321134
 20
217.4816310799
 11
455.4237321134
 21
198.4816310799
  0
LINE
  5
8A7
100
AcDbEntity
  8
TERMINAL_SCHROUD
100
AcDbLine
 62
2
  6
CONTINUOUS
 10
455.4237321134
 20
354.1788595714
 11
455.4237321134
 21
365.6788595714
  0
LINE
  5
8A8
100
AcDbEntity
  8
COVER_FUSE
100
AcDbLine
 62
6
  6
CONTINUOUS
 10
456.9237321134
 20
182.4816310799
 11
456.9237321134
 21
203.9816310799
  0
LINE
  5
8A9
100
AcDbEntity
  8
TERMINAL_SCHROUD
100
AcDbLine
 62
2
  6
CONTINUOUS
 10
456.9237321134
 20
273.9816310799
 11
456.9237321134
 21
275.4816310799
  0
LINE
  5
8AA
100
AcDbEntity
  8
COVER_FUSE
100
AcDbLine
 62
6
  6
CONTINUOUS
 10
456.9237321134
 20
456.1788595714
 11
456.9237321134
 21
464.6788595714
  0
LINE
  5
8AB
100
AcDbEntity
  8
COVER_FUSE
100
AcDbLine
 62
6
  6
CONTINUOUS
 10
457.0237321134
 20
100.4816310799
 11
457.0237321134
 21
82.4816310799
  0
LINE
  5
8AC
100
AcDbEntity
  8
BASIC_DEVICE
100
AcDbLine
 62
7
  6
CONTINUOUS
 10
457.0237321134
 20
60.4816310799
 11
457.0237321134
 21
100.4816310799
  0
LINE
  5
8AD
100
AcDbEntity
  8
BASIC_DEVICE
100
AcDbLine
 62
7
  6
CONTINUOUS
 10
457.0237321134
 20
181.4816310799
 11
457.0237321134
 21
222.4816310799
  0
LINE
  5
8AE
100
AcDbEntity
  8
COVER_FUSE
100
AcDbLine
 62
6
  6
CONTINUOUS
 10
457.0237321134
 20
431.1788595714
 11
457.0237321134
 21
445.1788595714
  0
LINE
  5
8AF
100
AcDbEntity
  8
BASIC_DEVICE
100
AcDbLine
 62
7
  6
CONTINUOUS
 10
457.0237321134
 20
349.6788595474
 11
457.0237321134
 21
447.1788595714
  0
LINE
  5
8B0
100
AcDbEntity
  8
TERMINAL_SCHROUD
100
AcDbLine
 62
2
  6
CONTINUOUS
 10
457.9237321134
 20
247.9816310799
 11
457.9237321134
 21
273.9816310799
  0
LINE
  5
8B1
100
AcDbEntity
  8
SUPPORT_FUSE
100
AcDbLine
 62
40
  6
CONTINUOUS
 10
458.4237321134
 20
112.9816310799
 11
458.4237321134
 21
110.9816310799
  0
LINE
  5
8B2
100
AcDbEntity
  8
SUPPORT_FUSE
100
AcDbLine
 62
40
  6
CONTINUOUS
 10
458.4237321134
 20
169.9816310799
 11
458.4237321134
 21
171.9816310799
  0
LINE
  5
8B3
100
AcDbEntity
  8
BASIC_DEVICE
100
AcDbLine
 62
7
  6
CONTINUOUS
 10
458.9237321134
 20
119.4816310799
 11
458.9237321134
 21
121.4816310799
  0
LINE
  5
8B4
100
AcDbEntity
  8
BASIC_DEVICE
100
AcDbLine
 62
7
  6
CONTINUOUS
 10
458.9237321134
 20
161.4816310799
 11
458.9237321134
 21
163.4816310799
  0
LINE
  5
8B5
100
AcDbEntity
  8
COVER_FUSE
100
AcDbLine
 62
6
  6
CONTINUOUS
 10
459.1237321134
 20
456.1788595714
 11
459.1237321134
 21
460.1788595714
  0
LINE
  5
8B6
100
AcDbEntity
  8
BASIC_DEVICE
100
AcDbLine
 62
7
  6
CONTINUOUS
 10
459.4237321134
 20
419.1788595714
 11
459.4237321134
 21
415.1788595714
  0
LINE
  5
8B7
100
AcDbEntity
  8
BASIC_DEVICE
100
AcDbLine
 62
7
  6
CONTINUOUS
 10
459.4237321134
 20
409.1788595714
 11
459.4237321134
 21
405.6788595714
  0
LINE
  5
8B8
100
AcDbEntity
  8
BASIC_DEVICE
100
AcDbLine
 62
7
  6
CONTINUOUS
 10
459.4237321134
 20
84.9816310799
 11
459.4237321134
 21
106.4816310799
  0
LINE
  5
8B9
100
AcDbEntity
  8
BASIC_DEVICE
100
AcDbLine
 62
7
  6
CONTINUOUS
 10
459.4237321134
 20
178.9816310799
 11
459.4237321134
 21
197.9816310799
  0
LINE
  5
8BA
100
AcDbEntity
  8
BASIC_DEVICE
100
AcDbLine
 62
7
  6
CONTINUOUS
 10
459.5237321134
 20
222.4816310799
 11
459.5237321134
 21
200.4816310799
  0
LINE
  5
8BB
100
AcDbEntity
  8
BASIC_DEVICE
100
AcDbLine
 62
7
  6
CONTINUOUS
 10
459.5237321134
 20
60.4816310799
 11
459.5237321134
 21
82.4816310799
  0
LINE
  5
8BC
100
AcDbEntity
  8
BASIC_DEVICE
100
AcDbLine
 62
7
  6
CONTINUOUS
 10
459.5237321134
 20
357.6788595714
 11
459.5237321134
 21
360.6788595714
  0
LINE
  5
8BD
100
AcDbEntity
  8
TERMINAL_SCHROUD
100
AcDbLine
 62
2
  6
CONTINUOUS
 10
459.9237321134
 20
207.3816310799
 11
459.9237321134
 21
200.8816310799
  0
LINE
  5
8BE
100
AcDbEntity
  8
TERMINAL_SCHROUD
100
AcDbLine
 62
2
  6
CONTINUOUS
 10
459.9237321134
 20
198.4816310799
 11
459.9237321134
 21
184.4816310799
  0
LINE
  5
8BF
100
AcDbEntity
  8
CONTACT
100
AcDbLine
 62
40
  6
CONTINUOUS
 10
459.9237321134
 20
82.4816310799
 11
459.9237321134
 21
64.1816310799
  0
LINE
  5
8C0
100
AcDbEntity
  8
BASIC_DEVICE
100
AcDbLine
 62
7
  6
CONTINUOUS
 10
459.9237321134
 20
110.9816310799
 11
459.9237321134
 21
112.9816310799
  0
LINE
  5
8C1
100
AcDbEntity
  8
BASIC_DEVICE
100
AcDbLine
 62
7
  6
CONTINUOUS
 10
459.9237321134
 20
169.9816310799
 11
459.9237321134
 21
171.9816310799
  0
LINE
  5
8C2
100
AcDbEntity
  8
CONTACT
100
AcDbLine
 62
40
  6
CONTINUOUS
 10
459.9237321134
 20
200.4816310799
 11
459.9237321134
 21
218.7816310799
  0
LINE
  5
8C3
100
AcDbEntity
  8
CONTACT
100
AcDbLine
 62
40
  6
CONTINUOUS
 10
459.9237321134
 20
358.1788595714
 11
459.9237321134
 21
360.6788595714
  0
LINE
  5
8C4
100
AcDbEntity
  8
TERMINAL_SCHROUD
100
AcDbLine
 62
2
  6
CONTINUOUS
 10
459.9237321134
 20
365.6788595714
 11
459.9237321134
 21
376.3788595714
  0
LINE
  5
8C5
100
AcDbEntity
  8
BASIC_DEVICE
100
AcDbLine
 62
7
  6
CONTINUOUS
 10
459.9237321134
 20
375.6788595714
 11
459.9237321134
 21
382.1788595714
  0
LINE
  5
8C6
100
AcDbEntity
  8
TERMINAL_SCHROUD
100
AcDbLine
 62
2
  6
CONTINUOUS
 10
459.9237321134
 20
385.1788595714
 11
459.9237321134
 21
389.1788595714
  0
LINE
  5
8C7
100
AcDbEntity
  8
BASIC_DEVICE
100
AcDbLine
 62
7
  6
CONTINUOUS
 10
459.9237321134
 20
389.1788595714
 11
459.9237321134
 21
394.1788595714
  0
LINE
  5
8C8
100
AcDbEntity
  8
COVER_FUSE
100
AcDbLine
 62
6
  6
CONTINUOUS
 10
459.9237321134
 20
456.1788595714
 11
459.9237321134
 21
460.1788595714
  0
LINE
  5
8C9
100
AcDbEntity
  8
BASIC_DEVICE
100
AcDbLine
 62
7
  6
CONTINUOUS
 10
461.4237321134
 20
409.1788595714
 11
461.4237321134
 21
405.6788595714
  0
LINE
  5
8CA
100
AcDbEntity
  8
BASIC_DEVICE
100
AcDbLine
 62
7
  6
CONTINUOUS
 10
461.4237321134
 20
415.1788595714
 11
461.4237321134
 21
419.1788595714
  0
LINE
  5
8CB
100
AcDbEntity
  8
TERMINAL_SCHROUD
100
AcDbLine
 62
2
  6
CONTINUOUS
 10
461.9237321134
 20
184.4816310799
 11
461.9237321134
 21
208.4816310799
  0
LINE
  5
8CC
100
AcDbEntity
  8
TERMINAL_SCHROUD
100
AcDbLine
 62
2
  6
CONTINUOUS
 10
461.9237321134
 20
273.9816310799
 11
461.9237321134
 21
275.4816310799
  0
LINE
  5
8CD
100
AcDbEntity
  8
BASIC_DEVICE
100
AcDbLine
 62
7
  6
CONTINUOUS
 10
461.9237321134
 20
367.6788595714
 11
461.9237321134
 21
371.6788595714
  0
LINE
  5
8CE
100
AcDbEntity
  8
TERMINAL_SCHROUD
100
AcDbLine
 62
2
  6
CONTINUOUS
 10
461.9237321134
 20
376.3788595714
 11
461.9237321134
 21
389.1788595714
  0
LINE
  5
8CF
100
AcDbEntity
  8
TERMINAL_SCHROUD
100
AcDbLine
 62
2
  6
CONTINUOUS
 10
461.9737321134
 20
368.8788595714
 11
461.9737321134
 21
371.4288595714
  0
LINE
  5
8D0
100
AcDbEntity
  8
BASIC_DEVICE
100
AcDbLine
 62
7
  6
CONTINUOUS
 10
462.4237321134
 20
431.1788595714
 11
462.4237321134
 21
436.1788595714
  0
LINE
  5
8D1
100
AcDbEntity
  8
BASIC_DEVICE
100
AcDbLine
 62
7
  6
CONTINUOUS
 10
462.9237321134
 20
419.1788595714
 11
462.9237321134
 21
415.1788595714
  0
LINE
  5
8D2
100
AcDbEntity
  8
TERMINAL_SCHROUD
100
AcDbLine
 62
2
  6
CONTINUOUS
 10
463.9237321134
 20
385.1788595714
 11
463.9237321134
 21
372.1788595714
  0
LINE
  5
8D3
100
AcDbEntity
  8
TERMINAL_SCHROUD
100
AcDbLine
 62
2
  6
CONTINUOUS
 10
463.9237321134
 20
208.4816310799
 11
463.9237321134
 21
184.4816310799
  0
LINE
  5
8D4
100
AcDbEntity
  8
TERMINAL_SCHROUD
100
AcDbLine
 62
2
  6
CONTINUOUS
 10
464.1737321134
 20
367.6788595714
 11
464.1737321134
 21
371.4288595714
  0
LINE
  5
8D5
100
AcDbEntity
  8
SUPPORT_FUSE
100
AcDbLine
 62
40
  6
CONTINUOUS
 10
465.0737321134
 20
110.9816310799
 11
465.0737321134
 21
106.9816310799
  0
LINE
  5
8D6
100
AcDbEntity
  8
SUPPORT_FUSE
100
AcDbLine
 62
40
  6
CONTINUOUS
 10
465.0737321134
 20
171.9816310799
 11
465.0737321134
 21
175.9816310799
  0
LINE
  5
8D7
100
AcDbEntity
  8
TERMINAL_SCHROUD
100
AcDbLine
 62
2
  6
CONTINUOUS
 10
469.4374634587
 20
248.7814715651
 11
459.9372447818
 21
232.3144258586
  0
LINE
  5
8D8
100
AcDbEntity
  8
TERMINAL_SCHROUD
100
AcDbLine
 62
2
  6
CONTINUOUS
 10
460.2875655381
 20
232.1123177299
 11
469.787784215
 21
248.5793634365
  0
LINE
  5
8D9
100
AcDbEntity
  8
BASIC_DEVICE
100
AcDbLine
 62
7
  6
CONTINUOUS
 10
426.4181751144
 20
188.4816280493
 11
430.1709536138
 21
194.9816310799
  0
LINE
  5
8DA
100
AcDbEntity
  8
BASIC_DEVICE
100
AcDbLine
 62
7
  6
CONTINUOUS
 10
441.4292891123
 20
188.4816280493
 11
437.6765106129
 21
181.9816250187
  0
LINE
  5
8DB
100
AcDbEntity
  8
TERMINAL_SCHROUD
100
AcDbLine
 62
2
  6
CONTINUOUS
 10
469.337804864
 20
232.7179925075
 11
471.3692328553
 21
234.8170516696
  0
LINE
  5
8DC
100
AcDbEntity
  8
BASIC_DEVICE
100
AcDbLine
 62
7
  6
CONTINUOUS
 10
385.0237321134
 20
447.1788595714
 11
379.9237321134
 21
447.1788595714
  0
LINE
  5
8DD
100
AcDbEntity
  8
BASIC_DEVICE
100
AcDbLine
 62
7
  6
CONTINUOUS
 10
408.4237321134
 20
447.1788595714
 11
421.0237321134
 21
447.1788595714
  0
LINE
  5
8DE
100
AcDbEntity
  8
BASIC_DEVICE
100
AcDbLine
 62
7
  6
CONTINUOUS
 10
444.4237321134
 20
447.1788595714
 11
457.0237321134
 21
447.1788595714
  0
LINE
  5
8DF
100
AcDbEntity
  8
BASIC_DEVICE
100
AcDbLine
 62
7
  6
CONTINUOUS
 10
480.4237321134
 20
447.1788595714
 11
487.9237321134
 21
447.1788595714
  0
LINE
  5
8E0
100
AcDbEntity
  8
COVER_FUSE
100
AcDbLine
 62
6
  6
CONTINUOUS
 10
381.9237321134
 20
447.6788595714
 11
382.9237321134
 21
447.6788595714
  0
LINE
  5
8E1
100
AcDbEntity
  8
COVER_FUSE
100
AcDbLine
 62
6
  6
CONTINUOUS
 10
387.5237321134
 20
447.6788595714
 11
408.3237321134
 21
447.6788595714
  0
LINE
  5
8E2
100
AcDbEntity
  8
COVER_FUSE
100
AcDbLine
 62
6
  6
CONTINUOUS
 10
412.9237321134
 20
447.6788595714
 11
413.9237321134
 21
447.6788595714
  0
LINE
  5
8E3
100
AcDbEntity
  8
COVER_FUSE
100
AcDbLine
 62
6
  6
CONTINUOUS
 10
417.9237321134
 20
447.6788595714
 11
418.9237321134
 21
447.6788595714
  0
LINE
  5
8E4
100
AcDbEntity
  8
COVER_FUSE
100
AcDbLine
 62
6
  6
CONTINUOUS
 10
423.5237321134
 20
447.6788595714
 11
444.3237321134
 21
447.6788595714
  0
LINE
  5
8E5
100
AcDbEntity
  8
COVER_FUSE
100
AcDbLine
 62
6
  6
CONTINUOUS
 10
448.9237321134
 20
447.6788595714
 11
449.9237321134
 21
447.6788595714
  0
LINE
  5
8E6
100
AcDbEntity
  8
COVER_FUSE
100
AcDbLine
 62
6
  6
CONTINUOUS
 10
453.9237321134
 20
447.6788595714
 11
454.9237321134
 21
447.6788595714
  0
LINE
  5
8E7
100
AcDbEntity
  8
COVER_FUSE
100
AcDbLine
 62
6
  6
CONTINUOUS
 10
459.5237321134
 20
447.6788595714
 11
480.3237321134
 21
447.6788595714
  0
LINE
  5
8E8
100
AcDbEntity
  8
COVER_FUSE
100
AcDbLine
 62
6
  6
CONTINUOUS
 10
484.9237321134
 20
447.6788595714
 11
485.9237321134
 21
447.6788595714
  0
LINE
  5
8E9
100
AcDbEntity
  8
COVER_FUSE
100
AcDbLine
 62
6
  6
CONTINUOUS
 10
482.9237321134
 20
456.1788595714
 11
479.9237321134
 21
456.1788595714
  0
LINE
  5
8EA
100
AcDbEntity
  8
COVER_FUSE
100
AcDbLine
 62
6
  6
CONTINUOUS
 10
446.9237321134
 20
456.1788595714
 11
443.9237321134
 21
456.1788595714
  0
LINE
  5
8EB
100
AcDbEntity
  8
COVER_FUSE
100
AcDbLine
 62
6
  6
CONTINUOUS
 10
410.9237321134
 20
456.1788595714
 11
407.9237321134
 21
456.1788595714
  0
LINE
  5
8EC
100
AcDbEntity
  8
COVER_FUSE
100
AcDbLine
 62
6
  6
CONTINUOUS
 10
384.9237321134
 20
456.1788595714
 11
387.9237321134
 21
456.1788595714
  0
LINE
  5
8ED
100
AcDbEntity
  8
COVER_FUSE
100
AcDbLine
 62
6
  6
CONTINUOUS
 10
420.9237321134
 20
456.1788595714
 11
423.9237321134
 21
456.1788595714
  0
LINE
  5
8EE
100
AcDbEntity
  8
COVER_FUSE
100
AcDbLine
 62
6
  6
CONTINUOUS
 10
456.9237321134
 20
456.1788595714
 11
459.9237321134
 21
456.1788595714
  0
LINE
  5
8EF
100
AcDbEntity
  8
0
100
AcDbLine
 62
7
  6
CONTINUOUS
 10
280.9336639268
 20
459.1494513817
 11
66.4524454933
 21
459.1494513817
  0
LINE
  5
8F0
100
AcDbEntity
  8
COVER_FUSE
100
AcDbLine
 62
6
  6
CONTINUOUS
 10
459.9237321134
 20
460.1788595714
 11
456.9237321134
 21
460.1788595714
  0
LINE
  5
8F1
100
AcDbEntity
  8
COVER_FUSE
100
AcDbLine
 62
6
  6
CONTINUOUS
 10
423.9237321134
 20
460.1788595714
 11
420.9237321134
 21
460.1788595714
  0
LINE
  5
8F2
100
AcDbEntity
  8
COVER_FUSE
100
AcDbLine
 62
6
  6
CONTINUOUS
 10
387.9237321134
 20
460.1788595714
 11
384.9237321134
 21
460.1788595714
  0
LINE
  5
8F3
100
AcDbEntity
  8
COVER_FUSE
100
AcDbLine
 62
6
  6
CONTINUOUS
 10
407.9237321134
 20
460.1788595714
 11
410.9237321134
 21
460.1788595714
  0
LINE
  5
8F4
100
AcDbEntity
  8
COVER_FUSE
100
AcDbLine
 62
6
  6
CONTINUOUS
 10
443.9237321134
 20
460.1788595714
 11
446.9237321134
 21
460.1788595714
  0
LINE
  5
8F5
100
AcDbEntity
  8
COVER_FUSE
100
AcDbLine
 62
6
  6
CONTINUOUS
 10
479.9237321134
 20
460.1788595714
 11
482.9237321134
 21
460.1788595714
  0
LINE
  5
8F6
100
AcDbEntity
  8
COVER_FUSE
100
AcDbLine
 62
6
  6
CONTINUOUS
 10
485.4237321134
 20
467.1788595714
 11
454.4237321134
 21
467.1788595714
  0
LINE
  5
8F7
100
AcDbEntity
  8
COVER_FUSE
100
AcDbLine
 62
6
  6
CONTINUOUS
 10
449.4237321134
 20
467.1788595714
 11
418.4237321134
 21
467.1788595714
  0
LINE
  5
8F8
100
AcDbEntity
  8
COVER_FUSE
100
AcDbLine
 62
6
  6
CONTINUOUS
 10
413.4237321134
 20
467.1788595714
 11
382.4237321134
 21
467.1788595714
  0
LINE
  5
8F9
100
AcDbEntity
  8
TERMINAL_SCHROUD
100
AcDbLine
 62
2
  6
CONTINUOUS
 10
468.5356803012
 20
235.5267903349
 11
469.337804864
 21
232.7179925075
  0
LINE
  5
8FA
100
AcDbEntity
  8
COVER_FUSE
100
AcDbLine
 62
6
  6
CONTINUOUS
 10
465.6737321134
 20
167.9816310799
 11
465.6737321134
 21
161.9816310799
  0
LINE
  5
8FB
100
AcDbEntity
  8
COVER_FUSE
100
AcDbLine
 62
6
  6
CONTINUOUS
 10
465.6737321134
 20
120.4816310799
 11
465.6737321134
 21
114.4816310799
  0
LINE
  5
8FC
100
AcDbEntity
  8
BASIC_DEVICE
100
AcDbLine
 62
7
  6
CONTINUOUS
 10
465.9237321134
 20
420.6788595714
 11
465.9237321134
 21
431.1788595714
  0
LINE
  5
8FD
100
AcDbEntity
  8
BASIC_DEVICE
100
AcDbLine
 62
7
  6
CONTINUOUS
 10
465.9237321134
 20
436.1788595714
 11
465.9237321134
 21
442.6788595714
  0
LINE
  5
8FE
100
AcDbEntity
  8
BASIC_DEVICE
100
AcDbLine
 62
7
  6
CONTINUOUS
 10
466.1737321134
 20
200.4816310799
 11
466.1737321134
 21
197.9816310799
  0
LINE
  5
8FF
100
AcDbEntity
  8
BASIC_DEVICE
100
AcDbLine
 62
7
  6
CONTINUOUS
 10
466.1737321134
 20
82.4816310799
 11
466.1737321134
 21
84.9816310799
  0
LINE
  5
900
100
AcDbEntity
  8
TERMINAL_SCHROUD
100
AcDbLine
 62
2
  6
CONTINUOUS
 10
466.5237321134
 20
203.6816310799
 11
466.5237321134
 21
200.8816310799
  0
LINE
  5
901
100
AcDbEntity
  8
FUSE
100
AcDbLine
 62
3
  6
CONTINUOUS
 10
466.9237321134
 20
114.4816310799
 11
466.9237321134
 21
102.2316310799
  0
LINE
  5
902
100
AcDbEntity
  8
FUSE
100
AcDbLine
 62
3
  6
CONTINUOUS
 10
466.9237321134
 20
168.4816310799
 11
466.9237321134
 21
180.7316310799
  0
LINE
  5
903
100
AcDbEntity
  8
SUPPORT_FUSE
100
AcDbLine
 62
40
  6
CONTINUOUS
 10
467.0737321134
 20
175.9816310799
 11
467.0737321134
 21
169.9816310799
  0
LINE
  5
904
100
AcDbEntity
  8
SUPPORT_FUSE
100
AcDbLine
 62
40
  6
CONTINUOUS
 10
467.0737321134
 20
106.9816310799
 11
467.0737321134
 21
112.9816310799
  0
LINE
  5
905
100
AcDbEntity
  8
BASIC_DEVICE
100
AcDbLine
 62
7
  6
CONTINUOUS
 10
467.9237321134
 20
169.9816310799
 11
467.9237321134
 21
163.4816310799
  0
LINE
  5
906
100
AcDbEntity
  8
BASIC_DEVICE
100
AcDbLine
 62
7
  6
CONTINUOUS
 10
467.9237321134
 20
161.4816310799
 11
467.9237321134
 21
141.4816310799
  0
LINE
  5
907
100
AcDbEntity
  8
TERMINAL_SCHROUD
100
AcDbLine
 62
2
  6
CONTINUOUS
 10
468.8237321134
 20
273.9816310799
 11
468.8237321134
 21
275.4816310799
  0
LINE
  5
908
100
AcDbEntity
  8
BASIC_DEVICE
100
AcDbLine
 62
7
  6
CONTINUOUS
 10
469.9237321134
 20
222.48163108
 11
469.9237321134
 21
194.9816310799
  0
LINE
  5
909
100
AcDbEntity
  8
BASIC_DEVICE
100
AcDbLine
 62
7
  6
CONTINUOUS
 10
469.9237321134
 20
181.9816250187
 11
469.9237321134
 21
171.9816310799
  0
LINE
  5
90A
100
AcDbEntity
  8
BASIC_DEVICE
100
AcDbLine
 62
7
  6
CONTINUOUS
 10
469.9237321135
 20
110.9816310799
 11
469.9237321135
 21
100.9816371412
  0
LINE
  5
90B
100
AcDbEntity
  8
BASIC_DEVICE
100
AcDbLine
 62
7
  6
CONTINUOUS
 10
469.9237321135
 20
87.9816310799
 11
469.9237321134
 21
60.48163108
  0
LINE
  5
90C
100
AcDbEntity
  8
AXIS
100
AcDbLine
 62
4
  6
AM_ISO08W050
 10
469.9237321134
 20
65.2316310799
 11
469.9237321134
 21
76.7316310799
  0
LINE
  5
90D
100
AcDbEntity
  8
AXIS
100
AcDbLine
 62
4
  6
AM_ISO08W050
 10
469.9237321134
 20
206.2316310799
 11
469.9237321134
 21
217.7316310799
  0
LINE
  5
90E
100
AcDbEntity
  8
BASIC_DEVICE
100
AcDbLine
 62
7
  6
CONTINUOUS
 10
469.9237321134
 20
340.6788595714
 11
469.9237321134
 21
357.6788595714
  0
LINE
  5
90F
100
AcDbEntity
  8
AXIS
100
AcDbLine
 62
4
  6
AM_ISO08W050
 10
469.9237321134
 20
355.1788595714
 11
469.9237321134
 21
363.6788595714
  0
LINE
  5
910
100
AcDbEntity
  8
BASIC_DEVICE
100
AcDbLine
 62
7
  6
CONTINUOUS
 10
469.9237321134
 20
360.6788595714
 11
469.9237321134
 21
367.6788595714
  0
LINE
  5
911
100
AcDbEntity
  8
BASIC_DEVICE
100
AcDbLine
 62
7
  6
CONTINUOUS
 10
469.9237321134
 20
371.6788595714
 11
469.9237321134
 21
375.6788595714
  0
LINE
  5
912
100
AcDbEntity
  8
BASIC_DEVICE
100
AcDbLine
 62
7
  6
CONTINUOUS
 10
469.9237321134
 20
382.1788595714
 11
469.9237321134
 21
420.6788595714
  0
LINE
  5
913
100
AcDbEntity
  8
TERMINAL_SCHROUD
100
AcDbLine
 62
2
  6
CONTINUOUS
 10
471.0237321134
 20
273.9816310799
 11
471.0237321134
 21
275.4816310799
  0
LINE
  5
914
100
AcDbEntity
  8
BASIC_DEVICE
100
AcDbLine
 62
7
  6
CONTINUOUS
 10
471.9237321134
 20
141.4816310799
 11
471.9237321134
 21
121.4816310799
  0
LINE
  5
915
100
AcDbEntity
  8
BASIC_DEVICE
100
AcDbLine
 62
7
  6
CONTINUOUS
 10
471.9237321134
 20
119.4816310799
 11
471.9237321134
 21
112.9816310799
  0
LINE
  5
916
100
AcDbEntity
  8
SUPPORT_FUSE
100
AcDbLine
 62
40
  6
CONTINUOUS
 10
472.7737321134
 20
112.9816310799
 11
472.7737321134
 21
106.9816310799
  0
LINE
  5
917
100
AcDbEntity
  8
SUPPORT_FUSE
100
AcDbLine
 62
40
  6
CONTINUOUS
 10
472.7737321134
 20
169.9816310799
 11
472.7737321134
 21
175.9816310799
  0
LINE
  5
918
100
AcDbEntity
  8
FUSE
100
AcDbLine
 62
3
  6
CONTINUOUS
 10
472.9237321134
 20
180.7316310799
 11
472.9237321134
 21
168.4816310799
  0
LINE
  5
919
100
AcDbEntity
  8
FUSE
100
AcDbLine
 62
3
  6
CONTINUOUS
 10
472.9237321134
 20
102.2316310799
 11
472.9237321134
 21
114.4816310799
  0
LINE
  5
91A
100
AcDbEntity
  8
BASIC_DEVICE
100
AcDbLine
 62
7
  6
CONTINUOUS
 10
472.9237321134
 20
389.1788595714
 11
472.9237321134
 21
399.1788595714
  0
LINE
  5
91B
100
AcDbEntity
  8
TERMINAL_SCHROUD
100
AcDbLine
 62
2
  6
CONTINUOUS
 10
473.3237321134
 20
200.8816310799
 11
473.3237321134
 21
203.6816310799
  0
LINE
  5
91C
100
AcDbEntity
  8
BASIC_DEVICE
100
AcDbLine
 62
7
  6
CONTINUOUS
 10
473.6737321134
 20
200.48163108
 11
473.6737321134
 21
197.98163108
  0
LINE
  5
91D
100
AcDbEntity
  8
BASIC_DEVICE
100
AcDbLine
 62
7
  6
CONTINUOUS
 10
473.6737321134
 20
82.48163108
 11
473.6737321134
 21
84.98163108
  0
LINE
  5
91E
100
AcDbEntity
  8
BASIC_DEVICE
100
AcDbLine
 62
7
  6
CONTINUOUS
 10
473.9237321134
 20
420.6788595714
 11
473.9237321134
 21
431.1788595714
  0
LINE
  5
91F
100
AcDbEntity
  8
BASIC_DEVICE
100
AcDbLine
 62
7
  6
CONTINUOUS
 10
473.9237321134
 20
436.1788595714
 11
473.9237321134
 21
442.6788595714
  0
LINE
  5
920
100
AcDbEntity
  8
MOVING
100
AcDbLine
 62
1
  6
AM_ISO02W050X2
 10
473.9717986181
 20
493.6788595714
 11
473.9717986181
 21
512.6788595714
  0
LINE
  5
921
100
AcDbEntity
  8
COVER_FUSE
100
AcDbLine
 62
6
  6
CONTINUOUS
 10
474.1737321134
 20
114.4816310799
 11
474.1737321134
 21
120.4816310799
  0
LINE
  5
922
100
AcDbEntity
  8
COVER_FUSE
100
AcDbLine
 62
6
  6
CONTINUOUS
 10
474.1737321134
 20
161.9816310799
 11
474.1737321134
 21
167.9816310799
  0
LINE
  5
923
100
AcDbEntity
  8
SUPPORT_FUSE
100
AcDbLine
 62
40
  6
CONTINUOUS
 10
474.7737321134
 20
175.9816310799
 11
474.7737321134
 21
171.9816310799
  0
LINE
  5
924
100
AcDbEntity
  8
SUPPORT_FUSE
100
AcDbLine
 62
40
  6
CONTINUOUS
 10
474.7737321134
 20
106.9816310799
 11
474.7737321134
 21
110.9816310799
  0
LINE
  5
925
100
AcDbEntity
  8
TERMINAL_SCHROUD
100
AcDbLine
 62
2
  6
CONTINUOUS
 10
475.6737321134
 20
371.4288595714
 11
475.6737321134
 21
367.6788595714
  0
LINE
  5
926
100
AcDbEntity
  8
TERMINAL_SCHROUD
100
AcDbLine
 62
2
  6
CONTINUOUS
 10
475.9237321134
 20
184.4816310799
 11
475.9237321134
 21
208.4816310799
  0
LINE
  5
927
100
AcDbEntity
  8
TERMINAL_SCHROUD
100
AcDbLine
 62
2
  6
CONTINUOUS
 10
475.9237321134
 20
372.1788595714
 11
475.9237321134
 21
385.1788595714
  0
LINE
  5
928
100
AcDbEntity
  8
BASIC_DEVICE
100
AcDbLine
 62
7
  6
CONTINUOUS
 10
476.9237321134
 20
419.1788595714
 11
476.9237321134
 21
415.1788595714
  0
LINE
  5
929
100
AcDbEntity
  8
BASIC_DEVICE
100
AcDbLine
 62
7
  6
CONTINUOUS
 10
477.4237321134
 20
431.1788595714
 11
477.4237321134
 21
436.1788595714
  0
LINE
  5
92A
100
AcDbEntity
  8
TERMINAL_SCHROUD
100
AcDbLine
 62
2
  6
CONTINUOUS
 10
477.8737321134
 20
371.4288595714
 11
477.8737321134
 21
368.8788595714
  0
LINE
  5
92B
100
AcDbEntity
  8
TERMINAL_SCHROUD
100
AcDbLine
 62
2
  6
CONTINUOUS
 10
477.9237321134
 20
208.4816310799
 11
477.9237321134
 21
184.4816310799
  0
LINE
  5
92C
100
AcDbEntity
  8
TERMINAL_SCHROUD
100
AcDbLine
 62
2
  6
CONTINUOUS
 10
477.9237321134
 20
273.9816310799
 11
477.9237321134
 21
275.4816310799
  0
LINE
  5
92D
100
AcDbEntity
  8
BASIC_DEVICE
100
AcDbLine
 62
7
  6
CONTINUOUS
 10
477.9237321134
 20
367.6788595714
 11
477.9237321134
 21
371.6788595714
  0
LINE
  5
92E
100
AcDbEntity
  8
TERMINAL_SCHROUD
100
AcDbLine
 62
2
  6
CONTINUOUS
 10
477.9237321134
 20
376.3788595714
 11
477.9237321134
 21
385.1788595714
  0
LINE
  5
92F
100
AcDbEntity
  8
BASIC_DEVICE
100
AcDbLine
 62
7
  6
CONTINUOUS
 10
478.4237321134
 20
409.1788595714
 11
478.4237321134
 21
405.6788595714
  0
LINE
  5
930
100
AcDbEntity
  8
BASIC_DEVICE
100
AcDbLine
 62
7
  6
CONTINUOUS
 10
478.4237321134
 20
415.1788595714
 11
478.4237321134
 21
419.1788595714
  0
LINE
  5
931
100
AcDbEntity
  8
CONTACT
100
AcDbLine
 62
40
  6
CONTINUOUS
 10
479.9237321134
 20
360.6788595714
 11
479.9237321134
 21
358.1788595714
  0
LINE
  5
932
100
AcDbEntity
  8
CONTACT
100
AcDbLine
 62
40
  6
CONTINUOUS
 10
479.9237321134
 20
218.7816310799
 11
479.9237321134
 21
200.48163108
  0
LINE
  5
933
100
AcDbEntity
  8
BASIC_DEVICE
100
AcDbLine
 62
7
  6
CONTINUOUS
 10
479.9237321134
 20
171.9816310799
 11
479.9237321134
 21
169.9816310799
  0
LINE
  5
934
100
AcDbEntity
  8
BASIC_DEVICE
100
AcDbLine
 62
7
  6
CONTINUOUS
 10
479.9237321134
 20
112.98163108
 11
479.9237321135
 21
110.98163108
  0
LINE
  5
935
100
AcDbEntity
  8
CONTACT
100
AcDbLine
 62
40
  6
CONTINUOUS
 10
479.9237321134
 20
64.1816310799
 11
479.9237321134
 21
82.4816310799
  0
LINE
  5
936
100
AcDbEntity
  8
TERMINAL_SCHROUD
100
AcDbLine
 62
2
  6
CONTINUOUS
 10
479.9237321134
 20
184.4816310799
 11
479.9237321134
 21
198.4816310799
  0
LINE
  5
937
100
AcDbEntity
  8
TERMINAL_SCHROUD
100
AcDbLine
 62
2
  6
CONTINUOUS
 10
479.9237321134
 20
365.6788595714
 11
479.9237321134
 21
376.3788595714
  0
LINE
  5
938
100
AcDbEntity
  8
BASIC_DEVICE
100
AcDbLine
 62
7
  6
CONTINUOUS
 10
479.9237321134
 20
375.6788595714
 11
479.9237321134
 21
382.1788595714
  0
LINE
  5
939
100
AcDbEntity
  8
BASIC_DEVICE
100
AcDbLine
 62
7
  6
CONTINUOUS
 10
479.9237321134
 20
389.1788595714
 11
479.9237321134
 21
394.1788595714
  0
LINE
  5
93A
100
AcDbEntity
  8
COVER_FUSE
100
AcDbLine
 62
6
  6
CONTINUOUS
 10
479.9237321134
 20
456.1788595714
 11
479.9237321134
 21
460.1788595714
  0
LINE
  5
93B
100
AcDbEntity
  8
BASIC_DEVICE
100
AcDbLine
 62
7
  6
CONTINUOUS
 10
480.3237321134
 20
222.48163108
 11
480.3237321134
 21
200.48163108
  0
LINE
  5
93C
100
AcDbEntity
  8
BASIC_DEVICE
100
AcDbLine
 62
7
  6
CONTINUOUS
 10
480.3237321134
 20
60.48163108
 11
480.3237321134
 21
82.48163108
  0
LINE
  5
93D
100
AcDbEntity
  8
BASIC_DEVICE
100
AcDbLine
 62
7
  6
CONTINUOUS
 10
480.3237321134
 20
357.6788595714
 11
480.3237321134
 21
360.6788595714
  0
LINE
  5
93E
100
AcDbEntity
  8
BASIC_DEVICE
100
AcDbLine
 62
7
  6
CONTINUOUS
 10
480.4237321134
 20
419.1788595714
 11
480.4237321134
 21
415.1788595714
  0
LINE
  5
93F
100
AcDbEntity
  8
BASIC_DEVICE
100
AcDbLine
 62
7
  6
CONTINUOUS
 10
480.4237321134
 20
409.1788595714
 11
480.4237321134
 21
405.6788595714
  0
LINE
  5
940
100
AcDbEntity
  8
BASIC_DEVICE
100
AcDbLine
 62
7
  6
CONTINUOUS
 10
480.4237321134
 20
103.98163108
 11
480.4237321134
 21
84.98163108
  0
LINE
  5
941
100
AcDbEntity
  8
BASIC_DEVICE
100
AcDbLine
 62
7
  6
CONTINUOUS
 10
480.4237321134
 20
176.4816310799
 11
480.4237321134
 21
197.98163108
  0
LINE
  5
942
100
AcDbEntity
  8
BASIC_DEVICE
100
AcDbLine
 62
7
  6
CONTINUOUS
 10
480.4237321134
 20
442.6788595714
 11
480.4237321134
 21
447.1788595714
  0
LINE
  5
943
100
AcDbEntity
  8
COVER_FUSE
100
AcDbLine
 62
6
  6
CONTINUOUS
 10
480.7237321134
 20
456.1788595714
 11
480.7237321134
 21
460.1788595714
  0
LINE
  5
944
100
AcDbEntity
  8
BASIC_DEVICE
100
AcDbLine
 62
7
  6
CONTINUOUS
 10
480.9237321134
 20
163.4816310799
 11
480.9237321134
 21
161.4816310799
  0
LINE
  5
945
100
AcDbEntity
  8
BASIC_DEVICE
100
AcDbLine
 62
7
  6
CONTINUOUS
 10
480.9237321134
 20
121.48163108
 11
480.9237321134
 21
119.48163108
  0
LINE
  5
946
100
AcDbEntity
  8
SUPPORT_FUSE
100
AcDbLine
 62
40
  6
CONTINUOUS
 10
481.4237321134
 20
171.9816310799
 11
481.4237321134
 21
169.9816310799
  0
LINE
  5
947
100
AcDbEntity
  8
SUPPORT_FUSE
100
AcDbLine
 62
40
  6
CONTINUOUS
 10
481.4237321134
 20
110.9816310799
 11
481.4237321134
 21
112.9816310799
  0
LINE
  5
948
100
AcDbEntity
  8
TERMINAL_SCHROUD
100
AcDbLine
 62
2
  6
CONTINUOUS
 10
481.9237321134
 20
247.9816310799
 11
481.9237321134
 21
273.9816310799
  0
LINE
  5
949
100
AcDbEntity
  8
COVER_FUSE
100
AcDbLine
 62
6
  6
CONTINUOUS
 10
482.8237321134
 20
445.1788595714
 11
482.8237321134
 21
431.1788595714
  0
LINE
  5
94A
100
AcDbEntity
  8
BASIC_DEVICE
100
AcDbLine
 62
7
  6
CONTINUOUS
 10
482.8237321134
 20
442.6788595714
 11
482.8237321134
 21
349.6788595474
  0
LINE
  5
94B
100
AcDbEntity
  8
BASIC_DEVICE
100
AcDbLine
 62
7
  6
CONTINUOUS
 10
482.8237321134
 20
60.48163108
 11
482.8237321134
 21
101.48163108
  0
LINE
  5
94C
100
AcDbEntity
  8
COVER_FUSE
100
AcDbLine
 62
6
  6
CONTINUOUS
 10
482.8237321134
 20
82.4816310799
 11
482.8237321134
 21
100.4816310799
  0
LINE
  5
94D
100
AcDbEntity
  8
BASIC_DEVICE
100
AcDbLine
 62
7
  6
CONTINUOUS
 10
482.8237321134
 20
182.4816310799
 11
482.8237321134
 21
222.48163108
  0
LINE
  5
94E
100
AcDbEntity
  8
COVER_FUSE
100
AcDbLine
 62
6
  6
CONTINUOUS
 10
482.9237321134
 20
464.6788595714
 11
482.9237321134
 21
456.1788595714
  0
LINE
  5
94F
100
AcDbEntity
  8
TERMINAL_SCHROUD
100
AcDbLine
 62
2
  6
CONTINUOUS
 10
482.9237321134
 20
275.4816310799
 11
482.9237321134
 21
273.9816310799
  0
LINE
  5
950
100
AcDbEntity
  8
COVER_FUSE
100
AcDbLine
 62
6
  6
CONTINUOUS
 10
482.9237321134
 20
182.4816310799
 11
482.9237321134
 21
203.9816310799
  0
LINE
  5
951
100
AcDbEntity
  8
TERMINAL_SCHROUD
100
AcDbLine
 62
2
  6
CONTINUOUS
 10
484.4237321134
 20
198.4816310799
 11
484.4237321134
 21
217.4816310799
  0
LINE
  5
952
100
AcDbEntity
  8
TERMINAL_SCHROUD
100
AcDbLine
 62
2
  6
CONTINUOUS
 10
484.4237321134
 20
354.1788595714
 11
484.4237321134
 21
365.6788595714
  0
LINE
  5
953
100
AcDbEntity
  8
BASIC_DEVICE
100
AcDbLine
 62
7
  6
CONTINUOUS
 10
484.6237321134
 20
440.1788595714
 11
484.6237321134
 21
434.1788595714
  0
LINE
  5
954
100
AcDbEntity
  8
BASIC_DEVICE
100
AcDbLine
 62
7
  6
CONTINUOUS
 10
484.6237321134
 20
197.4816310799
 11
484.6237321134
 21
191.4816310799
  0
LINE
  5
955
100
AcDbEntity
  8
BASIC_DEVICE
100
AcDbLine
 62
7
  6
CONTINUOUS
 10
484.6237321134
 20
85.4816310799
 11
484.6237321134
 21
91.4816310799
  0
LINE
  5
956
100
AcDbEntity
  8
FUSE
100
AcDbLine
 62
3
  6
CONTINUOUS
 10
484.9237321134
 20
168.4816310799
 11
484.9237321134
 21
114.4816310799
  0
LINE
  5
957
100
AcDbEntity
  8
COVER_FUSE
100
AcDbLine
 62
6
  6
CONTINUOUS
 10
484.9237321134
 20
82.4816310799
 11
484.9237321134
 21
94.4816310799
  0
LINE
  5
958
100
AcDbEntity
  8
COVER_FUSE
100
AcDbLine
 62
6
  6
CONTINUOUS
 10
484.9237321134
 20
431.1788595714
 11
484.9237321134
 21
454.1788595714
  0
LINE
  5
959
100
AcDbEntity
  8
BASIC_DEVICE
100
AcDbLine
 62
7
  6
CONTINUOUS
 10
485.2237321134
 20
95.48163108
 11
485.2237321134
 21
63.98163108
  0
LINE
  5
95A
100
AcDbEntity
  8
BASIC_DEVICE
100
AcDbLine
 62
7
  6
CONTINUOUS
 10
485.2237321134
 20
187.48163108
 11
485.2237321134
 21
218.9816310799
  0
LINE
  5
95B
100
AcDbEntity
  8
BASIC_DEVICE
100
AcDbLine
 62
7
  6
CONTINUOUS
 10
485.2237321134
 20
340.6788595714
 11
485.2237321134
 21
349.6788595474
  0
LINE
  5
95C
100
AcDbEntity
  8
TERMINAL_SCHROUD
100
AcDbLine
 62
2
  6
CONTINUOUS
 10
485.4237321134
 20
354.1788595714
 11
485.4237321134
 21
341.6788595714
  0
LINE
  5
95D
100
AcDbEntity
  8
COVER_FUSE
100
AcDbLine
 62
6
  6
CONTINUOUS
 10
485.9237321134
 20
447.6788595714
 11
485.9237321134
 21
437.6788595714
  0
LINE
  5
95E
100
AcDbEntity
  8
BASIC_DEVICE
100
AcDbLine
 62
7
  6
CONTINUOUS
 10
485.9237321134
 20
176.4816310799
 11
485.9237321134
 21
103.9816310799
  0
LINE
  5
95F
100
AcDbEntity
  8
BASIC_DEVICE
100
AcDbLine
 62
7
  6
CONTINUOUS
 10
485.9237321134
 20
437.6788595714
 11
485.9237321134
 21
443.6788595714
  0
LINE
  5
960
100
AcDbEntity
  8
DIRECT_HANDLE
100
AcDbLine
 62
7
  6
CONTINUOUS
 10
486.0237321134
 20
491.6788595714
 11
486.0237321134
 21
524.1788595714
  0
LINE
  5
961
100
AcDbEntity
  8
BASIC_DEVICE
100
AcDbLine
 62
7
  6
CONTINUOUS
 10
486.1237321134
 20
367.1788595714
 11
486.1237321134
 21
376.1788595714
  0
LINE
  5
962
100
AcDbEntity
  8
TERMINAL_SCHROUD
100
AcDbLine
 62
2
  6
CONTINUOUS
 10
487.4237321134
 20
217.4816310799
 11
487.4237321134
 21
273.9816310799
  0
LINE
  5
963
100
AcDbEntity
  8
TERMINAL_SCHROUD
100
AcDbLine
 62
2
  6
CONTINUOUS
 10
487.4237321134
 20
341.6788595714
 11
487.4237321134
 21
385.1788595714
  0
LINE
  5
964
100
AcDbEntity
  8
BASIC_DEVICE
100
AcDbLine
 62
7
  6
CONTINUOUS
 10
487.9237321134
 20
447.1788595714
 11
487.9237321134
 21
340.6788595714
  0
LINE
  5
965
100
AcDbEntity
  8
CAGE_COMMANDE
100
AcDbLine
 62
7
  6
CONTINUOUS
 10
487.9237321134
 20
417.2788595714
 11
487.9237321134
 21
340.6788595714
  0
LINE
  5
966
100
AcDbEntity
  8
COVER_FUSE
100
AcDbLine
 62
6
  6
CONTINUOUS
 10
487.9237321134
 20
100.4816310799
 11
487.9237321134
 21
182.4816310799
  0
LINE
  5
967
100
AcDbEntity
  8
BASIC_DEVICE
100
AcDbLine
 62
7
  6
CONTINUOUS
 10
487.9237321134
 20
98.48163108
 11
487.9237321134
 21
184.48163108
  0
LINE
  5
968
100
AcDbEntity
  8
CAGE_COMMANDE
100
AcDbLine
 62
7
  6
CONTINUOUS
 10
487.9237321134
 20
82.4816310799
 11
487.9237321134
 21
200.4816310799
  0
LINE
  5
969
100
AcDbEntity
  8
COVER_FUSE
100
AcDbLine
 62
6
  6
CONTINUOUS
 10
487.9237321134
 20
437.6788595714
 11
487.9237321134
 21
464.6788595714
  0
LINE
  5
96A
100
AcDbEntity
  8
TERMINAL_SCHROUD
100
AcDbLine
 62
2
  6
CONTINUOUS
 10
470.590117757
 20
239.8808442855
 11
469.4816541372
 21
235.2898460062
  0
LINE
  5
96B
100
AcDbEntity
  8
TERMINAL_SCHROUD
100
AcDbLine
 62
2
  6
CONTINUOUS
 10
470.4232590192
 20
235.0539959983
 11
472.0190493677
 21
241.6633881454
  0
LINE
  5
96C
100
AcDbEntity
  8
TERMINAL_SCHROUD
100
AcDbLine
 62
2
  6
CONTINUOUS
 10
469.0977615938
 20
244.442183164
 11
467.4913805095
 21
238.3600509278
  0
LINE
  5
96D
100
AcDbEntity
  8
TERMINAL_SCHROUD
100
AcDbLine
 62
2
  6
CONTINUOUS
 10
468.9729405685
 20
240.1684236942
 11
470.0362386664
 21
244.1943174881
  0
LINE
  5
96E
100
AcDbEntity
  8
BASIC_DEVICE
100
AcDbLine
 62
7
  6
CONTINUOUS
 10
390.4181751145
 20
94.4816341106
 11
394.1709536139
 21
100.9816371412
  0
LINE
  5
96F
100
AcDbEntity
  8
BASIC_DEVICE
100
AcDbLine
 62
7
  6
CONTINUOUS
 10
405.4292891124
 20
94.4816341106
 11
401.676510613
 21
87.9816310799
  0
LINE
  5
970
100
AcDbEntity
  8
BASIC_DEVICE
100
AcDbLine
 62
7
  6
CONTINUOUS
 10
462.4181751144
 20
188.4816280493
 11
466.1709536138
 21
194.9816310799
  0
LINE
  5
971
100
AcDbEntity
  8
0
100
AcDbLine
 62
1
  6
CONTINUOUS
 10
66.4524454933
 20
468.9994513817
 11
280.9336639268
 21
468.9994513817
  0
LINE
  5
972
100
AcDbEntity
  8
0
100
AcDbLine
 62
1
  6
CONTINUOUS
 10
66.4524454933
 20
478.8494513817
 11
280.9336639268
 21
478.8494513817
  0
LINE
  5
973
100
AcDbEntity
  8
0
100
AcDbLine
 62
1
  6
CONTINUOUS
 10
66.4524454933
 20
488.6994513817
 11
280.9336639268
 21
488.6994513817
  0
LINE
  5
974
100
AcDbEntity
  8
DIRECT_HANDLE
100
AcDbLine
 62
7
  6
CONTINUOUS
 10
526.0237321134
 20
491.6788595714
 11
486.0237321134
 21
491.6788595714
  0
LINE
  5
975
100
AcDbEntity
  8
MOVING
100
AcDbLine
 62
1
  6
AM_ISO02W050X2
 10
486.0237321134
 20
491.6788595714
 11
475.9717986181
 21
491.6788595714
  0
LINE
  5
976
100
AcDbEntity
  8
BASIC_DEVICE
100
AcDbLine
 62
7
  6
CONTINUOUS
 10
409.6737321134
 20
445.1788595714
 11
408.4237321134
 21
445.6788595714
  0
LINE
  5
977
100
AcDbEntity
  8
COVER_FUSE
100
AcDbLine
 62
6
  6
CONTINUOUS
 10
408.3237321134
 20
447.6788595714
 11
410.8237321134
 21
445.1788595714
  0
LINE
  5
978
100
AcDbEntity
  8
DIRECT_HANDLE
100
AcDbLine
 62
7
  6
CONTINUOUS
 10
506.0237321134
 20
161.48163108
 11
510.0237321133
 21
144.4816310799
  0
LINE
  5
979
100
AcDbEntity
  8
CAGE_COMMANDE
100
AcDbLine
 62
7
  6
CONTINUOUS
 10
489.9237321134
 20
400.4288595714
 11
489.9237321134
 21
402.8788595714
  0
LINE
  5
97A
100
AcDbEntity
  8
DIRECT_HANDLE
100
AcDbLine
 62
7
  6
CONTINUOUS
 10
490.2402899128
 20
524.1788595714
 11
490.2402899128
 21
536.1788595714
  0
LINE
  5
97B
100
AcDbEntity
  8
CAGE_COMMANDE
100
AcDbLine
 62
7
  6
CONTINUOUS
 10
491.0237321134
 20
195.9816310799
 11
491.0237321134
 21
187.3566310799
  0
LINE
  5
97C
100
AcDbEntity
  8
CAGE_COMMANDE
100
AcDbLine
 62
7
  6
CONTINUOUS
 10
491.0237321134
 20
160.9816310799
 11
491.0237321134
 21
174.0066310799
  0
LINE
  5
97D
100
AcDbEntity
  8
CAGE_COMMANDE
100
AcDbLine
 62
7
  6
CONTINUOUS
 10
491.0237321134
 20
417.2788595714
 11
491.0237321134
 21
425.0788595714
  0
LINE
  5
97E
100
AcDbEntity
  8
CAGE_COMMANDE
100
AcDbLine
 62
7
  6
CONTINUOUS
 10
492.1737321134
 20
193.7816310799
 11
492.1737321134
 21
191.3566310799
  0
LINE
  5
97F
100
AcDbEntity
  8
CAGE_COMMANDE
100
AcDbLine
 62
7
  6
CONTINUOUS
 10
492.2737321134
 20
174.6816310799
 11
492.2737321134
 21
186.6816310799
  0
LINE
  5
980
100
AcDbEntity
  8
CAGE_COMMANDE
100
AcDbLine
 62
7
  6
CONTINUOUS
 10
492.6237321134
 20
168.4816310799
 11
492.6237321134
 21
165.7316310799
  0
LINE
  5
981
100
AcDbEntity
  8
CAGE_COMMANDE
100
AcDbLine
 62
7
  6
CONTINUOUS
 10
492.8237321134
 20
191.3566310799
 11
492.8237321134
 21
187.3566310799
  0
LINE
  5
982
100
AcDbEntity
  8
CAGE_COMMANDE
100
AcDbLine
 62
7
  6
CONTINUOUS
 10
493.0237321134
 20
417.2788595714
 11
493.0237321134
 21
423.0788595714
  0
LINE
  5
983
100
AcDbEntity
  8
CAGE_COMMANDE
100
AcDbLine
 62
7
  6
CONTINUOUS
 10
493.6037321134
 20
174.0066310799
 11
493.6037321134
 21
171.6066310799
  0
LINE
  5
984
100
AcDbEntity
  8
CAGE_COMMANDE
100
AcDbLine
 62
7
  6
CONTINUOUS
 10
494.1737321134
 20
191.3566310799
 11
494.1737321134
 21
193.7816310799
  0
LINE
  5
985
100
AcDbEntity
  8
CAGE_COMMANDE
100
AcDbLine
 62
7
  6
CONTINUOUS
 10
495.0237321134
 20
417.5788595714
 11
495.0237321134
 21
420.7788595714
  0
LINE
  5
986
100
AcDbEntity
  8
CAGE_COMMANDE
100
AcDbLine
 62
7
  6
CONTINUOUS
 10
495.4237321134
 20
186.6816310799
 11
495.4237321134
 21
174.6816310799
  0
LINE
  5
987
100
AcDbEntity
  8
CAGE_COMMANDE
100
AcDbLine
 62
7
  6
CONTINUOUS
 10
497.2737321134
 20
174.6816310799
 11
497.2737321134
 21
186.6816310799
  0
LINE
  5
988
100
AcDbEntity
  8
DIRECT_HANDLE
100
AcDbLine
 62
7
  6
CONTINUOUS
 10
497.5237321134
 20
28.4816310799
 11
497.5237321134
 21
145.6532039552
  0
LINE
  5
989
100
AcDbEntity
  8
DIRECT_HANDLE
100
AcDbLine
 62
7
  6
CONTINUOUS
 10
497.5237321134
 20
491.6788595714
 11
497.5237321134
 21
536.1788595714
  0
LINE
  5
98A
100
AcDbEntity
  8
CAGE_COMMANDE
100
AcDbLine
 62
7
  6
CONTINUOUS
 10
497.6237321134
 20
347.3788595714
 11
497.6237321134
 21
359.3788595714
  0
LINE
  5
98B
100
AcDbEntity
  8
CAGE_COMMANDE
100
AcDbLine
 62
7
  6
CONTINUOUS
 10
497.9737321134
 20
193.7816310799
 11
497.9737321134
 21
191.3566310799
  0
LINE
  5
98C
100
AcDbEntity
  8
CAGE_COMMANDE
100
AcDbLine
 62
7
  6
CONTINUOUS
 10
498.0237321134
 20
417.2788595714
 11
498.0237321134
 21
417.5788595714
  0
LINE
  5
98D
100
AcDbEntity
  8
CAGE_COMMANDE
100
AcDbLine
 62
7
  6
CONTINUOUS
 10
498.0237321134
 20
420.7788595714
 11
498.0237321134
 21
433.2788595714
  0
LINE
  5
98E
100
AcDbEntity
  8
CAGE_COMMANDE
100
AcDbLine
 62
7
  6
CONTINUOUS
 10
498.5437321134
 20
171.6066310799
 11
498.5437321134
 21
174.0066310799
  0
LINE
  5
98F
100
AcDbEntity
  8
CAGE_COMMANDE
100
AcDbLine
 62
7
  6
CONTINUOUS
 10
499.9737321134
 20
191.3566310799
 11
499.9737321134
 21
193.7816310799
  0
LINE
  5
990
100
AcDbEntity
  8
CAGE_COMMANDE
100
AcDbLine
 62
7
  6
CONTINUOUS
 10
500.3237321134
 20
157.4816310799
 11
500.3237321134
 21
160.9816310799
  0
LINE
  5
991
100
AcDbEntity
  8
CAGE_COMMANDE
100
AcDbLine
 62
7
  6
CONTINUOUS
 10
500.4237321134
 20
186.6816310799
 11
500.4237321134
 21
174.6816310799
  0
LINE
  5
992
100
AcDbEntity
  8
CAGE_COMMANDE
100
AcDbLine
 62
7
  6
CONTINUOUS
 10
500.7237321134
 20
187.3566310799
 11
500.7237321134
 21
191.3566310799
  0
LINE
  5
993
100
AcDbEntity
  8
CAGE_COMMANDE
100
AcDbLine
 62
7
  6
CONTINUOUS
 10
501.0237321134
 20
144.9816310799
 11
501.0237321134
 21
137.9816310799
  0
LINE
  5
994
100
AcDbEntity
  8
CAGE_COMMANDE
100
AcDbLine
 62
7
  6
CONTINUOUS
 10
501.1237321134
 20
200.4816310799
 11
501.1237321134
 21
195.9816310799
  0
LINE
  5
995
100
AcDbEntity
  8
CAGE_COMMANDE
100
AcDbLine
 62
7
  6
CONTINUOUS
 10
501.8535471949
 20
430.7830734976
 11
501.8535471949
 21
420.7788595714
  0
LINE
  5
996
100
AcDbEntity
  8
CAGE_COMMANDE
100
AcDbLine
 62
7
  6
CONTINUOUS
 10
503.0237321134
 20
152.0646363242
 11
503.0237321134
 21
157.4816310799
  0
LINE
  5
997
100
AcDbEntity
  8
CAGE_COMMANDE
100
AcDbLine
 62
7
  6
CONTINUOUS
 10
503.5237321134
 20
146.9816310799
 11
503.5237321134
 21
146.4816310799
  0
LINE
  5
998
100
AcDbEntity
  8
CAGE_COMMANDE
100
AcDbLine
 62
7
  6
CONTINUOUS
 10
503.5237321134
 20
136.4816310799
 11
503.5237321134
 21
135.9816310799
  0
LINE
  5
999
100
AcDbEntity
  8
DIRECT_HANDLE
100
AcDbLine
 62
7
  6
CONTINUOUS
 10
503.7237321135
 20
514.1788595714
 11
503.7237321135
 21
491.6788595714
  0
LINE
  5
99A
100
AcDbEntity
  8
DIRECT_HANDLE
100
AcDbLine
 62
7
  6
CONTINUOUS
 10
503.7237321135
 20
63.4816310799
 11
503.7237321135
 21
127.4816310799
  0
LINE
  5
99B
100
AcDbEntity
  8
DIRECT_HANDLE
100
AcDbLine
 62
7
  6
CONTINUOUS
 10
504.2237321135
 20
514.1788595714
 11
504.2237321135
 21
491.6788595714
  0
LINE
  5
99C
100
AcDbEntity
  8
DIRECT_HANDLE
100
AcDbLine
 62
7
  6
CONTINUOUS
 10
504.2237321135
 20
65.4816310798
 11
504.2237321135
 21
126.9816310799
  0
LINE
  5
99D
100
AcDbEntity
  8
CAGE_COMMANDE
100
AcDbLine
 62
7
  6
CONTINUOUS
 10
504.5237321134
 20
417.2788595714
 11
504.5237321134
 21
402.8788595714
  0
LINE
  5
99E
100
AcDbEntity
  8
CAGE_COMMANDE
100
AcDbLine
 62
7
  6
CONTINUOUS
 10
504.5237321134
 20
400.4288595714
 11
504.5237321134
 21
359.3788595714
  0
LINE
  5
99F
100
AcDbEntity
  8
CAGE_COMMANDE
100
AcDbLine
 62
7
  6
CONTINUOUS
 10
504.5237321134
 20
347.3788595714
 11
504.5237321134
 21
340.6788595714
  0
LINE
  5
9A0
100
AcDbEntity
  8
CAGE_COMMANDE
100
AcDbLine
 62
7
  6
CONTINUOUS
 10
506.0237321134
 20
82.4816310799
 11
506.0237321134
 21
125.6816310799
  0
LINE
  5
9A1
100
AcDbEntity
  8
DIRECT_HANDLE
100
AcDbLine
 62
4
  6
GEN7
 10
506.0237321134
 20
131.4816310799
 11
506.0237321134
 21
151.4816310799
  0
LINE
  5
9A2
100
AcDbEntity
  8
AXIS
100
AcDbLine
 62
4
  6
AM_ISO08W050X2
 10
506.0237321134
 20
130.3816310799
 11
506.0237321134
 21
152.5816310799
  0
LINE
  5
9A3
100
AcDbEntity
  8
CAGE_COMMANDE
100
AcDbLine
 62
7
  6
CONTINUOUS
 10
506.0237321134
 20
149.5816310799
 11
506.0237321134
 21
200.4816310799
  0
LINE
  5
9A4
100
AcDbEntity
  8
CAGE_COMMANDE
100
AcDbLine
 62
7
  6
CONTINUOUS
 10
506.0237321134
 20
340.6788595714
 11
506.0237321134
 21
347.3788595714
  0
LINE
  5
9A5
100
AcDbEntity
  8
CAGE_COMMANDE
100
AcDbLine
 62
7
  6
CONTINUOUS
 10
506.0237321134
 20
359.3788595714
 11
506.0237321134
 21
399.4288595714
  0
LINE
  5
9A6
100
AcDbEntity
  8
CAGE_COMMANDE
100
AcDbLine
 62
7
  6
CONTINUOUS
 10
506.0237321134
 20
403.8788595714
 11
506.0237321134
 21
417.2788595714
  0
LINE
  5
9A7
100
AcDbEntity
  8
AXIS
100
AcDbLine
 62
4
  6
AM_ISO08W050
 10
506.0237321134
 20
411.2788595714
 11
506.0237321134
 21
438.2788595714
  0
LINE
  5
9A8
100
AcDbEntity
  8
AXIS
100
AcDbLine
 62
4
  6
AM_ISO08W050
 10
506.0237321134
 20
488.6788595714
 11
506.0237321134
 21
517.1788595714
  0
LINE
  5
9A9
100
AcDbEntity
  8
DIRECT_HANDLE
100
AcDbLine
 62
7
  6
CONTINUOUS
 10
507.8237321135
 20
514.1788595714
 11
507.8237321135
 21
491.6788595714
  0
LINE
  5
9AA
100
AcDbEntity
  8
DIRECT_HANDLE
100
AcDbLine
 62
7
  6
CONTINUOUS
 10
507.8237321135
 20
126.9816310799
 11
507.8237321135
 21
65.4816310798
  0
LINE
  5
9AB
100
AcDbEntity
  8
CAGE_COMMANDE
100
AcDbLine
 62
7
  6
CONTINUOUS
 10
507.9237321134
 20
347.3788595714
 11
507.9237321134
 21
359.3788595714
  0
LINE
  5
9AC
100
AcDbEntity
  8
DIRECT_HANDLE
100
AcDbLine
 62
7
  6
CONTINUOUS
 10
508.3237321134
 20
514.1788595714
 11
508.3237321134
 21
491.6788595714
  0
LINE
  5
9AD
100
AcDbEntity
  8
DIRECT_HANDLE
100
AcDbLine
 62
7
  6
CONTINUOUS
 10
508.3237321134
 20
127.4816310799
 11
508.3237321134
 21
63.4816310799
  0
LINE
  5
9AE
100
AcDbEntity
  8
CAGE_COMMANDE
100
AcDbLine
 62
7
  6
CONTINUOUS
 10
508.5237321134
 20
135.9816310799
 11
508.5237321134
 21
136.4816310799
  0
LINE
  5
9AF
100
AcDbEntity
  8
CAGE_COMMANDE
100
AcDbLine
 62
7
  6
CONTINUOUS
 10
508.5237321134
 20
146.4816310799
 11
508.5237321134
 21
146.9816310799
  0
LINE
  5
9B0
100
AcDbEntity
  8
CAGE_COMMANDE
100
AcDbLine
 62
7
  6
CONTINUOUS
 10
509.0237321134
 20
152.0646363242
 11
509.0237321134
 21
157.4816310799
  0
LINE
  5
9B1
100
AcDbEntity
  8
CAGE_COMMANDE
100
AcDbLine
 62
7
  6
CONTINUOUS
 10
510.1431538529
 20
430.2840429072
 11
510.1431538529
 21
420.7788595714
  0
LINE
  5
9B2
100
AcDbEntity
  8
CAGE_COMMANDE
100
AcDbLine
 62
7
  6
CONTINUOUS
 10
510.9237321134
 20
200.4816310799
 11
510.9237321134
 21
195.9816310799
  0
LINE
  5
9B3
100
AcDbEntity
  8
CAGE_COMMANDE
100
AcDbLine
 62
7
  6
CONTINUOUS
 10
511.0237321134
 20
137.9816310799
 11
511.0237321134
 21
144.9816310799
  0
LINE
  5
9B4
100
AcDbEntity
  8
CAGE_COMMANDE
100
AcDbLine
 62
7
  6
CONTINUOUS
 10
511.3237321134
 20
187.3566310799
 11
511.3237321134
 21
191.3566310799
  0
LINE
  5
9B5
100
AcDbEntity
  8
CAGE_COMMANDE
100
AcDbLine
 62
7
  6
CONTINUOUS
 10
511.6237321134
 20
186.6816310799
 11
511.6237321134
 21
174.6816310799
  0
LINE
  5
9B6
100
AcDbEntity
  8
CAGE_COMMANDE
100
AcDbLine
 62
7
  6
CONTINUOUS
 10
511.7237321134
 20
157.4816310799
 11
511.7237321134
 21
160.9816310799
  0
LINE
  5
9B7
100
AcDbEntity
  8
BASIC_DEVICE
100
AcDbLine
 62
7
  6
CONTINUOUS
 10
477.4292891123
 20
188.4816280493
 11
473.6765106129
 21
181.9816250187
  0
LINE
  5
9B8
100
AcDbEntity
  8
BASIC_DEVICE
100
AcDbLine
 62
7
  6
CONTINUOUS
 10
426.4181751145
 20
94.4816341106
 11
430.1709536139
 21
100.9816371412
  0
LINE
  5
9B9
100
AcDbEntity
  8
AM_12
100
AcDbLine
 62
4
  6
CONTINUOUS
 10
522.008726503
 20
197.8000169878
 11
525.508726503
 21
201.3000169878
  0
LINE
  5
9BA
100
AcDbEntity
  8
0
100
AcDbLine
 62
7
  6
CONTINUOUS
 10
66.4524454933
 20
498.5494513817
 11
280.9336639268
 21
498.5494513817
  0
LINE
  5
9BB
100
AcDbEntity
  8
DIRECT_HANDLE
100
AcDbLine
 62
7
  6
CONTINUOUS
 10
513.5237321135
 20
514.1788595714
 11
498.5237321134
 21
514.1788595714
  0
LINE
  5
9BC
100
AcDbEntity
  8
MOVING
100
AcDbLine
 62
1
  6
AM_ISO02W050X2
 10
471.9717986181
 20
514.6788595714
 11
393.0756656082
 21
514.6788595715
  0
LINE
  5
9BD
100
AcDbEntity
  8
BASIC_DEVICE
100
AcDbLine
 62
7
  6
CONTINUOUS
 10
445.6737321134
 20
445.1788595714
 11
444.4237321134
 21
445.6788595714
  0
LINE
  5
9BE
100
AcDbEntity
  8
BASIC_DEVICE
100
AcDbLine
 62
7
  6
CONTINUOUS
 10
481.6737321134
 20
445.1788595714
 11
480.4237321134
 21
445.6788595714
  0
LINE
  5
9BF
100
AcDbEntity
  8
COVER_FUSE
100
AcDbLine
 62
6
  6
CONTINUOUS
 10
412.9237321134
 20
454.1788595714
 11
410.9237321134
 21
456.1788595714
  0
LINE
  5
9C0
100
AcDbEntity
  8
CAGE_COMMANDE
100
AcDbLine
 62
7
  6
CONTINUOUS
 10
512.0737321134
 20
191.3566310799
 11
512.0737321134
 21
193.7816310799
  0
LINE
  5
9C1
100
AcDbEntity
  8
CAGE_COMMANDE
100
AcDbLine
 62
7
  6
CONTINUOUS
 10
513.5037321134
 20
171.6066310799
 11
513.5037321134
 21
174.0066310799
  0
LINE
  5
9C2
100
AcDbEntity
  8
CAGE_COMMANDE
100
AcDbLine
 62
7
  6
CONTINUOUS
 10
514.0237321134
 20
433.2788595714
 11
514.0237321134
 21
420.7788595714
  0
LINE
  5
9C3
100
AcDbEntity
  8
CAGE_COMMANDE
100
AcDbLine
 62
7
  6
CONTINUOUS
 10
514.0237321134
 20
417.5788595714
 11
514.0237321134
 21
417.2788595714
  0
LINE
  5
9C4
100
AcDbEntity
  8
CAGE_COMMANDE
100
AcDbLine
 62
7
  6
CONTINUOUS
 10
514.0737321134
 20
193.7816310799
 11
514.0737321134
 21
191.3566310799
  0
LINE
  5
9C5
100
AcDbEntity
  8
DIRECT_HANDLE
100
AcDbLine
 62
7
  6
CONTINUOUS
 10
514.5237321135
 20
536.1788595714
 11
514.5237321135
 21
491.6788595714
  0
LINE
  5
9C6
100
AcDbEntity
  8
DIRECT_HANDLE
100
AcDbLine
 62
7
  6
CONTINUOUS
 10
514.5237321134
 20
145.6532039552
 11
514.5237321134
 21
28.4816310799
  0
LINE
  5
9C7
100
AcDbEntity
  8
CAGE_COMMANDE
100
AcDbLine
 62
7
  6
CONTINUOUS
 10
514.7737321134
 20
174.6816310799
 11
514.7737321134
 21
186.6816310799
  0
LINE
  5
9C8
100
AcDbEntity
  8
CAGE_COMMANDE
100
AcDbLine
 62
7
  6
CONTINUOUS
 10
516.5944638207
 20
420.7788595714
 11
516.5944638207
 21
417.5788595714
  0
LINE
  5
9C9
100
AcDbEntity
  8
CAGE_COMMANDE
100
AcDbLine
 62
7
  6
CONTINUOUS
 10
516.6237321134
 20
186.6816310799
 11
516.6237321134
 21
174.6816310799
  0
LINE
  5
9CA
100
AcDbEntity
  8
CAGE_COMMANDE
100
AcDbLine
 62
7
  6
CONTINUOUS
 10
517.8737321134
 20
191.3566310799
 11
517.8737321134
 21
193.7816310799
  0
LINE
  5
9CB
100
AcDbEntity
  8
CAGE_COMMANDE
100
AcDbLine
 62
7
  6
CONTINUOUS
 10
518.4437321134
 20
174.0066310799
 11
518.4437321134
 21
171.6066310799
  0
LINE
  5
9CC
100
AcDbEntity
  8
CAGE_COMMANDE
100
AcDbLine
 62
7
  6
CONTINUOUS
 10
519.0237321134
 20
417.2788595714
 11
519.0237321134
 21
423.0788595714
  0
LINE
  5
9CD
100
AcDbEntity
  8
CAGE_COMMANDE
100
AcDbLine
 62
7
  6
CONTINUOUS
 10
519.2237321134
 20
191.3566310799
 11
519.2237321134
 21
187.3566310799
  0
LINE
  5
9CE
100
AcDbEntity
  8
CAGE_COMMANDE
100
AcDbLine
 62
7
  6
CONTINUOUS
 10
519.4237321134
 20
168.4816310799
 11
519.4237321134
 21
165.7316310799
  0
LINE
  5
9CF
100
AcDbEntity
  8
CAGE_COMMANDE
100
AcDbLine
 62
7
  6
CONTINUOUS
 10
519.7737321134
 20
174.6816310799
 11
519.7737321134
 21
186.6816310799
  0
LINE
  5
9D0
100
AcDbEntity
  8
CAGE_COMMANDE
100
AcDbLine
 62
7
  6
CONTINUOUS
 10
519.8737321134
 20
193.7816310799
 11
519.8737321134
 21
191.3566310799
  0
LINE
  5
9D1
100
AcDbEntity
  8
CAGE_COMMANDE
100
AcDbLine
 62
7
  6
CONTINUOUS
 10
521.0237321134
 20
195.9816310799
 11
521.0237321134
 21
187.3566310799
  0
LINE
  5
9D2
100
AcDbEntity
  8
CAGE_COMMANDE
100
AcDbLine
 62
7
  6
CONTINUOUS
 10
521.0237321134
 20
160.9816310799
 11
521.0237321134
 21
174.0066310799
  0
LINE
  5
9D3
100
AcDbEntity
  8
CAGE_COMMANDE
100
AcDbLine
 62
7
  6
CONTINUOUS
 10
521.0237321134
 20
417.2788595714
 11
521.0237321134
 21
425.0788595714
  0
LINE
  5
9D4
100
AcDbEntity
  8
DIRECT_HANDLE
100
AcDbLine
 62
7
  6
CONTINUOUS
 10
521.8071743141
 20
536.1788595714
 11
521.8071743141
 21
524.1788595714
  0
LINE
  5
9D5
100
AcDbEntity
  8
CAGE_COMMANDE
100
AcDbLine
 62
7
  6
CONTINUOUS
 10
522.1237321134
 20
400.4288595714
 11
522.1237321134
 21
402.8788595714
  0
LINE
  5
9D6
100
AcDbEntity
  8
CAGE_COMMANDE
100
AcDbLine
 62
7
  6
CONTINUOUS
 10
524.1237321134
 20
417.2788595714
 11
524.1237321134
 21
340.6788595714
  0
LINE
  5
9D7
100
AcDbEntity
  8
CAGE_COMMANDE
100
AcDbLine
 62
7
  6
CONTINUOUS
 10
524.1237321134
 20
200.4816310799
 11
524.1237321134
 21
82.4816310799
  0
LINE
  5
9D8
100
AcDbEntity
  8
DIRECT_HANDLE
100
AcDbLine
 62
7
  6
CONTINUOUS
 10
526.0237321134
 20
524.1788595714
 11
526.0237321134
 21
491.6788595714
  0
LINE
  5
9D9
100
AcDbEntity
  8
DIRECT_HANDLE
100
AcDbLine
 62
7
  6
CONTINUOUS
 10
502.0237321133
 20
144.4816310799
 11
506.0237321134
 21
161.48163108
  0
LINE
  5
9DA
100
AcDbEntity
  8
BASIC_DEVICE
100
AcDbLine
 62
7
  6
CONTINUOUS
 10
441.4292891124
 20
94.4816341106
 11
437.676510613
 21
87.9816310799
  0
LINE
  5
9DB
100
AcDbEntity
  8
BASIC_DEVICE
100
AcDbLine
 62
7
  6
CONTINUOUS
 10
462.4181751145
 20
94.4816341106
 11
466.1709536139
 21
100.9816371412
  0
LINE
  5
9DC
100
AcDbEntity
  8
CAGE_COMMANDE
100
AcDbLine
 62
7
  6
CONTINUOUS
 10
502.5237321134
 20
146.4816310799
 11
501.0237321134
 21
144.9816310799
  0
LINE
  5
9DD
100
AcDbEntity
  8
DIRECT_HANDLE
100
AcDbLine
 62
7
  6
CONTINUOUS
 10
486.0237321134
 20
524.1788595714
 11
497.5237321134
 21
524.1788595714
  0
LINE
  5
9DE
100
AcDbEntity
  8
DIRECT_HANDLE
100
AcDbLine
 62
7
  6
CONTINUOUS
 10
514.5237321135
 20
524.1788595714
 11
526.0237321134
 21
524.1788595714
  0
LINE
  5
9DF
100
AcDbEntity
  8
MOVING
100
AcDbLine
 62
1
  6
AM_ISO02W050X2
 10
393.0756656082
 20
537.1788595714
 11
491.2402899128
 21
537.1788595714
  0
LINE
  5
9E0
100
AcDbEntity
  8
DIRECT_HANDLE
100
AcDbLine
 62
7
  6
CONTINUOUS
 10
491.2402899128
 20
537.1788595714
 11
520.8071743141
 21
537.1788595714
  0
LINE
  5
9E1
100
AcDbEntity
  8
COVER_FUSE
100
AcDbLine
 62
6
  6
CONTINUOUS
 10
444.3237321134
 20
447.6788595714
 11
446.8237321134
 21
445.1788595714
  0
LINE
  5
9E2
100
AcDbEntity
  8
COVER_FUSE
100
AcDbLine
 62
6
  6
CONTINUOUS
 10
448.9237321134
 20
454.1788595714
 11
446.9237321134
 21
456.1788595714
  0
LINE
  5
9E3
100
AcDbEntity
  8
CAGE_COMMANDE
100
AcDbLine
 62
7
  6
CONTINUOUS
 10
506.0237321134
 20
399.4288595714
 11
505.0237321134
 21
400.4288595714
  0
LINE
  5
9E4
100
AcDbEntity
  8
CAGE_COMMANDE
100
AcDbLine
 62
7
  6
CONTINUOUS
 10
507.0237321134
 20
402.8788595714
 11
506.0237321134
 21
403.8788595714
  0
LINE
  5
9E5
100
AcDbEntity
  8
0
100
AcDbLine
 62
7
  6
CONTINUOUS
 10
554.1316004153
 20
0.0
 11
554.1316004153
 21
560.5421037221
  0
LINE
  5
9E6
100
AcDbEntity
  8
0
100
AcDbLine
 62
7
  6
CONTINUOUS
 10
554.1316004153
 20
0.0
 11
554.1316004153
 21
560.5421037221
  0
LINE
  5
9E7
100
AcDbEntity
  8
BASIC_DEVICE
100
AcDbLine
 62
7
  6
CONTINUOUS
 10
477.4292891124
 20
94.4816341106
 11
473.676510613
 21
87.9816310799
  0
LINE
  5
9E8
100
AcDbEntity
  8
CAGE_COMMANDE
100
AcDbLine
 62
7
  6
CONTINUOUS
 10
514.1329212305
 20
134.0491986475
 11
506.760931124
 21
126.0059554043
  0
LINE
  5
9E9
100
AcDbEntity
  8
DIRECT_HANDLE
100
AcDbLine
 62
7
  6
CONTINUOUS
 10
521.8071743141
 20
153.7650732806
 11
515.109518551
 21
147.0674175176
  0
LINE
  5
9EA
100
AcDbEntity
  8
CAGE_COMMANDE
100
AcDbLine
 62
7
  6
CONTINUOUS
 10
509.5237321134
 20
136.4816310799
 11
511.0237321134
 21
137.9816310799
  0
LINE
  5
9EB
100
AcDbEntity
  8
AM_12
100
AcDbLine
 62
4
  6
CONTINUOUS
 10
523.5720909644
 20
143.6927585547
 11
527.0720909644
 21
147.1927585547
  0
LINE
  5
9EC
100
AcDbEntity
  8
0
100
AcDbLine
 62
7
  6
CONTINUOUS
 10
554.1316004153
 20
560.5421037221
 11
0.0
 21
560.5421037221
  0
LINE
  5
9ED
100
AcDbEntity
  8
0
100
AcDbLine
 62
7
  6
CONTINUOUS
 10
0.0
 20
560.5421037221
 11
554.1316004153
 21
560.5421037221
  0
LINE
  5
9EE
100
AcDbEntity
  8
COVER_FUSE
100
AcDbLine
 62
6
  6
CONTINUOUS
 10
480.3237321134
 20
447.6788595714
 11
482.8237321134
 21
445.1788595714
  0
LINE
  5
9EF
100
AcDbEntity
  8
COVER_FUSE
100
AcDbLine
 62
6
  6
CONTINUOUS
 10
484.9237321134
 20
454.1788595714
 11
482.9237321134
 21
456.1788595714
  0
ARC
  5
9F0
100
AcDbEntity
  8
MOVING
100
AcDbCircle
 62
1
  6
AM_ISO02W050X2
 10
83.4340513169
 20
42.4793819875
 40
2.4
100
AcDbArc
 50
117.8562168267
 51
267.8562168267
  0
ARC
  5
9F1
100
AcDbEntity
  8
DIRECT_HANDLE
100
AcDbCircle
 62
7
  6
CONTINUOUS
 10
123.8227053108
 20
111.4296975846
 40
2.0
100
AcDbArc
 50
270.0
 51
360.0
  0
ARC
  5
9F2
100
AcDbEntity
  8
DIRECT_HANDLE
100
AcDbCircle
 62
7
  6
CONTINUOUS
 10
104.8227053108
 20
107.4296975846
 40
2.0
100
AcDbArc
 50
90.0
 51
180.0
  0
ARC
  5
9F3
100
AcDbEntity
  8
DIRECT_HANDLE
100
AcDbCircle
 62
7
  6
CONTINUOUS
 10
82.3227053108
 20
28.5335645747
 40
2.0
100
AcDbArc
 50
180.0
 51
270.0
  0
ARC
  5
9F4
100
AcDbEntity
  8
DIRECT_HANDLE
100
AcDbCircle
 62
7
  6
CONTINUOUS
 10
100.8227053107
 20
28.5335645748
 40
2.0
100
AcDbArc
 50
270.0
 51
360.0
  0
ARC
  5
9F5
100
AcDbEntity
  8
MOVING
100
AcDbCircle
 62
1
  6
AM_ISO02W050X2
 10
115.7358632993
 20
26.6367457702
 40
1.5
100
AcDbArc
 50
350.9863191808
 51
244.7261144725
  0
ARC
  5
9F6
100
AcDbEntity
  8
MOVING
100
AcDbCircle
 62
1
  6
AM_ISO02W050X2
 10
114.6684989166
 20
24.3760526741
 40
1.0
100
AcDbArc
 50
297.8562168267
 51
64.7261144725
  0
ARC
  5
9F7
100
AcDbEntity
  8
MOVING
100
AcDbCircle
 62
1
  6
AM_ISO02W050X2
 10
118.2049906987
 20
26.2450700297
 40
1.0
100
AcDbArc
 50
170.9863191808
 51
297.8562168267
  0
ARC
  5
9F8
100
AcDbEntity
  8
DIRECT_HANDLE
100
AcDbCircle
 62
7
  6
CONTINUOUS
 10
123.8227053108
 20
159.5335645753
 40
2.0
100
AcDbArc
 50
0.0
 51
90.0
  0
ARC
  5
9F9
100
AcDbEntity
  8
DIRECT_HANDLE
100
AcDbCircle
 62
7
  6
CONTINUOUS
 10
95.8227053108
 20
125.4296975846
 40
2.0
100
AcDbArc
 50
180.0
 51
270.0
  0
ARC
  5
9FA
100
AcDbEntity
  8
DIRECT_HANDLE
100
AcDbCircle
 62
7
  6
CONTINUOUS
 10
82.3227053108
 20
159.5335645753
 40
2.0
100
AcDbArc
 50
90.0
 51
180.0
  0
ARC
  5
9FB
100
AcDbEntity
  8
BASIC_DEVICE
100
AcDbCircle
 62
7
  6
CONTINUOUS
 10
175.4227053108
 20
151.0816310799
 40
1.6
100
AcDbArc
 50
90.0
 51
270.0
  0
ARC
  5
9FC
100
AcDbEntity
  8
BASIC_DEVICE
100
AcDbCircle
 62
7
  6
CONTINUOUS
 10
175.4227053108
 20
131.8816310799
 40
1.6
100
AcDbArc
 50
90.0
 51
270.0
  0
ARC
  5
9FD
100
AcDbEntity
  8
COVER_FUSE
100
AcDbCircle
 62
6
  6
CONTINUOUS
 10
155.8227053108
 20
174.4816310799
 40
1.5
100
AcDbArc
 50
233.1301023542
 51
126.8698976458
  0
ARC
  5
9FE
100
AcDbEntity
  8
COVER_FUSE
100
AcDbCircle
 62
6
  6
CONTINUOUS
 10
154.3227053108
 20
176.4816310799
 40
1.0
100
AcDbArc
 50
180.0
 51
306.8698976458
  0
ARC
  5
9FF
100
AcDbEntity
  8
COVER_FUSE
100
AcDbCircle
 62
6
  6
CONTINUOUS
 10
154.3227053108
 20
172.4816310799
 40
1.0
100
AcDbArc
 50
53.1301023542
 51
180.0
  0
ARC
  5
A00
100
AcDbEntity
  8
MOVING
100
AcDbCircle
 62
1
  6
AM_ISO02W050X2
 10
180.3227053108
 20
88.4816310799
 40
117.9356782522
100
AcDbArc
 50
104.736610316
 51
222.5928271427
  0
ARC
  5
A01
100
AcDbEntity
  8
BASIC_DEVICE
100
AcDbCircle
 62
7
  6
CONTINUOUS
 10
232.3227053108
 20
104.7316310799
 40
6.0
100
AcDbArc
 50
212.7971682958
 51
327.2028317042
  0
ARC
  5
A02
100
AcDbEntity
  8
MOVING
100
AcDbCircle
 62
1
  6
AM_ISO02W050X2
 10
180.3227053108
 20
88.4816310799
 40
6.0
100
AcDbArc
 50
27.8562168267
 51
207.8562168267
  0
ARC
  5
A03
100
AcDbEntity
  8
COVER_FUSE
100
AcDbCircle
 62
6
  6
CONTINUOUS
 10
180.3227053108
 20
88.4816310799
 40
6.0
100
AcDbArc
 50
270.0
 51
90.0
  0
CIRCLE
  5
A04
100
AcDbEntity
  8
BASIC_DEVICE
100
AcDbCircle
 62
7
  6
CONTINUOUS
 10
232.3227053108
 20
104.7316310799
 40
4.0
  0
CIRCLE
  5
A05
100
AcDbEntity
  8
CAGE_COMMANDE
100
AcDbCircle
 62
7
  6
CONTINUOUS
 10
204.5227053108
 20
111.8816310799
 40
3.25
  0
CIRCLE
  5
A06
100
AcDbEntity
  8
BASIC_DEVICE
100
AcDbCircle
 62
7
  6
CONTINUOUS
 10
180.3227053108
 20
88.4816310799
 40
3.0
  0
CIRCLE
  5
A07
100
AcDbEntity
  8
MOVING
100
AcDbCircle
 62
1
  6
AM_ISO02W050X2
 10
180.3227053108
 20
88.4816310799
 40
3.0
  0
CIRCLE
  5
A08
100
AcDbEntity
  8
COVER_FUSE
100
AcDbCircle
 62
6
  6
CONTINUOUS
 10
180.3227053108
 20
88.4816310799
 40
3.0
  0
CIRCLE
  5
A09
100
AcDbEntity
  8
CAGE_COMMANDE
100
AcDbCircle
 62
7
  6
CONTINUOUS
 10
234.3227053108
 20
87.2816310799
 40
1.65
  0
CIRCLE
  5
A0A
100
AcDbEntity
  8
CAGE_COMMANDE
100
AcDbCircle
 62
7
  6
CONTINUOUS
 10
273.3227053108
 20
87.2816310799
 40
1.65
  0
ARC
  5
A0B
100
AcDbEntity
  8
CAGE_COMMANDE
100
AcDbCircle
 62
7
  6
CONTINUOUS
 10
245.8227053108
 20
141.4816310799
 40
28.0
100
AcDbArc
 50
333.525426577
 51
26.474573423
  0
CIRCLE
  5
A0C
100
AcDbEntity
  8
BASIC_DEVICE
100
AcDbCircle
 62
7
  6
CONTINUOUS
 10
245.8227053108
 20
141.4816310799
 40
8.15
  0
ARC
  5
A0D
100
AcDbEntity
  8
CAGE_COMMANDE
100
AcDbCircle
 62
7
  6
CONTINUOUS
 10
215.8217244746
 20
138.3815986101
 40
6.6001113999
100
AcDbArc
 50
57.7836348074
 51
89.7197899789
  0
ARC
  5
A0E
100
AcDbEntity
  8
CAGE_COMMANDE
100
AcDbCircle
 62
7
  6
CONTINUOUS
 10
215.813264507
 20
144.5815639173
 40
6.6001113999
100
AcDbArc
 50
270.4365722306
 51
302.3727274022
  0
CIRCLE
  5
A0F
100
AcDbEntity
  8
CAGE_COMMANDE
100
AcDbCircle
 62
7
  6
CONTINUOUS
 10
245.8227053108
 20
141.4816310799
 40
6.5994098247
  0
ARC
  5
A10
100
AcDbEntity
  8
BASIC_DEVICE
100
AcDbCircle
 62
7
  6
CONTINUOUS
 10
232.3227053108
 20
178.2316310799
 40
6.0
100
AcDbArc
 50
32.7971682958
 51
147.2028317042
  0
CIRCLE
  5
A11
100
AcDbEntity
  8
BASIC_DEVICE
100
AcDbCircle
 62
7
  6
CONTINUOUS
 10
232.3227053108
 20
178.2316310799
 40
4.0
  0
CIRCLE
  5
A12
100
AcDbEntity
  8
CAGE_COMMANDE
100
AcDbCircle
 62
7
  6
CONTINUOUS
 10
210.8227053108
 20
126.4816310799
 40
3.65
  0
CIRCLE
  5
A13
100
AcDbEntity
  8
CAGE_COMMANDE
100
AcDbCircle
 62
7
  6
CONTINUOUS
 10
210.8227053108
 20
156.4816310799
 40
3.65
  0
ARC
  5
A14
100
AcDbEntity
  8
CAGE_COMMANDE
100
AcDbCircle
 62
7
  6
CONTINUOUS
 10
208.0227053108
 20
141.4816310799
 40
3.5
100
AcDbArc
 50
90.0
 51
270.0
  0
ARC
  5
A15
100
AcDbEntity
  8
CAGE_COMMANDE
100
AcDbCircle
 62
7
  6
CONTINUOUS
 10
215.854002768
 20
141.4816310799
 40
3.5
100
AcDbArc
 50
270.0
 51
90.0
  0
CIRCLE
  5
A16
100
AcDbEntity
  8
CAGE_COMMANDE
100
AcDbCircle
 62
7
  6
CONTINUOUS
 10
204.5227053108
 20
170.8816310799
 40
3.25
  0
CIRCLE
  5
A17
100
AcDbEntity
  8
BASIC_DEVICE
100
AcDbCircle
 62
7
  6
CONTINUOUS
 10
180.3227053108
 20
194.4816310799
 40
3.0
  0
ARC
  5
A18
100
AcDbEntity
  8
COVER_FUSE
100
AcDbCircle
 62
6
  6
CONTINUOUS
 10
184.9227053108
 20
195.6378637233
 40
2.4
100
AcDbArc
 50
0.0
 51
150.0
  0
CIRCLE
  5
A19
100
AcDbEntity
  8
CAGE_COMMANDE
100
AcDbCircle
 62
7
  6
CONTINUOUS
 10
234.3227053108
 20
195.6816310799
 40
1.65
  0
CIRCLE
  5
A1A
100
AcDbEntity
  8
CAGE_COMMANDE
100
AcDbCircle
 62
7
  6
CONTINUOUS
 10
273.3227053108
 20
195.6816310799
 40
1.65
  0
ARC
  5
A1B
100
AcDbEntity
  8
CAGE_COMMANDE
100
AcDbCircle
 62
7
  6
CONTINUOUS
 10
271.4827053108
 20
127.7470033092
 40
1.26
100
AcDbArc
 50
131.2940781257
 51
180.0
  0
ARC
  5
A1C
100
AcDbEntity
  8
CAGE_COMMANDE
100
AcDbCircle
 62
7
  6
CONTINUOUS
 10
271.4827053108
 20
155.2162588507
 40
1.26
100
AcDbArc
 50
180.0
 51
228.7059218743
  0
ARC
  5
A1D
100
AcDbEntity
  8
CAGE_COMMANDE
100
AcDbCircle
 62
7
  6
CONTINUOUS
 10
269.9912770333
 20
129.4450144084
 40
1.0
100
AcDbArc
 50
311.2940781257
 51
333.525426577
  0
ARC
  5
A1E
100
AcDbEntity
  8
CAGE_COMMANDE
100
AcDbCircle
 62
7
  6
CONTINUOUS
 10
269.9912770333
 20
153.5182477515
 40
1.0
100
AcDbArc
 50
26.474573423
 51
48.7059218743
  0
ARC
  5
A1F
100
AcDbEntity
  8
TERMINAL_SCHROUD
100
AcDbCircle
 62
2
  6
CONTINUOUS
 10
229.3227053108
 20
206.3816310799
 40
1.0
100
AcDbArc
 50
90.0
 51
180.0
  0
ARC
  5
A20
100
AcDbEntity
  8
TERMINAL_SCHROUD
100
AcDbCircle
 62
2
  6
CONTINUOUS
 10
229.3227053108
 20
201.8816310799
 40
1.0
100
AcDbArc
 50
180.0
 51
270.0
  0
ARC
  5
A21
100
AcDbEntity
  8
CAGE_COMMANDE
100
AcDbCircle
 62
7
  6
CONTINUOUS
 10
270.9727053108
 20
123.7316310799
 40
0.75
100
AcDbArc
 50
180.0
 51
270.0
  0
ARC
  5
A22
100
AcDbEntity
  8
CAGE_COMMANDE
100
AcDbCircle
 62
7
  6
CONTINUOUS
 10
270.9727053108
 20
159.2316310799
 40
0.75
100
AcDbArc
 50
90.0
 51
180.0
  0
ARC
  5
A23
100
AcDbEntity
  8
CAGE_COMMANDE
100
AcDbCircle
 62
7
  6
CONTINUOUS
 10
276.0727053108
 20
160.7316310799
 40
0.75
100
AcDbArc
 50
270.0
 51
360.0
  0
ARC
  5
A24
100
AcDbEntity
  8
CAGE_COMMANDE
100
AcDbCircle
 62
7
  6
CONTINUOUS
 10
276.0727053108
 20
122.2316310799
 40
0.75
100
AcDbArc
 50
0.0
 51
90.0
  0
CIRCLE
  5
A25
100
AcDbEntity
  8
CONTACT
100
AcDbCircle
 62
40
  6
CONTINUOUS
 10
433.9237321134
 20
70.9816310799
 40
4.4
  0
CIRCLE
  5
A26
100
AcDbEntity
  8
CONTACT
100
AcDbCircle
 62
40
  6
CONTINUOUS
 10
397.9237321134
 20
70.9816310799
 40
4.4
  0
ARC
  5
A27
100
AcDbEntity
  8
BASIC_DEVICE
100
AcDbCircle
 62
7
  6
CONTINUOUS
 10
451.8777828728
 20
95.7252767633
 40
2.7567372837
100
AcDbArc
 50
354.929474098
 51
89.0449508936
  0
ARC
  5
A28
100
AcDbEntity
  8
BASIC_DEVICE
100
AcDbCircle
 62
7
  6
CONTINUOUS
 10
451.969681354
 20
95.7252767634
 40
2.7567372837
100
AcDbArc
 50
90.9550491064
 51
185.070525902
  0
ARC
  5
A29
100
AcDbEntity
  8
BASIC_DEVICE
100
AcDbCircle
 62
7
  6
CONTINUOUS
 10
415.8777828728
 20
95.7252767633
 40
2.7567372837
100
AcDbArc
 50
354.929474098
 51
89.0449508936
  0
ARC
  5
A2A
100
AcDbEntity
  8
BASIC_DEVICE
100
AcDbCircle
 62
7
  6
CONTINUOUS
 10
415.969681354
 20
95.7252767634
 40
2.7567372837
100
AcDbArc
 50
90.9550491064
 51
185.070525902
  0
ARC
  5
A2B
100
AcDbEntity
  8
BASIC_DEVICE
100
AcDbCircle
 62
7
  6
CONTINUOUS
 10
379.8777828728
 20
95.7252767633
 40
2.7567372837
100
AcDbArc
 50
354.929474098
 51
89.0449508936
  0
CIRCLE
  5
A2C
100
AcDbEntity
  8
DEVICE_FIXING_HOLES
100
AcDbCircle
 62
1
  6
CONTINUOUS
 10
451.9237321134
 20
80.2482795667
 40
2.5
  0
CIRCLE
  5
A2D
100
AcDbEntity
  8
DEVICE_FIXING_HOLES
100
AcDbCircle
 62
1
  6
CONTINUOUS
 10
415.9237321134
 20
80.2482795667
 40
2.5
  0
ARC
  5
A2E
100
AcDbEntity
  8
MOVING
100
AcDbCircle
 62
1
  6
AM_ISO02W050X2
 10
393.0237321133
 20
147.9816310799
 40
2.0
100
AcDbArc
 50
90.0
 51
180.0000000002
  0
ARC
  5
A2F
100
AcDbEntity
  8
MOVING
100
AcDbCircle
 62
1
  6
AM_ISO02W050X2
 10
393.0237321134
 20
134.9816310799
 40
2.0
100
AcDbArc
 50
180.0000000002
 51
270.0
  0
ARC
  5
A30
100
AcDbEntity
  8
CONTACT
100
AcDbCircle
 62
40
  6
CONTINUOUS
 10
424.9237321134
 20
64.1816310799
 40
1.0
100
AcDbArc
 50
180.0000000001
 51
270.0000000001
  0
ARC
  5
A31
100
AcDbEntity
  8
CONTACT
100
AcDbCircle
 62
40
  6
CONTINUOUS
 10
442.9237321134
 20
64.1816310799
 40
1.0
100
AcDbArc
 50
270.0000000001
 51
360.0
  0
ARC
  5
A32
100
AcDbEntity
  8
CONTACT
100
AcDbCircle
 62
40
  6
CONTINUOUS
 10
388.9237321134
 20
64.1816310799
 40
1.0
100
AcDbArc
 50
180.0000000001
 51
270.0000000001
  0
ARC
  5
A33
100
AcDbEntity
  8
CONTACT
100
AcDbCircle
 62
40
  6
CONTINUOUS
 10
406.9237321134
 20
64.1816310799
 40
1.0
100
AcDbArc
 50
270.0000000001
 51
360.0
  0
CIRCLE
  5
A34
100
AcDbEntity
  8
CONTACT
100
AcDbCircle
 62
40
  6
CONTINUOUS
 10
433.9237321134
 20
211.9816310799
 40
4.4
  0
CIRCLE
  5
A35
100
AcDbEntity
  8
CONTACT
100
AcDbCircle
 62
40
  6
CONTINUOUS
 10
397.9237321134
 20
211.9816310799
 40
4.4
  0
ARC
  5
A36
100
AcDbEntity
  8
BASIC_DEVICE
100
AcDbCircle
 62
7
  6
CONTINUOUS
 10
451.8777828728
 20
187.2379853965
 40
2.7567372837
100
AcDbArc
 50
270.9550491064
 51
5.070525902
  0
ARC
  5
A37
100
AcDbEntity
  8
BASIC_DEVICE
100
AcDbCircle
 62
7
  6
CONTINUOUS
 10
451.969681354
 20
187.2379853965
 40
2.7567372837
100
AcDbArc
 50
174.929474098
 51
269.0449508936
  0
ARC
  5
A38
100
AcDbEntity
  8
BASIC_DEVICE
100
AcDbCircle
 62
7
  6
CONTINUOUS
 10
415.8777828728
 20
187.2379853965
 40
2.7567372837
100
AcDbArc
 50
270.9550491064
 51
5.070525902
  0
ARC
  5
A39
100
AcDbEntity
  8
BASIC_DEVICE
100
AcDbCircle
 62
7
  6
CONTINUOUS
 10
415.969681354
 20
187.2379853965
 40
2.7567372837
100
AcDbArc
 50
174.929474098
 51
269.0449508936
  0
ARC
  5
A3A
100
AcDbEntity
  8
BASIC_DEVICE
100
AcDbCircle
 62
7
  6
CONTINUOUS
 10
379.8777828728
 20
187.2379853965
 40
2.7567372837
100
AcDbArc
 50
270.9550491064
 51
5.070525902
  0
CIRCLE
  5
A3B
100
AcDbEntity
  8
DEVICE_FIXING_HOLES
100
AcDbCircle
 62
1
  6
CONTINUOUS
 10
451.9237321134
 20
207.2482795667
 40
2.5
  0
CIRCLE
  5
A3C
100
AcDbEntity
  8
DEVICE_FIXING_HOLES
100
AcDbCircle
 62
1
  6
CONTINUOUS
 10
415.9237321134
 20
207.2482795667
 40
2.5
  0
CIRCLE
  5
A3D
100
AcDbEntity
  8
AM_12
100
AcDbCircle
 62
4
  6
CONTINUOUS
 10
450.0881658698
 20
273.9579296891
 40
1.75
  0
ARC
  5
A3E
100
AcDbEntity
  8
TERMINAL_SCHROUD
100
AcDbCircle
 62
2
  6
CONTINUOUS
 10
426.9237321134
 20
208.4816310799
 40
1.0
100
AcDbArc
 50
0.0
 51
180.0
  0
ARC
  5
A3F
100
AcDbEntity
  8
TERMINAL_SCHROUD
100
AcDbCircle
 62
2
  6
CONTINUOUS
 10
440.9237321134
 20
208.4816310799
 40
1.0
100
AcDbArc
 50
0.0
 51
180.0
  0
ARC
  5
A40
100
AcDbEntity
  8
TERMINAL_SCHROUD
100
AcDbCircle
 62
2
  6
CONTINUOUS
 10
390.9237321134
 20
208.4816310799
 40
1.0
100
AcDbArc
 50
0.0
 51
180.0
  0
ARC
  5
A41
100
AcDbEntity
  8
TERMINAL_SCHROUD
100
AcDbCircle
 62
2
  6
CONTINUOUS
 10
404.9237321134
 20
208.4816310799
 40
1.0
100
AcDbArc
 50
0.0
 51
180.0
  0
ARC
  5
A42
100
AcDbEntity
  8
CONTACT
100
AcDbCircle
 62
40
  6
CONTINUOUS
 10
424.9237321134
 20
218.7816310799
 40
1.0
100
AcDbArc
 50
90.0
 51
180.0
  0
ARC
  5
A43
100
AcDbEntity
  8
CONTACT
100
AcDbCircle
 62
40
  6
CONTINUOUS
 10
442.9237321134
 20
218.7816310799
 40
1.0
100
AcDbArc
 50
0.0
 51
90.0
  0
ARC
  5
A44
100
AcDbEntity
  8
CONTACT
100
AcDbCircle
 62
40
  6
CONTINUOUS
 10
388.9237321134
 20
218.7816310799
 40
1.0
100
AcDbArc
 50
90.0
 51
180.0
  0
ARC
  5
A45
100
AcDbEntity
  8
CONTACT
100
AcDbCircle
 62
40
  6
CONTINUOUS
 10
406.9237321134
 20
218.7816310799
 40
1.0
100
AcDbArc
 50
0.0
 51
90.0
  0
ARC
  5
A46
100
AcDbEntity
  8
TERMINAL_SCHROUD
100
AcDbCircle
 62
2
  6
CONTINUOUS
 10
443.7350590668
 20
232.2133717943
 40
0.2022203798
100
AcDbArc
 50
209.9816393688
 51
29.9816393688
  0
ARC
  5
A47
100
AcDbEntity
  8
TERMINAL_SCHROUD
100
AcDbCircle
 62
2
  6
CONTINUOUS
 10
434.23484039
 20
248.6804175008
 40
0.2022203798
100
AcDbArc
 50
29.9816393688
 51
209.9816393688
  0
ARC
  5
A48
100
AcDbEntity
  8
TERMINAL_SCHROUD
100
AcDbCircle
 62
2
  6
CONTINUOUS
 10
424.4182370026
 20
231.6838514597
 40
0.2022203798
100
AcDbArc
 50
90.0
 51
270.0
  0
ARC
  5
A49
100
AcDbEntity
  8
TERMINAL_SCHROUD
100
AcDbCircle
 62
2
  6
CONTINUOUS
 10
443.4292272243
 20
231.6838514597
 40
0.2022203798
100
AcDbArc
 50
270.0
 51
90.0
  0
ARC
  5
A4A
100
AcDbEntity
  8
TERMINAL_SCHROUD
100
AcDbCircle
 62
2
  6
CONTINUOUS
 10
433.6126238368
 20
248.6804175008
 40
0.2022203798
100
AcDbArc
 50
330.0183606312
 51
150.0183606312
  0
ARC
  5
A4B
100
AcDbEntity
  8
TERMINAL_SCHROUD
100
AcDbCircle
 62
2
  6
CONTINUOUS
 10
424.11240516
 20
232.2133717943
 40
0.2022203798
100
AcDbArc
 50
150.0183606311
 51
330.0183606311
  0
ARC
  5
A4C
100
AcDbEntity
  8
TERMINAL_SCHROUD
100
AcDbCircle
 62
2
  6
CONTINUOUS
 10
407.7350590668
 20
232.2133717943
 40
0.2022203798
100
AcDbArc
 50
209.9816393689
 51
29.9816393689
  0
ARC
  5
A4D
100
AcDbEntity
  8
TERMINAL_SCHROUD
100
AcDbCircle
 62
2
  6
CONTINUOUS
 10
398.23484039
 20
248.6804175008
 40
0.2022203798
100
AcDbArc
 50
29.9816393688
 51
209.9816393688
  0
ARC
  5
A4E
100
AcDbEntity
  8
TERMINAL_SCHROUD
100
AcDbCircle
 62
2
  6
CONTINUOUS
 10
388.4182370026
 20
231.6838514597
 40
0.2022203798
100
AcDbArc
 50
90.0
 51
270.0
  0
ARC
  5
A4F
100
AcDbEntity
  8
TERMINAL_SCHROUD
100
AcDbCircle
 62
2
  6
CONTINUOUS
 10
407.4292272243
 20
231.6838514597
 40
0.2022203798
100
AcDbArc
 50
270.0
 51
90.0
  0
ARC
  5
A50
100
AcDbEntity
  8
TERMINAL_SCHROUD
100
AcDbCircle
 62
2
  6
CONTINUOUS
 10
397.6126238368
 20
248.6804175008
 40
0.2022203798
100
AcDbArc
 50
330.0183606311
 51
150.0183606311
  0
ARC
  5
A51
100
AcDbEntity
  8
TERMINAL_SCHROUD
100
AcDbCircle
 62
2
  6
CONTINUOUS
 10
388.11240516
 20
232.2133717943
 40
0.2022203798
100
AcDbArc
 50
150.0183606311
 51
330.0183606311
  0
ARC
  5
A52
100
AcDbEntity
  8
DIRECT_HANDLE
100
AcDbCircle
 62
7
  6
CONTINUOUS
 10
506.0237321134
 20
141.4816310799
 40
20.0
100
AcDbArc
 50
295.1506634126
 51
244.8493365874
  0
ARC
  5
A53
100
AcDbEntity
  8
CAGE_COMMANDE
100
AcDbCircle
 62
7
  6
CONTINUOUS
 10
506.0237321134
 20
141.4816310799
 40
11.0
100
AcDbArc
 50
16.059360514
 51
222.5066423027
  0
ARC
  5
A54
100
AcDbEntity
  8
CAGE_COMMANDE
100
AcDbCircle
 62
7
  6
CONTINUOUS
 10
506.0237321134
 20
141.4816310799
 40
11.0
100
AcDbArc
 50
317.4933576973
 51
343.940639486
  0
ARC
  5
A55
100
AcDbEntity
  8
CAGE_COMMANDE
100
AcDbCircle
 62
7
  6
CONTINUOUS
 10
506.0237321134
 20
141.4816310799
 40
8.0
100
AcDbArc
 50
299.1233030391
 51
240.8766969609
  0
ARC
  5
A56
100
AcDbEntity
  8
DIRECT_HANDLE
100
AcDbCircle
 62
7
  6
CONTINUOUS
 10
506.0237321134
 20
141.4816310799
 40
5.0
100
AcDbArc
 50
143.1301023577
 51
36.8698976478
  0
CIRCLE
  5
A57
100
AcDbEntity
  8
CONTACT
100
AcDbCircle
 62
40
  6
CONTINUOUS
 10
469.9237321134
 20
70.9816310799
 40
4.4
  0
ARC
  5
A58
100
AcDbEntity
  8
CAGE_COMMANDE
100
AcDbCircle
 62
7
  6
CONTINUOUS
 10
506.0237321134
 20
131.3735047594
 40
4.1701849185
100
AcDbArc
 50
149.9427241908
 51
30.0572758092
  0
CIRCLE
  5
A59
100
AcDbEntity
  8
DIRECT_HANDLE
100
AcDbCircle
 62
7
  6
CONTINUOUS
 10
506.0237321134
 20
141.4816310799
 40
4.0
  0
ARC
  5
A5A
100
AcDbEntity
  8
CAGE_COMMANDE
100
AcDbCircle
 62
7
  6
CONTINUOUS
 10
518.3237321134
 20
141.4816310799
 40
3.5
100
AcDbArc
 50
119.608882341
 51
240.391117659
  0
ARC
  5
A5B
100
AcDbEntity
  8
BASIC_DEVICE
100
AcDbCircle
 62
7
  6
CONTINUOUS
 10
487.969681354
 20
95.7252767634
 40
2.7567372837
100
AcDbArc
 50
90.9550491064
 51
185.070525902
  0
ARC
  5
A5C
100
AcDbEntity
  8
DIRECT_HANDLE
100
AcDbCircle
 62
7
  6
CONTINUOUS
 10
512.5237321134
 20
28.4816310799
 40
2.0
100
AcDbArc
 50
270.0000000002
 51
360.0
  0
ARC
  5
A5D
100
AcDbEntity
  8
DIRECT_HANDLE
100
AcDbCircle
 62
7
  6
CONTINUOUS
 10
499.5237321134
 20
28.4816310799
 40
2.0
100
AcDbArc
 50
180.0
 51
270.0000000002
  0
ARC
  5
A5E
100
AcDbEntity
  8
DIRECT_HANDLE
100
AcDbCircle
 62
7
  6
CONTINUOUS
 10
495.5237321134
 20
145.6532039552
 40
2.0
100
AcDbArc
 50
0.0
 51
45.0
  0
ARC
  5
A5F
100
AcDbEntity
  8
DIRECT_HANDLE
100
AcDbCircle
 62
7
  6
CONTINUOUS
 10
516.5237321134
 20
145.6532039552
 40
2.0
100
AcDbArc
 50
134.9999999998
 51
180.0
  0
CIRCLE
  5
A60
100
AcDbEntity
  8
AM_12
100
AcDbCircle
 62
4
  6
CONTINUOUS
 10
525.3220909644
 20
145.4427585547
 40
1.75
  0
ARC
  5
A61
100
AcDbEntity
  8
CONTACT
100
AcDbCircle
 62
40
  6
CONTINUOUS
 10
460.9237321134
 20
64.1816310799
 40
1.0
100
AcDbArc
 50
180.0000000001
 51
270.0000000001
  0
ARC
  5
A62
100
AcDbEntity
  8
CONTACT
100
AcDbCircle
 62
40
  6
CONTINUOUS
 10
478.9237321134
 20
64.1816310799
 40
1.0
100
AcDbArc
 50
270.0000000001
 51
360.0
  0
ARC
  5
A63
100
AcDbEntity
  8
CAGE_COMMANDE
100
AcDbCircle
 62
7
  6
CONTINUOUS
 10
506.0237321134
 20
126.6816310799
 40
1.0
100
AcDbArc
 50
222.5066423027
 51
317.4933576973
  0
ARC
  5
A64
100
AcDbEntity
  8
CAGE_COMMANDE
100
AcDbCircle
 62
7
  6
CONTINUOUS
 10
501.7651883462
 20
133.8378555087
 40
0.75
100
AcDbArc
 50
329.9427241908
 51
60.8766969609
  0
ARC
  5
A65
100
AcDbEntity
  8
CAGE_COMMANDE
100
AcDbCircle
 62
7
  6
CONTINUOUS
 10
510.2822758806
 20
133.8378555087
 40
0.75
100
AcDbArc
 50
119.1233030391
 51
210.0572758092
  0
CIRCLE
  5
A66
100
AcDbEntity
  8
CONTACT
100
AcDbCircle
 62
40
  6
CONTINUOUS
 10
469.9237321134
 20
211.9816310799
 40
4.4
  0
ARC
  5
A67
100
AcDbEntity
  8
BASIC_DEVICE
100
AcDbCircle
 62
7
  6
CONTINUOUS
 10
487.969681354
 20
187.2379853965
 40
2.7567372837
100
AcDbArc
 50
174.929474098
 51
269.0449508936
  0
CIRCLE
  5
A68
100
AcDbEntity
  8
AM_12
100
AcDbCircle
 62
4
  6
CONTINUOUS
 10
523.758726503
 20
199.5500169878
 40
1.75
  0
ARC
  5
A69
100
AcDbEntity
  8
TERMINAL_SCHROUD
100
AcDbCircle
 62
2
  6
CONTINUOUS
 10
462.9237321134
 20
208.4816310799
 40
1.0
100
AcDbArc
 50
0.0
 51
180.0
  0
ARC
  5
A6A
100
AcDbEntity
  8
TERMINAL_SCHROUD
100
AcDbCircle
 62
2
  6
CONTINUOUS
 10
476.9237321134
 20
208.4816310799
 40
1.0
100
AcDbArc
 50
0.0
 51
180.0
  0
ARC
  5
A6B
100
AcDbEntity
  8
CONTACT
100
AcDbCircle
 62
40
  6
CONTINUOUS
 10
460.9237321134
 20
218.7816310799
 40
1.0
100
AcDbArc
 50
90.0
 51
180.0
  0
ARC
  5
A6C
100
AcDbEntity
  8
CONTACT
100
AcDbCircle
 62
40
  6
CONTINUOUS
 10
478.9237321134
 20
218.7816310799
 40
1.0
100
AcDbArc
 50
0.0
 51
90.0
  0
ARC
  5
A6D
100
AcDbEntity
  8
TERMINAL_SCHROUD
100
AcDbCircle
 62
2
  6
CONTINUOUS
 10
479.7350590668
 20
232.2133717943
 40
0.2022203798
100
AcDbArc
 50
209.9816393688
 51
29.9816393688
  0
ARC
  5
A6E
100
AcDbEntity
  8
TERMINAL_SCHROUD
100
AcDbCircle
 62
2
  6
CONTINUOUS
 10
470.23484039
 20
248.6804175008
 40
0.2022203798
100
AcDbArc
 50
29.9816393688
 51
209.9816393688
  0
ARC
  5
A6F
100
AcDbEntity
  8
TERMINAL_SCHROUD
100
AcDbCircle
 62
2
  6
CONTINUOUS
 10
460.4182370026
 20
231.6838514597
 40
0.2022203798
100
AcDbArc
 50
90.0
 51
270.0
  0
ARC
  5
A70
100
AcDbEntity
  8
TERMINAL_SCHROUD
100
AcDbCircle
 62
2
  6
CONTINUOUS
 10
479.4292272243
 20
231.6838514597
 40
0.2022203798
100
AcDbArc
 50
270.0
 51
90.0
  0
ARC
  5
A71
100
AcDbEntity
  8
TERMINAL_SCHROUD
100
AcDbCircle
 62
2
  6
CONTINUOUS
 10
469.6126238368
 20
248.6804175008
 40
0.2022203798
100
AcDbArc
 50
330.0183606311
 51
150.0183606311
  0
ARC
  5
A72
100
AcDbEntity
  8
TERMINAL_SCHROUD
100
AcDbCircle
 62
2
  6
CONTINUOUS
 10
460.11240516
 20
232.2133717943
 40
0.2022203798
100
AcDbArc
 50
150.0183606311
 51
330.0183606311
  0
ARC
  5
A73
100
AcDbEntity
  8
TERMINAL_SCHROUD
100
AcDbCircle
 62
2
  6
CONTINUOUS
 10
433.9237321134
 20
371.4288595714
 40
7.95
100
AcDbArc
 50
0.0
 51
180.0
  0
ARC
  5
A74
100
AcDbEntity
  8
TERMINAL_SCHROUD
100
AcDbCircle
 62
2
  6
CONTINUOUS
 10
397.9237321134
 20
371.4288595714
 40
7.95
100
AcDbArc
 50
0.0
 51
180.0
  0
ARC
  5
A75
100
AcDbEntity
  8
TERMINAL_SCHROUD
100
AcDbCircle
 62
2
  6
CONTINUOUS
 10
433.9237321134
 20
371.4288595714
 40
5.75
100
AcDbArc
 50
0.0
 51
180.0
  0
ARC
  5
A76
100
AcDbEntity
  8
TERMINAL_SCHROUD
100
AcDbCircle
 62
2
  6
CONTINUOUS
 10
397.9237321134
 20
371.4288595714
 40
5.75
100
AcDbArc
 50
0.0
 51
180.0
  0
ARC
  5
A77
100
AcDbEntity
  8
TERMINAL_SCHROUD
100
AcDbCircle
 62
2
  6
CONTINUOUS
 10
427.1737321134
 20
367.6788595714
 40
1.0
100
AcDbArc
 50
270.0
 51
360.0
  0
ARC
  5
A78
100
AcDbEntity
  8
TERMINAL_SCHROUD
100
AcDbCircle
 62
2
  6
CONTINUOUS
 10
440.6737321134
 20
367.6788595714
 40
1.0
100
AcDbArc
 50
180.0
 51
270.0
  0
ARC
  5
A79
100
AcDbEntity
  8
TERMINAL_SCHROUD
100
AcDbCircle
 62
2
  6
CONTINUOUS
 10
391.1737321134
 20
367.6788595714
 40
1.0
100
AcDbArc
 50
270.0
 51
360.0
  0
ARC
  5
A7A
100
AcDbEntity
  8
TERMINAL_SCHROUD
100
AcDbCircle
 62
2
  6
CONTINUOUS
 10
404.6737321134
 20
367.6788595714
 40
1.0
100
AcDbArc
 50
180.0
 51
270.0
  0
ARC
  5
A7B
100
AcDbEntity
  8
COVER_FUSE
100
AcDbCircle
 62
6
  6
CONTINUOUS
 10
449.4237321134
 20
464.6788595714
 40
2.5
100
AcDbArc
 50
0.0
 51
90.0
  0
ARC
  5
A7C
100
AcDbEntity
  8
COVER_FUSE
100
AcDbCircle
 62
6
  6
CONTINUOUS
 10
418.4237321134
 20
464.6788595714
 40
2.5
100
AcDbArc
 50
90.0
 51
180.0
  0
ARC
  5
A7D
100
AcDbEntity
  8
COVER_FUSE
100
AcDbCircle
 62
6
  6
CONTINUOUS
 10
423.4237321134
 20
464.6788595714
 40
2.5
100
AcDbArc
 50
90.0
 51
180.0
  0
ARC
  5
A7E
100
AcDbEntity
  8
COVER_FUSE
100
AcDbCircle
 62
6
  6
CONTINUOUS
 10
444.4237321134
 20
464.6788595714
 40
2.5
100
AcDbArc
 50
0.0
 51
90.0
  0
ARC
  5
A7F
100
AcDbEntity
  8
COVER_FUSE
100
AcDbCircle
 62
6
  6
CONTINUOUS
 10
413.4237321134
 20
464.6788595714
 40
2.5
100
AcDbArc
 50
0.0
 51
90.0
  0
ARC
  5
A80
100
AcDbEntity
  8
COVER_FUSE
100
AcDbCircle
 62
6
  6
CONTINUOUS
 10
382.4237321134
 20
464.6788595714
 40
2.5
100
AcDbArc
 50
90.0
 51
180.0
  0
ARC
  5
A81
100
AcDbEntity
  8
COVER_FUSE
100
AcDbCircle
 62
6
  6
CONTINUOUS
 10
387.4237321134
 20
464.6788595714
 40
2.5
100
AcDbArc
 50
90.0
 51
180.0
  0
ARC
  5
A82
100
AcDbEntity
  8
COVER_FUSE
100
AcDbCircle
 62
6
  6
CONTINUOUS
 10
408.4237321134
 20
464.6788595714
 40
2.5
100
AcDbArc
 50
0.0
 51
90.0
  0
ARC
  5
A83
100
AcDbEntity
  8
MOVING
100
AcDbCircle
 62
1
  6
AM_ISO02W050X2
 10
393.0756656082
 20
516.6788595715
 40
2.0
100
AcDbArc
 50
180.0
 51
270.0
  0
ARC
  5
A84
100
AcDbEntity
  8
MOVING
100
AcDbCircle
 62
1
  6
AM_ISO02W050X2
 10
393.0756656082
 20
535.1788595714
 40
2.0
100
AcDbArc
 50
90.0
 51
180.0
  0
ARC
  5
A85
100
AcDbEntity
  8
TERMINAL_SCHROUD
100
AcDbCircle
 62
2
  6
CONTINUOUS
 10
469.9237321134
 20
371.4288595714
 40
7.95
100
AcDbArc
 50
0.0
 51
180.0
  0
ARC
  5
A86
100
AcDbEntity
  8
TERMINAL_SCHROUD
100
AcDbCircle
 62
2
  6
CONTINUOUS
 10
469.9237321134
 20
371.4288595714
 40
5.75
100
AcDbArc
 50
0.0
 51
180.0
  0
ARC
  5
A87
100
AcDbEntity
  8
CAGE_COMMANDE
100
AcDbCircle
 62
7
  6
CONTINUOUS
 10
506.0237321134
 20
432.5109734416
 40
4.8951717847
100
AcDbArc
 50
224.2143829617
 51
315.7856170383
  0
ARC
  5
A88
100
AcDbEntity
  8
CAGE_COMMANDE
100
AcDbCircle
 62
7
  6
CONTINUOUS
 10
504.3318044185
 20
430.7830734976
 40
2.4782572236
100
AcDbArc
 50
160.373717331
 51
222.8596929098
  0
ARC
  5
A89
100
AcDbEntity
  8
CAGE_COMMANDE
100
AcDbCircle
 62
7
  6
CONTINUOUS
 10
507.7156598083
 20
430.7830734976
 40
2.4782572236
100
AcDbArc
 50
317.1403070902
 51
19.626282669
  0
ARC
  5
A8A
100
AcDbEntity
  8
TERMINAL_SCHROUD
100
AcDbCircle
 62
2
  6
CONTINUOUS
 10
463.1737321134
 20
367.6788595714
 40
1.0
100
AcDbArc
 50
270.0
 51
360.0
  0
ARC
  5
A8B
100
AcDbEntity
  8
TERMINAL_SCHROUD
100
AcDbCircle
 62
2
  6
CONTINUOUS
 10
476.6737321134
 20
367.6788595714
 40
1.0
100
AcDbArc
 50
180.0
 51
270.0
  0
ARC
  5
A8C
100
AcDbEntity
  8
CAGE_COMMANDE
100
AcDbCircle
 62
7
  6
CONTINUOUS
 10
501.2910977193
 20
431.8673923952
 40
0.75
100
AcDbArc
 50
340.373717331
 51
81.8170223389
  0
ARC
  5
A8D
100
AcDbEntity
  8
CAGE_COMMANDE
100
AcDbCircle
 62
7
  6
CONTINUOUS
 10
510.7563665075
 20
431.8673923952
 40
0.75
100
AcDbArc
 50
98.1829776611
 51
199.626282669
  0
ARC
  5
A8E
100
AcDbEntity
  8
CAGE_COMMANDE
100
AcDbCircle
 62
7
  6
CONTINUOUS
 10
506.0237321134
 20
464.7788595714
 40
32.5
100
AcDbArc
 50
255.7499673022
 51
284.2500326978
  0
ARC
  5
A8F
100
AcDbEntity
  8
COVER_FUSE
100
AcDbCircle
 62
6
  6
CONTINUOUS
 10
485.4237321134
 20
464.6788595714
 40
2.5
100
AcDbArc
 50
0.0
 51
90.0
  0
ARC
  5
A90
100
AcDbEntity
  8
COVER_FUSE
100
AcDbCircle
 62
6
  6
CONTINUOUS
 10
454.4237321134
 20
464.6788595714
 40
2.5
100
AcDbArc
 50
90.0
 51
180.0
  0
ARC
  5
A91
100
AcDbEntity
  8
COVER_FUSE
100
AcDbCircle
 62
6
  6
CONTINUOUS
 10
459.4237321134
 20
464.6788595714
 40
2.5
100
AcDbArc
 50
90.0
 51
180.0
  0
ARC
  5
A92
100
AcDbEntity
  8
COVER_FUSE
100
AcDbCircle
 62
6
  6
CONTINUOUS
 10
480.4237321134
 20
464.6788595714
 40
2.5
100
AcDbArc
 50
0.0
 51
90.0
  0
ARC
  5
A93
100
AcDbEntity
  8
MOVING
100
AcDbCircle
 62
1
  6
AM_ISO02W050X2
 10
475.9717986181
 20
493.6788595714
 40
2.0
100
AcDbArc
 50
180.0
 51
270.0
  0
ARC
  5
A94
100
AcDbEntity
  8
MOVING
100
AcDbCircle
 62
1
  6
AM_ISO02W050X2
 10
471.9717986181
 20
512.6788595714
 40
2.0
100
AcDbArc
 50
0.0
 51
90.0
  0
ARC
  5
A95
100
AcDbEntity
  8
DIRECT_HANDLE
100
AcDbCircle
 62
7
  6
CONTINUOUS
 10
498.5237321134
 20
536.1788595714
 40
1.0
100
AcDbArc
 50
90.0
 51
180.0
  0
ARC
  5
A96
100
AcDbEntity
  8
DIRECT_HANDLE
100
AcDbCircle
 62
7
  6
CONTINUOUS
 10
513.5237321135
 20
536.1788595714
 40
1.0
100
AcDbArc
 50
0.0
 51
90.0
  0
ARC
  5
A97
100
AcDbEntity
  8
DIRECT_HANDLE
100
AcDbCircle
 62
7
  6
CONTINUOUS
 10
520.8071743141
 20
536.1788595714
 40
1.0
100
AcDbArc
 50
0.0
 51
90.0
  0
ARC
  5
A98
100
AcDbEntity
  8
DIRECT_HANDLE
100
AcDbCircle
 62
7
  6
CONTINUOUS
 10
498.5237321134
 20
515.1788595714
 40
1.0
100
AcDbArc
 50
180.0
 51
270.0
  0
ARC
  5
A99
100
AcDbEntity
  8
DIRECT_HANDLE
100
AcDbCircle
 62
7
  6
CONTINUOUS
 10
513.5237321135
 20
515.1788595714
 40
1.0
100
AcDbArc
 50
270.0
 51
360.0
  0
ARC
  5
A9A
100
AcDbEntity
  8
DIRECT_HANDLE
100
AcDbCircle
 62
7
  6
CONTINUOUS
 10
491.2402899128
 20
536.1788595714
 40
1.0
100
AcDbArc
 50
90.0
 51
180.0
  0
ENDSEC
  0
SECTION
  2
OBJECTS
  0
DICTIONARY
  5
C
100
AcDbDictionary
280
0
281
1
  3
ACAD_GROUP
350
D
  3
ACAD_MLINESTYLE
350
17
  3
ACAD_LAYOUT
350
1A
  3
ACAD_PLOTSETTINGS
350
19
  3
ACAD_PLOTSTYLENAME
350
E
  0
DICTIONARY
  5
D
102
{ACAD_REACTORS
330
C
102
}
100
AcDbDictionary
280
0
281
1
  0
ACDBDICTIONARYWDFLT
  5
E
102
{ACAD_REACTORS
330
C
102
}
100
AcDbDictionary
281
1
  3
Normal
350
F
100
AcDbDictionaryWithDefault
340
F
  0
DICTIONARY
  5
17
102
{ACAD_REACTORS
330
C
102
}
100
AcDbDictionary
280
0
281
1
  3
Standard
350
18
  0
DICTIONARY
  5
19
102
{ACAD_REACTORS
330
C
102
}
100
AcDbDictionary
281
1
  0
DICTIONARY
  5
1A
102
{ACAD_REACTORS
330
C
102
}
100
AcDbDictionary
281
1
  3
Model
350
A9B
  3
Layout1
350
A9C
  0
ACDBPLACEHOLDER
  5
F
102
{ACAD_REACTORS
330
E
102
}
  0
MLINESTYLE
  5
18
102
{ACAD_REACTORS
330
17
102
}
100
AcDbMlineStyle
  2
STANDARD
 70
0
  3

 62
256
 51
90.0
 52
90.0
 71
2
 49
0.5
 62
256
  6
BYLAYER
 49
-0.5
 62
256
  6
BYLAYER
  0
LAYOUT
  5
A9B
102
{ACAD_REACTORS
330
1A
102
}
100
AcDbPlotSettings
  1

  2
none_device
  4

  6

 40
0.0
 41
0.0
 42
0.0
 43
0.0
 44
554.1316004153
 45
560.5421037221
 46
0.0
 47
0.0
 48
0.0
 49
0.0
140
0.0
141
0.0
142
1.0
143
1.0
 70
1024
 72
1
 73
0
 74
0
  7

 75
0
147
1.0
148
0.0
149
0.0
100
AcDbLayout
  1
Model
 70
0
 71
0
 10
0.0
 20
0.0
 11
554.1316004153
 21
560.5421037221
 12
0.0
 22
0.0
 32
0.0
 14
0.0
 24
0.0
 34
0.0
 15
0.0
 25
0.0
 35
0.0
146
0.0
 13
0.0
 23
0.0
 33
0.0
 16
1.0
 26
0.0
 36
0.0
 17
0.0
 27
1.0
 37
0.0
 76
0
330
216
345
0
346
0
  0
LAYOUT
  5
A9C
102
{ACAD_REACTORS
330
1A
102
}
100
AcDbPlotSettings
  1

  2
none_device
  4

  6

 40
0.0
 41
0.0
 42
0.0
 43
0.0
 44
554.1316004153
 45
560.5421037221
 46
0.0
 47
0.0
 48
0.0
 49
0.0
140
0.0
141
0.0
142
1.0
143
1.0
 70
0
 72
1
 73
0
 74
0
  7

 75
0
147
1.0
148
0.0
149
0.0
100
AcDbLayout
  1
Layout1
 70
0
 71
1
 10
0.0
 20
0.0
 11
554.1316004153
 21
560.5421037221
 12
0.0
 22
0.0
 32
0.0
 14
0.0
 24
0.0
 34
0.0
 15
0.0
 25
0.0
 35
0.0
146
0.0
 13
0.0
 23
0.0
 33
0.0
 16
1.0
 26
0.0
 36
0.0
 17
0.0
 27
1.0
 37
0.0
 76
0
330
217
345
0
346
0
  0
ENDSEC
  0
EOF
