  0
SECTION
  2
HEADER
  9
$ACADVER
  1
AC1015
  9
$ACADMAINTVER
 70
    18
  9
$DWGCODEPAGE
  3
ANSI_1252
  9
$INSBASE
 10
0.0
 20
0.0
 30
0.0
  9
$EXTMIN
 10
-0.0010375184955553
 20
-0.0006713354969798
 30
-0.0015258207003612
  9
$EXTMAX
 10
22.0012207792668
 20
17.00051884896936
 30
0.0000000349246008
  9
$LIMMIN
 10
0.0000000169183778
 20
0.000000006132197
  9
$LIMMAX
 10
34.00000001691838
 20
22.0000000061322
  9
$ORTHOMODE
 70
     1
  9
$REGENMODE
 70
     1
  9
$FILLMODE
 70
     1
  9
$QTEXTMODE
 70
     0
  9
$MIRRTEXT
 70
     1
  9
$LTSCALE
 40
0.5
  9
$ATTMODE
 70
     1
  9
$TEXTSIZE
 40
0.25
  9
$TRACEWID
 40
0.05
  9
$TEXTSTYLE
  7
Standard
  9
$CLAYER
  8
0
  9
$CELTYPE
  6
ByLayer
  9
$CECOLOR
 62
   256
  9
$CELTSCALE
 40
1.0
  9
$DISPSILH
 70
     0
  9
$DIMSCALE
 40
1.0
  9
$DIMASZ
 40
0.18
  9
$DIMEXO
 40
0.0625
  9
$DIMDLI
 40
0.38
  9
$DIMRND
 40
0.0
  9
$DIMDLE
 40
0.0
  9
$DIMEXE
 40
0.18
  9
$DIMTP
 40
0.0
  9
$DIMTM
 40
0.0
  9
$DIMTXT
 40
0.125
  9
$DIMCEN
 40
0.09
  9
$DIMTSZ
 40
0.0
  9
$DIMTOL
 70
     0
  9
$DIMLIM
 70
     0
  9
$DIMTIH
 70
     1
  9
$DIMTOH
 70
     1
  9
$DIMSE1
 70
     0
  9
$DIMSE2
 70
     0
  9
$DIMTAD
 70
     0
  9
$DIMZIN
 70
     0
  9
$DIMBLK
  1

  9
$DIMASO
 70
     1
  9
$DIMSHO
 70
     1
  9
$DIMPOST
  1

  9
$DIMAPOST
  1

  9
$DIMALT
 70
     1
  9
$DIMALTD
 70
     2
  9
$DIMALTF
 40
25.4
  9
$DIMLFAC
 40
1.0
  9
$DIMTOFL
 70
     0
  9
$DIMTVP
 40
0.0
  9
$DIMTIX
 70
     0
  9
$DIMSOXD
 70
     0
  9
$DIMSAH
 70
     0
  9
$DIMBLK1
  1

  9
$DIMBLK2
  1

  9
$DIMSTYLE
  2
Standard
  9
$DIMCLRD
 70
     0
  9
$DIMCLRE
 70
     0
  9
$DIMCLRT
 70
     0
  9
$DIMTFAC
 40
1.0
  9
$DIMGAP
 40
0.09
  9
$DIMJUST
 70
     0
  9
$DIMSD1
 70
     0
  9
$DIMSD2
 70
     0
  9
$DIMTOLJ
 70
     1
  9
$DIMTZIN
 70
     0
  9
$DIMALTZ
 70
     0
  9
$DIMALTTZ
 70
     0
  9
$DIMUPT
 70
     0
  9
$DIMDEC
 70
     2
  9
$DIMTDEC
 70
     2
  9
$DIMALTU
 70
     2
  9
$DIMALTTD
 70
     2
  9
$DIMTXSTY
  7
Standard
  9
$DIMAUNIT
 70
     0
  9
$DIMADEC
 70
     0
  9
$DIMALTRND
 40
0.0
  9
$DIMAZIN
 70
     0
  9
$DIMDSEP
 70
    46
  9
$DIMATFIT
 70
     3
  9
$DIMFRAC
 70
     0
  9
$DIMLDRBLK
  1

  9
$DIMLUNIT
 70
     2
  9
$DIMLWD
 70
    -2
  9
$DIMLWE
 70
    -2
  9
$DIMTMOVE
 70
     0
  9
$LUNITS
 70
     2
  9
$LUPREC
 70
     4
  9
$SKETCHINC
 40
0.1
  9
$FILLETRAD
 40
0.0
  9
$AUNITS
 70
     0
  9
$AUPREC
 70
     0
  9
$MENU
  1
.
  9
$ELEVATION
 40
0.0
  9
$PELEVATION
 40
0.0
  9
$THICKNESS
 40
0.0
  9
$LIMCHECK
 70
     0
  9
$CHAMFERA
 40
0.5
  9
$CHAMFERB
 40
0.5
  9
$CHAMFERC
 40
1.0
  9
$CHAMFERD
 40
0.0
  9
$SKPOLY
 70
     0
  9
$TDCREATE
 40
2455997.945083449
  9
$TDUCREATE
 40
2455998.111750116
  9
$TDUPDATE
 40
2456008.619507847
  9
$TDUUPDATE
 40
2456008.786174514
  9
$TDINDWG
 40
0.3468712500
  9
$TDUSRTIMER
 40
0.3468712500
  9
$USRTIMER
 70
     1
  9
$ANGBASE
 50
0.0
  9
$ANGDIR
 70
     0
  9
$PDMODE
 70
     0
  9
$PDSIZE
 40
0.0
  9
$PLINEWID
 40
0.0
  9
$SPLFRAME
 70
     0
  9
$SPLINETYPE
 70
     6
  9
$SPLINESEGS
 70
     8
  9
$HANDSEED
  5
A988
  9
$SURFTAB1
 70
     6
  9
$SURFTAB2
 70
     6
  9
$SURFTYPE
 70
     6
  9
$SURFU
 70
     6
  9
$SURFV
 70
     6
  9
$UCSBASE
  2

  9
$UCSNAME
  2

  9
$UCSORG
 10
0.0
 20
0.0
 30
0.0
  9
$UCSXDIR
 10
1.0
 20
0.0
 30
0.0
  9
$UCSYDIR
 10
0.0
 20
1.0
 30
0.0
  9
$UCSORTHOREF
  2

  9
$UCSORTHOVIEW
 70
     0
  9
$UCSORGTOP
 10
0.0
 20
0.0
 30
0.0
  9
$UCSORGBOTTOM
 10
0.0
 20
0.0
 30
0.0
  9
$UCSORGLEFT
 10
0.0
 20
0.0
 30
0.0
  9
$UCSORGRIGHT
 10
0.0
 20
0.0
 30
0.0
  9
$UCSORGFRONT
 10
0.0
 20
0.0
 30
0.0
  9
$UCSORGBACK
 10
0.0
 20
0.0
 30
0.0
  9
$PUCSBASE
  2

  9
$PUCSNAME
  2

  9
$PUCSORG
 10
0.0
 20
0.0
 30
0.0
  9
$PUCSXDIR
 10
1.0
 20
0.0
 30
0.0
  9
$PUCSYDIR
 10
0.0
 20
1.0
 30
0.0
  9
$PUCSORTHOREF
  2

  9
$PUCSORTHOVIEW
 70
     0
  9
$PUCSORGTOP
 10
0.0
 20
0.0
 30
0.0
  9
$PUCSORGBOTTOM
 10
0.0
 20
0.0
 30
0.0
  9
$PUCSORGLEFT
 10
0.0
 20
0.0
 30
0.0
  9
$PUCSORGRIGHT
 10
0.0
 20
0.0
 30
0.0
  9
$PUCSORGFRONT
 10
0.0
 20
0.0
 30
0.0
  9
$PUCSORGBACK
 10
0.0
 20
0.0
 30
0.0
  9
$USERI1
 70
     0
  9
$USERI2
 70
     0
  9
$USERI3
 70
     0
  9
$USERI4
 70
     0
  9
$USERI5
 70
     0
  9
$USERR1
 40
0.0
  9
$USERR2
 40
0.0
  9
$USERR3
 40
0.0
  9
$USERR4
 40
0.0
  9
$USERR5
 40
0.0
  9
$WORLDVIEW
 70
     1
  9
$SHADEDGE
 70
     3
  9
$SHADEDIF
 70
    70
  9
$TILEMODE
 70
     1
  9
$MAXACTVP
 70
    64
  9
$PINSBASE
 10
0.0
 20
0.0
 30
0.0
  9
$PLIMCHECK
 70
     0
  9
$PEXTMIN
 10
1.000000000000000E+20
 20
1.000000000000000E+20
 30
1.000000000000000E+20
  9
$PEXTMAX
 10
-1.000000000000000E+20
 20
-1.000000000000000E+20
 30
-1.000000000000000E+20
  9
$PLIMMIN
 10
0.0
 20
0.0
  9
$PLIMMAX
 10
12.0
 20
9.0
  9
$UNITMODE
 70
     0
  9
$VISRETAIN
 70
     1
  9
$PLINEGEN
 70
     0
  9
$PSLTSCALE
 70
     1
  9
$TREEDEPTH
 70
  3020
  9
$CMLSTYLE
  2
Standard
  9
$CMLJUST
 70
     0
  9
$CMLSCALE
 40
1.0
  9
$PROXYGRAPHICS
 70
     1
  9
$MEASUREMENT
 70
     0
  9
$CELWEIGHT
370
    -1
  9
$ENDCAPS
280
     0
  9
$JOINSTYLE
280
     0
  9
$LWDISPLAY
290
     0
  9
$INSUNITS
 70
     1
  9
$HYPERLINKBASE
  1

  9
$STYLESHEET
  1
monochrome-VARIABLE.ctb
  9
$XEDIT
290
     1
  9
$CEPSNTYPE
380
     0
  9
$PSTYLEMODE
290
     1
  9
$FINGERPRINTGUID
  2
{8A02C763-7AF7-4E8E-9855-7AE3FC81736A}
  9
$VERSIONGUID
  2
{9E6462E8-AC55-4600-B6B5-0A4D279237C6}
  9
$EXTNAMES
290
     1
  9
$PSVPSCALE
 40
0.0
  9
$OLESTARTUP
290
     0
  0
ENDSEC
  0
SECTION
  2
CLASSES
  0
CLASS
  1
ACDBDICTIONARYWDFLT
  2
AcDbDictionaryWithDefault
  3
ObjectDBX Classes
 90
        0
280
     0
281
     0
  0
CLASS
  1
ACDBPLACEHOLDER
  2
AcDbPlaceHolder
  3
ObjectDBX Classes
 90
        0
280
     0
281
     0
  0
CLASS
  1
LAYOUT
  2
AcDbLayout
  3
ObjectDBX Classes
 90
        0
280
     0
281
     0
  0
CLASS
  1
MATERIAL
  2
AcDbMaterial
  3
ObjectDBX Classes
 90
     1153
280
     0
281
     0
  0
CLASS
  1
VISUALSTYLE
  2
AcDbVisualStyle
  3
ObjectDBX Classes
 90
     4095
280
     0
281
     0
  0
CLASS
  1
TABLESTYLE
  2
AcDbTableStyle
  3
ObjectDBX Classes
 90
     4095
280
     0
281
     0
  0
CLASS
  1
SCALE
  2
AcDbScale
  3
ObjectDBX Classes
 90
     1153
280
     0
281
     0
  0
CLASS
  1
MLEADERSTYLE
  2
AcDbMLeaderStyle
  3
ACDB_MLEADERSTYLE_CLASS
 90
     4095
280
     0
281
     0
  0
CLASS
  1
CELLSTYLEMAP
  2
AcDbCellStyleMap
  3
ObjectDBX Classes
 90
     1152
280
     0
281
     0
  0
CLASS
  1
DICTIONARYVAR
  2
AcDbDictionaryVar
  3
ObjectDBX Classes
 90
        0
280
     0
281
     0
  0
CLASS
  1
SORTENTSTABLE
  2
AcDbSortentsTable
  3
ObjectDBX Classes
 90
        0
280
     0
281
     0
  0
CLASS
  1
ACAD_EVALUATION_GRAPH
  2
AcDbEvalGraph
  3
ObjectDBX Classes
 90
    33921
280
     0
281
     0
  0
CLASS
  1
ACAECUSTOBJ
  2
AcAeEditorObj
  3
AcAeEditorObj
 90
    33792
280
     0
281
     0
  0
CLASS
  1
ACDB_DYNAMICBLOCKPURGEPREVENTER_VERSION
  2
AcDbDynamicBlockPurgePreventer
  3
ObjectDBX Classes
 90
    33921
280
     0
281
     0
  0
CLASS
  1
AEC_REFEDIT_STATUS_TRACKER
  2
AecDbRefEditStatusTracker
  3
AecArchBase60|Product Desc: Autodesk Architectural Desktop 2007 |Company: Autodesk,Inc. |WEB Address: www.autodesk.com
 90
    32897
280
     0
281
     0
  0
CLASS
  1
NPOCOLLECTION
  2
AcDbImpNonPersistentObjectsCollection
  3
ObjectDBX Classes
 90
    33921
280
     0
281
     0
  0
ENDSEC
  0
SECTION
  2
TABLES
  0
TABLE
  2
VPORT
  5
8
102
{ACAD_XDICTIONARY
360
181
102
}
330
0
100
AcDbSymbolTable
 70
     1
  0
VPORT
  5
31
330
8
100
AcDbSymbolTableRecord
100
AcDbViewportTableRecord
  2
*Active
 70
     0
 10
0.0
 20
0.0
 11
1.0
 21
1.0
 12
11.00009163038562
 22
8.499923756736189
 13
0.0
 23
0.0
 14
0.0625
 24
0.0625
 15
0.25
 25
0.25
 16
0.0
 26
0.0
 36
1.0
 17
0.0
 27
0.0
 37
0.0
 40
17.20358530570998
 41
1.477137176938369
 42
50.0
 43
0.0
 44
0.0
 50
0.0
 51
0.0
 71
     0
 72
  1000
 73
     1
 74
     2
 75
     0
 76
     1
 77
     0
 78
     0
281
     0
 65
     1
110
0.0
120
0.0
130
0.0
111
1.0
121
0.0
131
0.0
112
0.0
122
1.0
132
0.0
 79
     0
146
0.0
  0
ENDTAB
  0
TABLE
  2
LTYPE
  5
5
330
0
100
AcDbSymbolTable
 70
     1
  0
LTYPE
  5
14
330
5
100
AcDbSymbolTableRecord
100
AcDbLinetypeTableRecord
  2
ByBlock
 70
     0
  3

 72
    65
 73
     0
 40
0.0
  0
LTYPE
  5
15
330
5
100
AcDbSymbolTableRecord
100
AcDbLinetypeTableRecord
  2
ByLayer
 70
     0
  3

 72
    65
 73
     0
 40
0.0
  0
LTYPE
  5
16
330
5
100
AcDbSymbolTableRecord
100
AcDbLinetypeTableRecord
  2
Continuous
 70
     0
  3
Solid line
 72
    65
 73
     0
 40
0.0
  0
ENDTAB
  0
TABLE
  2
LAYER
  5
2
102
{ACAD_XDICTIONARY
360
107
102
}
330
0
100
AcDbSymbolTable
 70
     4
  0
LAYER
  5
10
102
{ACAD_XDICTIONARY
360
17C
102
}
330
2
100
AcDbSymbolTableRecord
100
AcDbLayerTableRecord
  2
0
 70
     0
 62
     7
  6
Continuous
370
    -3
390
F
  0
LAYER
  5
9658
330
2
100
AcDbSymbolTableRecord
100
AcDbLayerTableRecord
  2
TEXT
 70
     0
 62
     2
  6
Continuous
370
    -3
390
F
  0
LAYER
  5
9659
330
2
100
AcDbSymbolTableRecord
100
AcDbLayerTableRecord
  2
DIM
 70
     0
 62
     1
  6
Continuous
370
    -3
390
F
  0
LAYER
  5
965A
330
2
100
AcDbSymbolTableRecord
100
AcDbLayerTableRecord
  2
Defpoints
 70
     0
 62
     7
  6
Continuous
290
     0
370
    -3
390
F
  0
ENDTAB
  0
TABLE
  2
STYLE
  5
3
330
0
100
AcDbSymbolTable
 70
     1
  0
STYLE
  5
11
330
3
100
AcDbSymbolTableRecord
100
AcDbTextStyleTableRecord
  2
Standard
 70
     0
 40
0.0
 41
0.8
 50
0.0
 71
     0
 42
0.25
  3
txt
  4

  0
ENDTAB
  0
TABLE
  2
VIEW
  5
6
330
0
100
AcDbSymbolTable
 70
     0
  0
ENDTAB
  0
TABLE
  2
UCS
  5
7
330
0
100
AcDbSymbolTable
 70
     0
  0
ENDTAB
  0
TABLE
  2
APPID
  5
9
330
0
100
AcDbSymbolTable
 70
    23
  0
APPID
  5
12
330
9
100
AcDbSymbolTableRecord
100
AcDbRegAppTableRecord
  2
ACAD
 70
     0
  0
APPID
  5
84
330
9
100
AcDbSymbolTableRecord
100
AcDbRegAppTableRecord
  2
ACAD_MLEADERVER
 70
     0
  0
APPID
  5
104
330
9
100
AcDbSymbolTableRecord
100
AcDbRegAppTableRecord
  2
AcDbBlockRepETag
 70
     0
  0
APPID
  5
105
330
9
100
AcDbSymbolTableRecord
100
AcDbRegAppTableRecord
  2
AcDbDynamicBlockGUID
 70
     0
  0
APPID
  5
106
330
9
100
AcDbSymbolTableRecord
100
AcDbRegAppTableRecord
  2
ACAD_PSEXT
 70
     0
  0
APPID
  5
388
330
9
100
AcDbSymbolTableRecord
100
AcDbRegAppTableRecord
  2
AcadAnnotative
 70
     0
  0
APPID
  5
389
330
9
100
AcDbSymbolTableRecord
100
AcDbRegAppTableRecord
  2
ACAD_DSTYLE_DIMJAG
 70
     0
  0
APPID
  5
38A
330
9
100
AcDbSymbolTableRecord
100
AcDbRegAppTableRecord
  2
ACAD_DSTYLE_DIMTALN
 70
     0
  0
APPID
  5
38B
330
9
100
AcDbSymbolTableRecord
100
AcDbRegAppTableRecord
  2
AcadAnnoPO
 70
     0
  0
APPID
  5
4DD
330
9
100
AcDbSymbolTableRecord
100
AcDbRegAppTableRecord
  2
AcDbAttr
 70
     0
  0
APPID
  5
A19
330
9
100
AcDbSymbolTableRecord
100
AcDbRegAppTableRecord
  2
RE-TLINK
 70
     0
  0
APPID
  5
A1A
330
9
100
AcDbSymbolTableRecord
100
AcDbRegAppTableRecord
  2
N8SOL-TLINK
 70
     0
  0
APPID
  5
A1B
330
9
100
AcDbSymbolTableRecord
100
AcDbRegAppTableRecord
  2
VIA_WD_TAGFMT
 70
     0
  0
APPID
  5
A1C
330
9
100
AcDbSymbolTableRecord
100
AcDbRegAppTableRecord
  2
VIA_WD_BASETAG
 70
     0
  0
APPID
  5
A1D
330
9
100
AcDbSymbolTableRecord
100
AcDbRegAppTableRecord
  2
VIA_WD_HDL
 70
     0
  0
APPID
  5
1000
330
9
100
AcDbSymbolTableRecord
100
AcDbRegAppTableRecord
  2
ACAD_EXEMPT_FROM_CAD_STANDARDS
 70
     0
  0
APPID
  5
1744
330
9
100
AcDbSymbolTableRecord
100
AcDbRegAppTableRecord
  2
AcAecLayerStandard
 70
     0
  0
APPID
  5
2631
330
9
100
AcDbSymbolTableRecord
100
AcDbRegAppTableRecord
  2
DCO15
 70
     0
  0
APPID
  5
280F
330
9
100
AcDbSymbolTableRecord
100
AcDbRegAppTableRecord
  2
ACAUTHENVIRON
 70
     0
  0
APPID
  5
2813
330
9
100
AcDbSymbolTableRecord
100
AcDbRegAppTableRecord
  2
AcDbDynamicBlockTrueName
 70
     0
  0
APPID
  5
29AF
330
9
100
AcDbSymbolTableRecord
100
AcDbRegAppTableRecord
  2
ACAD_DSTYLE_DIMBREAK
 70
     0
  0
APPID
  5
A3E7
330
9
100
AcDbSymbolTableRecord
100
AcDbRegAppTableRecord
  2
VIA_WD_P_ITEM
 70
     0
  0
APPID
  5
A3E8
330
9
100
AcDbSymbolTableRecord
100
AcDbRegAppTableRecord
  2
VIA_WD_ITEM_FLAG
 70
     0
  0
ENDTAB
  0
TABLE
  2
DIMSTYLE
  5
A
330
0
100
AcDbSymbolTable
 70
     1
100
AcDbDimStyleTable
 71
     1
340
27
  0
DIMSTYLE
105
27
102
{ACAD_REACTORS
330
9C27
330
9C28
330
A0B7
330
A0B8
102
}
330
A
100
AcDbSymbolTableRecord
100
AcDbDimStyleTableRecord
  2
Standard
 70
     0
140
0.125
170
     1
271
     2
272
     2
340
11
1001
ACAD_DSTYLE_DIMJAG
1070
   388
1040
1.5
1001
ACAD_DSTYLE_DIMTALN
1070
   392
1070
     0
  0
ENDTAB
  0
TABLE
  2
BLOCK_RECORD
  5
1
330
0
100
AcDbSymbolTable
 70
     5
  0
BLOCK_RECORD
  5
1F
102
{ACAD_XDICTIONARY
360
17A
102
}
330
1
100
AcDbSymbolTableRecord
100
AcDbBlockTableRecord
  2
*Model_Space
340
22
  0
BLOCK_RECORD
  5
1B
330
1
100
AcDbSymbolTableRecord
100
AcDbBlockTableRecord
  2
*Paper_Space
340
1E
  0
BLOCK_RECORD
  5
23
330
1
100
AcDbSymbolTableRecord
100
AcDbBlockTableRecord
  2
*Paper_Space0
340
26
  0
BLOCK_RECORD
  5
9C59
330
1
100
AcDbSymbolTableRecord
100
AcDbBlockTableRecord
  2
*D1
340
0
  0
BLOCK_RECORD
  5
9C66
330
1
100
AcDbSymbolTableRecord
100
AcDbBlockTableRecord
  2
*D2
340
0
  0
BLOCK_RECORD
  5
A0B9
330
1
100
AcDbSymbolTableRecord
100
AcDbBlockTableRecord
  2
*D3
340
0
  0
BLOCK_RECORD
  5
A0C6
330
1
100
AcDbSymbolTableRecord
100
AcDbBlockTableRecord
  2
*D4
340
0
  0
ENDTAB
  0
ENDSEC
  0
SECTION
  2
BLOCKS
  0
BLOCK
  5
20
330
1F
100
AcDbEntity
  8
0
100
AcDbBlockBegin
  2
*Model_Space
 70
     0
 10
0.0
 20
0.0
 30
0.0
  3
*Model_Space
  1

  0
ENDBLK
  5
21
330
1F
100
AcDbEntity
  8
0
100
AcDbBlockEnd
  0
BLOCK
  5
1C
330
1B
100
AcDbEntity
 67
     1
  8
0
100
AcDbBlockBegin
  2
*Paper_Space
 70
     0
 10
0.0
 20
0.0
 30
0.0
  3
*Paper_Space
  1

  0
ENDBLK
  5
1D
330
1B
100
AcDbEntity
 67
     1
  8
0
100
AcDbBlockEnd
  0
BLOCK
  5
24
330
23
100
AcDbEntity
 67
     1
  8
0
100
AcDbBlockBegin
  2
*Paper_Space0
 70
     0
 10
0.0
 20
0.0
 30
0.0
  3
*Paper_Space0
  1

  0
ENDBLK
  5
25
330
23
100
AcDbEntity
 67
     1
  8
0
100
AcDbBlockEnd
  0
BLOCK
  5
9C5A
330
9C59
100
AcDbEntity
  8
0
100
AcDbBlockBegin
  2
*D1
 70
     1
 10
0.0
 20
0.0
 30
0.0
  3
*D1
  1

  0
LINE
  5
A886
330
9C59
100
AcDbEntity
  8
DIM
 62
     0
370
    -2
100
AcDbLine
 10
10.17293593365899
 20
8.965320950416082
 30
0.0
 11
10.17293593365899
 21
9.971851041075172
 31
0.0
  0
LINE
  5
A887
330
9C59
100
AcDbEntity
  8
DIM
 62
     0
370
    -2
100
AcDbLine
 10
11.827064066341
 20
8.965320950416082
 30
0.0
 11
11.827064066341
 21
9.971851041075172
 31
0.0
  0
LINE
  5
A888
330
9C59
100
AcDbEntity
  8
DIM
 62
     0
370
    -2
100
AcDbLine
 10
10.35293593365899
 20
9.791851041075172
 30
0.0
 11
10.46833333333333
 21
9.791851041075172
 31
0.0
  0
LINE
  5
A889
330
9C59
100
AcDbEntity
  8
DIM
 62
     0
370
    -2
100
AcDbLine
 10
11.647064066341
 20
9.791851041075172
 30
0.0
 11
11.53166666666666
 21
9.791851041075172
 31
0.0
  0
SOLID
  5
A88A
330
9C59
100
AcDbEntity
  8
DIM
 62
     0
100
AcDbTrace
 10
10.35293593365899
 20
9.821851041075172
 30
0.0
 11
10.35293593365899
 21
9.761851041075173
 31
0.0
 12
10.17293593365899
 22
9.791851041075172
 32
0.0
 13
10.17293593365899
 23
9.791851041075172
 33
0.0
  0
SOLID
  5
A88B
330
9C59
100
AcDbEntity
  8
DIM
 62
     0
100
AcDbTrace
 10
11.647064066341
 20
9.821851041075172
 30
0.0
 11
11.647064066341
 21
9.761851041075173
 31
0.0
 12
11.827064066341
 22
9.791851041075172
 32
0.0
 13
11.827064066341
 23
9.791851041075172
 33
0.0
  0
MTEXT
  5
A88C
330
9C59
100
AcDbEntity
  8
DIM
 62
     0
100
AcDbMText
 10
11.0
 20
9.791851041075172
 30
0.0
 40
0.125
 41
0.0
 71
     5
 72
     1
  1
\A1;1.65 [42.01]
 73
     1
 44
1.0
1001
ACAD
1000
MTEXTBEGIN
1070
    73
1070
     1
1070
    44
1040
1.0
1070
    74
1070
     0
1000
MTEXTEND
  0
POINT
  5
A88D
330
9C59
100
AcDbEntity
  8
Defpoints
 62
     0
100
AcDbPoint
 10
10.17293593365899
 20
8.902820950416082
 30
0.0
  0
POINT
  5
A88E
330
9C59
100
AcDbEntity
  8
Defpoints
 62
     0
100
AcDbPoint
 10
11.827064066341
 20
8.902820950416082
 30
0.0
  0
POINT
  5
A88F
330
9C59
100
AcDbEntity
  8
Defpoints
 62
     0
100
AcDbPoint
 10
11.827064066341
 20
9.791851041075172
 30
0.0
  0
ENDBLK
  5
9C5B
330
9C59
100
AcDbEntity
  8
0
100
AcDbBlockEnd
  0
BLOCK
  5
9C67
330
9C66
100
AcDbEntity
  8
0
100
AcDbBlockBegin
  2
*D2
 70
     1
 10
0.0
 20
0.0
 30
0.0
  3
*D2
  1

  0
LINE
  5
A890
330
9C66
100
AcDbEntity
  8
DIM
 62
     0
370
    -2
100
AcDbLine
 10
10.110435933659
 20
15.89856683287208
 30
0.0
 11
9.09603546334314
 21
15.89856683287208
 31
0.0
  0
LINE
  5
A891
330
9C66
100
AcDbEntity
  8
DIM
 62
     0
370
    -2
100
AcDbLine
 10
10.93720708365899
 20
11.24899256618979
 30
0.0
 11
9.096035463343138
 21
11.24899256618979
 31
0.0
  0
LINE
  5
A892
330
9C66
100
AcDbEntity
  8
DIM
 62
     0
370
    -2
100
AcDbLine
 10
9.27603546334314
 20
15.71856683287208
 30
0.0
 11
9.27603546334314
 21
13.72627969953093
 31
0.0
  0
LINE
  5
A893
330
9C66
100
AcDbEntity
  8
DIM
 62
     0
370
    -2
100
AcDbLine
 10
9.276035463343138
 20
11.42899256618979
 30
0.0
 11
9.27603546334314
 21
13.42127969953093
 31
0.0
  0
SOLID
  5
A894
330
9C66
100
AcDbEntity
  8
DIM
 62
     0
100
AcDbTrace
 10
9.24603546334314
 20
15.71856683287208
 30
0.0
 11
9.306035463343139
 21
15.71856683287208
 31
0.0
 12
9.27603546334314
 22
15.89856683287208
 32
0.0
 13
9.27603546334314
 23
15.89856683287208
 33
0.0
  0
SOLID
  5
A895
330
9C66
100
AcDbEntity
  8
DIM
 62
     0
100
AcDbTrace
 10
9.246035463343138
 20
11.42899256618979
 30
0.0
 11
9.306035463343137
 21
11.42899256618979
 31
0.0
 12
9.276035463343138
 22
11.24899256618979
 32
0.0
 13
9.276035463343138
 23
11.24899256618979
 33
0.0
  0
MTEXT
  5
A896
330
9C66
100
AcDbEntity
  8
DIM
 62
     0
100
AcDbMText
 10
9.276035463343136
 20
13.57377969953094
 30
0.0
 40
0.125
 41
0.0
 71
     5
 72
     1
  1
\A1;4.65 [118.10]
 73
     1
 44
1.0
1001
ACAD
1000
MTEXTBEGIN
1070
    73
1070
     1
1070
    44
1040
1.0
1070
    74
1070
     0
1000
MTEXTEND
  0
POINT
  5
A897
330
9C66
100
AcDbEntity
  8
Defpoints
 62
     0
100
AcDbPoint
 10
10.17293593365899
 20
15.89856683287208
 30
0.0
  0
POINT
  5
A898
330
9C66
100
AcDbEntity
  8
Defpoints
 62
     0
100
AcDbPoint
 10
10.999707083659
 20
11.24899256618979
 30
0.0
  0
POINT
  5
A899
330
9C66
100
AcDbEntity
  8
Defpoints
 62
     0
100
AcDbPoint
 10
9.276035463343138
 20
11.24899256618979
 30
0.0
  0
ENDBLK
  5
9C68
330
9C66
100
AcDbEntity
  8
0
100
AcDbBlockEnd
  0
BLOCK
  5
A0BA
330
A0B9
100
AcDbEntity
  8
0
100
AcDbBlockBegin
  2
*D3
 70
     1
 10
0.0
 20
0.0
 30
0.0
  3
*D3
  1

  0
LINE
  5
A89A
330
A0B9
100
AcDbEntity
  8
DIM
 62
     0
370
    -2
100
AcDbLine
 10
8.385249226183418
 20
9.143710603151932
 30
0.0
 11
9.423359585900056
 21
9.143710603151932
 31
0.0
  0
LINE
  5
A89B
330
A0B9
100
AcDbEntity
  8
DIM
 62
     0
370
    -2
100
AcDbLine
 10
8.34082323051362
 20
2.609037341713077
 30
0.0
 11
9.423359585900055
 21
2.609037341713076
 31
0.0
  0
LINE
  5
A89C
330
A0B9
100
AcDbEntity
  8
DIM
 62
     0
370
    -2
100
AcDbLine
 10
9.243359585900057
 20
8.963710603151932
 30
0.0
 11
9.243359585900057
 21
6.028873972432507
 31
0.0
  0
LINE
  5
A89D
330
A0B9
100
AcDbEntity
  8
DIM
 62
     0
370
    -2
100
AcDbLine
 10
9.243359585900055
 20
2.789037341713076
 30
0.0
 11
9.243359585900057
 21
5.723873972432508
 31
0.0
  0
SOLID
  5
A89E
330
A0B9
100
AcDbEntity
  8
DIM
 62
     0
100
AcDbTrace
 10
9.213359585900057
 20
8.963710603151932
 30
0.0
 11
9.273359585900056
 21
8.963710603151932
 31
0.0
 12
9.243359585900057
 22
9.143710603151932
 32
0.0
 13
9.243359585900057
 23
9.143710603151932
 33
0.0
  0
SOLID
  5
A89F
330
A0B9
100
AcDbEntity
  8
DIM
 62
     0
100
AcDbTrace
 10
9.213359585900056
 20
2.789037341713076
 30
0.0
 11
9.273359585900054
 21
2.789037341713076
 31
0.0
 12
9.243359585900055
 22
2.609037341713076
 32
0.0
 13
9.243359585900055
 23
2.609037341713076
 33
0.0
  0
MTEXT
  5
A8A0
330
A0B9
100
AcDbEntity
  8
DIM
 62
     0
100
AcDbMText
 10
9.243359585900055
 20
5.876373972432508
 30
0.0
 40
0.125
 41
0.0
 71
     5
 72
     1
  1
\A1;6.53 [165.98]
 73
     1
 44
1.0
1001
ACAD
1000
MTEXTBEGIN
1070
    73
1070
     1
1070
    44
1040
1.0
1070
    74
1070
     0
1000
MTEXTEND
  0
POINT
  5
A8A1
330
A0B9
100
AcDbEntity
  8
Defpoints
 62
     0
100
AcDbPoint
 10
8.322749226183418
 20
9.143710603151932
 30
0.0
  0
POINT
  5
A8A2
330
A0B9
100
AcDbEntity
  8
Defpoints
 62
     0
100
AcDbPoint
 10
8.27832323051362
 20
2.609037341713077
 30
0.0
  0
POINT
  5
A8A3
330
A0B9
100
AcDbEntity
  8
Defpoints
 62
     0
100
AcDbPoint
 10
9.243359585900055
 20
2.609037341713076
 30
0.0
  0
ENDBLK
  5
A0BB
330
A0B9
100
AcDbEntity
  8
0
100
AcDbBlockEnd
  0
BLOCK
  5
A0C7
330
A0C6
100
AcDbEntity
  8
0
100
AcDbBlockBegin
  2
*D4
 70
     1
 10
0.0
 20
0.0
 30
0.0
  3
*D4
  1

  0
LINE
  5
A8A4
330
A0C6
100
AcDbEntity
  8
DIM
 62
     0
370
    -2
100
AcDbLine
 10
3.891768375888641
 20
9.085149050554926
 30
0.0
 11
3.891768375888641
 21
9.973520567017271
 31
0.0
  0
LINE
  5
A8A5
330
A0C6
100
AcDbEntity
  8
DIM
 62
     0
370
    -2
100
AcDbLine
 10
8.540791411311893
 20
7.441067374717576
 30
0.0
 11
8.540791411311893
 21
9.973520567017271
 31
0.0
  0
LINE
  5
A8A6
330
A0C6
100
AcDbEntity
  8
DIM
 62
     0
370
    -2
100
AcDbLine
 10
4.071768375888641
 20
9.793520567017271
 30
0.0
 11
5.525592134369363
 21
9.793520567017271
 31
0.0
  0
LINE
  5
A8A7
330
A0C6
100
AcDbEntity
  8
DIM
 62
     0
370
    -2
100
AcDbLine
 10
8.360791411311893
 20
9.793520567017271
 30
0.0
 11
6.688925467702697
 21
9.793520567017271
 31
0.0
  0
SOLID
  5
A8A8
330
A0C6
100
AcDbEntity
  8
DIM
 62
     0
100
AcDbTrace
 10
4.071768375888641
 20
9.82352056701727
 30
0.0
 11
4.071768375888641
 21
9.763520567017272
 31
0.0
 12
3.891768375888641
 22
9.793520567017271
 32
0.0
 13
3.891768375888641
 23
9.793520567017271
 33
0.0
  0
SOLID
  5
A8A9
330
A0C6
100
AcDbEntity
  8
DIM
 62
     0
100
AcDbTrace
 10
8.360791411311893
 20
9.82352056701727
 30
0.0
 11
8.360791411311893
 21
9.763520567017272
 31
0.0
 12
8.540791411311893
 22
9.793520567017271
 32
0.0
 13
8.540791411311893
 23
9.793520567017271
 33
0.0
  0
MTEXT
  5
A8AA
330
A0C6
100
AcDbEntity
  8
DIM
 62
     0
100
AcDbMText
 10
6.10725880103603
 20
9.793520567017271
 30
0.0
 40
0.125
 41
0.0
 71
     5
 72
     1
  1
\A1;4.65 [118.09]
 73
     1
 44
1.0
1001
ACAD
1000
MTEXTBEGIN
1070
    73
1070
     1
1070
    44
1040
1.0
1070
    74
1070
     0
1000
MTEXTEND
  0
POINT
  5
A8AB
330
A0C6
100
AcDbEntity
  8
Defpoints
 62
     0
100
AcDbPoint
 10
3.891768375888641
 20
9.022649050554926
 30
0.0
  0
POINT
  5
A8AC
330
A0C6
100
AcDbEntity
  8
Defpoints
 62
     0
100
AcDbPoint
 10
8.540791411311893
 20
7.378567374717576
 30
0.0
  0
POINT
  5
A8AD
330
A0C6
100
AcDbEntity
  8
Defpoints
 62
     0
100
AcDbPoint
 10
8.540791411311893
 20
9.793520567017271
 30
0.0
  0
ENDBLK
  5
A0C8
330
A0C6
100
AcDbEntity
  8
0
100
AcDbBlockEnd
  0
ENDSEC
  0
SECTION
  2
ENTITIES
  0
LWPOLYLINE
  5
9A29
330
1F
100
AcDbEntity
  8
0
100
AcDbPolyline
 90
        4
 70
     1
 43
0.0
 10
11.827064066341
 20
2.852282752201226
 10
11.827064066341
 20
8.902820950416082
 42
0.2926829268292685
 10
10.17293593365899
 20
8.902820950416082
 10
10.17293593365899
 20
2.852282752201226
 42
0.2926829268292685
  0
LWPOLYLINE
  5
9A2A
330
1F
100
AcDbEntity
  8
0
100
AcDbPolyline
 90
        2
 70
     0
 43
0.0
 10
10.17314783569348
 20
3.299793587368871
 42
0.2926829268292685
 10
11.82727596837548
 20
3.299793587368871
  0
LWPOLYLINE
  5
9A2B
330
1F
100
AcDbEntity
  8
0
100
AcDbPolyline
 90
        2
 70
     0
 43
0.0
 10
11.51817192401852
 20
3.14434901309935
 42
0.0326726613379993
 10
11.70183939054098
 20
3.224156240556293
  0
ARC
  5
9A2C
330
1F
100
AcDbEntity
  8
0
100
AcDbCircle
 10
11.60516882903
 20
3.195384049619228
 30
0.0
 40
0.1008614715050007
100
AcDbArc
 50
210.3971854111938
 51
16.57465593228519
1001
ACAD
1000
TCW40_DEV_WIDTH
1002
{
1040
-3.0
1002
}
  0
LWPOLYLINE
  5
9A2D
330
1F
100
AcDbEntity
  8
0
100
AcDbPolyline
 90
        2
 70
     0
 43
0.0
 10
10.5032740562649
 20
3.140451442478934
 42
-0.0326726613379993
 10
10.31960658974248
 20
3.220258669935876
  0
ARC
  5
9A2E
330
1F
100
AcDbEntity
  8
0
100
AcDbCircle
 10
10.41627715125346
 20
3.191486478998811
 30
0.0
 40
0.1008614715050003
100
AcDbArc
 50
163.4253440677148
 51
329.6028145888062
1001
ACAD
1000
TCW40_DEV_WIDTH
1002
{
1040
-3.0
1002
}
  0
ARC
  5
9A2F
330
1F
100
AcDbEntity
  8
0
100
AcDbCircle
 10
11.52713869089979
 20
4.303542717928561
 30
0.0
 40
0.1512922072575
100
AcDbArc
 50
180.0
 51
10.75795811665844
1001
ACAD
1000
TCW40_DEV_WIDTH
1002
{
1040
-3.0
1002
}
  0
ARC
  5
9A30
330
1F
100
AcDbEntity
  8
0
100
AcDbCircle
 10
11.52447965182599
 20
8.095929178376081
 30
0.0
 40
0.1512922072575
100
AcDbArc
 50
0.0
 51
180.080346079239
1001
ACAD
1000
TCW40_DEV_WIDTH
1002
{
1040
-3.0
1002
}
  0
LINE
  5
9A31
330
1F
100
AcDbEntity
  8
0
100
AcDbLine
 10
11.37318744456849
 20
8.095929178376081
 30
0.0
 11
11.37462852204643
 21
6.040629288428092
 31
0.0
1001
ACAD
1000
TCW40_DEV_WIDTH
1002
{
1040
-3.0
1002
}
  0
LINE
  5
9A32
330
1F
100
AcDbEntity
  8
0
100
AcDbLine
 10
11.37485815977916
 20
5.713114346298262
 30
0.0
 11
11.37584648364229
 21
4.303542717928561
 31
0.0
1001
ACAD
1000
TCW40_DEV_WIDTH
1002
{
1040
-3.0
1002
}
  0
LINE
  5
9A33
330
1F
100
AcDbEntity
  8
0
100
AcDbLine
 10
11.67577185908349
 20
8.095929178376081
 30
0.0
 11
11.67577185908349
 21
6.039297981840363
 31
0.0
1001
ACAD
1000
TCW40_DEV_WIDTH
1002
{
1040
-3.0
1002
}
  0
LINE
  5
9A34
330
1F
100
AcDbEntity
  8
0
100
AcDbLine
 10
11.67577185908349
 20
5.714655628691801
 30
0.0
 11
11.67577185908349
 21
4.331782995769358
 31
0.0
1001
ACAD
1000
TCW40_DEV_WIDTH
1002
{
1040
-3.0
1002
}
  0
ARC
  5
9A35
330
1F
100
AcDbEntity
  8
0
100
AcDbCircle
 10
11.52447965182599
 20
5.876976805266082
 30
0.0
 40
0.2218952373110004
100
AcDbArc
 50
312.9858860801885
 51
47.01411391981131
1001
ACAD
1000
TCW40_DEV_WIDTH
1002
{
1040
-3.0
1002
}
  0
ARC
  5
9A36
330
1F
100
AcDbEntity
  8
0
100
AcDbCircle
 10
11.52447965182599
 20
5.876976805266082
 30
0.0
 40
0.2218952373110002
100
AcDbArc
 50
132.4792984030607
 51
227.6010476761871
1001
ACAD
1000
TCW40_DEV_WIDTH
1002
{
1040
-3.0
1002
}
  0
CIRCLE
  5
9A37
330
1F
100
AcDbEntity
  8
0
100
AcDbCircle
 10
11.52447965182599
 20
8.095929178376081
 30
0.0
 40
0.0706030300535
  0
CIRCLE
  5
9A38
330
1F
100
AcDbEntity
  8
0
100
AcDbCircle
 10
11.52447965182599
 20
7.914378529667082
 30
0.0
 40
0.0706030300535
  0
CIRCLE
  5
9A39
330
1F
100
AcDbEntity
  8
0
100
AcDbCircle
 10
11.52580917136291
 20
7.732830315028323
 30
0.0
 40
0.0706030300535
  0
CIRCLE
  5
9A3A
330
1F
100
AcDbEntity
  8
0
100
AcDbCircle
 10
11.52580917136291
 20
7.450418194814321
 30
0.0
 40
0.0706030300535
  0
CIRCLE
  5
9A3B
330
1F
100
AcDbEntity
  8
0
100
AcDbCircle
 10
11.52580917136291
 20
7.268867546105322
 30
0.0
 40
0.0706030300535
  0
CIRCLE
  5
9A3C
330
1F
100
AcDbEntity
  8
0
100
AcDbCircle
 10
11.52713869089979
 20
7.087319331466559
 30
0.0
 40
0.0706030300535
  0
CIRCLE
  5
9A3D
330
1F
100
AcDbEntity
  8
0
100
AcDbCircle
 10
11.52713869089979
 20
6.90576868275756
 30
0.0
 40
0.0706030300535
  0
CIRCLE
  5
9A3E
330
1F
100
AcDbEntity
  8
0
100
AcDbCircle
 10
11.52846821043671
 20
6.724220468118801
 30
0.0
 40
0.0706030300535
  0
CIRCLE
  5
9A3F
330
1F
100
AcDbEntity
  8
0
100
AcDbCircle
 10
11.52846821043671
 20
6.542669819409798
 30
0.0
 40
0.0706030300535
  0
CIRCLE
  5
9A40
330
1F
100
AcDbEntity
  8
0
100
AcDbCircle
 10
11.52979772997363
 20
6.361121604771039
 30
0.0
 40
0.0706030300535
  0
CIRCLE
  5
9A41
330
1F
100
AcDbEntity
  8
0
100
AcDbCircle
 10
11.53112724951051
 20
6.179573390132279
 30
0.0
 40
0.0706030300535
  0
CIRCLE
  5
9A42
330
1F
100
AcDbEntity
  8
0
100
AcDbCircle
 10
11.52447965182599
 20
5.876976805266082
 30
0.0
 40
0.161378354408
  0
CIRCLE
  5
9A43
330
1F
100
AcDbEntity
  8
0
100
AcDbCircle
 10
11.52049109321527
 20
5.574385088540367
 30
0.0
 40
0.0706030300535
  0
CIRCLE
  5
9A44
330
1F
100
AcDbEntity
  8
0
100
AcDbCircle
 10
11.52049109321527
 20
5.392834439831364
 30
0.0
 40
0.0706030300535
  0
CIRCLE
  5
9A45
330
1F
100
AcDbEntity
  8
0
100
AcDbCircle
 10
11.52182061275219
 20
5.211286225192605
 30
0.0
 40
0.0706030300535
  0
CIRCLE
  5
9A46
330
1F
100
AcDbEntity
  8
0
100
AcDbCircle
 10
11.52182061275219
 20
5.029735576483606
 30
0.0
 40
0.0706030300535
  0
CIRCLE
  5
9A47
330
1F
100
AcDbEntity
  8
0
100
AcDbCircle
 10
11.52315013228908
 20
4.848187361844843
 30
0.0
 40
0.0706030300535
  0
CIRCLE
  5
9A48
330
1F
100
AcDbEntity
  8
0
100
AcDbCircle
 10
11.52447965182599
 20
4.666639147206083
 30
0.0
 40
0.0706030300535
  0
CIRCLE
  5
9A49
330
1F
100
AcDbEntity
  8
0
100
AcDbCircle
 10
11.52580917136291
 20
4.48509093256732
 30
0.0
 40
0.0706030300535
  0
CIRCLE
  5
9A4A
330
1F
100
AcDbEntity
  8
0
100
AcDbCircle
 10
11.52713869089979
 20
4.303542717928561
 30
0.0
 40
0.0706030300535
  0
LWPOLYLINE
  5
9A4B
330
1F
100
AcDbEntity
  8
0
100
AcDbPolyline
 90
        6
 70
     1
 43
0.0
 10
10.35862309855355
 20
8.905967490962694
 42
-0.1078140815637649
 10
11.00000000000338
 20
9.045921372975342
 42
-0.1078140815637649
 10
11.64137690145323
 20
8.905967490962694
 42
-0.2987699696404638
 10
11.68573212776898
 20
8.8293530611815
 42
-0.3874703057085576
 10
11.00000000000338
 20
8.211639349896838
 42
-0.3874703057085576
 10
10.3142678722378
 20
8.8293530611815
 42
-0.2987699696404589
  0
LWPOLYLINE
  5
9B2A
330
1F
100
AcDbEntity
  8
0
100
AcDbPolyline
 90
        4
 70
     0
 43
0.0
 10
11.82647823365899
 20
11.5112812868727
 10
11.82647823365899
 20
15.89856683287208
 10
10.17293593365899
 20
15.89856683287208
 10
10.17293593365899
 20
11.5112812868727
1001
ACAD
1000
TCW40_DEV_WIDTH
1002
{
1040
-3.0
1002
}
  0
LWPOLYLINE
  5
9B2B
330
1F
100
AcDbEntity
  8
0
100
AcDbPolyline
 90
        5
 70
     0
 43
0.0
 10
10.717394983659
 20
13.72317487612236
 10
10.717394983659
 20
13.5641100278048
 10
10.77789043365899
 20
13.5641100278048
 10
10.77789043365899
 20
13.72317487612236
 10
10.717394983659
 20
13.72317487612236
1001
ACAD
1000
TCW40_DEV_WIDTH
1002
{
1040
-3.0
1002
}
  0
LWPOLYLINE
  5
9B2C
330
1F
100
AcDbEntity
  8
0
100
AcDbPolyline
 90
        5
 70
     0
 43
0.0
 10
10.717394983659
 20
13.47111050112236
 10
10.717394983659
 20
13.3120456528048
 10
10.77789043365899
 20
13.3120456528048
 10
10.77789043365899
 20
13.47111050112236
 10
10.717394983659
 20
13.47111050112236
1001
ACAD
1000
TCW40_DEV_WIDTH
1002
{
1040
-3.0
1002
}
  0
LWPOLYLINE
  5
9B2D
330
1F
100
AcDbEntity
  8
0
100
AcDbPolyline
 90
        5
 70
     0
 43
0.0
 10
10.77789043365899
 20
12.80803731303331
 10
10.77789043365899
 20
12.96698175112236
 10
10.717394983659
 20
12.96698175112236
 10
10.717394983659
 20
12.80803731303331
 10
10.77789043365899
 20
12.80803731303331
1001
ACAD
1000
TCW40_DEV_WIDTH
1002
{
1040
-3.0
1002
}
  0
LWPOLYLINE
  5
9B2E
330
1F
100
AcDbEntity
  8
0
100
AcDbPolyline
 90
        5
 70
     0
 43
0.0
 10
10.77789043365899
 20
12.55473580672454
 10
10.77789043365899
 20
12.71422906041941
 10
10.717394983659
 20
12.71422906041941
 10
10.717394983659
 20
12.55473580672454
 10
10.77789043365899
 20
12.55473580672454
1001
ACAD
1000
TCW40_DEV_WIDTH
1002
{
1040
-3.0
1002
}
  0
LWPOLYLINE
  5
9B2F
330
1F
100
AcDbEntity
  8
0
100
AcDbPolyline
 90
        5
 70
     0
 43
0.0
 10
10.77789043365899
 20
12.30268994862844
 10
10.77789043365899
 20
12.46236671719409
 10
10.717394983659
 20
12.46236671719409
 10
10.717394983659
 20
12.30268994862844
 10
10.77789043365899
 20
12.30268994862844
1001
ACAD
1000
TCW40_DEV_WIDTH
1002
{
1040
-3.0
1002
}
  0
LWPOLYLINE
  5
9B30
330
1F
100
AcDbEntity
  8
0
100
AcDbPolyline
 90
        5
 70
     0
 43
0.0
 10
10.77789043365899
 20
12.05061416912341
 10
10.77789043365899
 20
12.21043518093877
 10
10.717394983659
 20
12.21043518093877
 10
10.717394983659
 20
12.05061416912341
 10
10.77789043365899
 20
12.05061416912341
1001
ACAD
1000
TCW40_DEV_WIDTH
1002
{
1040
-3.0
1002
}
  0
LWPOLYLINE
  5
9B31
330
1F
100
AcDbEntity
  8
0
100
AcDbPolyline
 90
        5
 70
     0
 43
0.0
 10
10.77789043365899
 20
11.79856026726434
 10
10.77789043365899
 20
11.95872425111316
 10
10.717394983659
 20
11.95872425111316
 10
10.717394983659
 20
11.79856026726434
 10
10.77789043365899
 20
11.79856026726434
1001
ACAD
1000
TCW40_DEV_WIDTH
1002
{
1040
-3.0
1002
}
  0
LWPOLYLINE
  5
9B32
330
1F
100
AcDbEntity
  8
0
100
AcDbPolyline
 90
        6
 70
     0
 43
0.0
 10
10.77789043365899
 20
13.05885310196358
 10
10.77789043365899
 20
13.0599812778048
 10
10.77789043365899
 20
13.21904612612236
 10
10.717394983659
 20
13.21904612612236
 10
10.717394983659
 20
13.0599812778048
 10
10.77789043365899
 20
13.05885310196358
1001
ACAD
1000
TCW40_DEV_WIDTH
1002
{
1040
-3.0
1002
}
  0
LWPOLYLINE
  5
9B33
330
1F
100
AcDbEntity
  8
0
100
AcDbPolyline
 90
        5
 70
     0
 43
0.0
 10
10.17293593365899
 20
13.56298185196358
 10
11.82647823365899
 20
13.56298185196358
 10
11.82647823365899
 20
13.47111050112236
 10
10.17293593365899
 20
13.47111050112236
 10
10.17293593365899
 20
13.56298185196358
1001
ACAD
1000
TCW40_DEV_WIDTH
1002
{
1040
-3.0
1002
}
  0
LWPOLYLINE
  5
9B34
330
1F
100
AcDbEntity
  8
0
100
AcDbPolyline
 90
        5
 70
     0
 43
0.0
 10
10.17293593365899
 20
13.05885310196358
 10
11.82647823365899
 20
13.05885310196358
 10
11.82647823365899
 20
12.96698175112236
 10
10.17293593365899
 20
12.96698175112236
 10
10.17293593365899
 20
13.05885310196358
1001
ACAD
1000
TCW40_DEV_WIDTH
1002
{
1040
-3.0
1002
}
  0
LWPOLYLINE
  5
9B35
330
1F
100
AcDbEntity
  8
0
100
AcDbPolyline
 90
        5
 70
     0
 43
0.0
 10
10.17293593365899
 20
12.05061416912341
 10
11.82647823365899
 20
12.05061416912341
 10
11.82647823365899
 20
11.95872425111316
 10
10.17293593365899
 20
11.95872425111316
 10
10.17293593365899
 20
12.05061416912341
1001
ACAD
1000
TCW40_DEV_WIDTH
1002
{
1040
-3.0
1002
}
  0
LWPOLYLINE
  5
9B36
330
1F
100
AcDbEntity
  8
0
100
AcDbPolyline
 90
        5
 70
     0
 43
0.0
 10
10.17293593365899
 20
12.30268994862844
 10
11.82647823365899
 20
12.30268994862844
 10
11.82647823365899
 20
12.21043518093877
 10
10.17293593365899
 20
12.21043518093877
 10
10.17293593365899
 20
12.30268994862844
1001
ACAD
1000
TCW40_DEV_WIDTH
1002
{
1040
-3.0
1002
}
  0
LWPOLYLINE
  5
9B37
330
1F
100
AcDbEntity
  8
0
100
AcDbPolyline
 90
        5
 70
     0
 43
0.0
 10
10.17293593365899
 20
12.55473580672454
 10
11.82647823365899
 20
12.55473580672454
 10
11.82647823365899
 20
12.46236671719409
 10
10.17293593365899
 20
12.46236671719409
 10
10.17293593365899
 20
12.55473580672454
1001
ACAD
1000
TCW40_DEV_WIDTH
1002
{
1040
-3.0
1002
}
  0
LWPOLYLINE
  5
9B38
330
1F
100
AcDbEntity
  8
0
100
AcDbPolyline
 90
        5
 70
     0
 43
0.0
 10
10.17293593365899
 20
13.3120456528048
 10
11.82647823365899
 20
13.3120456528048
 10
11.82647823365899
 20
13.21904612612236
 10
10.17293593365899
 20
13.21904612612236
 10
10.17293593365899
 20
13.3120456528048
1001
ACAD
1000
TCW40_DEV_WIDTH
1002
{
1040
-3.0
1002
}
  0
LWPOLYLINE
  5
9B39
330
1F
100
AcDbEntity
  8
0
100
AcDbPolyline
 90
        5
 70
     0
 43
0.0
 10
10.17293593365899
 20
12.80803731303331
 10
11.82647823365899
 20
12.80803731303331
 10
11.82647823365899
 20
12.71422906041941
 10
10.17293593365899
 20
12.71422906041941
 10
10.17293593365899
 20
12.80803731303331
1001
ACAD
1000
TCW40_DEV_WIDTH
1002
{
1040
-3.0
1002
}
  0
LWPOLYLINE
  5
9B3A
330
1F
100
AcDbEntity
  8
0
100
AcDbPolyline
 90
        5
 70
     0
 43
0.0
 10
11.30218433365899
 20
13.72317487612236
 10
11.30218433365899
 20
13.5641100278048
 10
11.36267978365899
 20
13.5641100278048
 10
11.36267978365899
 20
13.72317487612236
 10
11.30218433365899
 20
13.72317487612236
1001
ACAD
1000
TCW40_DEV_WIDTH
1002
{
1040
-3.0
1002
}
  0
LWPOLYLINE
  5
9B3B
330
1F
100
AcDbEntity
  8
0
100
AcDbPolyline
 90
        5
 70
     0
 43
0.0
 10
11.30218433365899
 20
13.47111050112236
 10
11.30218433365899
 20
13.3120456528048
 10
11.36267978365899
 20
13.3120456528048
 10
11.36267978365899
 20
13.47111050112236
 10
11.30218433365899
 20
13.47111050112236
1001
ACAD
1000
TCW40_DEV_WIDTH
1002
{
1040
-3.0
1002
}
  0
LWPOLYLINE
  5
9B3C
330
1F
100
AcDbEntity
  8
0
100
AcDbPolyline
 90
        5
 70
     0
 43
0.0
 10
11.30218433365899
 20
13.21904612612236
 10
11.30218433365899
 20
13.0599812778048
 10
11.36267978365899
 20
13.0599812778048
 10
11.36267978365899
 20
13.21904612612236
 10
11.30218433365899
 20
13.21904612612236
1001
ACAD
1000
TCW40_DEV_WIDTH
1002
{
1040
-3.0
1002
}
  0
LWPOLYLINE
  5
9B3D
330
1F
100
AcDbEntity
  8
0
100
AcDbPolyline
 90
        5
 70
     0
 43
0.0
 10
11.36267978365899
 20
12.80916548887454
 10
11.36267978365899
 20
12.96810992696358
 10
11.30218433365899
 20
12.96810992696358
 10
11.30218433365899
 20
12.80916548887454
 10
11.36267978365899
 20
12.80916548887454
1001
ACAD
1000
TCW40_DEV_WIDTH
1002
{
1040
-3.0
1002
}
  0
LWPOLYLINE
  5
9B3E
330
1F
100
AcDbEntity
  8
0
100
AcDbPolyline
 90
        5
 70
     0
 43
0.0
 10
11.36267978365899
 20
12.55586398256576
 10
11.36267978365899
 20
12.71535723626063
 10
11.30218433365899
 20
12.71535723626063
 10
11.30218433365899
 20
12.55586398256576
 10
11.36267978365899
 20
12.55586398256576
1001
ACAD
1000
TCW40_DEV_WIDTH
1002
{
1040
-3.0
1002
}
  0
LWPOLYLINE
  5
9B3F
330
1F
100
AcDbEntity
  8
0
100
AcDbPolyline
 90
        5
 70
     0
 43
0.0
 10
11.36267978365899
 20
12.30381812446967
 10
11.36267978365899
 20
12.46349489303531
 10
11.30218433365899
 20
12.46349489303531
 10
11.30218433365899
 20
12.30381812446967
 10
11.36267978365899
 20
12.30381812446967
1001
ACAD
1000
TCW40_DEV_WIDTH
1002
{
1040
-3.0
1002
}
  0
LWPOLYLINE
  5
9B40
330
1F
100
AcDbEntity
  8
0
100
AcDbPolyline
 90
        5
 70
     0
 43
0.0
 10
11.36267978365899
 20
12.05174234496464
 10
11.36267978365899
 20
12.21156335677999
 10
11.30218433365899
 20
12.21156335677999
 10
11.30218433365899
 20
12.05174234496464
 10
11.36267978365899
 20
12.05174234496464
1001
ACAD
1000
TCW40_DEV_WIDTH
1002
{
1040
-3.0
1002
}
  0
LWPOLYLINE
  5
9B41
330
1F
100
AcDbEntity
  8
0
100
AcDbPolyline
 90
        5
 70
     0
 43
0.0
 10
11.36267978365899
 20
11.79968844310556
 10
11.36267978365899
 20
11.95985242695438
 10
11.30218433365899
 20
11.95985242695438
 10
11.30218433365899
 20
11.79968844310556
 10
11.36267978365899
 20
11.79968844310556
1001
ACAD
1000
TCW40_DEV_WIDTH
1002
{
1040
-3.0
1002
}
  0
LWPOLYLINE
  5
9B42
330
1F
100
AcDbEntity
  8
0
100
AcDbPolyline
 90
        5
 70
     0
 43
0.0
 10
10.17293593365899
 20
13.56298185196358
 10
11.82647823365899
 20
13.56298185196358
 10
11.82647823365899
 20
13.47111050112236
 10
10.17293593365899
 20
13.47111050112236
 10
10.17293593365899
 20
13.56298185196358
1001
ACAD
1000
TCW40_DEV_WIDTH
1002
{
1040
-3.0
1002
}
  0
LWPOLYLINE
  5
9B43
330
1F
100
AcDbEntity
  8
0
100
AcDbPolyline
 90
        5
 70
     0
 43
0.0
 10
10.17293593365899
 20
13.05885310196358
 10
11.82647823365899
 20
13.05885310196358
 10
11.82647823365899
 20
12.96698175112236
 10
10.17293593365899
 20
12.96698175112236
 10
10.17293593365899
 20
13.05885310196358
1001
ACAD
1000
TCW40_DEV_WIDTH
1002
{
1040
-3.0
1002
}
  0
LWPOLYLINE
  5
9B44
330
1F
100
AcDbEntity
  8
0
100
AcDbPolyline
 90
        5
 70
     0
 43
0.0
 10
10.17293593365899
 20
12.05061416912341
 10
11.82647823365899
 20
12.05061416912341
 10
11.82647823365899
 20
11.95872425111316
 10
10.17293593365899
 20
11.95872425111316
 10
10.17293593365899
 20
12.05061416912341
1001
ACAD
1000
TCW40_DEV_WIDTH
1002
{
1040
-3.0
1002
}
  0
LWPOLYLINE
  5
9B45
330
1F
100
AcDbEntity
  8
0
100
AcDbPolyline
 90
        5
 70
     0
 43
0.0
 10
10.17293593365899
 20
12.30268994862844
 10
11.82647823365899
 20
12.30268994862844
 10
11.82647823365899
 20
12.21043518093877
 10
10.17293593365899
 20
12.21043518093877
 10
10.17293593365899
 20
12.30268994862844
1001
ACAD
1000
TCW40_DEV_WIDTH
1002
{
1040
-3.0
1002
}
  0
LWPOLYLINE
  5
9B46
330
1F
100
AcDbEntity
  8
0
100
AcDbPolyline
 90
        5
 70
     0
 43
0.0
 10
10.17293593365899
 20
12.55473580672454
 10
11.82647823365899
 20
12.55473580672454
 10
11.82647823365899
 20
12.46236671719409
 10
10.17293593365899
 20
12.46236671719409
 10
10.17293593365899
 20
12.55473580672454
1001
ACAD
1000
TCW40_DEV_WIDTH
1002
{
1040
-3.0
1002
}
  0
LWPOLYLINE
  5
9B47
330
1F
100
AcDbEntity
  8
0
100
AcDbPolyline
 90
        5
 70
     0
 43
0.0
 10
10.17293593365899
 20
13.3120456528048
 10
11.82647823365899
 20
13.3120456528048
 10
11.82647823365899
 20
13.21904612612236
 10
10.17293593365899
 20
13.21904612612236
 10
10.17293593365899
 20
13.3120456528048
1001
ACAD
1000
TCW40_DEV_WIDTH
1002
{
1040
-3.0
1002
}
  0
LWPOLYLINE
  5
9B48
330
1F
100
AcDbEntity
  8
0
100
AcDbPolyline
 90
        5
 70
     0
 43
0.0
 10
10.17293593365899
 20
12.80803731303331
 10
11.82647823365899
 20
12.80803731303331
 10
11.82647823365899
 20
12.71422906041941
 10
10.17293593365899
 20
12.71422906041941
 10
10.17293593365899
 20
12.80803731303331
1001
ACAD
1000
TCW40_DEV_WIDTH
1002
{
1040
-3.0
1002
}
  0
LWPOLYLINE
  5
9B49
330
1F
100
AcDbEntity
  8
0
100
AcDbPolyline
 90
        7
 70
     0
 43
0.0
 10
10.17293593365899
 20
11.58322473287208
 10
10.72324336840455
 20
11.63698783055947
 10
11.27617079891344
 20
11.63698783055947
 10
11.82647823365899
 20
11.58322473287208
 10
11.82647823365899
 20
11.79856026726434
 10
10.17293593365899
 20
11.79856026726434
 10
10.17293593365899
 20
11.58322473287208
1001
ACAD
1000
TCW40_DEV_WIDTH
1002
{
1040
-3.0
1002
}
  0
LINE
  5
9B4A
330
1F
100
AcDbEntity
  8
0
100
AcDbLine
 10
11.82647823365899
 20
11.79856026726434
 30
0.0
 11
10.17293593365899
 21
11.79856026726434
 31
0.0
1001
ACAD
1000
TCW40_DEV_WIDTH
1002
{
1040
-3.0
1002
}
  0
LINE
  5
9B4B
330
1F
100
AcDbEntity
  8
0
100
AcDbLine
 10
11.82647823365899
 20
11.95872425111316
 30
0.0
 11
10.17293593365899
 21
11.95872425111316
 31
0.0
1001
ACAD
1000
TCW40_DEV_WIDTH
1002
{
1040
-3.0
1002
}
  0
LINE
  5
9B4C
330
1F
100
AcDbEntity
  8
0
100
AcDbLine
 10
11.82647823365899
 20
12.05061416912341
 30
0.0
 11
10.17293593365899
 21
12.05061416912341
 31
0.0
1001
ACAD
1000
TCW40_DEV_WIDTH
1002
{
1040
-3.0
1002
}
  0
LINE
  5
9B4D
330
1F
100
AcDbEntity
  8
0
100
AcDbLine
 10
11.82647823365899
 20
12.21043518093877
 30
0.0
 11
10.17293593365899
 21
12.21043518093877
 31
0.0
1001
ACAD
1000
TCW40_DEV_WIDTH
1002
{
1040
-3.0
1002
}
  0
LINE
  5
9B4E
330
1F
100
AcDbEntity
  8
0
100
AcDbLine
 10
11.82647823365899
 20
12.30268994862844
 30
0.0
 11
10.17293593365899
 21
12.30268994862844
 31
0.0
1001
ACAD
1000
TCW40_DEV_WIDTH
1002
{
1040
-3.0
1002
}
  0
LINE
  5
9B4F
330
1F
100
AcDbEntity
  8
0
100
AcDbLine
 10
11.82647823365899
 20
12.46236671719409
 30
0.0
 11
10.17293593365899
 21
12.46236671719409
 31
0.0
1001
ACAD
1000
TCW40_DEV_WIDTH
1002
{
1040
-3.0
1002
}
  0
LINE
  5
9B50
330
1F
100
AcDbEntity
  8
0
100
AcDbLine
 10
11.82647823365899
 20
12.55473580672454
 30
0.0
 11
10.17293593365899
 21
12.55473580672454
 31
0.0
1001
ACAD
1000
TCW40_DEV_WIDTH
1002
{
1040
-3.0
1002
}
  0
LINE
  5
9B51
330
1F
100
AcDbEntity
  8
0
100
AcDbLine
 10
11.82647823365899
 20
12.71422906041941
 30
0.0
 11
10.17293593365899
 21
12.71422906041941
 31
0.0
1001
ACAD
1000
TCW40_DEV_WIDTH
1002
{
1040
-3.0
1002
}
  0
LINE
  5
9B52
330
1F
100
AcDbEntity
  8
0
100
AcDbLine
 10
11.82647823365899
 20
12.80803731303331
 30
0.0
 11
10.17293593365899
 21
12.80803731303331
 31
0.0
1001
ACAD
1000
TCW40_DEV_WIDTH
1002
{
1040
-3.0
1002
}
  0
LINE
  5
9B53
330
1F
100
AcDbEntity
  8
0
100
AcDbLine
 10
11.82647823365899
 20
12.96698175112236
 30
0.0
 11
10.17293593365899
 21
12.96698175112236
 31
0.0
1001
ACAD
1000
TCW40_DEV_WIDTH
1002
{
1040
-3.0
1002
}
  0
LINE
  5
9B54
330
1F
100
AcDbEntity
  8
0
100
AcDbLine
 10
11.82647823365899
 20
13.05885310196358
 30
0.0
 11
10.17293593365899
 21
13.05885310196358
 31
0.0
1001
ACAD
1000
TCW40_DEV_WIDTH
1002
{
1040
-3.0
1002
}
  0
LINE
  5
9B55
330
1F
100
AcDbEntity
  8
0
100
AcDbLine
 10
11.82647823365899
 20
13.21904612612236
 30
0.0
 11
10.17293593365899
 21
13.21904612612236
 31
0.0
1001
ACAD
1000
TCW40_DEV_WIDTH
1002
{
1040
-3.0
1002
}
  0
LINE
  5
9B56
330
1F
100
AcDbEntity
  8
0
100
AcDbLine
 10
11.82647823365899
 20
13.3120456528048
 30
0.0
 11
10.17293593365899
 21
13.3120456528048
 31
0.0
1001
ACAD
1000
TCW40_DEV_WIDTH
1002
{
1040
-3.0
1002
}
  0
LINE
  5
9B57
330
1F
100
AcDbEntity
  8
0
100
AcDbLine
 10
11.82647823365899
 20
13.47111050112236
 30
0.0
 11
10.17293593365899
 21
13.47111050112236
 31
0.0
1001
ACAD
1000
TCW40_DEV_WIDTH
1002
{
1040
-3.0
1002
}
  0
LINE
  5
9B58
330
1F
100
AcDbEntity
  8
0
100
AcDbLine
 10
11.82647823365899
 20
13.56298185196358
 30
0.0
 11
10.17293593365899
 21
13.56298185196358
 31
0.0
1001
ACAD
1000
TCW40_DEV_WIDTH
1002
{
1040
-3.0
1002
}
  0
LINE
  5
9B59
330
1F
100
AcDbEntity
  8
0
100
AcDbLine
 10
11.82647823365899
 20
13.72317487612236
 30
0.0
 11
10.17293593365899
 21
13.72317487612236
 31
0.0
1001
ACAD
1000
TCW40_DEV_WIDTH
1002
{
1040
-3.0
1002
}
  0
LINE
  5
9B5A
330
1F
100
AcDbEntity
  8
0
100
AcDbLine
 10
11.82647823365899
 20
15.07536810196358
 30
0.0
 11
10.17293593365899
 21
15.07536810196358
 31
0.0
1001
ACAD
1000
TCW40_DEV_WIDTH
1002
{
1040
-3.0
1002
}
  0
LINE
  5
9B5B
330
1F
100
AcDbEntity
  8
0
100
AcDbLine
 10
11.82647823365899
 20
15.23556112612236
 30
0.0
 11
10.17293593365899
 21
15.23556112612236
 31
0.0
1001
ACAD
1000
TCW40_DEV_WIDTH
1002
{
1040
-3.0
1002
}
  0
LINE
  5
9B5C
330
1F
100
AcDbEntity
  8
0
100
AcDbLine
 10
11.82647823365899
 20
15.32743247696357
 30
0.0
 11
10.17293593365899
 21
15.32743247696357
 31
0.0
1001
ACAD
1000
TCW40_DEV_WIDTH
1002
{
1040
-3.0
1002
}
  0
LINE
  5
9B5D
330
1F
100
AcDbEntity
  8
0
100
AcDbLine
 10
11.82647823365899
 20
15.48762550112235
 30
0.0
 11
10.17293593365899
 21
15.48762550112235
 31
0.0
1001
ACAD
1000
TCW40_DEV_WIDTH
1002
{
1040
-3.0
1002
}
  0
LINE
  5
9B5E
330
1F
100
AcDbEntity
  8
0
100
AcDbLine
 10
11.82647823365899
 20
15.58062502780479
 30
0.0
 11
10.17293593365899
 21
15.58062502780479
 31
0.0
1001
ACAD
1000
TCW40_DEV_WIDTH
1002
{
1040
-3.0
1002
}
  0
LINE
  5
9B5F
330
1F
100
AcDbEntity
  8
0
100
AcDbLine
 10
11.82647823365899
 20
15.73968987612236
 30
0.0
 11
10.17293593365899
 21
15.73968987612236
 31
0.0
1001
ACAD
1000
TCW40_DEV_WIDTH
1002
{
1040
-3.0
1002
}
  0
LWPOLYLINE
  5
9B60
330
1F
100
AcDbEntity
  8
0
100
AcDbPolyline
 90
        2
 70
     0
 43
0.0
 10
10.17293593365899
 20
11.58322473287208
 42
-0.0731707317073172
 10
11.82647823365899
 20
11.58322473287208
  0
LINE
  5
9B61
330
1F
100
AcDbEntity
  8
0
100
AcDbLine
 10
11.42317523365899
 20
15.58062502780479
 30
0.0
 11
11.42317523365899
 21
15.73968987612236
 31
0.0
1001
ACAD
1000
TCW40_DEV_WIDTH
1002
{
1040
-3.0
1002
}
  0
LINE
  5
9B62
330
1F
100
AcDbEntity
  8
0
100
AcDbLine
 10
11.36267978365899
 20
15.58062502780479
 30
0.0
 11
11.36267978365899
 21
15.73968987612236
 31
0.0
1001
ACAD
1000
TCW40_DEV_WIDTH
1002
{
1040
-3.0
1002
}
  0
LINE
  5
9B63
330
1F
100
AcDbEntity
  8
0
100
AcDbLine
 10
11.30218433365899
 20
15.58062502780479
 30
0.0
 11
11.30218433365899
 21
15.73968987612236
 31
0.0
1001
ACAD
1000
TCW40_DEV_WIDTH
1002
{
1040
-3.0
1002
}
  0
LINE
  5
9B64
330
1F
100
AcDbEntity
  8
0
100
AcDbLine
 10
11.24168888365899
 20
15.58062502780479
 30
0.0
 11
11.24168888365899
 21
15.73968987612236
 31
0.0
1001
ACAD
1000
TCW40_DEV_WIDTH
1002
{
1040
-3.0
1002
}
  0
LINE
  5
9B65
330
1F
100
AcDbEntity
  8
0
100
AcDbLine
 10
10.838385883659
 20
15.58062502780479
 30
0.0
 11
10.838385883659
 21
15.73968987612236
 31
0.0
1001
ACAD
1000
TCW40_DEV_WIDTH
1002
{
1040
-3.0
1002
}
  0
LINE
  5
9B66
330
1F
100
AcDbEntity
  8
0
100
AcDbLine
 10
10.77789043365899
 20
15.58062502780479
 30
0.0
 11
10.77789043365899
 21
15.73968987612236
 31
0.0
1001
ACAD
1000
TCW40_DEV_WIDTH
1002
{
1040
-3.0
1002
}
  0
LINE
  5
9B67
330
1F
100
AcDbEntity
  8
0
100
AcDbLine
 10
10.717394983659
 20
15.58062502780479
 30
0.0
 11
10.717394983659
 21
15.73968987612236
 31
0.0
1001
ACAD
1000
TCW40_DEV_WIDTH
1002
{
1040
-3.0
1002
}
  0
LINE
  5
9B68
330
1F
100
AcDbEntity
  8
0
100
AcDbLine
 10
10.61656923365899
 20
15.58062502780479
 30
0.0
 11
10.61656923365899
 21
15.73968987612236
 31
0.0
1001
ACAD
1000
TCW40_DEV_WIDTH
1002
{
1040
-3.0
1002
}
  0
LINE
  5
9B69
330
1F
100
AcDbEntity
  8
0
100
AcDbLine
 10
10.55607378365899
 20
15.58062502780479
 30
0.0
 11
10.55607378365899
 21
15.73968987612236
 31
0.0
1001
ACAD
1000
TCW40_DEV_WIDTH
1002
{
1040
-3.0
1002
}
  0
LINE
  5
9B6A
330
1F
100
AcDbEntity
  8
0
100
AcDbLine
 10
10.49557833365899
 20
15.58062502780479
 30
0.0
 11
10.49557833365899
 21
15.73968987612236
 31
0.0
1001
ACAD
1000
TCW40_DEV_WIDTH
1002
{
1040
-3.0
1002
}
  0
LINE
  5
9B6B
330
1F
100
AcDbEntity
  8
0
100
AcDbLine
 10
11.42317523365899
 20
15.3285606528048
 30
0.0
 11
11.42317523365899
 21
15.48762550112235
 31
0.0
1001
ACAD
1000
TCW40_DEV_WIDTH
1002
{
1040
-3.0
1002
}
  0
LINE
  5
9B6C
330
1F
100
AcDbEntity
  8
0
100
AcDbLine
 10
11.36267978365899
 20
15.3285606528048
 30
0.0
 11
11.36267978365899
 21
15.48762550112235
 31
0.0
1001
ACAD
1000
TCW40_DEV_WIDTH
1002
{
1040
-3.0
1002
}
  0
LINE
  5
9B6D
330
1F
100
AcDbEntity
  8
0
100
AcDbLine
 10
11.30218433365899
 20
15.3285606528048
 30
0.0
 11
11.30218433365899
 21
15.48762550112235
 31
0.0
1001
ACAD
1000
TCW40_DEV_WIDTH
1002
{
1040
-3.0
1002
}
  0
LINE
  5
9B6E
330
1F
100
AcDbEntity
  8
0
100
AcDbLine
 10
11.24168888365899
 20
15.3285606528048
 30
0.0
 11
11.24168888365899
 21
15.48762550112235
 31
0.0
1001
ACAD
1000
TCW40_DEV_WIDTH
1002
{
1040
-3.0
1002
}
  0
LINE
  5
9B6F
330
1F
100
AcDbEntity
  8
0
100
AcDbLine
 10
10.838385883659
 20
15.3285606528048
 30
0.0
 11
10.838385883659
 21
15.48762550112235
 31
0.0
1001
ACAD
1000
TCW40_DEV_WIDTH
1002
{
1040
-3.0
1002
}
  0
LINE
  5
9B70
330
1F
100
AcDbEntity
  8
0
100
AcDbLine
 10
10.77789043365899
 20
15.3285606528048
 30
0.0
 11
10.77789043365899
 21
15.48762550112235
 31
0.0
1001
ACAD
1000
TCW40_DEV_WIDTH
1002
{
1040
-3.0
1002
}
  0
LINE
  5
9B71
330
1F
100
AcDbEntity
  8
0
100
AcDbLine
 10
10.717394983659
 20
15.3285606528048
 30
0.0
 11
10.717394983659
 21
15.48762550112235
 31
0.0
1001
ACAD
1000
TCW40_DEV_WIDTH
1002
{
1040
-3.0
1002
}
  0
LINE
  5
9B72
330
1F
100
AcDbEntity
  8
0
100
AcDbLine
 10
10.61656923365899
 20
15.3285606528048
 30
0.0
 11
10.61656923365899
 21
15.48762550112235
 31
0.0
1001
ACAD
1000
TCW40_DEV_WIDTH
1002
{
1040
-3.0
1002
}
  0
LINE
  5
9B73
330
1F
100
AcDbEntity
  8
0
100
AcDbLine
 10
10.55607378365899
 20
15.3285606528048
 30
0.0
 11
10.55607378365899
 21
15.48762550112235
 31
0.0
1001
ACAD
1000
TCW40_DEV_WIDTH
1002
{
1040
-3.0
1002
}
  0
LINE
  5
9B74
330
1F
100
AcDbEntity
  8
0
100
AcDbLine
 10
10.49557833365899
 20
15.3285606528048
 30
0.0
 11
10.49557833365899
 21
15.48762550112235
 31
0.0
1001
ACAD
1000
TCW40_DEV_WIDTH
1002
{
1040
-3.0
1002
}
  0
LINE
  5
9B75
330
1F
100
AcDbEntity
  8
0
100
AcDbLine
 10
11.42317523365899
 20
15.0764962778048
 30
0.0
 11
11.42317523365899
 21
15.23556112612236
 31
0.0
1001
ACAD
1000
TCW40_DEV_WIDTH
1002
{
1040
-3.0
1002
}
  0
LINE
  5
9B76
330
1F
100
AcDbEntity
  8
0
100
AcDbLine
 10
11.36267978365899
 20
15.0764962778048
 30
0.0
 11
11.36267978365899
 21
15.23556112612236
 31
0.0
1001
ACAD
1000
TCW40_DEV_WIDTH
1002
{
1040
-3.0
1002
}
  0
LINE
  5
9B77
330
1F
100
AcDbEntity
  8
0
100
AcDbLine
 10
11.30218433365899
 20
15.0764962778048
 30
0.0
 11
11.30218433365899
 21
15.23556112612236
 31
0.0
1001
ACAD
1000
TCW40_DEV_WIDTH
1002
{
1040
-3.0
1002
}
  0
LINE
  5
9B78
330
1F
100
AcDbEntity
  8
0
100
AcDbLine
 10
11.24168888365899
 20
15.0764962778048
 30
0.0
 11
11.24168888365899
 21
15.23556112612236
 31
0.0
1001
ACAD
1000
TCW40_DEV_WIDTH
1002
{
1040
-3.0
1002
}
  0
LINE
  5
9B79
330
1F
100
AcDbEntity
  8
0
100
AcDbLine
 10
10.838385883659
 20
15.0764962778048
 30
0.0
 11
10.838385883659
 21
15.23556112612236
 31
0.0
1001
ACAD
1000
TCW40_DEV_WIDTH
1002
{
1040
-3.0
1002
}
  0
LINE
  5
9B7A
330
1F
100
AcDbEntity
  8
0
100
AcDbLine
 10
10.77789043365899
 20
15.0764962778048
 30
0.0
 11
10.77789043365899
 21
15.23556112612236
 31
0.0
1001
ACAD
1000
TCW40_DEV_WIDTH
1002
{
1040
-3.0
1002
}
  0
LINE
  5
9B7B
330
1F
100
AcDbEntity
  8
0
100
AcDbLine
 10
10.717394983659
 20
15.0764962778048
 30
0.0
 11
10.717394983659
 21
15.23556112612236
 31
0.0
1001
ACAD
1000
TCW40_DEV_WIDTH
1002
{
1040
-3.0
1002
}
  0
LINE
  5
9B7C
330
1F
100
AcDbEntity
  8
0
100
AcDbLine
 10
10.61656923365899
 20
15.0764962778048
 30
0.0
 11
10.61656923365899
 21
15.23556112612236
 31
0.0
1001
ACAD
1000
TCW40_DEV_WIDTH
1002
{
1040
-3.0
1002
}
  0
LINE
  5
9B7D
330
1F
100
AcDbEntity
  8
0
100
AcDbLine
 10
10.55607378365899
 20
15.0764962778048
 30
0.0
 11
10.55607378365899
 21
15.23556112612236
 31
0.0
1001
ACAD
1000
TCW40_DEV_WIDTH
1002
{
1040
-3.0
1002
}
  0
LINE
  5
9B7E
330
1F
100
AcDbEntity
  8
0
100
AcDbLine
 10
10.49557833365899
 20
15.0764962778048
 30
0.0
 11
10.49557833365899
 21
15.23556112612236
 31
0.0
1001
ACAD
1000
TCW40_DEV_WIDTH
1002
{
1040
-3.0
1002
}
  0
LINE
  5
9B7F
330
1F
100
AcDbEntity
  8
0
100
AcDbLine
 10
11.42317523365899
 20
13.5641100278048
 30
0.0
 11
11.42317523365899
 21
13.72317487612236
 31
0.0
1001
ACAD
1000
TCW40_DEV_WIDTH
1002
{
1040
-3.0
1002
}
  0
LINE
  5
9B80
330
1F
100
AcDbEntity
  8
0
100
AcDbLine
 10
11.36267978365899
 20
13.5641100278048
 30
0.0
 11
11.36267978365899
 21
13.72317487612236
 31
0.0
1001
ACAD
1000
TCW40_DEV_WIDTH
1002
{
1040
-3.0
1002
}
  0
LINE
  5
9B81
330
1F
100
AcDbEntity
  8
0
100
AcDbLine
 10
11.30218433365899
 20
13.5641100278048
 30
0.0
 11
11.30218433365899
 21
13.72317487612236
 31
0.0
1001
ACAD
1000
TCW40_DEV_WIDTH
1002
{
1040
-3.0
1002
}
  0
LINE
  5
9B82
330
1F
100
AcDbEntity
  8
0
100
AcDbLine
 10
11.24168888365899
 20
13.5641100278048
 30
0.0
 11
11.24168888365899
 21
13.72317487612236
 31
0.0
1001
ACAD
1000
TCW40_DEV_WIDTH
1002
{
1040
-3.0
1002
}
  0
LINE
  5
9B83
330
1F
100
AcDbEntity
  8
0
100
AcDbLine
 10
10.838385883659
 20
13.5641100278048
 30
0.0
 11
10.838385883659
 21
13.72317487612236
 31
0.0
1001
ACAD
1000
TCW40_DEV_WIDTH
1002
{
1040
-3.0
1002
}
  0
LINE
  5
9B84
330
1F
100
AcDbEntity
  8
0
100
AcDbLine
 10
10.77789043365899
 20
13.5641100278048
 30
0.0
 11
10.77789043365899
 21
13.72317487612236
 31
0.0
1001
ACAD
1000
TCW40_DEV_WIDTH
1002
{
1040
-3.0
1002
}
  0
LINE
  5
9B85
330
1F
100
AcDbEntity
  8
0
100
AcDbLine
 10
10.717394983659
 20
13.5641100278048
 30
0.0
 11
10.717394983659
 21
13.72317487612236
 31
0.0
1001
ACAD
1000
TCW40_DEV_WIDTH
1002
{
1040
-3.0
1002
}
  0
LINE
  5
9B86
330
1F
100
AcDbEntity
  8
0
100
AcDbLine
 10
10.61656923365899
 20
13.5641100278048
 30
0.0
 11
10.61656923365899
 21
13.72317487612236
 31
0.0
1001
ACAD
1000
TCW40_DEV_WIDTH
1002
{
1040
-3.0
1002
}
  0
LINE
  5
9B87
330
1F
100
AcDbEntity
  8
0
100
AcDbLine
 10
10.55607378365899
 20
13.5641100278048
 30
0.0
 11
10.55607378365899
 21
13.72317487612236
 31
0.0
1001
ACAD
1000
TCW40_DEV_WIDTH
1002
{
1040
-3.0
1002
}
  0
LINE
  5
9B88
330
1F
100
AcDbEntity
  8
0
100
AcDbLine
 10
10.49557833365899
 20
13.5641100278048
 30
0.0
 11
10.49557833365899
 21
13.72317487612236
 31
0.0
1001
ACAD
1000
TCW40_DEV_WIDTH
1002
{
1040
-3.0
1002
}
  0
LINE
  5
9B89
330
1F
100
AcDbEntity
  8
0
100
AcDbLine
 10
11.42317523365899
 20
13.3120456528048
 30
0.0
 11
11.42317523365899
 21
13.47111050112236
 31
0.0
1001
ACAD
1000
TCW40_DEV_WIDTH
1002
{
1040
-3.0
1002
}
  0
LINE
  5
9B8A
330
1F
100
AcDbEntity
  8
0
100
AcDbLine
 10
11.36267978365899
 20
13.3120456528048
 30
0.0
 11
11.36267978365899
 21
13.47111050112236
 31
0.0
1001
ACAD
1000
TCW40_DEV_WIDTH
1002
{
1040
-3.0
1002
}
  0
LINE
  5
9B8B
330
1F
100
AcDbEntity
  8
0
100
AcDbLine
 10
11.30218433365899
 20
13.3120456528048
 30
0.0
 11
11.30218433365899
 21
13.47111050112236
 31
0.0
1001
ACAD
1000
TCW40_DEV_WIDTH
1002
{
1040
-3.0
1002
}
  0
LINE
  5
9B8C
330
1F
100
AcDbEntity
  8
0
100
AcDbLine
 10
11.24168888365899
 20
13.3120456528048
 30
0.0
 11
11.24168888365899
 21
13.47111050112236
 31
0.0
1001
ACAD
1000
TCW40_DEV_WIDTH
1002
{
1040
-3.0
1002
}
  0
LINE
  5
9B8D
330
1F
100
AcDbEntity
  8
0
100
AcDbLine
 10
10.838385883659
 20
13.3120456528048
 30
0.0
 11
10.838385883659
 21
13.47111050112236
 31
0.0
1001
ACAD
1000
TCW40_DEV_WIDTH
1002
{
1040
-3.0
1002
}
  0
LINE
  5
9B8E
330
1F
100
AcDbEntity
  8
0
100
AcDbLine
 10
10.77789043365899
 20
13.3120456528048
 30
0.0
 11
10.77789043365899
 21
13.47111050112236
 31
0.0
1001
ACAD
1000
TCW40_DEV_WIDTH
1002
{
1040
-3.0
1002
}
  0
LINE
  5
9B8F
330
1F
100
AcDbEntity
  8
0
100
AcDbLine
 10
10.717394983659
 20
13.3120456528048
 30
0.0
 11
10.717394983659
 21
13.47111050112236
 31
0.0
1001
ACAD
1000
TCW40_DEV_WIDTH
1002
{
1040
-3.0
1002
}
  0
LINE
  5
9B90
330
1F
100
AcDbEntity
  8
0
100
AcDbLine
 10
10.61656923365899
 20
13.3120456528048
 30
0.0
 11
10.61656923365899
 21
13.47111050112236
 31
0.0
1001
ACAD
1000
TCW40_DEV_WIDTH
1002
{
1040
-3.0
1002
}
  0
LINE
  5
9B91
330
1F
100
AcDbEntity
  8
0
100
AcDbLine
 10
10.55607378365899
 20
13.3120456528048
 30
0.0
 11
10.55607378365899
 21
13.47111050112236
 31
0.0
1001
ACAD
1000
TCW40_DEV_WIDTH
1002
{
1040
-3.0
1002
}
  0
LINE
  5
9B92
330
1F
100
AcDbEntity
  8
0
100
AcDbLine
 10
10.49557833365899
 20
13.3120456528048
 30
0.0
 11
10.49557833365899
 21
13.47111050112236
 31
0.0
1001
ACAD
1000
TCW40_DEV_WIDTH
1002
{
1040
-3.0
1002
}
  0
LINE
  5
9B93
330
1F
100
AcDbEntity
  8
0
100
AcDbLine
 10
11.42317523365899
 20
13.0599812778048
 30
0.0
 11
11.42317523365899
 21
13.21904612612236
 31
0.0
1001
ACAD
1000
TCW40_DEV_WIDTH
1002
{
1040
-3.0
1002
}
  0
LINE
  5
9B94
330
1F
100
AcDbEntity
  8
0
100
AcDbLine
 10
11.36267978365899
 20
13.0599812778048
 30
0.0
 11
11.36267978365899
 21
13.21904612612236
 31
0.0
1001
ACAD
1000
TCW40_DEV_WIDTH
1002
{
1040
-3.0
1002
}
  0
LINE
  5
9B95
330
1F
100
AcDbEntity
  8
0
100
AcDbLine
 10
11.30218433365899
 20
13.0599812778048
 30
0.0
 11
11.30218433365899
 21
13.21904612612236
 31
0.0
1001
ACAD
1000
TCW40_DEV_WIDTH
1002
{
1040
-3.0
1002
}
  0
LINE
  5
9B96
330
1F
100
AcDbEntity
  8
0
100
AcDbLine
 10
11.24168888365899
 20
13.0599812778048
 30
0.0
 11
11.24168888365899
 21
13.21904612612236
 31
0.0
1001
ACAD
1000
TCW40_DEV_WIDTH
1002
{
1040
-3.0
1002
}
  0
LINE
  5
9B97
330
1F
100
AcDbEntity
  8
0
100
AcDbLine
 10
10.838385883659
 20
13.0599812778048
 30
0.0
 11
10.838385883659
 21
13.21904612612236
 31
0.0
1001
ACAD
1000
TCW40_DEV_WIDTH
1002
{
1040
-3.0
1002
}
  0
LINE
  5
9B98
330
1F
100
AcDbEntity
  8
0
100
AcDbLine
 10
10.77789043365899
 20
13.0599812778048
 30
0.0
 11
10.77789043365899
 21
13.21904612612236
 31
0.0
1001
ACAD
1000
TCW40_DEV_WIDTH
1002
{
1040
-3.0
1002
}
  0
LINE
  5
9B99
330
1F
100
AcDbEntity
  8
0
100
AcDbLine
 10
10.717394983659
 20
13.0599812778048
 30
0.0
 11
10.717394983659
 21
13.21904612612236
 31
0.0
1001
ACAD
1000
TCW40_DEV_WIDTH
1002
{
1040
-3.0
1002
}
  0
LINE
  5
9B9A
330
1F
100
AcDbEntity
  8
0
100
AcDbLine
 10
10.61656923365899
 20
13.0599812778048
 30
0.0
 11
10.61656923365899
 21
13.21904612612236
 31
0.0
1001
ACAD
1000
TCW40_DEV_WIDTH
1002
{
1040
-3.0
1002
}
  0
LINE
  5
9B9B
330
1F
100
AcDbEntity
  8
0
100
AcDbLine
 10
10.55607378365899
 20
13.0599812778048
 30
0.0
 11
10.55607378365899
 21
13.21904612612236
 31
0.0
1001
ACAD
1000
TCW40_DEV_WIDTH
1002
{
1040
-3.0
1002
}
  0
LINE
  5
9B9C
330
1F
100
AcDbEntity
  8
0
100
AcDbLine
 10
10.49557833365899
 20
13.0599812778048
 30
0.0
 11
10.49557833365899
 21
13.21904612612236
 31
0.0
1001
ACAD
1000
TCW40_DEV_WIDTH
1002
{
1040
-3.0
1002
}
  0
LINE
  5
9B9D
330
1F
100
AcDbEntity
  8
0
100
AcDbLine
 10
10.29392683365899
 20
15.58062502780479
 30
0.0
 11
10.29392683365899
 21
15.73968987612236
 31
0.0
1001
ACAD
1000
TCW40_DEV_WIDTH
1002
{
1040
-3.0
1002
}
  0
LINE
  5
9B9E
330
1F
100
AcDbEntity
  8
0
100
AcDbLine
 10
11.70548733365899
 20
15.58062502780479
 30
0.0
 11
11.70548733365899
 21
15.73968987612236
 31
0.0
1001
ACAD
1000
TCW40_DEV_WIDTH
1002
{
1040
-3.0
1002
}
  0
LINE
  5
9B9F
330
1F
100
AcDbEntity
  8
0
100
AcDbLine
 10
10.29392683365899
 20
15.3285606528048
 30
0.0
 11
10.29392683365899
 21
15.48762550112235
 31
0.0
1001
ACAD
1000
TCW40_DEV_WIDTH
1002
{
1040
-3.0
1002
}
  0
LINE
  5
9BA0
330
1F
100
AcDbEntity
  8
0
100
AcDbLine
 10
11.70548733365899
 20
15.3285606528048
 30
0.0
 11
11.70548733365899
 21
15.48762550112235
 31
0.0
1001
ACAD
1000
TCW40_DEV_WIDTH
1002
{
1040
-3.0
1002
}
  0
LINE
  5
9BA1
330
1F
100
AcDbEntity
  8
0
100
AcDbLine
 10
10.29392683365899
 20
15.0764962778048
 30
0.0
 11
10.29392683365899
 21
15.23556112612236
 31
0.0
1001
ACAD
1000
TCW40_DEV_WIDTH
1002
{
1040
-3.0
1002
}
  0
LINE
  5
9BA2
330
1F
100
AcDbEntity
  8
0
100
AcDbLine
 10
11.70548733365899
 20
15.0764962778048
 30
0.0
 11
11.70548733365899
 21
15.23556112612236
 31
0.0
1001
ACAD
1000
TCW40_DEV_WIDTH
1002
{
1040
-3.0
1002
}
  0
LINE
  5
9BA3
330
1F
100
AcDbEntity
  8
0
100
AcDbLine
 10
10.29392683365899
 20
13.5641100278048
 30
0.0
 11
10.29392683365899
 21
13.72317487612236
 31
0.0
1001
ACAD
1000
TCW40_DEV_WIDTH
1002
{
1040
-3.0
1002
}
  0
LINE
  5
9BA4
330
1F
100
AcDbEntity
  8
0
100
AcDbLine
 10
11.70548733365899
 20
13.5641100278048
 30
0.0
 11
11.70548733365899
 21
13.72317487612236
 31
0.0
1001
ACAD
1000
TCW40_DEV_WIDTH
1002
{
1040
-3.0
1002
}
  0
LINE
  5
9BA5
330
1F
100
AcDbEntity
  8
0
100
AcDbLine
 10
10.29392683365899
 20
13.3120456528048
 30
0.0
 11
10.29392683365899
 21
13.47111050112236
 31
0.0
1001
ACAD
1000
TCW40_DEV_WIDTH
1002
{
1040
-3.0
1002
}
  0
LINE
  5
9BA6
330
1F
100
AcDbEntity
  8
0
100
AcDbLine
 10
11.70548733365899
 20
13.3120456528048
 30
0.0
 11
11.70548733365899
 21
13.47111050112236
 31
0.0
1001
ACAD
1000
TCW40_DEV_WIDTH
1002
{
1040
-3.0
1002
}
  0
LINE
  5
9BA7
330
1F
100
AcDbEntity
  8
0
100
AcDbLine
 10
10.29392683365899
 20
13.0599812778048
 30
0.0
 11
10.29392683365899
 21
13.21904612612236
 31
0.0
1001
ACAD
1000
TCW40_DEV_WIDTH
1002
{
1040
-3.0
1002
}
  0
LINE
  5
9BA8
330
1F
100
AcDbEntity
  8
0
100
AcDbLine
 10
11.70548733365899
 20
13.0599812778048
 30
0.0
 11
11.70548733365899
 21
13.21904612612236
 31
0.0
1001
ACAD
1000
TCW40_DEV_WIDTH
1002
{
1040
-3.0
1002
}
  0
LINE
  5
9BA9
330
1F
100
AcDbEntity
  8
0
100
AcDbLine
 10
10.29392683365899
 20
12.80791690280479
 30
0.0
 11
10.29392683365899
 21
12.96698175112236
 31
0.0
1001
ACAD
1000
TCW40_DEV_WIDTH
1002
{
1040
-3.0
1002
}
  0
LINE
  5
9BAA
330
1F
100
AcDbEntity
  8
0
100
AcDbLine
 10
11.70548733365899
 20
12.80791690280479
 30
0.0
 11
11.70548733365899
 21
12.96698175112236
 31
0.0
1001
ACAD
1000
TCW40_DEV_WIDTH
1002
{
1040
-3.0
1002
}
  0
LINE
  5
9BAB
330
1F
100
AcDbEntity
  8
0
100
AcDbLine
 10
10.29392683365899
 20
12.55516421210185
 30
0.0
 11
10.29392683365899
 21
12.71422906041941
 31
0.0
1001
ACAD
1000
TCW40_DEV_WIDTH
1002
{
1040
-3.0
1002
}
  0
LINE
  5
9BAC
330
1F
100
AcDbEntity
  8
0
100
AcDbLine
 10
11.70548733365899
 20
12.55516421210185
 30
0.0
 11
11.70548733365899
 21
12.71422906041941
 31
0.0
1001
ACAD
1000
TCW40_DEV_WIDTH
1002
{
1040
-3.0
1002
}
  0
LINE
  5
9BAD
330
1F
100
AcDbEntity
  8
0
100
AcDbLine
 10
10.29392683365899
 20
12.30330186887653
 30
0.0
 11
10.29392683365899
 21
12.46236671719409
 31
0.0
1001
ACAD
1000
TCW40_DEV_WIDTH
1002
{
1040
-3.0
1002
}
  0
LINE
  5
9BAE
330
1F
100
AcDbEntity
  8
0
100
AcDbLine
 10
11.70548733365899
 20
12.30330186887653
 30
0.0
 11
11.70548733365899
 21
12.46236671719409
 31
0.0
1001
ACAD
1000
TCW40_DEV_WIDTH
1002
{
1040
-3.0
1002
}
  0
LINE
  5
9BAF
330
1F
100
AcDbEntity
  8
0
100
AcDbLine
 10
10.17293593365899
 20
12.14423702055897
 30
0.0
 11
10.17293593365899
 21
12.30330186887653
 31
0.0
1001
ACAD
1000
TCW40_DEV_WIDTH
1002
{
1040
-3.0
1002
}
  0
LINE
  5
9BB0
330
1F
100
AcDbEntity
  8
0
100
AcDbLine
 10
10.29392683365899
 20
11.7996594027956
 30
0.0
 11
10.29392683365899
 21
11.95872425111316
 31
0.0
1001
ACAD
1000
TCW40_DEV_WIDTH
1002
{
1040
-3.0
1002
}
  0
LINE
  5
9BB1
330
1F
100
AcDbEntity
  8
0
100
AcDbLine
 10
11.70548733365899
 20
11.7996594027956
 30
0.0
 11
11.70548733365899
 21
11.95872425111316
 31
0.0
1001
ACAD
1000
TCW40_DEV_WIDTH
1002
{
1040
-3.0
1002
}
  0
LINE
  5
9BB2
330
1F
100
AcDbEntity
  8
0
100
AcDbLine
 10
10.29392683365899
 20
12.0513703326212
 30
0.0
 11
10.29392683365899
 21
12.21043518093877
 31
0.0
1001
ACAD
1000
TCW40_DEV_WIDTH
1002
{
1040
-3.0
1002
}
  0
LINE
  5
9BB3
330
1F
100
AcDbEntity
  8
0
100
AcDbLine
 10
11.70548733365899
 20
12.0513703326212
 30
0.0
 11
11.70548733365899
 21
12.21043518093877
 31
0.0
1001
ACAD
1000
TCW40_DEV_WIDTH
1002
{
1040
-3.0
1002
}
  0
LINE
  5
9BB4
330
1F
100
AcDbEntity
  8
0
100
AcDbLine
 10
10.95937678365899
 20
11.79856026726434
 30
0.0
 11
10.95937678365899
 21
11.95872425111316
 31
0.0
1001
ACAD
1000
TCW40_DEV_WIDTH
1002
{
1040
-3.0
1002
}
  0
LINE
  5
9BB5
330
1F
100
AcDbEntity
  8
0
100
AcDbLine
 10
10.95937678365899
 20
12.05061416912341
 30
0.0
 11
10.95937678365899
 21
12.21043518093877
 31
0.0
1001
ACAD
1000
TCW40_DEV_WIDTH
1002
{
1040
-3.0
1002
}
  0
LINE
  5
9BB6
330
1F
100
AcDbEntity
  8
0
100
AcDbLine
 10
10.95937678365899
 20
12.30268994862844
 30
0.0
 11
10.95937678365899
 21
12.46236671719409
 31
0.0
1001
ACAD
1000
TCW40_DEV_WIDTH
1002
{
1040
-3.0
1002
}
  0
LINE
  5
9BB7
330
1F
100
AcDbEntity
  8
0
100
AcDbLine
 10
10.95937678365899
 20
12.55473580672454
 30
0.0
 11
10.95937678365899
 21
12.71422906041941
 31
0.0
1001
ACAD
1000
TCW40_DEV_WIDTH
1002
{
1040
-3.0
1002
}
  0
LINE
  5
9BB8
330
1F
100
AcDbEntity
  8
0
100
AcDbLine
 10
10.95937678365899
 20
12.80803731303331
 30
0.0
 11
10.95937678365899
 21
12.96698175112236
 31
0.0
1001
ACAD
1000
TCW40_DEV_WIDTH
1002
{
1040
-3.0
1002
}
  0
LINE
  5
9BB9
330
1F
100
AcDbEntity
  8
0
100
AcDbLine
 10
11.040037383659
 20
11.79856026726434
 30
0.0
 11
11.040037383659
 21
11.95872425111316
 31
0.0
1001
ACAD
1000
TCW40_DEV_WIDTH
1002
{
1040
-3.0
1002
}
  0
LINE
  5
9BBA
330
1F
100
AcDbEntity
  8
0
100
AcDbLine
 10
11.040037383659
 20
12.05061416912341
 30
0.0
 11
11.040037383659
 21
12.21043518093877
 31
0.0
1001
ACAD
1000
TCW40_DEV_WIDTH
1002
{
1040
-3.0
1002
}
  0
LINE
  5
9BBB
330
1F
100
AcDbEntity
  8
0
100
AcDbLine
 10
11.040037383659
 20
12.30268994862844
 30
0.0
 11
11.040037383659
 21
12.46236671719409
 31
0.0
1001
ACAD
1000
TCW40_DEV_WIDTH
1002
{
1040
-3.0
1002
}
  0
LINE
  5
9BBC
330
1F
100
AcDbEntity
  8
0
100
AcDbLine
 10
11.040037383659
 20
12.55473580672454
 30
0.0
 11
11.040037383659
 21
12.71422906041941
 31
0.0
1001
ACAD
1000
TCW40_DEV_WIDTH
1002
{
1040
-3.0
1002
}
  0
LINE
  5
9BBD
330
1F
100
AcDbEntity
  8
0
100
AcDbLine
 10
11.040037383659
 20
12.80803731303331
 30
0.0
 11
11.040037383659
 21
12.96698175112236
 31
0.0
1001
ACAD
1000
TCW40_DEV_WIDTH
1002
{
1040
-3.0
1002
}
  0
LINE
  5
9BBE
330
1F
100
AcDbEntity
  8
0
100
AcDbLine
 10
10.717394983659
 20
13.0599812778048
 30
0.0
 11
10.717394983659
 21
13.05885310196358
 31
0.0
1001
ACAD
1000
TCW40_DEV_WIDTH
1002
{
1040
-3.0
1002
}
  0
LINE
  5
9BBF
330
1F
100
AcDbEntity
  8
0
100
AcDbLine
 10
10.717394983659
 20
12.96698175112236
 30
0.0
 11
10.717394983659
 21
12.80803731303331
 31
0.0
1001
ACAD
1000
TCW40_DEV_WIDTH
1002
{
1040
-3.0
1002
}
  0
LINE
  5
9BC0
330
1F
100
AcDbEntity
  8
0
100
AcDbLine
 10
10.717394983659
 20
12.71422906041941
 30
0.0
 11
10.717394983659
 21
12.55473580672454
 31
0.0
1001
ACAD
1000
TCW40_DEV_WIDTH
1002
{
1040
-3.0
1002
}
  0
LINE
  5
9BC1
330
1F
100
AcDbEntity
  8
0
100
AcDbLine
 10
10.717394983659
 20
12.46236671719409
 30
0.0
 11
10.717394983659
 21
12.30268994862844
 31
0.0
1001
ACAD
1000
TCW40_DEV_WIDTH
1002
{
1040
-3.0
1002
}
  0
LINE
  5
9BC2
330
1F
100
AcDbEntity
  8
0
100
AcDbLine
 10
10.717394983659
 20
12.21043518093877
 30
0.0
 11
10.717394983659
 21
12.05061416912341
 31
0.0
1001
ACAD
1000
TCW40_DEV_WIDTH
1002
{
1040
-3.0
1002
}
  0
LINE
  5
9BC3
330
1F
100
AcDbEntity
  8
0
100
AcDbLine
 10
10.717394983659
 20
11.95872425111316
 30
0.0
 11
10.717394983659
 21
11.79856026726434
 31
0.0
1001
ACAD
1000
TCW40_DEV_WIDTH
1002
{
1040
-3.0
1002
}
  0
LINE
  5
9BC4
330
1F
100
AcDbEntity
  8
0
100
AcDbLine
 10
10.77789043365899
 20
11.79856026726434
 30
0.0
 11
10.77789043365899
 21
11.95872425111316
 31
0.0
1001
ACAD
1000
TCW40_DEV_WIDTH
1002
{
1040
-3.0
1002
}
  0
LINE
  5
9BC5
330
1F
100
AcDbEntity
  8
0
100
AcDbLine
 10
10.77789043365899
 20
12.05061416912341
 30
0.0
 11
10.77789043365899
 21
12.21043518093877
 31
0.0
1001
ACAD
1000
TCW40_DEV_WIDTH
1002
{
1040
-3.0
1002
}
  0
LINE
  5
9BC6
330
1F
100
AcDbEntity
  8
0
100
AcDbLine
 10
10.77789043365899
 20
12.30268994862844
 30
0.0
 11
10.77789043365899
 21
12.46236671719409
 31
0.0
1001
ACAD
1000
TCW40_DEV_WIDTH
1002
{
1040
-3.0
1002
}
  0
LINE
  5
9BC7
330
1F
100
AcDbEntity
  8
0
100
AcDbLine
 10
10.77789043365899
 20
12.55473580672454
 30
0.0
 11
10.77789043365899
 21
12.71422906041941
 31
0.0
1001
ACAD
1000
TCW40_DEV_WIDTH
1002
{
1040
-3.0
1002
}
  0
LINE
  5
9BC8
330
1F
100
AcDbEntity
  8
0
100
AcDbLine
 10
10.77789043365899
 20
12.80803731303331
 30
0.0
 11
10.77789043365899
 21
12.96698175112236
 31
0.0
1001
ACAD
1000
TCW40_DEV_WIDTH
1002
{
1040
-3.0
1002
}
  0
LINE
  5
9BC9
330
1F
100
AcDbEntity
  8
0
100
AcDbLine
 10
10.77789043365899
 20
13.05885310196358
 30
0.0
 11
10.77789043365899
 21
13.0599812778048
 31
0.0
1001
ACAD
1000
TCW40_DEV_WIDTH
1002
{
1040
-3.0
1002
}
  0
LINE
  5
9BCA
330
1F
100
AcDbEntity
  8
0
100
AcDbLine
 10
11.30218433365899
 20
12.96810992696358
 30
0.0
 11
11.30218433365899
 21
12.80916548887454
 31
0.0
1001
ACAD
1000
TCW40_DEV_WIDTH
1002
{
1040
-3.0
1002
}
  0
LINE
  5
9BCB
330
1F
100
AcDbEntity
  8
0
100
AcDbLine
 10
11.30218433365899
 20
12.71535723626063
 30
0.0
 11
11.30218433365899
 21
12.55586398256576
 31
0.0
1001
ACAD
1000
TCW40_DEV_WIDTH
1002
{
1040
-3.0
1002
}
  0
LINE
  5
9BCC
330
1F
100
AcDbEntity
  8
0
100
AcDbLine
 10
11.30218433365899
 20
12.46349489303531
 30
0.0
 11
11.30218433365899
 21
12.30381812446967
 31
0.0
1001
ACAD
1000
TCW40_DEV_WIDTH
1002
{
1040
-3.0
1002
}
  0
LINE
  5
9BCD
330
1F
100
AcDbEntity
  8
0
100
AcDbLine
 10
11.30218433365899
 20
12.21156335677999
 30
0.0
 11
11.30218433365899
 21
12.05174234496464
 31
0.0
1001
ACAD
1000
TCW40_DEV_WIDTH
1002
{
1040
-3.0
1002
}
  0
LINE
  5
9BCE
330
1F
100
AcDbEntity
  8
0
100
AcDbLine
 10
11.30218433365899
 20
11.95985242695438
 30
0.0
 11
11.30218433365899
 21
11.79968844310556
 31
0.0
1001
ACAD
1000
TCW40_DEV_WIDTH
1002
{
1040
-3.0
1002
}
  0
LINE
  5
9BCF
330
1F
100
AcDbEntity
  8
0
100
AcDbLine
 10
11.36267978365899
 20
11.79968844310556
 30
0.0
 11
11.36267978365899
 21
11.95985242695438
 31
0.0
1001
ACAD
1000
TCW40_DEV_WIDTH
1002
{
1040
-3.0
1002
}
  0
LINE
  5
9BD0
330
1F
100
AcDbEntity
  8
0
100
AcDbLine
 10
11.36267978365899
 20
12.05174234496464
 30
0.0
 11
11.36267978365899
 21
12.21156335677999
 31
0.0
1001
ACAD
1000
TCW40_DEV_WIDTH
1002
{
1040
-3.0
1002
}
  0
LINE
  5
9BD1
330
1F
100
AcDbEntity
  8
0
100
AcDbLine
 10
11.36267978365899
 20
12.30381812446967
 30
0.0
 11
11.36267978365899
 21
12.46349489303531
 31
0.0
1001
ACAD
1000
TCW40_DEV_WIDTH
1002
{
1040
-3.0
1002
}
  0
LINE
  5
9BD2
330
1F
100
AcDbEntity
  8
0
100
AcDbLine
 10
11.36267978365899
 20
12.55586398256576
 30
0.0
 11
11.36267978365899
 21
12.71535723626063
 31
0.0
1001
ACAD
1000
TCW40_DEV_WIDTH
1002
{
1040
-3.0
1002
}
  0
LINE
  5
9BD3
330
1F
100
AcDbEntity
  8
0
100
AcDbLine
 10
11.36267978365899
 20
12.80916548887454
 30
0.0
 11
11.36267978365899
 21
12.96810992696358
 31
0.0
1001
ACAD
1000
TCW40_DEV_WIDTH
1002
{
1040
-3.0
1002
}
  0
LWPOLYLINE
  5
9BD4
330
1F
100
AcDbEntity
  8
0
100
AcDbPolyline
 90
        5
 70
     0
 43
0.0
 10
10.717394983659
 20
13.97411107528114
 10
10.717394983659
 20
13.81504622696358
 10
10.77789043365899
 20
13.81504622696358
 10
10.77789043365899
 20
13.97411107528114
 10
10.717394983659
 20
13.97411107528114
1001
ACAD
1000
TCW40_DEV_WIDTH
1002
{
1040
-3.0
1002
}
  0
LWPOLYLINE
  5
9BD5
330
1F
100
AcDbEntity
  8
0
100
AcDbPolyline
 90
        5
 70
     0
 43
0.0
 10
11.30218433365899
 20
13.97411107528114
 10
11.30218433365899
 20
13.81504622696358
 10
11.36267978365899
 20
13.81504622696358
 10
11.36267978365899
 20
13.97411107528114
 10
11.30218433365899
 20
13.97411107528114
1001
ACAD
1000
TCW40_DEV_WIDTH
1002
{
1040
-3.0
1002
}
  0
LINE
  5
9BD6
330
1F
100
AcDbEntity
  8
0
100
AcDbLine
 10
11.82647823365899
 20
13.81391805112236
 30
0.0
 11
10.17293593365899
 21
13.81391805112236
 31
0.0
1001
ACAD
1000
TCW40_DEV_WIDTH
1002
{
1040
-3.0
1002
}
  0
LINE
  5
9BD7
330
1F
100
AcDbEntity
  8
0
100
AcDbLine
 10
11.82647823365899
 20
13.97411107528114
 30
0.0
 11
10.17293593365899
 21
13.97411107528114
 31
0.0
1001
ACAD
1000
TCW40_DEV_WIDTH
1002
{
1040
-3.0
1002
}
  0
LINE
  5
9BD8
330
1F
100
AcDbEntity
  8
0
100
AcDbLine
 10
11.42317523365899
 20
13.81504622696358
 30
0.0
 11
11.42317523365899
 21
13.97411107528114
 31
0.0
1001
ACAD
1000
TCW40_DEV_WIDTH
1002
{
1040
-3.0
1002
}
  0
LINE
  5
9BD9
330
1F
100
AcDbEntity
  8
0
100
AcDbLine
 10
11.36267978365899
 20
13.81504622696358
 30
0.0
 11
11.36267978365899
 21
13.97411107528114
 31
0.0
1001
ACAD
1000
TCW40_DEV_WIDTH
1002
{
1040
-3.0
1002
}
  0
LINE
  5
9BDA
330
1F
100
AcDbEntity
  8
0
100
AcDbLine
 10
11.30218433365899
 20
13.81504622696358
 30
0.0
 11
11.30218433365899
 21
13.97411107528114
 31
0.0
1001
ACAD
1000
TCW40_DEV_WIDTH
1002
{
1040
-3.0
1002
}
  0
LINE
  5
9BDB
330
1F
100
AcDbEntity
  8
0
100
AcDbLine
 10
11.24168888365899
 20
13.81504622696358
 30
0.0
 11
11.24168888365899
 21
13.97411107528114
 31
0.0
1001
ACAD
1000
TCW40_DEV_WIDTH
1002
{
1040
-3.0
1002
}
  0
LINE
  5
9BDC
330
1F
100
AcDbEntity
  8
0
100
AcDbLine
 10
10.838385883659
 20
13.81504622696358
 30
0.0
 11
10.838385883659
 21
13.97411107528114
 31
0.0
1001
ACAD
1000
TCW40_DEV_WIDTH
1002
{
1040
-3.0
1002
}
  0
LINE
  5
9BDD
330
1F
100
AcDbEntity
  8
0
100
AcDbLine
 10
10.77789043365899
 20
13.81504622696358
 30
0.0
 11
10.77789043365899
 21
13.97411107528114
 31
0.0
1001
ACAD
1000
TCW40_DEV_WIDTH
1002
{
1040
-3.0
1002
}
  0
LINE
  5
9BDE
330
1F
100
AcDbEntity
  8
0
100
AcDbLine
 10
10.717394983659
 20
13.81504622696358
 30
0.0
 11
10.717394983659
 21
13.97411107528114
 31
0.0
1001
ACAD
1000
TCW40_DEV_WIDTH
1002
{
1040
-3.0
1002
}
  0
LINE
  5
9BDF
330
1F
100
AcDbEntity
  8
0
100
AcDbLine
 10
10.61656923365899
 20
13.81504622696358
 30
0.0
 11
10.61656923365899
 21
13.97411107528114
 31
0.0
1001
ACAD
1000
TCW40_DEV_WIDTH
1002
{
1040
-3.0
1002
}
  0
LINE
  5
9BE0
330
1F
100
AcDbEntity
  8
0
100
AcDbLine
 10
10.55607378365899
 20
13.81504622696358
 30
0.0
 11
10.55607378365899
 21
13.97411107528114
 31
0.0
1001
ACAD
1000
TCW40_DEV_WIDTH
1002
{
1040
-3.0
1002
}
  0
LINE
  5
9BE1
330
1F
100
AcDbEntity
  8
0
100
AcDbLine
 10
10.49557833365899
 20
13.81504622696358
 30
0.0
 11
10.49557833365899
 21
13.97411107528114
 31
0.0
1001
ACAD
1000
TCW40_DEV_WIDTH
1002
{
1040
-3.0
1002
}
  0
LINE
  5
9BE2
330
1F
100
AcDbEntity
  8
0
100
AcDbLine
 10
10.29392683365899
 20
13.81504622696358
 30
0.0
 11
10.29392683365899
 21
13.97411107528114
 31
0.0
1001
ACAD
1000
TCW40_DEV_WIDTH
1002
{
1040
-3.0
1002
}
  0
LINE
  5
9BE3
330
1F
100
AcDbEntity
  8
0
100
AcDbLine
 10
11.70548733365899
 20
13.81504622696358
 30
0.0
 11
11.70548733365899
 21
13.97411107528114
 31
0.0
1001
ACAD
1000
TCW40_DEV_WIDTH
1002
{
1040
-3.0
1002
}
  0
LWPOLYLINE
  5
9BE4
330
1F
100
AcDbEntity
  8
0
100
AcDbPolyline
 90
        5
 70
     0
 43
0.0
 10
10.717394983659
 20
14.22504727443992
 10
10.717394983659
 20
14.06598242612236
 10
10.77789043365899
 20
14.06598242612236
 10
10.77789043365899
 20
14.22504727443992
 10
10.717394983659
 20
14.22504727443992
1001
ACAD
1000
TCW40_DEV_WIDTH
1002
{
1040
-3.0
1002
}
  0
LWPOLYLINE
  5
9BE5
330
1F
100
AcDbEntity
  8
0
100
AcDbPolyline
 90
        5
 70
     0
 43
0.0
 10
11.30218433365899
 20
14.22504727443992
 10
11.30218433365899
 20
14.06598242612236
 10
11.36267978365899
 20
14.06598242612236
 10
11.36267978365899
 20
14.22504727443992
 10
11.30218433365899
 20
14.22504727443992
1001
ACAD
1000
TCW40_DEV_WIDTH
1002
{
1040
-3.0
1002
}
  0
LINE
  5
9BE6
330
1F
100
AcDbEntity
  8
0
100
AcDbLine
 10
11.82647823365899
 20
14.06485425028114
 30
0.0
 11
10.17293593365899
 21
14.06485425028114
 31
0.0
1001
ACAD
1000
TCW40_DEV_WIDTH
1002
{
1040
-3.0
1002
}
  0
LINE
  5
9BE7
330
1F
100
AcDbEntity
  8
0
100
AcDbLine
 10
11.82647823365899
 20
14.22504727443992
 30
0.0
 11
10.17293593365899
 21
14.22504727443992
 31
0.0
1001
ACAD
1000
TCW40_DEV_WIDTH
1002
{
1040
-3.0
1002
}
  0
LINE
  5
9BE8
330
1F
100
AcDbEntity
  8
0
100
AcDbLine
 10
11.42317523365899
 20
14.06598242612236
 30
0.0
 11
11.42317523365899
 21
14.22504727443992
 31
0.0
1001
ACAD
1000
TCW40_DEV_WIDTH
1002
{
1040
-3.0
1002
}
  0
LINE
  5
9BE9
330
1F
100
AcDbEntity
  8
0
100
AcDbLine
 10
11.36267978365899
 20
14.06598242612236
 30
0.0
 11
11.36267978365899
 21
14.22504727443992
 31
0.0
1001
ACAD
1000
TCW40_DEV_WIDTH
1002
{
1040
-3.0
1002
}
  0
LINE
  5
9BEA
330
1F
100
AcDbEntity
  8
0
100
AcDbLine
 10
11.30218433365899
 20
14.06598242612236
 30
0.0
 11
11.30218433365899
 21
14.22504727443992
 31
0.0
1001
ACAD
1000
TCW40_DEV_WIDTH
1002
{
1040
-3.0
1002
}
  0
LINE
  5
9BEB
330
1F
100
AcDbEntity
  8
0
100
AcDbLine
 10
11.24168888365899
 20
14.06598242612236
 30
0.0
 11
11.24168888365899
 21
14.22504727443992
 31
0.0
1001
ACAD
1000
TCW40_DEV_WIDTH
1002
{
1040
-3.0
1002
}
  0
LINE
  5
9BEC
330
1F
100
AcDbEntity
  8
0
100
AcDbLine
 10
10.838385883659
 20
14.06598242612236
 30
0.0
 11
10.838385883659
 21
14.22504727443992
 31
0.0
1001
ACAD
1000
TCW40_DEV_WIDTH
1002
{
1040
-3.0
1002
}
  0
LINE
  5
9BED
330
1F
100
AcDbEntity
  8
0
100
AcDbLine
 10
10.77789043365899
 20
14.06598242612236
 30
0.0
 11
10.77789043365899
 21
14.22504727443992
 31
0.0
1001
ACAD
1000
TCW40_DEV_WIDTH
1002
{
1040
-3.0
1002
}
  0
LINE
  5
9BEE
330
1F
100
AcDbEntity
  8
0
100
AcDbLine
 10
10.717394983659
 20
14.06598242612236
 30
0.0
 11
10.717394983659
 21
14.22504727443992
 31
0.0
1001
ACAD
1000
TCW40_DEV_WIDTH
1002
{
1040
-3.0
1002
}
  0
LINE
  5
9BEF
330
1F
100
AcDbEntity
  8
0
100
AcDbLine
 10
10.61656923365899
 20
14.06598242612236
 30
0.0
 11
10.61656923365899
 21
14.22504727443992
 31
0.0
1001
ACAD
1000
TCW40_DEV_WIDTH
1002
{
1040
-3.0
1002
}
  0
LINE
  5
9BF0
330
1F
100
AcDbEntity
  8
0
100
AcDbLine
 10
10.55607378365899
 20
14.06598242612236
 30
0.0
 11
10.55607378365899
 21
14.22504727443992
 31
0.0
1001
ACAD
1000
TCW40_DEV_WIDTH
1002
{
1040
-3.0
1002
}
  0
LINE
  5
9BF1
330
1F
100
AcDbEntity
  8
0
100
AcDbLine
 10
10.49557833365899
 20
14.06598242612236
 30
0.0
 11
10.49557833365899
 21
14.22504727443992
 31
0.0
1001
ACAD
1000
TCW40_DEV_WIDTH
1002
{
1040
-3.0
1002
}
  0
LINE
  5
9BF2
330
1F
100
AcDbEntity
  8
0
100
AcDbLine
 10
10.29392683365899
 20
14.06598242612236
 30
0.0
 11
10.29392683365899
 21
14.22504727443992
 31
0.0
1001
ACAD
1000
TCW40_DEV_WIDTH
1002
{
1040
-3.0
1002
}
  0
LINE
  5
9BF3
330
1F
100
AcDbEntity
  8
0
100
AcDbLine
 10
11.70548733365899
 20
14.06598242612236
 30
0.0
 11
11.70548733365899
 21
14.22504727443992
 31
0.0
1001
ACAD
1000
TCW40_DEV_WIDTH
1002
{
1040
-3.0
1002
}
  0
LWPOLYLINE
  5
9BF4
330
1F
100
AcDbEntity
  8
0
100
AcDbPolyline
 90
        5
 70
     0
 43
0.0
 10
10.717394983659
 20
14.4759834735987
 10
10.717394983659
 20
14.31691862528113
 10
10.77789043365899
 20
14.31691862528113
 10
10.77789043365899
 20
14.4759834735987
 10
10.717394983659
 20
14.4759834735987
1001
ACAD
1000
TCW40_DEV_WIDTH
1002
{
1040
-3.0
1002
}
  0
LWPOLYLINE
  5
9BF5
330
1F
100
AcDbEntity
  8
0
100
AcDbPolyline
 90
        5
 70
     0
 43
0.0
 10
11.30218433365899
 20
14.4759834735987
 10
11.30218433365899
 20
14.31691862528113
 10
11.36267978365899
 20
14.31691862528113
 10
11.36267978365899
 20
14.4759834735987
 10
11.30218433365899
 20
14.4759834735987
1001
ACAD
1000
TCW40_DEV_WIDTH
1002
{
1040
-3.0
1002
}
  0
LINE
  5
9BF6
330
1F
100
AcDbEntity
  8
0
100
AcDbLine
 10
11.82647823365899
 20
14.31579044943992
 30
0.0
 11
10.17293593365899
 21
14.31579044943992
 31
0.0
1001
ACAD
1000
TCW40_DEV_WIDTH
1002
{
1040
-3.0
1002
}
  0
LINE
  5
9BF7
330
1F
100
AcDbEntity
  8
0
100
AcDbLine
 10
11.82647823365899
 20
14.4759834735987
 30
0.0
 11
10.17293593365899
 21
14.4759834735987
 31
0.0
1001
ACAD
1000
TCW40_DEV_WIDTH
1002
{
1040
-3.0
1002
}
  0
LINE
  5
9BF8
330
1F
100
AcDbEntity
  8
0
100
AcDbLine
 10
11.42317523365899
 20
14.31691862528113
 30
0.0
 11
11.42317523365899
 21
14.4759834735987
 31
0.0
1001
ACAD
1000
TCW40_DEV_WIDTH
1002
{
1040
-3.0
1002
}
  0
LINE
  5
9BF9
330
1F
100
AcDbEntity
  8
0
100
AcDbLine
 10
11.36267978365899
 20
14.31691862528113
 30
0.0
 11
11.36267978365899
 21
14.4759834735987
 31
0.0
1001
ACAD
1000
TCW40_DEV_WIDTH
1002
{
1040
-3.0
1002
}
  0
LINE
  5
9BFA
330
1F
100
AcDbEntity
  8
0
100
AcDbLine
 10
11.30218433365899
 20
14.31691862528113
 30
0.0
 11
11.30218433365899
 21
14.4759834735987
 31
0.0
1001
ACAD
1000
TCW40_DEV_WIDTH
1002
{
1040
-3.0
1002
}
  0
LINE
  5
9BFB
330
1F
100
AcDbEntity
  8
0
100
AcDbLine
 10
11.24168888365899
 20
14.31691862528113
 30
0.0
 11
11.24168888365899
 21
14.4759834735987
 31
0.0
1001
ACAD
1000
TCW40_DEV_WIDTH
1002
{
1040
-3.0
1002
}
  0
LINE
  5
9BFC
330
1F
100
AcDbEntity
  8
0
100
AcDbLine
 10
10.838385883659
 20
14.31691862528113
 30
0.0
 11
10.838385883659
 21
14.4759834735987
 31
0.0
1001
ACAD
1000
TCW40_DEV_WIDTH
1002
{
1040
-3.0
1002
}
  0
LINE
  5
9BFD
330
1F
100
AcDbEntity
  8
0
100
AcDbLine
 10
10.77789043365899
 20
14.31691862528113
 30
0.0
 11
10.77789043365899
 21
14.4759834735987
 31
0.0
1001
ACAD
1000
TCW40_DEV_WIDTH
1002
{
1040
-3.0
1002
}
  0
LINE
  5
9BFE
330
1F
100
AcDbEntity
  8
0
100
AcDbLine
 10
10.717394983659
 20
14.31691862528113
 30
0.0
 11
10.717394983659
 21
14.4759834735987
 31
0.0
1001
ACAD
1000
TCW40_DEV_WIDTH
1002
{
1040
-3.0
1002
}
  0
LINE
  5
9BFF
330
1F
100
AcDbEntity
  8
0
100
AcDbLine
 10
10.61656923365899
 20
14.31691862528113
 30
0.0
 11
10.61656923365899
 21
14.4759834735987
 31
0.0
1001
ACAD
1000
TCW40_DEV_WIDTH
1002
{
1040
-3.0
1002
}
  0
LINE
  5
9C00
330
1F
100
AcDbEntity
  8
0
100
AcDbLine
 10
10.55607378365899
 20
14.31691862528113
 30
0.0
 11
10.55607378365899
 21
14.4759834735987
 31
0.0
1001
ACAD
1000
TCW40_DEV_WIDTH
1002
{
1040
-3.0
1002
}
  0
LINE
  5
9C01
330
1F
100
AcDbEntity
  8
0
100
AcDbLine
 10
10.49557833365899
 20
14.31691862528113
 30
0.0
 11
10.49557833365899
 21
14.4759834735987
 31
0.0
1001
ACAD
1000
TCW40_DEV_WIDTH
1002
{
1040
-3.0
1002
}
  0
LINE
  5
9C02
330
1F
100
AcDbEntity
  8
0
100
AcDbLine
 10
10.29392683365899
 20
14.31691862528113
 30
0.0
 11
10.29392683365899
 21
14.4759834735987
 31
0.0
1001
ACAD
1000
TCW40_DEV_WIDTH
1002
{
1040
-3.0
1002
}
  0
LINE
  5
9C03
330
1F
100
AcDbEntity
  8
0
100
AcDbLine
 10
11.70548733365899
 20
14.31691862528113
 30
0.0
 11
11.70548733365899
 21
14.4759834735987
 31
0.0
1001
ACAD
1000
TCW40_DEV_WIDTH
1002
{
1040
-3.0
1002
}
  0
LWPOLYLINE
  5
9C04
330
1F
100
AcDbEntity
  8
0
100
AcDbPolyline
 90
        5
 70
     0
 43
0.0
 10
10.717394983659
 20
14.72691967275748
 10
10.717394983659
 20
14.56785482443991
 10
10.77789043365899
 20
14.56785482443991
 10
10.77789043365899
 20
14.72691967275748
 10
10.717394983659
 20
14.72691967275748
1001
ACAD
1000
TCW40_DEV_WIDTH
1002
{
1040
-3.0
1002
}
  0
LWPOLYLINE
  5
9C05
330
1F
100
AcDbEntity
  8
0
100
AcDbPolyline
 90
        5
 70
     0
 43
0.0
 10
11.30218433365899
 20
14.72691967275748
 10
11.30218433365899
 20
14.56785482443991
 10
11.36267978365899
 20
14.56785482443991
 10
11.36267978365899
 20
14.72691967275748
 10
11.30218433365899
 20
14.72691967275748
1001
ACAD
1000
TCW40_DEV_WIDTH
1002
{
1040
-3.0
1002
}
  0
LINE
  5
9C06
330
1F
100
AcDbEntity
  8
0
100
AcDbLine
 10
11.82647823365899
 20
14.5667266485987
 30
0.0
 11
10.17293593365899
 21
14.5667266485987
 31
0.0
1001
ACAD
1000
TCW40_DEV_WIDTH
1002
{
1040
-3.0
1002
}
  0
LINE
  5
9C07
330
1F
100
AcDbEntity
  8
0
100
AcDbLine
 10
11.82647823365899
 20
14.72691967275748
 30
0.0
 11
10.17293593365899
 21
14.72691967275748
 31
0.0
1001
ACAD
1000
TCW40_DEV_WIDTH
1002
{
1040
-3.0
1002
}
  0
LINE
  5
9C08
330
1F
100
AcDbEntity
  8
0
100
AcDbLine
 10
11.42317523365899
 20
14.56785482443991
 30
0.0
 11
11.42317523365899
 21
14.72691967275748
 31
0.0
1001
ACAD
1000
TCW40_DEV_WIDTH
1002
{
1040
-3.0
1002
}
  0
LINE
  5
9C09
330
1F
100
AcDbEntity
  8
0
100
AcDbLine
 10
11.36267978365899
 20
14.56785482443991
 30
0.0
 11
11.36267978365899
 21
14.72691967275748
 31
0.0
1001
ACAD
1000
TCW40_DEV_WIDTH
1002
{
1040
-3.0
1002
}
  0
LINE
  5
9C0A
330
1F
100
AcDbEntity
  8
0
100
AcDbLine
 10
11.30218433365899
 20
14.56785482443991
 30
0.0
 11
11.30218433365899
 21
14.72691967275748
 31
0.0
1001
ACAD
1000
TCW40_DEV_WIDTH
1002
{
1040
-3.0
1002
}
  0
LINE
  5
9C0B
330
1F
100
AcDbEntity
  8
0
100
AcDbLine
 10
11.24168888365899
 20
14.56785482443991
 30
0.0
 11
11.24168888365899
 21
14.72691967275748
 31
0.0
1001
ACAD
1000
TCW40_DEV_WIDTH
1002
{
1040
-3.0
1002
}
  0
LINE
  5
9C0C
330
1F
100
AcDbEntity
  8
0
100
AcDbLine
 10
10.838385883659
 20
14.56785482443991
 30
0.0
 11
10.838385883659
 21
14.72691967275748
 31
0.0
1001
ACAD
1000
TCW40_DEV_WIDTH
1002
{
1040
-3.0
1002
}
  0
LINE
  5
9C0D
330
1F
100
AcDbEntity
  8
0
100
AcDbLine
 10
10.77789043365899
 20
14.56785482443991
 30
0.0
 11
10.77789043365899
 21
14.72691967275748
 31
0.0
1001
ACAD
1000
TCW40_DEV_WIDTH
1002
{
1040
-3.0
1002
}
  0
LINE
  5
9C0E
330
1F
100
AcDbEntity
  8
0
100
AcDbLine
 10
10.717394983659
 20
14.56785482443991
 30
0.0
 11
10.717394983659
 21
14.72691967275748
 31
0.0
1001
ACAD
1000
TCW40_DEV_WIDTH
1002
{
1040
-3.0
1002
}
  0
LINE
  5
9C0F
330
1F
100
AcDbEntity
  8
0
100
AcDbLine
 10
10.61656923365899
 20
14.56785482443991
 30
0.0
 11
10.61656923365899
 21
14.72691967275748
 31
0.0
1001
ACAD
1000
TCW40_DEV_WIDTH
1002
{
1040
-3.0
1002
}
  0
LINE
  5
9C10
330
1F
100
AcDbEntity
  8
0
100
AcDbLine
 10
10.55607378365899
 20
14.56785482443991
 30
0.0
 11
10.55607378365899
 21
14.72691967275748
 31
0.0
1001
ACAD
1000
TCW40_DEV_WIDTH
1002
{
1040
-3.0
1002
}
  0
LINE
  5
9C11
330
1F
100
AcDbEntity
  8
0
100
AcDbLine
 10
10.49557833365899
 20
14.56785482443991
 30
0.0
 11
10.49557833365899
 21
14.72691967275748
 31
0.0
1001
ACAD
1000
TCW40_DEV_WIDTH
1002
{
1040
-3.0
1002
}
  0
LINE
  5
9C12
330
1F
100
AcDbEntity
  8
0
100
AcDbLine
 10
10.29392683365899
 20
14.56785482443991
 30
0.0
 11
10.29392683365899
 21
14.72691967275748
 31
0.0
1001
ACAD
1000
TCW40_DEV_WIDTH
1002
{
1040
-3.0
1002
}
  0
LINE
  5
9C13
330
1F
100
AcDbEntity
  8
0
100
AcDbLine
 10
11.70548733365899
 20
14.56785482443991
 30
0.0
 11
11.70548733365899
 21
14.72691967275748
 31
0.0
1001
ACAD
1000
TCW40_DEV_WIDTH
1002
{
1040
-3.0
1002
}
  0
LWPOLYLINE
  5
9C14
330
1F
100
AcDbEntity
  8
0
100
AcDbPolyline
 90
        5
 70
     0
 43
0.0
 10
10.717394983659
 20
14.97785587191626
 10
10.717394983659
 20
14.81879102359869
 10
10.77789043365899
 20
14.81879102359869
 10
10.77789043365899
 20
14.97785587191626
 10
10.717394983659
 20
14.97785587191626
1001
ACAD
1000
TCW40_DEV_WIDTH
1002
{
1040
-3.0
1002
}
  0
LWPOLYLINE
  5
9C15
330
1F
100
AcDbEntity
  8
0
100
AcDbPolyline
 90
        5
 70
     0
 43
0.0
 10
11.30218433365899
 20
14.97785587191626
 10
11.30218433365899
 20
14.81879102359869
 10
11.36267978365899
 20
14.81879102359869
 10
11.36267978365899
 20
14.97785587191626
 10
11.30218433365899
 20
14.97785587191626
1001
ACAD
1000
TCW40_DEV_WIDTH
1002
{
1040
-3.0
1002
}
  0
LINE
  5
9C16
330
1F
100
AcDbEntity
  8
0
100
AcDbLine
 10
11.82647823365899
 20
14.81766284775748
 30
0.0
 11
10.17293593365899
 21
14.81766284775748
 31
0.0
1001
ACAD
1000
TCW40_DEV_WIDTH
1002
{
1040
-3.0
1002
}
  0
LINE
  5
9C17
330
1F
100
AcDbEntity
  8
0
100
AcDbLine
 10
11.82647823365899
 20
14.97785587191626
 30
0.0
 11
10.17293593365899
 21
14.97785587191626
 31
0.0
1001
ACAD
1000
TCW40_DEV_WIDTH
1002
{
1040
-3.0
1002
}
  0
LINE
  5
9C18
330
1F
100
AcDbEntity
  8
0
100
AcDbLine
 10
11.42317523365899
 20
14.81879102359869
 30
0.0
 11
11.42317523365899
 21
14.97785587191626
 31
0.0
1001
ACAD
1000
TCW40_DEV_WIDTH
1002
{
1040
-3.0
1002
}
  0
LINE
  5
9C19
330
1F
100
AcDbEntity
  8
0
100
AcDbLine
 10
11.36267978365899
 20
14.81879102359869
 30
0.0
 11
11.36267978365899
 21
14.97785587191626
 31
0.0
1001
ACAD
1000
TCW40_DEV_WIDTH
1002
{
1040
-3.0
1002
}
  0
LINE
  5
9C1A
330
1F
100
AcDbEntity
  8
0
100
AcDbLine
 10
11.30218433365899
 20
14.81879102359869
 30
0.0
 11
11.30218433365899
 21
14.97785587191626
 31
0.0
1001
ACAD
1000
TCW40_DEV_WIDTH
1002
{
1040
-3.0
1002
}
  0
LINE
  5
9C1B
330
1F
100
AcDbEntity
  8
0
100
AcDbLine
 10
11.24168888365899
 20
14.81879102359869
 30
0.0
 11
11.24168888365899
 21
14.97785587191626
 31
0.0
1001
ACAD
1000
TCW40_DEV_WIDTH
1002
{
1040
-3.0
1002
}
  0
LINE
  5
9C1C
330
1F
100
AcDbEntity
  8
0
100
AcDbLine
 10
10.838385883659
 20
14.81879102359869
 30
0.0
 11
10.838385883659
 21
14.97785587191626
 31
0.0
1001
ACAD
1000
TCW40_DEV_WIDTH
1002
{
1040
-3.0
1002
}
  0
LINE
  5
9C1D
330
1F
100
AcDbEntity
  8
0
100
AcDbLine
 10
10.77789043365899
 20
14.81879102359869
 30
0.0
 11
10.77789043365899
 21
14.97785587191626
 31
0.0
1001
ACAD
1000
TCW40_DEV_WIDTH
1002
{
1040
-3.0
1002
}
  0
LINE
  5
9C1E
330
1F
100
AcDbEntity
  8
0
100
AcDbLine
 10
10.717394983659
 20
14.81879102359869
 30
0.0
 11
10.717394983659
 21
14.97785587191626
 31
0.0
1001
ACAD
1000
TCW40_DEV_WIDTH
1002
{
1040
-3.0
1002
}
  0
LINE
  5
9C1F
330
1F
100
AcDbEntity
  8
0
100
AcDbLine
 10
10.61656923365899
 20
14.81879102359869
 30
0.0
 11
10.61656923365899
 21
14.97785587191626
 31
0.0
1001
ACAD
1000
TCW40_DEV_WIDTH
1002
{
1040
-3.0
1002
}
  0
LINE
  5
9C20
330
1F
100
AcDbEntity
  8
0
100
AcDbLine
 10
10.55607378365899
 20
14.81879102359869
 30
0.0
 11
10.55607378365899
 21
14.97785587191626
 31
0.0
1001
ACAD
1000
TCW40_DEV_WIDTH
1002
{
1040
-3.0
1002
}
  0
LINE
  5
9C21
330
1F
100
AcDbEntity
  8
0
100
AcDbLine
 10
10.49557833365899
 20
14.81879102359869
 30
0.0
 11
10.49557833365899
 21
14.97785587191626
 31
0.0
1001
ACAD
1000
TCW40_DEV_WIDTH
1002
{
1040
-3.0
1002
}
  0
LINE
  5
9C22
330
1F
100
AcDbEntity
  8
0
100
AcDbLine
 10
10.29392683365899
 20
14.81879102359869
 30
0.0
 11
10.29392683365899
 21
14.97785587191626
 31
0.0
1001
ACAD
1000
TCW40_DEV_WIDTH
1002
{
1040
-3.0
1002
}
  0
LINE
  5
9C23
330
1F
100
AcDbEntity
  8
0
100
AcDbLine
 10
11.70548733365899
 20
14.81879102359869
 30
0.0
 11
11.70548733365899
 21
14.97785587191626
 31
0.0
1001
ACAD
1000
TCW40_DEV_WIDTH
1002
{
1040
-3.0
1002
}
  0
LINE
  5
9C24
330
1F
100
AcDbEntity
  8
0
100
AcDbLine
 10
11.82647823365899
 20
11.58322473287208
 30
0.0
 11
11.826478233659
 21
11.3862812868727
 31
0.0
  0
ARC
  5
9C25
330
1F
100
AcDbEntity
  8
0
100
AcDbCircle
 10
10.999707083659
 20
13.82642349399015
 30
0.0
 40
2.576401468216544
100
AcDbArc
 50
251.282546187313
 51
288.7174538126875
  0
LINE
  5
9C26
330
1F
100
AcDbEntity
  8
0
100
AcDbLine
 10
10.17293593365899
 20
11.38628128687269
 30
0.0
 11
10.17293593365902
 21
11.58322473287209
 31
0.0
  0
DIMENSION
  5
9C27
330
1F
100
AcDbEntity
  8
DIM
100
AcDbDimension
  2
*D1
 10
11.827064066341
 20
9.791851041075172
 30
0.0
 11
11.0
 21
9.791851041075172
 31
0.0
 70
    32
 71
     5
 42
1.654128132682
  3
Standard
100
AcDbAlignedDimension
 13
10.17293593365899
 23
8.902820950416082
 33
0.0
 14
11.827064066341
 24
8.902820950416082
 34
0.0
100
AcDbRotatedDimension
  0
DIMENSION
  5
9C28
330
1F
100
AcDbEntity
  8
DIM
100
AcDbDimension
  2
*D2
 10
9.276035463343138
 20
11.24899256618979
 30
0.0
 11
9.276035463343136
 21
13.57377969953094
 31
0.0
 70
    32
 71
     5
 42
4.649574266682289
  3
Standard
100
AcDbAlignedDimension
 13
10.17293593365899
 23
15.89856683287208
 33
0.0
 14
10.999707083659
 24
11.24899256618979
 34
0.0
 50
90.0
100
AcDbRotatedDimension
  0
TEXT
  5
9C29
330
1F
100
AcDbEntity
  8
TEXT
100
AcDbText
 10
10.84874149415375
 20
8.05684678351305
 30
0.0
 40
0.09
  1
Healthy
 41
0.8
 72
     2
 11
11.29274149415375
 21
8.10184678351305
 31
0.0
100
AcDbText
 73
     2
  0
TEXT
  5
9C2A
330
1F
100
AcDbEntity
  8
TEXT
100
AcDbText
 10
10.95674149415374
 20
7.875296134804051
 30
0.0
 40
0.09
  1
Ready
 41
0.8
 72
     2
 11
11.29274149415375
 21
7.920296134804051
 31
0.0
100
AcDbText
 73
     2
  0
TEXT
  5
9C2B
330
1F
100
AcDbEntity
  8
TEXT
100
AcDbText
 10
11.10207101369066
 20
7.693747920165291
 30
0.0
 40
0.09
  1
Run
 41
0.8
 72
     2
 11
11.29407101369066
 21
7.738747920165291
 31
0.0
100
AcDbText
 73
     2
  0
TEXT
  5
9C2C
330
1F
100
AcDbEntity
  8
TEXT
100
AcDbText
 10
10.65807101369066
 20
7.41133579995129
 30
0.0
 40
0.09
  1
Channel 00
 41
0.8
 72
     2
 11
11.29407101369066
 21
7.45633579995129
 31
0.0
100
AcDbText
 73
     2
  0
TEXT
  5
9C2D
330
1F
100
AcDbEntity
  8
TEXT
100
AcDbText
 10
10.67007101369066
 20
7.229785151242291
 30
0.0
 40
0.09
  1
Channel 01
 41
0.8
 72
     2
 11
11.29407101369066
 21
7.274785151242291
 31
0.0
100
AcDbText
 73
     2
  0
TEXT
  5
9C2E
330
1F
100
AcDbEntity
  8
TEXT
100
AcDbText
 10
10.64740053322755
 20
7.048236936603528
 30
0.0
 40
0.09
  1
Channel 02
 41
0.8
 72
     2
 11
11.29540053322755
 21
7.093236936603528
 31
0.0
100
AcDbText
 73
     2
  0
TEXT
  5
9C2F
330
1F
100
AcDbEntity
  8
TEXT
100
AcDbText
 10
10.64740053322755
 20
6.866686287894529
 30
0.0
 40
0.09
  1
Channel 03
 41
0.8
 72
     2
 11
11.29540053322755
 21
6.911686287894529
 31
0.0
100
AcDbText
 73
     2
  0
TEXT
  5
9C30
330
1F
100
AcDbEntity
  8
TEXT
100
AcDbText
 10
10.64873005276447
 20
6.685138073255769
 30
0.0
 40
0.09
  1
Channel 04
 41
0.8
 72
     2
 11
11.29673005276446
 21
6.730138073255769
 31
0.0
100
AcDbText
 73
     2
  0
TEXT
  5
9C31
330
1F
100
AcDbEntity
  8
TEXT
100
AcDbText
 10
10.64873005276447
 20
6.503587424546767
 30
0.0
 40
0.09
  1
Channel 05
 41
0.8
 72
     2
 11
11.29673005276446
 21
6.548587424546767
 31
0.0
100
AcDbText
 73
     2
  0
TEXT
  5
9C32
330
1F
100
AcDbEntity
  8
TEXT
100
AcDbText
 10
10.65005957230138
 20
6.322039209908007
 30
0.0
 40
0.09
  1
Channel 06
 41
0.8
 72
     2
 11
11.29805957230138
 21
6.367039209908007
 31
0.0
100
AcDbText
 73
     2
  0
TEXT
  5
9C33
330
1F
100
AcDbEntity
  8
TEXT
100
AcDbText
 10
10.65138909183827
 20
6.140490995269248
 30
0.0
 40
0.09
  1
Channel 07
 41
0.8
 72
     2
 11
11.29938909183827
 21
6.185490995269248
 31
0.0
100
AcDbText
 73
     2
  0
TEXT
  5
9C34
330
1F
100
AcDbEntity
  8
TEXT
100
AcDbText
 10
10.44165677887455
 20
8.591577868077028
 30
0.0
 40
0.11
  1
ANALOG OUTPUT
 41
0.8
 72
     1
 11
10.99899011220788
 21
8.646577868077027
 31
0.0
100
AcDbText
 73
     2
  0
TEXT
  5
9C35
330
1F
100
AcDbEntity
  8
TEXT
100
AcDbText
 10
10.44165677887455
 20
8.797192314787483
 30
0.0
 40
0.11
  1
ALLEN-BRADLEY
 41
0.8
 72
     1
 11
10.99899011220788
 21
8.852192314787483
 31
0.0
100
AcDbText
 73
     2
  0
TEXT
  5
9C36
330
1F
100
AcDbEntity
  8
TEXT
100
AcDbText
 10
10.66165677887455
 20
8.385963421366685
 30
0.0
 40
0.11
  1
1715-OF8I
 41
0.8
 72
     1
 11
10.99899011220788
 21
8.440963421366685
 31
0.0
100
AcDbText
 73
     2
  0
LINE
  5
9F07
330
1F
100
AcDbEntity
  8
0
100
AcDbLine
 10
17.94685326970336
 20
2.607859462836926
 30
0.0
 11
18.10823162411135
 21
2.607859462836926
 31
0.0
1001
ACAD
1000
TCW40_DEV_WIDTH
1002
{
1040
-3.0
1002
}
  0
LINE
  5
9F08
330
1F
100
AcDbEntity
  8
0
100
AcDbLine
 10
18.10823162411135
 20
2.607859462836926
 30
0.0
 11
18.10823162411135
 21
9.022649050554926
 31
0.0
1001
ACAD
1000
TCW40_DEV_WIDTH
1002
{
1040
-3.0
1002
}
  0
ELLIPSE
  5
9F09
330
1F
100
AcDbEntity
  8
0
100
AcDbEllipse
 10
17.86616409249937
 20
2.728893228642927
 30
0.0
 11
0.0
 21
-0.4841350632240001
 31
0.0
210
0.0
220
0.0
230
1.0
 40
0.1666666666666666
 41
1.570796326794896
 42
4.712388980384689
1001
ACAD
1000
TCW40_DEV_WIDTH
1002
{
1040
-3.0
1002
}
  0
LINE
  5
9F0A
330
1F
100
AcDbEntity
  8
0
100
AcDbLine
 10
17.78547491529536
 20
2.728893228642927
 30
0.0
 11
17.69469959094087
 21
2.728893228642927
 31
0.0
1001
ACAD
1000
TCW40_DEV_WIDTH
1002
{
1040
-3.0
1002
}
  0
LINE
  5
9F0B
330
1F
100
AcDbEntity
  8
0
100
AcDbLine
 10
17.53332123653287
 20
2.728893228642927
 30
0.0
 11
17.4414173366363
 21
2.728893228642927
 31
0.0
1001
ACAD
1000
TCW40_DEV_WIDTH
1002
{
1040
-3.0
1002
}
  0
LINE
  5
9F0C
330
1F
100
AcDbEntity
  8
0
100
AcDbLine
 10
17.28229613331246
 20
2.728893228642927
 30
0.0
 11
17.18926365787378
 21
2.728893228642927
 31
0.0
1001
ACAD
1000
TCW40_DEV_WIDTH
1002
{
1040
-3.0
1002
}
  0
LINE
  5
9F0D
330
1F
100
AcDbEntity
  8
0
100
AcDbLine
 10
17.03014245454993
 20
2.728893228642927
 30
0.0
 11
16.93710997911128
 21
2.728893228642927
 31
0.0
1001
ACAD
1000
TCW40_DEV_WIDTH
1002
{
1040
-3.0
1002
}
  0
LINE
  5
9F0E
330
1F
100
AcDbEntity
  8
0
100
AcDbLine
 10
16.77798877578743
 20
2.728893228642927
 30
0.0
 11
16.68495630034878
 21
2.728893228642927
 31
0.0
1001
ACAD
1000
TCW40_DEV_WIDTH
1002
{
1040
-3.0
1002
}
  0
LINE
  5
9F0F
330
1F
100
AcDbEntity
  8
0
100
AcDbLine
 10
16.52583509702494
 20
2.728893228642927
 30
0.0
 11
16.43280262158629
 21
2.728893228642927
 31
0.0
1001
ACAD
1000
TCW40_DEV_WIDTH
1002
{
1040
-3.0
1002
}
  0
LINE
  5
9F10
330
1F
100
AcDbEntity
  8
0
100
AcDbLine
 10
16.27368141826245
 20
2.728893228642927
 30
0.0
 11
16.18177751836588
 21
2.728893228642927
 31
0.0
1001
ACAD
1000
TCW40_DEV_WIDTH
1002
{
1040
-3.0
1002
}
  0
LINE
  5
9F11
330
1F
100
AcDbEntity
  8
0
100
AcDbLine
 10
16.02039916395785
 20
2.728893228642927
 30
0.0
 11
15.92962383960335
 21
2.728893228642927
 31
0.0
1001
ACAD
1000
TCW40_DEV_WIDTH
1002
{
1040
-3.0
1002
}
  0
LINE
  5
9F12
330
1F
100
AcDbEntity
  8
0
100
AcDbLine
 10
15.76824548519536
 20
2.728893228642927
 30
0.0
 11
15.67747016084086
 21
2.728893228642927
 31
0.0
1001
ACAD
1000
TCW40_DEV_WIDTH
1002
{
1040
-3.0
1002
}
  0
LINE
  5
9F13
330
1F
100
AcDbEntity
  8
0
100
AcDbLine
 10
15.51609180643287
 20
2.728893228642927
 30
0.0
 11
15.42531648207836
 21
2.728893228642927
 31
0.0
1001
ACAD
1000
TCW40_DEV_WIDTH
1002
{
1040
-3.0
1002
}
  0
LINE
  5
9F14
330
1F
100
AcDbEntity
  8
0
100
AcDbLine
 10
15.26393812767037
 20
2.728893228642927
 30
0.0
 11
15.17316280331587
 21
2.728893228642927
 31
0.0
1001
ACAD
1000
TCW40_DEV_WIDTH
1002
{
1040
-3.0
1002
}
  0
LINE
  5
9F15
330
1F
100
AcDbEntity
  8
0
100
AcDbLine
 10
17.94685326970336
 20
2.728893228642927
 30
0.0
 11
17.94685326970336
 21
2.607859462836926
 31
0.0
1001
ACAD
1000
TCW40_DEV_WIDTH
1002
{
1040
-3.0
1002
}
  0
ELLIPSE
  5
9F16
330
1F
100
AcDbEntity
  8
0
100
AcDbEllipse
 10
17.61401041373686
 20
2.728893228642927
 30
0.0
 11
0.0
 21
-0.4841350632240001
 31
0.0
210
0.0
220
0.0
230
1.0
 40
0.1666666666666666
 41
1.570796326794896
 42
4.712388980384689
1001
ACAD
1000
TCW40_DEV_WIDTH
1002
{
1040
-3.0
1002
}
  0
ELLIPSE
  5
9F17
330
1F
100
AcDbEntity
  8
0
100
AcDbEllipse
 10
17.36185673497437
 20
2.728893228642927
 30
0.0
 11
0.0
 21
-0.4841350632240001
 31
0.0
210
0.0
220
0.0
230
1.0
 40
0.1666666666666666
 41
1.570796326794896
 42
4.712388980384689
1001
ACAD
1000
TCW40_DEV_WIDTH
1002
{
1040
-3.0
1002
}
  0
ELLIPSE
  5
9F18
330
1F
100
AcDbEntity
  8
0
100
AcDbEllipse
 10
17.10970305621187
 20
2.728893228642927
 30
0.0
 11
0.0
 21
-0.4841350632240001
 31
0.0
210
0.0
220
0.0
230
1.0
 40
0.1666666666666666
 41
1.570796326794896
 42
4.712388980384689
1001
ACAD
1000
TCW40_DEV_WIDTH
1002
{
1040
-3.0
1002
}
  0
ELLIPSE
  5
9F19
330
1F
100
AcDbEntity
  8
0
100
AcDbEllipse
 10
16.85754937744937
 20
2.728893228642927
 30
0.0
 11
0.0
 21
-0.4841350632240001
 31
0.0
210
0.0
220
0.0
230
1.0
 40
0.1666666666666666
 41
1.570796326794896
 42
4.712388980384689
1001
ACAD
1000
TCW40_DEV_WIDTH
1002
{
1040
-3.0
1002
}
  0
ELLIPSE
  5
9F1A
330
1F
100
AcDbEntity
  8
0
100
AcDbEllipse
 10
16.60539569868685
 20
2.728893228642927
 30
0.0
 11
0.0
 21
-0.4841350632240001
 31
0.0
210
0.0
220
0.0
230
1.0
 40
0.1666666666666666
 41
1.570796326794896
 42
4.712388980384689
1001
ACAD
1000
TCW40_DEV_WIDTH
1002
{
1040
-3.0
1002
}
  0
ELLIPSE
  5
9F1B
330
1F
100
AcDbEntity
  8
0
100
AcDbEllipse
 10
16.35324201992436
 20
2.728893228642927
 30
0.0
 11
0.0
 21
-0.4841350632240001
 31
0.0
210
0.0
220
0.0
230
1.0
 40
0.1666666666666666
 41
1.570796326794896
 42
4.712388980384689
1001
ACAD
1000
TCW40_DEV_WIDTH
1002
{
1040
-3.0
1002
}
  0
ELLIPSE
  5
9F1C
330
1F
100
AcDbEntity
  8
0
100
AcDbEllipse
 10
16.10108834116187
 20
2.728893228642927
 30
0.0
 11
0.0
 21
-0.4841350632240001
 31
0.0
210
0.0
220
0.0
230
1.0
 40
0.1666666666666666
 41
1.570796326794896
 42
4.712388980384689
1001
ACAD
1000
TCW40_DEV_WIDTH
1002
{
1040
-3.0
1002
}
  0
ELLIPSE
  5
9F1D
330
1F
100
AcDbEntity
  8
0
100
AcDbEllipse
 10
15.84893466239937
 20
2.728893228642927
 30
0.0
 11
0.0
 21
-0.4841350632240001
 31
0.0
210
0.0
220
0.0
230
1.0
 40
0.1666666666666666
 41
1.570796326794896
 42
4.712388980384689
1001
ACAD
1000
TCW40_DEV_WIDTH
1002
{
1040
-3.0
1002
}
  0
ELLIPSE
  5
9F1E
330
1F
100
AcDbEntity
  8
0
100
AcDbEllipse
 10
15.59678098363687
 20
2.728893228642927
 30
0.0
 11
0.0
 21
-0.4841350632240001
 31
0.0
210
0.0
220
0.0
230
1.0
 40
0.1666666666666666
 41
1.570796326794896
 42
4.712388980384689
1001
ACAD
1000
TCW40_DEV_WIDTH
1002
{
1040
-3.0
1002
}
  0
ELLIPSE
  5
9F1F
330
1F
100
AcDbEntity
  8
0
100
AcDbEllipse
 10
15.34462730487436
 20
2.728893228642927
 30
0.0
 11
0.0
 21
-0.4841350632240001
 31
0.0
210
0.0
220
0.0
230
1.0
 40
0.1666666666666666
 41
1.570796326794896
 42
4.712388980384689
1001
ACAD
1000
TCW40_DEV_WIDTH
1002
{
1040
-3.0
1002
}
  0
ELLIPSE
  5
9F20
330
1F
100
AcDbEntity
  8
0
100
AcDbEllipse
 10
15.09247362611186
 20
2.728893228642927
 30
0.0
 11
0.0
 21
-0.4841350632239993
 31
0.0
210
0.0
220
0.0
230
1.0
 40
0.1666666666666667
 41
1.570796326794896
 42
4.70381489399169
1001
ACAD
1000
TCW40_DEV_WIDTH
1002
{
1040
-3.0
1002
}
  0
ELLIPSE
  5
9F21
330
1F
100
AcDbEntity
  8
0
100
AcDbEllipse
 10
14.84031994734937
 20
2.708720934341926
 30
0.0
 11
0.0
 21
-0.4841350632240007
 31
0.0
210
0.0
220
0.0
230
1.0
 40
0.1666666666666674
 41
1.615351533028356
 42
4.695535778282224
1001
ACAD
1000
TCW40_DEV_WIDTH
1002
{
1040
-3.0
1002
}
  0
ELLIPSE
  5
9F22
330
1F
100
AcDbEntity
  8
0
100
AcDbEllipse
 10
14.58816626858687
 20
2.688548640040926
 30
0.0
 11
0.0
 21
-0.4841350632239999
 31
0.0
210
0.0
220
0.0
230
1.0
 40
0.1666666666666651
 41
1.603716497224721
 42
4.739650694325459
1001
ACAD
1000
TCW40_DEV_WIDTH
1002
{
1040
-3.0
1002
}
  0
ELLIPSE
  5
9F23
330
1F
100
AcDbEntity
  8
0
100
AcDbEllipse
 10
14.33601258982435
 20
2.648204051438926
 30
0.0
 11
0.0
 21
-0.4841350632240002
 31
0.0
210
0.0
220
0.0
230
1.0
 40
0.1666666666666643
 41
1.595391793617908
 42
4.733845799639416
1001
ACAD
1000
TCW40_DEV_WIDTH
1002
{
1040
-3.0
1002
}
  0
ELLIPSE
  5
9F24
330
1F
100
AcDbEntity
  8
0
100
AcDbEllipse
 10
14.08385891106186
 20
2.628031757137926
 30
0.0
 11
0.0
 21
-0.4841350632240009
 31
0.0
210
0.0
220
0.0
230
1.0
 40
0.1666666666666652
 41
1.570587995500844
 42
4.739223749283191
1001
ACAD
1000
TCW40_DEV_WIDTH
1002
{
1040
-3.0
1002
}
  0
LWPOLYLINE
  5
9F25
330
1F
100
AcDbEntity
  8
0
100
AcDbPolyline
 90
        2
 70
     0
 43
0.0
 10
13.87488142516568
 20
2.609037341713077
 42
0.0072910558792085
 10
14.00319878444731
 20
2.615041663769781
  0
LWPOLYLINE
  5
9F26
330
1F
100
AcDbEntity
  8
0
100
AcDbPolyline
 90
        2
 70
     0
 43
0.0
 10
14.16454808651482
 20
2.627930896654437
 42
0.0051836372337704
 10
14.25534198635836
 20
2.637816849971362
  0
LWPOLYLINE
  5
9F27
330
1F
100
AcDbEntity
  8
0
100
AcDbPolyline
 90
        2
 70
     0
 43
0.0
 10
14.41521962108078
 20
2.659881657085294
 42
0.0053110407206134
 10
14.50750707366639
 20
2.675351923215989
  0
LWPOLYLINE
  5
9F28
330
1F
100
AcDbEntity
  8
0
100
AcDbPolyline
 90
        2
 70
     0
 43
0.0
 10
14.66724041403523
 20
2.704237998665841
 42
-0.0098390854573083
 10
14.76100614521709
 20
2.717039104758936
  0
LWPOLYLINE
  5
9F29
330
1F
100
AcDbEntity
  8
0
100
AcDbPolyline
 90
        2
 70
     0
 43
0.0
 10
14.91919198944532
 20
2.730198261262674
 42
-0.009761046724293
 10
15.01303347733854
 20
2.733058155088769
  0
LWPOLYLINE
  5
9F2A
330
1F
100
AcDbEntity
  8
0
100
AcDbPolyline
 90
        2
 70
     0
 43
0.0
 10
15.17316274474191
 20
2.729476574442142
 42
-0.0010502966732702
 10
15.18324895046636
 20
2.728893228642927
  0
ELLIPSE
  5
9F2B
330
1F
100
AcDbEntity
  8
0
100
AcDbEllipse
 10
16.35324201992436
 20
2.648204051438926
 30
0.0
 11
0.0
 21
-0.4841350632239992
 31
0.0
210
0.0
220
0.0
230
1.0
 40
0.1666666666666656
 41
1.738244406014585
 42
4.544940901165
1001
ACAD
1000
TCW40_DEV_WIDTH
1002
{
1040
-3.0
1002
}
  0
ELLIPSE
  5
9F2C
330
1F
100
AcDbEntity
  8
0
100
AcDbEllipse
 10
16.60539569868685
 20
2.648204051438926
 30
0.0
 11
0.0
 21
-0.4841350632239992
 31
0.0
210
0.0
220
0.0
230
1.0
 40
0.1666666666666656
 41
1.738244406014585
 42
4.544940901165
1001
ACAD
1000
TCW40_DEV_WIDTH
1002
{
1040
-3.0
1002
}
  0
ELLIPSE
  5
9F2D
330
1F
100
AcDbEntity
  8
0
100
AcDbEllipse
 10
16.85754937744937
 20
2.648204051438926
 30
0.0
 11
0.0
 21
-0.4841350632239992
 31
0.0
210
0.0
220
0.0
230
1.0
 40
0.1666666666666656
 41
1.738244406014585
 42
4.544940901165
1001
ACAD
1000
TCW40_DEV_WIDTH
1002
{
1040
-3.0
1002
}
  0
ELLIPSE
  5
9F2E
330
1F
100
AcDbEntity
  8
0
100
AcDbEllipse
 10
16.10108834116187
 20
2.648204051438926
 30
0.0
 11
0.0
 21
-0.4841350632239992
 31
0.0
210
0.0
220
0.0
230
1.0
 40
0.1666666666666656
 41
1.738244406014585
 42
4.544940901165
1001
ACAD
1000
TCW40_DEV_WIDTH
1002
{
1040
-3.0
1002
}
  0
ELLIPSE
  5
9F2F
330
1F
100
AcDbEntity
  8
0
100
AcDbEllipse
 10
15.84893466239937
 20
2.648204051438926
 30
0.0
 11
0.0
 21
-0.4841350632239992
 31
0.0
210
0.0
220
0.0
230
1.0
 40
0.1666666666666656
 41
1.738244406014585
 42
4.544940901165
1001
ACAD
1000
TCW40_DEV_WIDTH
1002
{
1040
-3.0
1002
}
  0
ELLIPSE
  5
9F30
330
1F
100
AcDbEntity
  8
0
100
AcDbEllipse
 10
15.34462730487436
 20
2.648204051438926
 30
0.0
 11
0.0
 21
-0.4841350632239992
 31
0.0
210
0.0
220
0.0
230
1.0
 40
0.1666666666666656
 41
1.738244406014585
 42
4.544940901165
1001
ACAD
1000
TCW40_DEV_WIDTH
1002
{
1040
-3.0
1002
}
  0
ELLIPSE
  5
9F31
330
1F
100
AcDbEntity
  8
0
100
AcDbEllipse
 10
15.09247362611186
 20
2.648204051438926
 30
0.0
 11
0.0
 21
-0.4841350632240006
 31
0.0
210
0.0
220
0.0
230
1.0
 40
0.1666666666666648
 41
1.738244406014585
 42
4.536209495863717
1001
ACAD
1000
TCW40_DEV_WIDTH
1002
{
1040
-3.0
1002
}
  0
ELLIPSE
  5
9F32
330
1F
100
AcDbEntity
  8
0
100
AcDbEllipse
 10
14.84031994734937
 20
2.628031757137926
 30
0.0
 11
0.0
 21
-0.4841350632239997
 31
0.0
210
0.0
220
0.0
230
1.0
 40
0.1666666666666676
 41
1.783423802199356
 42
4.527489045910998
1001
ACAD
1000
TCW40_DEV_WIDTH
1002
{
1040
-3.0
1002
}
  0
ELLIPSE
  5
9F33
330
1F
100
AcDbEntity
  8
0
100
AcDbEllipse
 10
14.58816626857767
 20
2.607859462836926
 30
0.0
 11
0.0
 21
-0.4841350632239992
 31
0.0
210
0.0
220
0.0
230
1.0
 40
0.1666666666666656
 41
1.771208890231334
 42
4.544940901165
1001
ACAD
1000
TCW40_DEV_WIDTH
1002
{
1040
-3.0
1002
}
  0
ELLIPSE
  5
9F34
330
1F
100
AcDbEntity
  8
0
100
AcDbEllipse
 10
14.33601258981518
 20
2.567514874234926
 30
0.0
 11
0.0
 21
-0.4841350632239992
 31
0.0
210
0.0
220
0.0
230
1.0
 40
0.1666666666666656
 41
1.762760361692611
 42
4.544940901165
1001
ACAD
1000
TCW40_DEV_WIDTH
1002
{
1040
-3.0
1002
}
  0
ELLIPSE
  5
9F35
330
1F
100
AcDbEntity
  8
0
100
AcDbEllipse
 10
14.08385891105266
 20
2.547342579933926
 30
0.0
 11
0.0
 21
-0.4841350632239992
 31
0.0
210
0.0
220
0.0
230
1.0
 40
0.1666666666666656
 41
1.738244406014585
 42
4.544940901165
1001
ACAD
1000
TCW40_DEV_WIDTH
1002
{
1040
-3.0
1002
}
  0
ELLIPSE
  5
9F36
330
1F
100
AcDbEntity
  8
0
100
AcDbEllipse
 10
17.10970305621187
 20
2.648204051438926
 30
0.0
 11
0.0
 21
-0.4841350632239992
 31
0.0
210
0.0
220
0.0
230
1.0
 40
0.1666666666666656
 41
1.738244406014585
 42
4.544940901165
1001
ACAD
1000
TCW40_DEV_WIDTH
1002
{
1040
-3.0
1002
}
  0
ELLIPSE
  5
9F37
330
1F
100
AcDbEntity
  8
0
100
AcDbEllipse
 10
17.36185673497437
 20
2.648204051438926
 30
0.0
 11
0.0
 21
-0.4841350632239992
 31
0.0
210
0.0
220
0.0
230
1.0
 40
0.1666666666666656
 41
1.738244406014585
 42
4.544940901165
1001
ACAD
1000
TCW40_DEV_WIDTH
1002
{
1040
-3.0
1002
}
  0
ELLIPSE
  5
9F38
330
1F
100
AcDbEntity
  8
0
100
AcDbEllipse
 10
17.61401041373686
 20
2.648204051438926
 30
0.0
 11
0.0
 21
-0.4841350632239992
 31
0.0
210
0.0
220
0.0
230
1.0
 40
0.1666666666666656
 41
1.738244406014585
 42
4.544940901165
1001
ACAD
1000
TCW40_DEV_WIDTH
1002
{
1040
-3.0
1002
}
  0
ELLIPSE
  5
9F39
330
1F
100
AcDbEntity
  8
0
100
AcDbEllipse
 10
17.86616409249937
 20
2.648204051438926
 30
0.0
 11
0.0
 21
-0.4841350632239992
 31
0.0
210
0.0
220
0.0
230
1.0
 40
0.1666666666666656
 41
1.738244406014585
 42
4.544940901165
1001
ACAD
1000
TCW40_DEV_WIDTH
1002
{
1040
-3.0
1002
}
  0
ELLIPSE
  5
9F3A
330
1F
100
AcDbEntity
  8
0
100
AcDbEllipse
 10
15.59678098363687
 20
2.648204051438926
 30
0.0
 11
0.0
 21
-0.4841350632239992
 31
0.0
210
0.0
220
0.0
230
1.0
 40
0.1666666666666656
 41
1.738244406014585
 42
4.544940901165
1001
ACAD
1000
TCW40_DEV_WIDTH
1002
{
1040
-3.0
1002
}
  0
ELLIPSE
  5
9F3B
330
1F
100
AcDbEntity
  8
0
100
AcDbEllipse
 10
17.86616409249937
 20
9.022649050554926
 30
0.0
 11
0.0
 21
-0.4841350632240001
 31
0.0
210
0.0
220
0.0
230
1.0
 40
0.1666666666666666
 41
4.712388980384689
 42
7.853981633974482
1001
ACAD
1000
TCW40_DEV_WIDTH
1002
{
1040
-3.0
1002
}
  0
LINE
  5
9F3C
330
1F
100
AcDbEntity
  8
0
100
AcDbLine
 10
18.10823162411135
 20
9.022649050554926
 30
0.0
 11
17.94685326970336
 21
9.022649050554926
 31
0.0
1001
ACAD
1000
TCW40_DEV_WIDTH
1002
{
1040
-3.0
1002
}
  0
LINE
  5
9F3D
330
1F
100
AcDbEntity
  8
0
100
AcDbLine
 10
17.78547491529536
 20
9.022649050554926
 30
0.0
 11
17.69469959094087
 21
9.022649050554926
 31
0.0
1001
ACAD
1000
TCW40_DEV_WIDTH
1002
{
1040
-3.0
1002
}
  0
LINE
  5
9F3E
330
1F
100
AcDbEntity
  8
0
100
AcDbLine
 10
17.53332123653287
 20
9.022649050554926
 30
0.0
 11
17.4414173366363
 21
9.022649050554926
 31
0.0
1001
ACAD
1000
TCW40_DEV_WIDTH
1002
{
1040
-3.0
1002
}
  0
LINE
  5
9F3F
330
1F
100
AcDbEntity
  8
0
100
AcDbLine
 10
17.28229613331246
 20
9.022649050554926
 30
0.0
 11
17.18926365787378
 21
9.022649050554926
 31
0.0
1001
ACAD
1000
TCW40_DEV_WIDTH
1002
{
1040
-3.0
1002
}
  0
LINE
  5
9F40
330
1F
100
AcDbEntity
  8
0
100
AcDbLine
 10
17.03014245454993
 20
9.022649050554926
 30
0.0
 11
16.93710997911128
 21
9.022649050554926
 31
0.0
1001
ACAD
1000
TCW40_DEV_WIDTH
1002
{
1040
-3.0
1002
}
  0
LINE
  5
9F41
330
1F
100
AcDbEntity
  8
0
100
AcDbLine
 10
16.77798877578743
 20
9.022649050554926
 30
0.0
 11
16.68495630034878
 21
9.022649050554926
 31
0.0
1001
ACAD
1000
TCW40_DEV_WIDTH
1002
{
1040
-3.0
1002
}
  0
LINE
  5
9F42
330
1F
100
AcDbEntity
  8
0
100
AcDbLine
 10
16.52583509702494
 20
9.022649050554926
 30
0.0
 11
16.43280262158629
 21
9.022649050554926
 31
0.0
1001
ACAD
1000
TCW40_DEV_WIDTH
1002
{
1040
-3.0
1002
}
  0
LINE
  5
9F43
330
1F
100
AcDbEntity
  8
0
100
AcDbLine
 10
16.27368141826245
 20
9.022649050554926
 30
0.0
 11
16.18177751836588
 21
9.022649050554926
 31
0.0
1001
ACAD
1000
TCW40_DEV_WIDTH
1002
{
1040
-3.0
1002
}
  0
LINE
  5
9F44
330
1F
100
AcDbEntity
  8
0
100
AcDbLine
 10
16.02039916395785
 20
9.022649050554926
 30
0.0
 11
15.92962383960335
 21
9.022649050554926
 31
0.0
1001
ACAD
1000
TCW40_DEV_WIDTH
1002
{
1040
-3.0
1002
}
  0
LINE
  5
9F45
330
1F
100
AcDbEntity
  8
0
100
AcDbLine
 10
15.76824548519536
 20
9.022649050554926
 30
0.0
 11
15.67747016084086
 21
9.022649050554926
 31
0.0
1001
ACAD
1000
TCW40_DEV_WIDTH
1002
{
1040
-3.0
1002
}
  0
LINE
  5
9F46
330
1F
100
AcDbEntity
  8
0
100
AcDbLine
 10
15.51609180643287
 20
9.022649050554926
 30
0.0
 11
15.42531648207836
 21
9.022649050554926
 31
0.0
1001
ACAD
1000
TCW40_DEV_WIDTH
1002
{
1040
-3.0
1002
}
  0
LINE
  5
9F47
330
1F
100
AcDbEntity
  8
0
100
AcDbLine
 10
15.26393812767037
 20
9.022649050554926
 30
0.0
 11
15.17316280331587
 21
9.022649050554926
 31
0.0
1001
ACAD
1000
TCW40_DEV_WIDTH
1002
{
1040
-3.0
1002
}
  0
ELLIPSE
  5
9F48
330
1F
100
AcDbEntity
  8
0
100
AcDbEllipse
 10
17.61401041373686
 20
9.022649050554926
 30
0.0
 11
0.0
 21
-0.4841350632240001
 31
0.0
210
0.0
220
0.0
230
1.0
 40
0.1666666666666666
 41
4.712388980384689
 42
7.853981633974482
1001
ACAD
1000
TCW40_DEV_WIDTH
1002
{
1040
-3.0
1002
}
  0
ELLIPSE
  5
9F49
330
1F
100
AcDbEntity
  8
0
100
AcDbEllipse
 10
17.36185673497437
 20
9.022649050554926
 30
0.0
 11
0.0
 21
-0.4841350632240001
 31
0.0
210
0.0
220
0.0
230
1.0
 40
0.1666666666666666
 41
4.712388980384689
 42
7.853981633974482
1001
ACAD
1000
TCW40_DEV_WIDTH
1002
{
1040
-3.0
1002
}
  0
ELLIPSE
  5
9F4A
330
1F
100
AcDbEntity
  8
0
100
AcDbEllipse
 10
17.10970305621187
 20
9.022649050554926
 30
0.0
 11
0.0
 21
-0.4841350632240001
 31
0.0
210
0.0
220
0.0
230
1.0
 40
0.1666666666666666
 41
4.712388980384689
 42
7.853981633974482
1001
ACAD
1000
TCW40_DEV_WIDTH
1002
{
1040
-3.0
1002
}
  0
ELLIPSE
  5
9F4B
330
1F
100
AcDbEntity
  8
0
100
AcDbEllipse
 10
16.85754937744937
 20
9.022649050554926
 30
0.0
 11
0.0
 21
-0.4841350632240001
 31
0.0
210
0.0
220
0.0
230
1.0
 40
0.1666666666666666
 41
4.712388980384689
 42
7.853981633974482
1001
ACAD
1000
TCW40_DEV_WIDTH
1002
{
1040
-3.0
1002
}
  0
ELLIPSE
  5
9F4C
330
1F
100
AcDbEntity
  8
0
100
AcDbEllipse
 10
16.60539569868685
 20
9.022649050554926
 30
0.0
 11
0.0
 21
-0.4841350632240001
 31
0.0
210
0.0
220
0.0
230
1.0
 40
0.1666666666666666
 41
4.712388980384689
 42
7.853981633974482
1001
ACAD
1000
TCW40_DEV_WIDTH
1002
{
1040
-3.0
1002
}
  0
ELLIPSE
  5
9F4D
330
1F
100
AcDbEntity
  8
0
100
AcDbEllipse
 10
16.35324201992436
 20
9.022649050554926
 30
0.0
 11
0.0
 21
-0.4841350632240001
 31
0.0
210
0.0
220
0.0
230
1.0
 40
0.1666666666666666
 41
4.712388980384689
 42
7.853981633974482
1001
ACAD
1000
TCW40_DEV_WIDTH
1002
{
1040
-3.0
1002
}
  0
ELLIPSE
  5
9F4E
330
1F
100
AcDbEntity
  8
0
100
AcDbEllipse
 10
16.10108834116187
 20
9.022649050554926
 30
0.0
 11
0.0
 21
-0.4841350632240001
 31
0.0
210
0.0
220
0.0
230
1.0
 40
0.1666666666666666
 41
4.712388980384689
 42
7.853981633974482
1001
ACAD
1000
TCW40_DEV_WIDTH
1002
{
1040
-3.0
1002
}
  0
ELLIPSE
  5
9F4F
330
1F
100
AcDbEntity
  8
0
100
AcDbEllipse
 10
15.84893466239937
 20
9.022649050554926
 30
0.0
 11
0.0
 21
-0.4841350632240001
 31
0.0
210
0.0
220
0.0
230
1.0
 40
0.1666666666666666
 41
4.712388980384689
 42
7.853981633974482
1001
ACAD
1000
TCW40_DEV_WIDTH
1002
{
1040
-3.0
1002
}
  0
ELLIPSE
  5
9F50
330
1F
100
AcDbEntity
  8
0
100
AcDbEllipse
 10
15.59678098363687
 20
9.022649050554926
 30
0.0
 11
0.0
 21
-0.4841350632240001
 31
0.0
210
0.0
220
0.0
230
1.0
 40
0.1666666666666666
 41
4.712388980384689
 42
7.853981633974482
1001
ACAD
1000
TCW40_DEV_WIDTH
1002
{
1040
-3.0
1002
}
  0
ELLIPSE
  5
9F51
330
1F
100
AcDbEntity
  8
0
100
AcDbEllipse
 10
15.34462730487436
 20
9.022649050554926
 30
0.0
 11
0.0
 21
-0.4841350632240001
 31
0.0
210
0.0
220
0.0
230
1.0
 40
0.1666666666666666
 41
4.712388980384689
 42
7.853981633974482
1001
ACAD
1000
TCW40_DEV_WIDTH
1002
{
1040
-3.0
1002
}
  0
ELLIPSE
  5
9F52
330
1F
100
AcDbEntity
  8
0
100
AcDbEllipse
 10
15.09247362611186
 20
9.022649050554926
 30
0.0
 11
0.0
 21
-0.4841350632239993
 31
0.0
210
0.0
220
0.0
230
1.0
 40
0.1666666666666666
 41
-1.562222240401897
 42
1.570796326794896
1001
ACAD
1000
TCW40_DEV_WIDTH
1002
{
1040
-3.0
1002
}
  0
ELLIPSE
  5
9F53
330
1F
100
AcDbEntity
  8
0
100
AcDbEllipse
 10
14.84031994734937
 20
9.042821344855925
 30
0.0
 11
0.0
 21
-0.4841350632240007
 31
0.0
210
0.0
220
0.0
230
1.0
 40
0.1666666666666674
 41
-1.55394312469243
 42
1.526241120561437
1001
ACAD
1000
TCW40_DEV_WIDTH
1002
{
1040
-3.0
1002
}
  0
ELLIPSE
  5
9F54
330
1F
100
AcDbEntity
  8
0
100
AcDbEllipse
 10
14.58816626858687
 20
9.062993639156927
 30
0.0
 11
0.0
 21
-0.4841350632239999
 31
0.0
210
0.0
220
0.0
230
1.0
 40
0.1666666666666651
 41
4.685127266443919
 42
7.821061463544657
1001
ACAD
1000
TCW40_DEV_WIDTH
1002
{
1040
-3.0
1002
}
  0
ELLIPSE
  5
9F55
330
1F
100
AcDbEntity
  8
0
100
AcDbEllipse
 10
14.33601258982435
 20
9.103338227758927
 30
0.0
 11
0.0
 21
-0.4841350632240002
 31
0.0
210
0.0
220
0.0
230
1.0
 40
0.1666666666666643
 41
4.690932161129962
 42
7.82938616715147
1001
ACAD
1000
TCW40_DEV_WIDTH
1002
{
1040
-3.0
1002
}
  0
ELLIPSE
  5
9F56
330
1F
100
AcDbEntity
  8
0
100
AcDbEllipse
 10
14.08385891106186
 20
9.123510522059925
 30
0.0
 11
0.0
 21
-0.4841350632240009
 31
0.0
210
0.0
220
0.0
230
1.0
 40
0.1666666666666652
 41
4.685554211486188
 42
7.854189965268535
1001
ACAD
1000
TCW40_DEV_WIDTH
1002
{
1040
-3.0
1002
}
  0
LWPOLYLINE
  5
9F57
330
1F
100
AcDbEntity
  8
0
100
AcDbPolyline
 90
        2
 70
     0
 43
0.0
 10
13.80045542949588
 20
9.143710603151932
 42
-0.0083634671130051
 10
14.00319878444731
 20
9.136500615428074
  0
LWPOLYLINE
  5
9F58
330
1F
100
AcDbEntity
  8
0
100
AcDbPolyline
 90
        2
 70
     0
 43
0.0
 10
14.16454808651482
 20
9.123611382543414
 42
-0.0051836372337704
 10
14.25534198635836
 20
9.113725429226493
  0
LWPOLYLINE
  5
9F59
330
1F
100
AcDbEntity
  8
0
100
AcDbPolyline
 90
        2
 70
     0
 43
0.0
 10
14.41521962108078
 20
9.091660622112557
 42
-0.0053110407206134
 10
14.50750707366639
 20
9.076190355981863
  0
LWPOLYLINE
  5
9F5A
330
1F
100
AcDbEntity
  8
0
100
AcDbPolyline
 90
        2
 70
     0
 43
0.0
 10
14.66724041403523
 20
9.047304280532012
 42
0.0098390854573012
 10
14.76100614521709
 20
9.034503174438919
  0
LWPOLYLINE
  5
9F5B
330
1F
100
AcDbEntity
  8
0
100
AcDbPolyline
 90
        2
 70
     0
 43
0.0
 10
14.76477718150642
 20
8.953377578511451
 42
0.0156796610766747
 10
14.91504679590978
 20
8.940865809037047
  0
LWPOLYLINE
  5
9F5C
330
1F
100
AcDbEntity
  8
0
100
AcDbPolyline
 90
        2
 70
     0
 43
0.0
 10
15.01665037149816
 20
8.937758079204686
 42
0.0157936648709978
 10
15.16849854462768
 20
8.941121141819065
  0
LWPOLYLINE
  5
9F5D
330
1F
100
AcDbEntity
  8
0
100
AcDbPolyline
 90
        2
 70
     0
 43
0.0
 10
15.17316274474191
 20
9.022065704755709
 42
0.0010502966732702
 10
15.18324895046636
 20
9.022649050554926
  0
ELLIPSE
  5
9F5E
330
1F
100
AcDbEntity
  8
0
100
AcDbEllipse
 10
16.35324201992436
 20
9.103338227758927
 30
0.0
 11
0.0
 21
-0.4841350632239992
 31
0.0
210
0.0
220
0.0
230
1.0
 40
0.1666666666666656
 41
-1.403348247575207
 42
1.403348247575207
1001
ACAD
1000
TCW40_DEV_WIDTH
1002
{
1040
-3.0
1002
}
  0
ELLIPSE
  5
9F5F
330
1F
100
AcDbEntity
  8
0
100
AcDbEllipse
 10
16.60539569868685
 20
9.103338227758927
 30
0.0
 11
0.0
 21
-0.4841350632239992
 31
0.0
210
0.0
220
0.0
230
1.0
 40
0.1666666666666656
 41
-1.403348247575207
 42
1.403348247575207
1001
ACAD
1000
TCW40_DEV_WIDTH
1002
{
1040
-3.0
1002
}
  0
ELLIPSE
  5
9F60
330
1F
100
AcDbEntity
  8
0
100
AcDbEllipse
 10
16.85754937744937
 20
9.103338227758927
 30
0.0
 11
0.0
 21
-0.4841350632239992
 31
0.0
210
0.0
220
0.0
230
1.0
 40
0.1666666666666656
 41
-1.403348247575207
 42
1.403348247575207
1001
ACAD
1000
TCW40_DEV_WIDTH
1002
{
1040
-3.0
1002
}
  0
ELLIPSE
  5
9F61
330
1F
100
AcDbEntity
  8
0
100
AcDbEllipse
 10
16.10108834116187
 20
9.103338227758927
 30
0.0
 11
0.0
 21
-0.4841350632239992
 31
0.0
210
0.0
220
0.0
230
1.0
 40
0.1666666666666656
 41
-1.403348247575207
 42
1.403348247575207
1001
ACAD
1000
TCW40_DEV_WIDTH
1002
{
1040
-3.0
1002
}
  0
ELLIPSE
  5
9F62
330
1F
100
AcDbEntity
  8
0
100
AcDbEllipse
 10
15.84893466239937
 20
9.103338227758927
 30
0.0
 11
0.0
 21
-0.4841350632239992
 31
0.0
210
0.0
220
0.0
230
1.0
 40
0.1666666666666656
 41
-1.403348247575207
 42
1.403348247575207
1001
ACAD
1000
TCW40_DEV_WIDTH
1002
{
1040
-3.0
1002
}
  0
ELLIPSE
  5
9F63
330
1F
100
AcDbEntity
  8
0
100
AcDbEllipse
 10
15.34462730487436
 20
9.103338227758927
 30
0.0
 11
0.0
 21
-0.4841350632239992
 31
0.0
210
0.0
220
0.0
230
1.0
 40
0.1666666666666656
 41
-1.403348247575207
 42
1.403348247575207
1001
ACAD
1000
TCW40_DEV_WIDTH
1002
{
1040
-3.0
1002
}
  0
ELLIPSE
  5
9F64
330
1F
100
AcDbEntity
  8
0
100
AcDbEllipse
 10
15.09247362611186
 20
9.103338227758927
 30
0.0
 11
0.0
 21
-0.4841350632240006
 31
0.0
210
0.0
220
0.0
230
1.0
 40
0.1666666666666648
 41
-1.394616842273924
 42
1.403348247575207
1001
ACAD
1000
TCW40_DEV_WIDTH
1002
{
1040
-3.0
1002
}
  0
ELLIPSE
  5
9F65
330
1F
100
AcDbEntity
  8
0
100
AcDbEllipse
 10
14.84031994734937
 20
9.123510522059925
 30
0.0
 11
0.0
 21
-0.4841350632239997
 31
0.0
210
0.0
220
0.0
230
1.0
 40
0.1666666666666676
 41
-1.385896392321205
 42
1.358168851390436
1001
ACAD
1000
TCW40_DEV_WIDTH
1002
{
1040
-3.0
1002
}
  0
ELLIPSE
  5
9F66
330
1F
100
AcDbEntity
  8
0
100
AcDbEllipse
 10
14.58816626857767
 20
9.143682816360927
 30
0.0
 11
0.0
 21
-0.4841350632239992
 31
0.0
210
0.0
220
0.0
230
1.0
 40
0.1666666666666656
 41
-1.403348247575207
 42
1.370383763358458
1001
ACAD
1000
TCW40_DEV_WIDTH
1002
{
1040
-3.0
1002
}
  0
ELLIPSE
  5
9F67
330
1F
100
AcDbEntity
  8
0
100
AcDbEllipse
 10
14.33601258981518
 20
9.184027404962927
 30
0.0
 11
0.0
 21
-0.4841350632239992
 31
0.0
210
0.0
220
0.0
230
1.0
 40
0.1666666666666656
 41
-1.403348247575207
 42
1.378832291897181
1001
ACAD
1000
TCW40_DEV_WIDTH
1002
{
1040
-3.0
1002
}
  0
ELLIPSE
  5
9F68
330
1F
100
AcDbEntity
  8
0
100
AcDbEllipse
 10
14.08385891105266
 20
9.204199699263925
 30
0.0
 11
0.0
 21
-0.4841350632239992
 31
0.0
210
0.0
220
0.0
230
1.0
 40
0.1666666666666656
 41
-1.403348247575207
 42
1.403348247575207
1001
ACAD
1000
TCW40_DEV_WIDTH
1002
{
1040
-3.0
1002
}
  0
ELLIPSE
  5
9F69
330
1F
100
AcDbEntity
  8
0
100
AcDbEllipse
 10
17.10970305621187
 20
9.103338227758927
 30
0.0
 11
0.0
 21
-0.4841350632239992
 31
0.0
210
0.0
220
0.0
230
1.0
 40
0.1666666666666656
 41
-1.403348247575207
 42
1.403348247575207
1001
ACAD
1000
TCW40_DEV_WIDTH
1002
{
1040
-3.0
1002
}
  0
ELLIPSE
  5
9F6A
330
1F
100
AcDbEntity
  8
0
100
AcDbEllipse
 10
17.36185673497437
 20
9.103338227758927
 30
0.0
 11
0.0
 21
-0.4841350632239992
 31
0.0
210
0.0
220
0.0
230
1.0
 40
0.1666666666666656
 41
-1.403348247575207
 42
1.403348247575207
1001
ACAD
1000
TCW40_DEV_WIDTH
1002
{
1040
-3.0
1002
}
  0
ELLIPSE
  5
9F6B
330
1F
100
AcDbEntity
  8
0
100
AcDbEllipse
 10
17.61401041373686
 20
9.103338227758927
 30
0.0
 11
0.0
 21
-0.4841350632239992
 31
0.0
210
0.0
220
0.0
230
1.0
 40
0.1666666666666656
 41
-1.403348247575207
 42
1.403348247575207
1001
ACAD
1000
TCW40_DEV_WIDTH
1002
{
1040
-3.0
1002
}
  0
ELLIPSE
  5
9F6C
330
1F
100
AcDbEntity
  8
0
100
AcDbEllipse
 10
17.86616409249937
 20
9.103338227758927
 30
0.0
 11
0.0
 21
-0.4841350632239992
 31
0.0
210
0.0
220
0.0
230
1.0
 40
0.1666666666666656
 41
-1.403348247575207
 42
1.403348247575207
1001
ACAD
1000
TCW40_DEV_WIDTH
1002
{
1040
-3.0
1002
}
  0
ELLIPSE
  5
9F6D
330
1F
100
AcDbEntity
  8
0
100
AcDbEllipse
 10
15.59678098363687
 20
9.103338227758927
 30
0.0
 11
0.0
 21
-0.4841350632239992
 31
0.0
210
0.0
220
0.0
230
1.0
 40
0.1666666666666656
 41
-1.403348247575207
 42
1.403348247575207
1001
ACAD
1000
TCW40_DEV_WIDTH
1002
{
1040
-3.0
1002
}
  0
LWPOLYLINE
  5
9F6E
330
1F
100
AcDbEntity
  8
0
100
AcDbPolyline
 90
        2
 70
     0
 43
0.0
 10
14.00706614737046
 20
9.055572206852351
 42
-0.0089034290691004
 10
14.16342545425736
 20
9.043032532622012
  0
LWPOLYLINE
  5
9F6F
330
1F
100
AcDbEntity
  8
0
100
AcDbPolyline
 90
        2
 70
     0
 43
0.0
 10
14.25937450707442
 20
9.032552940776435
 42
-0.0089301670529736
 10
14.41521962108992
 20
9.010971444907278
  0
LWPOLYLINE
  5
9F70
330
1F
100
AcDbEntity
  8
0
100
AcDbPolyline
 90
        2
 70
     0
 43
0.0
 10
14.50822943189678
 20
8.997035800485656
 42
0.0164208329197848
 10
14.66330555280664
 20
8.967234732769762
  0
LWPOLYLINE
  5
9F71
330
1F
100
AcDbEntity
  8
0
100
AcDbPolyline
 90
        2
 70
     0
 43
0.0
 10
14.66881172679092
 20
9.047058708942211
 42
0.009530968508237
 10
14.75964222896464
 20
9.034662505029663
  0
LWPOLYLINE
  5
9F72
330
1F
100
AcDbEntity
  8
0
100
AcDbPolyline
 90
        2
 70
     0
 43
0.0
 10
14.92092904708011
 20
9.021257743478026
 42
0.0095802259197058
 10
15.01303347733854
 20
9.018484124109084
  0
LWPOLYLINE
  5
9F73
330
1F
100
AcDbEntity
  8
0
100
AcDbPolyline
 90
        2
 70
     0
 43
0.0
 10
14.76942431351917
 20
8.892331182194999
 42
0.0146801367772511
 10
14.91011839807052
 20
8.880609090585627
  0
LWPOLYLINE
  5
9F74
330
1F
100
AcDbEntity
  8
0
100
AcDbPolyline
 90
        2
 70
     0
 43
0.0
 10
15.02112750938769
 20
8.87720309544945
 42
0.014869698490557
 10
15.16409621303732
 20
8.880371546483894
  0
LWPOLYLINE
  5
9F75
330
1F
100
AcDbEntity
  8
0
100
AcDbPolyline
 90
        2
 70
     0
 43
0.0
 10
14.01110757904568
 20
8.994801675570313
 42
-0.0082305580818414
 10
14.15565672622931
 20
8.983271172509423
  0
LWPOLYLINE
  5
9F76
330
1F
100
AcDbEntity
  8
0
100
AcDbPolyline
 90
        2
 70
     0
 43
0.0
 10
14.25937450707442
 20
8.972036057873436
 42
-0.008447071874798
 10
14.40680976028126
 20
8.951764314940549
  0
LWPOLYLINE
  5
9F77
330
1F
100
AcDbEntity
  8
0
100
AcDbPolyline
 90
        2
 70
     0
 43
0.0
 10
14.51536468026462
 20
8.934914537998368
 42
0.0151648059833676
 10
14.65859929266507
 20
8.907467728596705
  0
LINE
  5
9F78
330
1F
100
AcDbEntity
  8
0
100
AcDbLine
 10
17.94223857832512
 20
8.941959873350926
 30
0.0
 11
17.79008960667363
 21
8.941959873350926
 31
0.0
1001
ACAD
1000
TCW40_DEV_WIDTH
1002
{
1040
-3.0
1002
}
  0
LINE
  5
9F79
330
1F
100
AcDbEntity
  8
0
100
AcDbLine
 10
17.6900848995626
 20
8.941959873350926
 30
0.0
 11
17.53793592791111
 21
8.941959873350926
 31
0.0
1001
ACAD
1000
TCW40_DEV_WIDTH
1002
{
1040
-3.0
1002
}
  0
LINE
  5
9F7A
330
1F
100
AcDbEntity
  8
0
100
AcDbLine
 10
17.43793122080011
 20
8.941959873350926
 30
0.0
 11
17.28578224914862
 21
8.941959873350926
 31
0.0
1001
ACAD
1000
TCW40_DEV_WIDTH
1002
{
1040
-3.0
1002
}
  0
LINE
  5
9F7B
330
1F
100
AcDbEntity
  8
0
100
AcDbLine
 10
17.18577754203761
 20
8.941959873350926
 30
0.0
 11
17.03362857038613
 21
8.941959873350926
 31
0.0
1001
ACAD
1000
TCW40_DEV_WIDTH
1002
{
1040
-3.0
1002
}
  0
LINE
  5
9F7C
330
1F
100
AcDbEntity
  8
0
100
AcDbLine
 10
16.93362386327512
 20
8.941959873350926
 30
0.0
 11
16.78147489162363
 21
8.941959873350926
 31
0.0
1001
ACAD
1000
TCW40_DEV_WIDTH
1002
{
1040
-3.0
1002
}
  0
LINE
  5
9F7D
330
1F
100
AcDbEntity
  8
0
100
AcDbLine
 10
16.68147018451263
 20
8.941959873350926
 30
0.0
 11
16.52932121286111
 21
8.941959873350926
 31
0.0
1001
ACAD
1000
TCW40_DEV_WIDTH
1002
{
1040
-3.0
1002
}
  0
LINE
  5
9F7E
330
1F
100
AcDbEntity
  8
0
100
AcDbLine
 10
16.42931650575011
 20
8.941959873350926
 30
0.0
 11
16.27716753409861
 21
8.941959873350926
 31
0.0
1001
ACAD
1000
TCW40_DEV_WIDTH
1002
{
1040
-3.0
1002
}
  0
LINE
  5
9F7F
330
1F
100
AcDbEntity
  8
0
100
AcDbLine
 10
16.17716282698761
 20
8.941959873350926
 30
0.0
 11
16.02501385533612
 21
8.941959873350926
 31
0.0
1001
ACAD
1000
TCW40_DEV_WIDTH
1002
{
1040
-3.0
1002
}
  0
LINE
  5
9F80
330
1F
100
AcDbEntity
  8
0
100
AcDbLine
 10
15.92500914822511
 20
8.941959873350926
 30
0.0
 11
15.77286017657363
 21
8.941959873350926
 31
0.0
1001
ACAD
1000
TCW40_DEV_WIDTH
1002
{
1040
-3.0
1002
}
  0
LINE
  5
9F81
330
1F
100
AcDbEntity
  8
0
100
AcDbLine
 10
15.67285546946262
 20
8.941959873350926
 30
0.0
 11
15.5207064978111
 21
8.941959873350926
 31
0.0
1001
ACAD
1000
TCW40_DEV_WIDTH
1002
{
1040
-3.0
1002
}
  0
LINE
  5
9F82
330
1F
100
AcDbEntity
  8
0
100
AcDbLine
 10
15.4207017907001
 20
8.941959873350926
 30
0.0
 11
15.26855281904861
 21
8.941959873350926
 31
0.0
1001
ACAD
1000
TCW40_DEV_WIDTH
1002
{
1040
-3.0
1002
}
  0
LINE
  5
9F83
330
1F
100
AcDbEntity
  8
0
100
AcDbLine
 10
17.93951534290646
 20
8.901615284748929
 30
0.0
 11
17.79281284209227
 21
8.901615284748929
 31
0.0
1001
ACAD
1000
TCW40_DEV_WIDTH
1002
{
1040
-3.0
1002
}
  0
LINE
  5
9F84
330
1F
100
AcDbEntity
  8
0
100
AcDbLine
 10
17.68736166414396
 20
8.901615284748929
 30
0.0
 11
17.54065916332975
 21
8.901615284748929
 31
0.0
1001
ACAD
1000
TCW40_DEV_WIDTH
1002
{
1040
-3.0
1002
}
  0
LINE
  5
9F85
330
1F
100
AcDbEntity
  8
0
100
AcDbLine
 10
17.43520798538147
 20
8.901615284748929
 30
0.0
 11
17.28850548456725
 21
8.901615284748929
 31
0.0
1001
ACAD
1000
TCW40_DEV_WIDTH
1002
{
1040
-3.0
1002
}
  0
LINE
  5
9F86
330
1F
100
AcDbEntity
  8
0
100
AcDbLine
 10
17.18305430661898
 20
8.901615284748929
 30
0.0
 11
17.03635180580475
 21
8.901615284748929
 31
0.0
1001
ACAD
1000
TCW40_DEV_WIDTH
1002
{
1040
-3.0
1002
}
  0
LINE
  5
9F87
330
1F
100
AcDbEntity
  8
0
100
AcDbLine
 10
16.93090062785649
 20
8.901615284748929
 30
0.0
 11
16.78419812704226
 21
8.901615284748929
 31
0.0
1001
ACAD
1000
TCW40_DEV_WIDTH
1002
{
1040
-3.0
1002
}
  0
LINE
  5
9F88
330
1F
100
AcDbEntity
  8
0
100
AcDbLine
 10
16.67874694909396
 20
8.901615284748929
 30
0.0
 11
16.53204444827977
 21
8.901615284748929
 31
0.0
1001
ACAD
1000
TCW40_DEV_WIDTH
1002
{
1040
-3.0
1002
}
  0
LINE
  5
9F89
330
1F
100
AcDbEntity
  8
0
100
AcDbLine
 10
16.42659327033146
 20
8.901615284748929
 30
0.0
 11
16.27989076951725
 21
8.901615284748929
 31
0.0
1001
ACAD
1000
TCW40_DEV_WIDTH
1002
{
1040
-3.0
1002
}
  0
LINE
  5
9F8A
330
1F
100
AcDbEntity
  8
0
100
AcDbLine
 10
16.17443959156897
 20
8.901615284748929
 30
0.0
 11
16.02773709075475
 21
8.901615284748929
 31
0.0
1001
ACAD
1000
TCW40_DEV_WIDTH
1002
{
1040
-3.0
1002
}
  0
LINE
  5
9F8B
330
1F
100
AcDbEntity
  8
0
100
AcDbLine
 10
15.92228591280648
 20
8.901615284748929
 30
0.0
 11
15.77558341199226
 21
8.901615284748929
 31
0.0
1001
ACAD
1000
TCW40_DEV_WIDTH
1002
{
1040
-3.0
1002
}
  0
LINE
  5
9F8C
330
1F
100
AcDbEntity
  8
0
100
AcDbLine
 10
15.67013223404396
 20
8.901615284748929
 30
0.0
 11
15.52342973322977
 21
8.901615284748929
 31
0.0
1001
ACAD
1000
TCW40_DEV_WIDTH
1002
{
1040
-3.0
1002
}
  0
LINE
  5
9F8D
330
1F
100
AcDbEntity
  8
0
100
AcDbLine
 10
15.41797855528146
 20
8.901615284748929
 30
0.0
 11
15.27127605446725
 21
8.901615284748929
 31
0.0
1001
ACAD
1000
TCW40_DEV_WIDTH
1002
{
1040
-3.0
1002
}
  0
LINE
  5
9F8E
330
1F
100
AcDbEntity
  8
0
100
AcDbLine
 10
17.93604296976848
 20
8.861270696146929
 30
0.0
 11
17.79628521523024
 21
8.861270696146929
 31
0.0
1001
ACAD
1000
TCW40_DEV_WIDTH
1002
{
1040
-3.0
1002
}
  0
LINE
  5
9F8F
330
1F
100
AcDbEntity
  8
0
100
AcDbLine
 10
17.683889291006
 20
8.861270696146929
 30
0.0
 11
17.54413153646774
 21
8.861270696146929
 31
0.0
1001
ACAD
1000
TCW40_DEV_WIDTH
1002
{
1040
-3.0
1002
}
  0
LINE
  5
9F90
330
1F
100
AcDbEntity
  8
0
100
AcDbLine
 10
17.4317356122435
 20
8.861270696146929
 30
0.0
 11
17.29197785770522
 21
8.861270696146929
 31
0.0
1001
ACAD
1000
TCW40_DEV_WIDTH
1002
{
1040
-3.0
1002
}
  0
LINE
  5
9F91
330
1F
100
AcDbEntity
  8
0
100
AcDbLine
 10
17.179581933481
 20
8.861270696146929
 30
0.0
 11
17.03982417894273
 21
8.861270696146929
 31
0.0
1001
ACAD
1000
TCW40_DEV_WIDTH
1002
{
1040
-3.0
1002
}
  0
LINE
  5
9F92
330
1F
100
AcDbEntity
  8
0
100
AcDbLine
 10
16.92742825471848
 20
8.861270696146929
 30
0.0
 11
16.78767050018024
 21
8.861270696146929
 31
0.0
1001
ACAD
1000
TCW40_DEV_WIDTH
1002
{
1040
-3.0
1002
}
  0
LINE
  5
9F93
330
1F
100
AcDbEntity
  8
0
100
AcDbLine
 10
16.67527457595599
 20
8.861270696146929
 30
0.0
 11
16.53551682141774
 21
8.861270696146929
 31
0.0
1001
ACAD
1000
TCW40_DEV_WIDTH
1002
{
1040
-3.0
1002
}
  0
LINE
  5
9F94
330
1F
100
AcDbEntity
  8
0
100
AcDbLine
 10
16.4231208971935
 20
8.861270696146929
 30
0.0
 11
16.28336314265522
 21
8.861270696146929
 31
0.0
1001
ACAD
1000
TCW40_DEV_WIDTH
1002
{
1040
-3.0
1002
}
  0
LINE
  5
9F95
330
1F
100
AcDbEntity
  8
0
100
AcDbLine
 10
16.170967218431
 20
8.861270696146929
 30
0.0
 11
16.03120946389273
 21
8.861270696146929
 31
0.0
1001
ACAD
1000
TCW40_DEV_WIDTH
1002
{
1040
-3.0
1002
}
  0
LINE
  5
9F96
330
1F
100
AcDbEntity
  8
0
100
AcDbLine
 10
15.9188135396685
 20
8.861270696146929
 30
0.0
 11
15.77905578513024
 21
8.861270696146929
 31
0.0
1001
ACAD
1000
TCW40_DEV_WIDTH
1002
{
1040
-3.0
1002
}
  0
LINE
  5
9F97
330
1F
100
AcDbEntity
  8
0
100
AcDbLine
 10
15.66665986090598
 20
8.861270696146929
 30
0.0
 11
15.52690210636774
 21
8.861270696146929
 31
0.0
1001
ACAD
1000
TCW40_DEV_WIDTH
1002
{
1040
-3.0
1002
}
  0
LINE
  5
9F98
330
1F
100
AcDbEntity
  8
0
100
AcDbLine
 10
15.41450618214349
 20
8.861270696146929
 30
0.0
 11
15.27474842760524
 21
8.861270696146929
 31
0.0
1001
ACAD
1000
TCW40_DEV_WIDTH
1002
{
1040
-3.0
1002
}
  0
LINE
  5
9F99
330
1F
100
AcDbEntity
  8
0
100
AcDbLine
 10
17.92915206126578
 20
8.800753813243927
 30
0.0
 11
17.80317612373294
 21
8.800753813243927
 31
0.0
1001
ACAD
1000
TCW40_DEV_WIDTH
1002
{
1040
-3.0
1002
}
  0
LINE
  5
9F9A
330
1F
100
AcDbEntity
  8
0
100
AcDbLine
 10
17.67699838250329
 20
8.800753813243927
 30
0.0
 11
17.55102244497045
 21
8.800753813243927
 31
0.0
1001
ACAD
1000
TCW40_DEV_WIDTH
1002
{
1040
-3.0
1002
}
  0
LINE
  5
9F9B
330
1F
100
AcDbEntity
  8
0
100
AcDbLine
 10
17.4248447037408
 20
8.800753813243927
 30
0.0
 11
17.29886876620793
 21
8.800753813243927
 31
0.0
1001
ACAD
1000
TCW40_DEV_WIDTH
1002
{
1040
-3.0
1002
}
  0
LINE
  5
9F9C
330
1F
100
AcDbEntity
  8
0
100
AcDbLine
 10
17.1726910249783
 20
8.800753813243927
 30
0.0
 11
17.04671508744543
 21
8.800753813243927
 31
0.0
1001
ACAD
1000
TCW40_DEV_WIDTH
1002
{
1040
-3.0
1002
}
  0
LINE
  5
9F9D
330
1F
100
AcDbEntity
  8
0
100
AcDbLine
 10
16.92053734621578
 20
8.800753813243927
 30
0.0
 11
16.79456140868294
 21
8.800753813243927
 31
0.0
1001
ACAD
1000
TCW40_DEV_WIDTH
1002
{
1040
-3.0
1002
}
  0
LINE
  5
9F9E
330
1F
100
AcDbEntity
  8
0
100
AcDbLine
 10
16.66838366745328
 20
8.800753813243927
 30
0.0
 11
16.54240772992045
 21
8.800753813243927
 31
0.0
1001
ACAD
1000
TCW40_DEV_WIDTH
1002
{
1040
-3.0
1002
}
  0
LINE
  5
9F9F
330
1F
100
AcDbEntity
  8
0
100
AcDbLine
 10
16.41622998869079
 20
8.800753813243927
 30
0.0
 11
16.29025405115796
 21
8.800753813243927
 31
0.0
1001
ACAD
1000
TCW40_DEV_WIDTH
1002
{
1040
-3.0
1002
}
  0
LINE
  5
9FA0
330
1F
100
AcDbEntity
  8
0
100
AcDbLine
 10
16.1640763099283
 20
8.800753813243927
 30
0.0
 11
16.03810037239543
 21
8.800753813243927
 31
0.0
1001
ACAD
1000
TCW40_DEV_WIDTH
1002
{
1040
-3.0
1002
}
  0
LINE
  5
9FA1
330
1F
100
AcDbEntity
  8
0
100
AcDbLine
 10
15.91192263116578
 20
8.800753813243927
 30
0.0
 11
15.78594669363293
 21
8.800753813243927
 31
0.0
1001
ACAD
1000
TCW40_DEV_WIDTH
1002
{
1040
-3.0
1002
}
  0
LINE
  5
9FA2
330
1F
100
AcDbEntity
  8
0
100
AcDbLine
 10
15.65976895240328
 20
8.800753813243927
 30
0.0
 11
15.53379301487044
 21
8.800753813243927
 31
0.0
1001
ACAD
1000
TCW40_DEV_WIDTH
1002
{
1040
-3.0
1002
}
  0
LINE
  5
9FA3
330
1F
100
AcDbEntity
  8
0
100
AcDbLine
 10
15.40761527364078
 20
8.800753813243927
 30
0.0
 11
15.28163933610795
 21
8.800753813243927
 31
0.0
1001
ACAD
1000
TCW40_DEV_WIDTH
1002
{
1040
-3.0
1002
}
  0
LWPOLYLINE
  5
9FA4
330
1F
100
AcDbEntity
  8
0
100
AcDbPolyline
 90
        2
 70
     0
 43
0.0
 10
14.76477718150642
 20
2.798164700686402
 42
-0.0156796610766747
 10
14.91504679590978
 20
2.810676470160808
  0
LWPOLYLINE
  5
9FA5
330
1F
100
AcDbEntity
  8
0
100
AcDbPolyline
 90
        2
 70
     0
 43
0.0
 10
15.01665037149816
 20
2.813784199993167
 42
-0.0157936648709978
 10
15.16849854462768
 20
2.810421137378788
  0
LWPOLYLINE
  5
9FA6
330
1F
100
AcDbEntity
  8
0
100
AcDbPolyline
 90
        2
 70
     0
 43
0.0
 10
14.00706614737046
 20
2.695970072345505
 42
0.0089034290691004
 10
14.16342545425736
 20
2.708509746575841
  0
LWPOLYLINE
  5
9FA7
330
1F
100
AcDbEntity
  8
0
100
AcDbPolyline
 90
        2
 70
     0
 43
0.0
 10
14.25937450707442
 20
2.718989338421418
 42
0.0089301670529736
 10
14.41521962108992
 20
2.740570834290575
  0
LWPOLYLINE
  5
9FA8
330
1F
100
AcDbEntity
  8
0
100
AcDbPolyline
 90
        2
 70
     0
 43
0.0
 10
14.50822943189678
 20
2.754506478712198
 42
-0.0164208329197848
 10
14.66330555280664
 20
2.784307546428091
  0
LWPOLYLINE
  5
9FA9
330
1F
100
AcDbEntity
  8
0
100
AcDbPolyline
 90
        2
 70
     0
 43
0.0
 10
14.76942431351917
 20
2.859211097002854
 42
-0.0146801367772511
 10
14.91011839807052
 20
2.870933188612226
  0
LWPOLYLINE
  5
9FAA
330
1F
100
AcDbEntity
  8
0
100
AcDbPolyline
 90
        2
 70
     0
 43
0.0
 10
15.02112750938769
 20
2.874339183748403
 42
-0.014869698490557
 10
15.16409621303732
 20
2.871170732713959
  0
LWPOLYLINE
  5
9FAB
330
1F
100
AcDbEntity
  8
0
100
AcDbPolyline
 90
        2
 70
     0
 43
0.0
 10
14.01110757904568
 20
2.756740603627542
 42
0.0082305580818414
 10
14.15565672622931
 20
2.768271106688431
  0
LWPOLYLINE
  5
9FAC
330
1F
100
AcDbEntity
  8
0
100
AcDbPolyline
 90
        2
 70
     0
 43
0.0
 10
14.25937450707442
 20
2.779506221324418
 42
0.008447071874798
 10
14.40680976028126
 20
2.799777964257304
  0
LWPOLYLINE
  5
9FAD
330
1F
100
AcDbEntity
  8
0
100
AcDbPolyline
 90
        2
 70
     0
 43
0.0
 10
14.51536468026462
 20
2.816627741199483
 42
-0.0151648059833676
 10
14.65859929266507
 20
2.84407455060115
  0
LINE
  5
9FAE
330
1F
100
AcDbEntity
  8
0
100
AcDbLine
 10
17.94223857832512
 20
2.809582405846927
 30
0.0
 11
17.79008960667363
 21
2.809582405846927
 31
0.0
1001
ACAD
1000
TCW40_DEV_WIDTH
1002
{
1040
-3.0
1002
}
  0
LINE
  5
9FAF
330
1F
100
AcDbEntity
  8
0
100
AcDbLine
 10
17.6900848995626
 20
2.809582405846927
 30
0.0
 11
17.53793592791111
 21
2.809582405846927
 31
0.0
1001
ACAD
1000
TCW40_DEV_WIDTH
1002
{
1040
-3.0
1002
}
  0
LINE
  5
9FB0
330
1F
100
AcDbEntity
  8
0
100
AcDbLine
 10
17.43793122080011
 20
2.809582405846927
 30
0.0
 11
17.28578224914862
 21
2.809582405846927
 31
0.0
1001
ACAD
1000
TCW40_DEV_WIDTH
1002
{
1040
-3.0
1002
}
  0
LINE
  5
9FB1
330
1F
100
AcDbEntity
  8
0
100
AcDbLine
 10
17.18577754203761
 20
2.809582405846927
 30
0.0
 11
17.03362857038613
 21
2.809582405846927
 31
0.0
1001
ACAD
1000
TCW40_DEV_WIDTH
1002
{
1040
-3.0
1002
}
  0
LINE
  5
9FB2
330
1F
100
AcDbEntity
  8
0
100
AcDbLine
 10
16.93362386327512
 20
2.809582405846927
 30
0.0
 11
16.78147489162363
 21
2.809582405846927
 31
0.0
1001
ACAD
1000
TCW40_DEV_WIDTH
1002
{
1040
-3.0
1002
}
  0
LINE
  5
9FB3
330
1F
100
AcDbEntity
  8
0
100
AcDbLine
 10
16.68147018451263
 20
2.809582405846927
 30
0.0
 11
16.52932121286111
 21
2.809582405846927
 31
0.0
1001
ACAD
1000
TCW40_DEV_WIDTH
1002
{
1040
-3.0
1002
}
  0
LINE
  5
9FB4
330
1F
100
AcDbEntity
  8
0
100
AcDbLine
 10
16.42931650575011
 20
2.809582405846927
 30
0.0
 11
16.27716753409861
 21
2.809582405846927
 31
0.0
1001
ACAD
1000
TCW40_DEV_WIDTH
1002
{
1040
-3.0
1002
}
  0
LINE
  5
9FB5
330
1F
100
AcDbEntity
  8
0
100
AcDbLine
 10
16.17716282698761
 20
2.809582405846927
 30
0.0
 11
16.02501385533612
 21
2.809582405846927
 31
0.0
1001
ACAD
1000
TCW40_DEV_WIDTH
1002
{
1040
-3.0
1002
}
  0
LINE
  5
9FB6
330
1F
100
AcDbEntity
  8
0
100
AcDbLine
 10
15.92500914822511
 20
2.809582405846927
 30
0.0
 11
15.77286017657363
 21
2.809582405846927
 31
0.0
1001
ACAD
1000
TCW40_DEV_WIDTH
1002
{
1040
-3.0
1002
}
  0
LINE
  5
9FB7
330
1F
100
AcDbEntity
  8
0
100
AcDbLine
 10
15.67285546946262
 20
2.809582405846927
 30
0.0
 11
15.5207064978111
 21
2.809582405846927
 31
0.0
1001
ACAD
1000
TCW40_DEV_WIDTH
1002
{
1040
-3.0
1002
}
  0
LINE
  5
9FB8
330
1F
100
AcDbEntity
  8
0
100
AcDbLine
 10
15.4207017907001
 20
2.809582405846927
 30
0.0
 11
15.26855281904861
 21
2.809582405846927
 31
0.0
1001
ACAD
1000
TCW40_DEV_WIDTH
1002
{
1040
-3.0
1002
}
  0
LINE
  5
9FB9
330
1F
100
AcDbEntity
  8
0
100
AcDbLine
 10
17.93951534290646
 20
2.849926994448925
 30
0.0
 11
17.79281284209227
 21
2.849926994448925
 31
0.0
1001
ACAD
1000
TCW40_DEV_WIDTH
1002
{
1040
-3.0
1002
}
  0
LINE
  5
9FBA
330
1F
100
AcDbEntity
  8
0
100
AcDbLine
 10
17.68736166414396
 20
2.849926994448925
 30
0.0
 11
17.54065916332975
 21
2.849926994448925
 31
0.0
1001
ACAD
1000
TCW40_DEV_WIDTH
1002
{
1040
-3.0
1002
}
  0
LINE
  5
9FBB
330
1F
100
AcDbEntity
  8
0
100
AcDbLine
 10
17.43520798538147
 20
2.849926994448925
 30
0.0
 11
17.28850548456725
 21
2.849926994448925
 31
0.0
1001
ACAD
1000
TCW40_DEV_WIDTH
1002
{
1040
-3.0
1002
}
  0
LINE
  5
9FBC
330
1F
100
AcDbEntity
  8
0
100
AcDbLine
 10
17.18305430661898
 20
2.849926994448925
 30
0.0
 11
17.03635180580475
 21
2.849926994448925
 31
0.0
1001
ACAD
1000
TCW40_DEV_WIDTH
1002
{
1040
-3.0
1002
}
  0
LINE
  5
9FBD
330
1F
100
AcDbEntity
  8
0
100
AcDbLine
 10
16.93090062785649
 20
2.849926994448925
 30
0.0
 11
16.78419812704226
 21
2.849926994448925
 31
0.0
1001
ACAD
1000
TCW40_DEV_WIDTH
1002
{
1040
-3.0
1002
}
  0
LINE
  5
9FBE
330
1F
100
AcDbEntity
  8
0
100
AcDbLine
 10
16.67874694909396
 20
2.849926994448925
 30
0.0
 11
16.53204444827977
 21
2.849926994448925
 31
0.0
1001
ACAD
1000
TCW40_DEV_WIDTH
1002
{
1040
-3.0
1002
}
  0
LINE
  5
9FBF
330
1F
100
AcDbEntity
  8
0
100
AcDbLine
 10
16.42659327033146
 20
2.849926994448925
 30
0.0
 11
16.27989076951725
 21
2.849926994448925
 31
0.0
1001
ACAD
1000
TCW40_DEV_WIDTH
1002
{
1040
-3.0
1002
}
  0
LINE
  5
9FC0
330
1F
100
AcDbEntity
  8
0
100
AcDbLine
 10
16.17443959156897
 20
2.849926994448925
 30
0.0
 11
16.02773709075475
 21
2.849926994448925
 31
0.0
1001
ACAD
1000
TCW40_DEV_WIDTH
1002
{
1040
-3.0
1002
}
  0
LINE
  5
9FC1
330
1F
100
AcDbEntity
  8
0
100
AcDbLine
 10
15.92228591280648
 20
2.849926994448925
 30
0.0
 11
15.77558341199226
 21
2.849926994448925
 31
0.0
1001
ACAD
1000
TCW40_DEV_WIDTH
1002
{
1040
-3.0
1002
}
  0
LINE
  5
9FC2
330
1F
100
AcDbEntity
  8
0
100
AcDbLine
 10
15.67013223404396
 20
2.849926994448925
 30
0.0
 11
15.52342973322977
 21
2.849926994448925
 31
0.0
1001
ACAD
1000
TCW40_DEV_WIDTH
1002
{
1040
-3.0
1002
}
  0
LINE
  5
9FC3
330
1F
100
AcDbEntity
  8
0
100
AcDbLine
 10
15.41797855528146
 20
2.849926994448925
 30
0.0
 11
15.27127605446725
 21
2.849926994448925
 31
0.0
1001
ACAD
1000
TCW40_DEV_WIDTH
1002
{
1040
-3.0
1002
}
  0
LINE
  5
9FC4
330
1F
100
AcDbEntity
  8
0
100
AcDbLine
 10
17.93604296976848
 20
2.890271583050927
 30
0.0
 11
17.79628521523024
 21
2.890271583050927
 31
0.0
1001
ACAD
1000
TCW40_DEV_WIDTH
1002
{
1040
-3.0
1002
}
  0
LINE
  5
9FC5
330
1F
100
AcDbEntity
  8
0
100
AcDbLine
 10
17.683889291006
 20
2.890271583050927
 30
0.0
 11
17.54413153646774
 21
2.890271583050927
 31
0.0
1001
ACAD
1000
TCW40_DEV_WIDTH
1002
{
1040
-3.0
1002
}
  0
LINE
  5
9FC6
330
1F
100
AcDbEntity
  8
0
100
AcDbLine
 10
17.4317356122435
 20
2.890271583050927
 30
0.0
 11
17.29197785770522
 21
2.890271583050927
 31
0.0
1001
ACAD
1000
TCW40_DEV_WIDTH
1002
{
1040
-3.0
1002
}
  0
LINE
  5
9FC7
330
1F
100
AcDbEntity
  8
0
100
AcDbLine
 10
17.179581933481
 20
2.890271583050927
 30
0.0
 11
17.03982417894273
 21
2.890271583050927
 31
0.0
1001
ACAD
1000
TCW40_DEV_WIDTH
1002
{
1040
-3.0
1002
}
  0
LINE
  5
9FC8
330
1F
100
AcDbEntity
  8
0
100
AcDbLine
 10
16.92742825471848
 20
2.890271583050927
 30
0.0
 11
16.78767050018024
 21
2.890271583050927
 31
0.0
1001
ACAD
1000
TCW40_DEV_WIDTH
1002
{
1040
-3.0
1002
}
  0
LINE
  5
9FC9
330
1F
100
AcDbEntity
  8
0
100
AcDbLine
 10
16.67527457595599
 20
2.890271583050927
 30
0.0
 11
16.53551682141774
 21
2.890271583050927
 31
0.0
1001
ACAD
1000
TCW40_DEV_WIDTH
1002
{
1040
-3.0
1002
}
  0
LINE
  5
9FCA
330
1F
100
AcDbEntity
  8
0
100
AcDbLine
 10
16.4231208971935
 20
2.890271583050927
 30
0.0
 11
16.28336314265522
 21
2.890271583050927
 31
0.0
1001
ACAD
1000
TCW40_DEV_WIDTH
1002
{
1040
-3.0
1002
}
  0
LINE
  5
9FCB
330
1F
100
AcDbEntity
  8
0
100
AcDbLine
 10
16.170967218431
 20
2.890271583050927
 30
0.0
 11
16.03120946389273
 21
2.890271583050927
 31
0.0
1001
ACAD
1000
TCW40_DEV_WIDTH
1002
{
1040
-3.0
1002
}
  0
LINE
  5
9FCC
330
1F
100
AcDbEntity
  8
0
100
AcDbLine
 10
15.9188135396685
 20
2.890271583050927
 30
0.0
 11
15.77905578513024
 21
2.890271583050927
 31
0.0
1001
ACAD
1000
TCW40_DEV_WIDTH
1002
{
1040
-3.0
1002
}
  0
LINE
  5
9FCD
330
1F
100
AcDbEntity
  8
0
100
AcDbLine
 10
15.66665986090598
 20
2.890271583050927
 30
0.0
 11
15.52690210636774
 21
2.890271583050927
 31
0.0
1001
ACAD
1000
TCW40_DEV_WIDTH
1002
{
1040
-3.0
1002
}
  0
LINE
  5
9FCE
330
1F
100
AcDbEntity
  8
0
100
AcDbLine
 10
15.41450618214349
 20
2.890271583050927
 30
0.0
 11
15.27474842760524
 21
2.890271583050927
 31
0.0
1001
ACAD
1000
TCW40_DEV_WIDTH
1002
{
1040
-3.0
1002
}
  0
LINE
  5
9FCF
330
1F
100
AcDbEntity
  8
0
100
AcDbLine
 10
17.92915206126578
 20
2.950788465953926
 30
0.0
 11
17.80317612373294
 21
2.950788465953926
 31
0.0
1001
ACAD
1000
TCW40_DEV_WIDTH
1002
{
1040
-3.0
1002
}
  0
LINE
  5
9FD0
330
1F
100
AcDbEntity
  8
0
100
AcDbLine
 10
17.67699838250329
 20
2.950788465953926
 30
0.0
 11
17.55102244497045
 21
2.950788465953926
 31
0.0
1001
ACAD
1000
TCW40_DEV_WIDTH
1002
{
1040
-3.0
1002
}
  0
LINE
  5
9FD1
330
1F
100
AcDbEntity
  8
0
100
AcDbLine
 10
17.4248447037408
 20
2.950788465953926
 30
0.0
 11
17.29886876620793
 21
2.950788465953926
 31
0.0
1001
ACAD
1000
TCW40_DEV_WIDTH
1002
{
1040
-3.0
1002
}
  0
LINE
  5
9FD2
330
1F
100
AcDbEntity
  8
0
100
AcDbLine
 10
17.1726910249783
 20
2.950788465953926
 30
0.0
 11
17.04671508744543
 21
2.950788465953926
 31
0.0
1001
ACAD
1000
TCW40_DEV_WIDTH
1002
{
1040
-3.0
1002
}
  0
LINE
  5
9FD3
330
1F
100
AcDbEntity
  8
0
100
AcDbLine
 10
16.92053734621578
 20
2.950788465953926
 30
0.0
 11
16.79456140868294
 21
2.950788465953926
 31
0.0
1001
ACAD
1000
TCW40_DEV_WIDTH
1002
{
1040
-3.0
1002
}
  0
LINE
  5
9FD4
330
1F
100
AcDbEntity
  8
0
100
AcDbLine
 10
16.66838366745328
 20
2.950788465953926
 30
0.0
 11
16.54240772992045
 21
2.950788465953926
 31
0.0
1001
ACAD
1000
TCW40_DEV_WIDTH
1002
{
1040
-3.0
1002
}
  0
LINE
  5
9FD5
330
1F
100
AcDbEntity
  8
0
100
AcDbLine
 10
16.41622998869079
 20
2.950788465953926
 30
0.0
 11
16.29025405115796
 21
2.950788465953926
 31
0.0
1001
ACAD
1000
TCW40_DEV_WIDTH
1002
{
1040
-3.0
1002
}
  0
LINE
  5
9FD6
330
1F
100
AcDbEntity
  8
0
100
AcDbLine
 10
16.1640763099283
 20
2.950788465953926
 30
0.0
 11
16.03810037239543
 21
2.950788465953926
 31
0.0
1001
ACAD
1000
TCW40_DEV_WIDTH
1002
{
1040
-3.0
1002
}
  0
LINE
  5
9FD7
330
1F
100
AcDbEntity
  8
0
100
AcDbLine
 10
15.91192263116578
 20
2.950788465953926
 30
0.0
 11
15.78594669363293
 21
2.950788465953926
 31
0.0
1001
ACAD
1000
TCW40_DEV_WIDTH
1002
{
1040
-3.0
1002
}
  0
LINE
  5
9FD8
330
1F
100
AcDbEntity
  8
0
100
AcDbLine
 10
15.65976895240328
 20
2.950788465953926
 30
0.0
 11
15.53379301487044
 21
2.950788465953926
 31
0.0
1001
ACAD
1000
TCW40_DEV_WIDTH
1002
{
1040
-3.0
1002
}
  0
LINE
  5
9FD9
330
1F
100
AcDbEntity
  8
0
100
AcDbLine
 10
15.40761527364078
 20
2.950788465953926
 30
0.0
 11
15.28163933610795
 21
2.950788465953926
 31
0.0
1001
ACAD
1000
TCW40_DEV_WIDTH
1002
{
1040
-3.0
1002
}
  0
LWPOLYLINE
  5
9FDA
330
1F
100
AcDbEntity
  8
0
100
AcDbPolyline
 90
        4
 70
     1
 43
0.0
 10
14.96135371315537
 20
4.504055127130928
 10
17.58375197228535
 20
4.504055127130928
 10
17.58375197228535
 20
7.126453386260925
 10
14.96135371315537
 20
7.126453386260925
1001
ACAD
1000
TCW40_DEV_WIDTH
1002
{
1040
-3.0
1002
}
  0
LWPOLYLINE
  5
9FDB
330
1F
100
AcDbEntity
  8
0
100
AcDbPolyline
 90
        3
 70
     0
 43
0.0
 10
13.67725077381657
 20
9.143710603151932
 42
0.1116363669694671
 10
13.63579145215971
 20
5.608795778236428
 42
-0.0457021566903444
 10
13.72167676948637
 20
2.609037341713077
  0
LWPOLYLINE
  5
9FDC
330
1F
100
AcDbEntity
  8
0
100
AcDbPolyline
 90
        3
 70
     0
 43
0.0
 10
13.80045542949588
 20
9.143710603151932
 42
0.1116363669694671
 10
13.75899610783901
 20
5.608795778236428
 42
-0.045686805620937
 10
13.87488142516568
 20
2.609037341713077
  0
LINE
  5
9FDD
330
1F
100
AcDbEntity
  8
0
100
AcDbLine
 10
13.67725077381657
 20
9.143710603151932
 30
0.0
 11
13.80045542949588
 21
9.143710603151932
 31
0.0
1001
ACAD
1000
TCW40_DEV_WIDTH
1002
{
1040
-3.0
1002
}
  0
LINE
  5
9FDE
330
1F
100
AcDbEntity
  8
0
100
AcDbLine
 10
13.72167676948637
 20
2.609037341713077
 30
0.0
 11
13.87488142516568
 21
2.609037341713077
 31
0.0
1001
ACAD
1000
TCW40_DEV_WIDTH
1002
{
1040
-3.0
1002
}
  0
LINE
  5
9FDF
330
1F
100
AcDbEntity
  8
0
100
AcDbLine
 10
4.053146730296631
 20
2.607859462836926
 30
0.0
 11
3.891768375888641
 21
2.607859462836926
 31
0.0
1001
ACAD
1000
TCW40_DEV_WIDTH
1002
{
1040
-3.0
1002
}
  0
LINE
  5
9FE0
330
1F
100
AcDbEntity
  8
0
100
AcDbLine
 10
3.891768375888641
 20
2.607859462836926
 30
0.0
 11
3.891768375888641
 21
9.022649050554926
 31
0.0
1001
ACAD
1000
TCW40_DEV_WIDTH
1002
{
1040
-3.0
1002
}
  0
ELLIPSE
  5
9FE1
330
1F
100
AcDbEntity
  8
0
100
AcDbEllipse
 10
4.133835907500614
 20
2.728893228642927
 30
0.0
 11
0.0
 21
-0.4841350632240001
 31
0.0
210
0.0
220
0.0
230
-1.0
 40
0.1666666666666666
 41
1.570796326794896
 42
4.712388980384689
1001
ACAD
1000
TCW40_DEV_WIDTH
1002
{
1040
-3.0
1002
}
  0
LINE
  5
9FE2
330
1F
100
AcDbEntity
  8
0
100
AcDbLine
 10
4.214525084704625
 20
2.728893228642927
 30
0.0
 11
4.305300409059125
 21
2.728893228642927
 31
0.0
1001
ACAD
1000
TCW40_DEV_WIDTH
1002
{
1040
-3.0
1002
}
  0
LINE
  5
9FE3
330
1F
100
AcDbEntity
  8
0
100
AcDbLine
 10
4.466678763467118
 20
2.728893228642927
 30
0.0
 11
4.558582663363694
 21
2.728893228642927
 31
0.0
1001
ACAD
1000
TCW40_DEV_WIDTH
1002
{
1040
-3.0
1002
}
  0
LINE
  5
9FE4
330
1F
100
AcDbEntity
  8
0
100
AcDbLine
 10
4.717703866687539
 20
2.728893228642927
 30
0.0
 11
4.810736342126215
 21
2.728893228642927
 31
0.0
1001
ACAD
1000
TCW40_DEV_WIDTH
1002
{
1040
-3.0
1002
}
  0
LINE
  5
9FE5
330
1F
100
AcDbEntity
  8
0
100
AcDbLine
 10
4.969857545450061
 20
2.728893228642927
 30
0.0
 11
5.062890020888708
 21
2.728893228642927
 31
0.0
1001
ACAD
1000
TCW40_DEV_WIDTH
1002
{
1040
-3.0
1002
}
  0
LINE
  5
9FE6
330
1F
100
AcDbEntity
  8
0
100
AcDbLine
 10
5.222011224212554
 20
2.728893228642927
 30
0.0
 11
5.315043699651202
 21
2.728893228642927
 31
0.0
1001
ACAD
1000
TCW40_DEV_WIDTH
1002
{
1040
-3.0
1002
}
  0
LINE
  5
9FE7
330
1F
100
AcDbEntity
  8
0
100
AcDbLine
 10
5.474164902975047
 20
2.728893228642927
 30
0.0
 11
5.567197378413695
 21
2.728893228642927
 31
0.0
1001
ACAD
1000
TCW40_DEV_WIDTH
1002
{
1040
-3.0
1002
}
  0
LINE
  5
9FE8
330
1F
100
AcDbEntity
  8
0
100
AcDbLine
 10
5.72631858173754
 20
2.728893228642927
 30
0.0
 11
5.818222481634116
 21
2.728893228642927
 31
0.0
1001
ACAD
1000
TCW40_DEV_WIDTH
1002
{
1040
-3.0
1002
}
  0
LINE
  5
9FE9
330
1F
100
AcDbEntity
  8
0
100
AcDbLine
 10
5.979600836042138
 20
2.728893228642927
 30
0.0
 11
6.070376160396637
 21
2.728893228642927
 31
0.0
1001
ACAD
1000
TCW40_DEV_WIDTH
1002
{
1040
-3.0
1002
}
  0
LINE
  5
9FEA
330
1F
100
AcDbEntity
  8
0
100
AcDbLine
 10
6.231754514804631
 20
2.728893228642927
 30
0.0
 11
6.32252983915913
 21
2.728893228642927
 31
0.0
1001
ACAD
1000
TCW40_DEV_WIDTH
1002
{
1040
-3.0
1002
}
  0
LINE
  5
9FEB
330
1F
100
AcDbEntity
  8
0
100
AcDbLine
 10
6.483908193567124
 20
2.728893228642927
 30
0.0
 11
6.574683517921627
 21
2.728893228642927
 31
0.0
1001
ACAD
1000
TCW40_DEV_WIDTH
1002
{
1040
-3.0
1002
}
  0
LINE
  5
9FEC
330
1F
100
AcDbEntity
  8
0
100
AcDbLine
 10
6.736061872329617
 20
2.728893228642927
 30
0.0
 11
6.82683719668412
 21
2.728893228642927
 31
0.0
1001
ACAD
1000
TCW40_DEV_WIDTH
1002
{
1040
-3.0
1002
}
  0
LINE
  5
9FED
330
1F
100
AcDbEntity
  8
0
100
AcDbLine
 10
4.053146730296631
 20
2.728893228642927
 30
0.0
 11
4.053146730296631
 21
2.607859462836926
 31
0.0
1001
ACAD
1000
TCW40_DEV_WIDTH
1002
{
1040
-3.0
1002
}
  0
ELLIPSE
  5
9FEE
330
1F
100
AcDbEntity
  8
0
100
AcDbEllipse
 10
4.385989586263136
 20
2.728893228642927
 30
0.0
 11
0.0
 21
-0.4841350632240001
 31
0.0
210
0.0
220
0.0
230
-1.0
 40
0.1666666666666666
 41
1.570796326794896
 42
4.712388980384689
1001
ACAD
1000
TCW40_DEV_WIDTH
1002
{
1040
-3.0
1002
}
  0
ELLIPSE
  5
9FEF
330
1F
100
AcDbEntity
  8
0
100
AcDbEllipse
 10
4.638143265025629
 20
2.728893228642927
 30
0.0
 11
0.0
 21
-0.4841350632240001
 31
0.0
210
0.0
220
0.0
230
-1.0
 40
0.1666666666666666
 41
1.570796326794896
 42
4.712388980384689
1001
ACAD
1000
TCW40_DEV_WIDTH
1002
{
1040
-3.0
1002
}
  0
ELLIPSE
  5
9FF0
330
1F
100
AcDbEntity
  8
0
100
AcDbEllipse
 10
4.890296943788122
 20
2.728893228642927
 30
0.0
 11
0.0
 21
-0.4841350632240001
 31
0.0
210
0.0
220
0.0
230
-1.0
 40
0.1666666666666666
 41
1.570796326794896
 42
4.712388980384689
1001
ACAD
1000
TCW40_DEV_WIDTH
1002
{
1040
-3.0
1002
}
  0
ELLIPSE
  5
9FF1
330
1F
100
AcDbEntity
  8
0
100
AcDbEllipse
 10
5.142450622550615
 20
2.728893228642927
 30
0.0
 11
0.0
 21
-0.4841350632240001
 31
0.0
210
0.0
220
0.0
230
-1.0
 40
0.1666666666666666
 41
1.570796326794896
 42
4.712388980384689
1001
ACAD
1000
TCW40_DEV_WIDTH
1002
{
1040
-3.0
1002
}
  0
ELLIPSE
  5
9FF2
330
1F
100
AcDbEntity
  8
0
100
AcDbEllipse
 10
5.39460430131314
 20
2.728893228642927
 30
0.0
 11
0.0
 21
-0.4841350632240001
 31
0.0
210
0.0
220
0.0
230
-1.0
 40
0.1666666666666666
 41
1.570796326794896
 42
4.712388980384689
1001
ACAD
1000
TCW40_DEV_WIDTH
1002
{
1040
-3.0
1002
}
  0
ELLIPSE
  5
9FF3
330
1F
100
AcDbEntity
  8
0
100
AcDbEllipse
 10
5.646757980075634
 20
2.728893228642927
 30
0.0
 11
0.0
 21
-0.4841350632240001
 31
0.0
210
0.0
220
0.0
230
-1.0
 40
0.1666666666666666
 41
1.570796326794896
 42
4.712388980384689
1001
ACAD
1000
TCW40_DEV_WIDTH
1002
{
1040
-3.0
1002
}
  0
ELLIPSE
  5
9FF4
330
1F
100
AcDbEntity
  8
0
100
AcDbEllipse
 10
5.898911658838127
 20
2.728893228642927
 30
0.0
 11
0.0
 21
-0.4841350632240001
 31
0.0
210
0.0
220
0.0
230
-1.0
 40
0.1666666666666666
 41
1.570796326794896
 42
4.712388980384689
1001
ACAD
1000
TCW40_DEV_WIDTH
1002
{
1040
-3.0
1002
}
  0
ELLIPSE
  5
9FF5
330
1F
100
AcDbEntity
  8
0
100
AcDbEllipse
 10
6.15106533760062
 20
2.728893228642927
 30
0.0
 11
0.0
 21
-0.4841350632240001
 31
0.0
210
0.0
220
0.0
230
-1.0
 40
0.1666666666666666
 41
1.570796326794896
 42
4.712388980384689
1001
ACAD
1000
TCW40_DEV_WIDTH
1002
{
1040
-3.0
1002
}
  0
ELLIPSE
  5
9FF6
330
1F
100
AcDbEntity
  8
0
100
AcDbEllipse
 10
6.403219016363113
 20
2.728893228642927
 30
0.0
 11
0.0
 21
-0.4841350632240001
 31
0.0
210
0.0
220
0.0
230
-1.0
 40
0.1666666666666666
 41
1.570796326794896
 42
4.712388980384689
1001
ACAD
1000
TCW40_DEV_WIDTH
1002
{
1040
-3.0
1002
}
  0
ELLIPSE
  5
9FF7
330
1F
100
AcDbEntity
  8
0
100
AcDbEllipse
 10
6.655372695125635
 20
2.728893228642927
 30
0.0
 11
0.0
 21
-0.4841350632240001
 31
0.0
210
0.0
220
0.0
230
-1.0
 40
0.1666666666666666
 41
1.570796326794896
 42
4.712388980384689
1001
ACAD
1000
TCW40_DEV_WIDTH
1002
{
1040
-3.0
1002
}
  0
ELLIPSE
  5
9FF8
330
1F
100
AcDbEntity
  8
0
100
AcDbEllipse
 10
6.907526373888131
 20
2.728893228642927
 30
0.0
 11
0.0
 21
-0.4841350632239993
 31
0.0
210
0.0
220
0.0
230
-1.0
 40
0.1666666666666666
 41
1.570796326794896
 42
4.70381489399169
1001
ACAD
1000
TCW40_DEV_WIDTH
1002
{
1040
-3.0
1002
}
  0
ELLIPSE
  5
9FF9
330
1F
100
AcDbEntity
  8
0
100
AcDbEllipse
 10
7.159680052650625
 20
2.708720934341926
 30
0.0
 11
0.0
 21
-0.4841350632240007
 31
0.0
210
0.0
220
0.0
230
-1.0
 40
0.1666666666666674
 41
1.615351533028356
 42
4.695535778282224
1001
ACAD
1000
TCW40_DEV_WIDTH
1002
{
1040
-3.0
1002
}
  0
ELLIPSE
  5
9FFA
330
1F
100
AcDbEntity
  8
0
100
AcDbEllipse
 10
7.411833731413118
 20
2.688548640040926
 30
0.0
 11
0.0
 21
-0.4841350632239999
 31
0.0
210
0.0
220
0.0
230
-1.0
 40
0.1666666666666651
 41
1.603716497224721
 42
4.739650694325459
1001
ACAD
1000
TCW40_DEV_WIDTH
1002
{
1040
-3.0
1002
}
  0
ELLIPSE
  5
9FFB
330
1F
100
AcDbEntity
  8
0
100
AcDbEllipse
 10
7.663987410175639
 20
2.648204051438926
 30
0.0
 11
0.0
 21
-0.4841350632240002
 31
0.0
210
0.0
220
0.0
230
-1.0
 40
0.1666666666666643
 41
1.595391793617908
 42
4.733845799639416
1001
ACAD
1000
TCW40_DEV_WIDTH
1002
{
1040
-3.0
1002
}
  0
ELLIPSE
  5
9FFC
330
1F
100
AcDbEntity
  8
0
100
AcDbEllipse
 10
7.916141088938132
 20
2.628031757137926
 30
0.0
 11
0.0
 21
-0.4841350632240009
 31
0.0
210
0.0
220
0.0
230
-1.0
 40
0.1666666666666652
 41
1.570587995500844
 42
4.739223749283191
1001
ACAD
1000
TCW40_DEV_WIDTH
1002
{
1040
-3.0
1002
}
  0
LWPOLYLINE
  5
9FFD
330
1F
100
AcDbEntity
  8
0
100
AcDbPolyline
 90
        2
 70
     0
 43
0.0
 10
8.125118574834313
 20
2.609037341713077
 42
-0.0072910558792085
 10
7.996801215552682
 20
2.615041663769781
  0
LWPOLYLINE
  5
9FFE
330
1F
100
AcDbEntity
  8
0
100
AcDbPolyline
 90
        2
 70
     0
 43
0.0
 10
7.835451913485162
 20
2.627930896654437
 42
-0.0051836372337704
 10
7.744658013641629
 20
2.637816849971362
  0
LWPOLYLINE
  5
9FFF
330
1F
100
AcDbEntity
  8
0
100
AcDbPolyline
 90
        2
 70
     0
 43
0.0
 10
7.584780378919212
 20
2.659881657085294
 42
-0.0053110407206134
 10
7.4924929263336
 20
2.675351923215989
  0
LWPOLYLINE
  5
A000
330
1F
100
AcDbEntity
  8
0
100
AcDbPolyline
 90
        2
 70
     0
 43
0.0
 10
7.332759585964762
 20
2.704237998665841
 42
0.0098390854573083
 10
7.238993854782897
 20
2.717039104758936
  0
LWPOLYLINE
  5
A001
330
1F
100
AcDbEntity
  8
0
100
AcDbPolyline
 90
        2
 70
     0
 43
0.0
 10
7.080808010554672
 20
2.730198261262674
 42
0.009761046724293
 10
6.986966522661457
 20
2.733058155088769
  0
LWPOLYLINE
  5
A002
330
1F
100
AcDbEntity
  8
0
100
AcDbPolyline
 90
        2
 70
     0
 43
0.0
 10
6.82683725525808
 20
2.729476574442142
 42
0.0010502966732702
 10
6.816751049533628
 20
2.728893228642927
  0
ELLIPSE
  5
A003
330
1F
100
AcDbEntity
  8
0
100
AcDbEllipse
 10
5.646757980075634
 20
2.648204051438926
 30
0.0
 11
0.0
 21
-0.4841350632239992
 31
0.0
210
0.0
220
0.0
230
-1.0
 40
0.1666666666666656
 41
1.738244406014585
 42
4.544940901165
1001
ACAD
1000
TCW40_DEV_WIDTH
1002
{
1040
-3.0
1002
}
  0
ELLIPSE
  5
A004
330
1F
100
AcDbEntity
  8
0
100
AcDbEllipse
 10
5.39460430131314
 20
2.648204051438926
 30
0.0
 11
0.0
 21
-0.4841350632239992
 31
0.0
210
0.0
220
0.0
230
-1.0
 40
0.1666666666666656
 41
1.738244406014585
 42
4.544940901165
1001
ACAD
1000
TCW40_DEV_WIDTH
1002
{
1040
-3.0
1002
}
  0
ELLIPSE
  5
A005
330
1F
100
AcDbEntity
  8
0
100
AcDbEllipse
 10
5.142450622550615
 20
2.648204051438926
 30
0.0
 11
0.0
 21
-0.4841350632239992
 31
0.0
210
0.0
220
0.0
230
-1.0
 40
0.1666666666666656
 41
1.738244406014585
 42
4.544940901165
1001
ACAD
1000
TCW40_DEV_WIDTH
1002
{
1040
-3.0
1002
}
  0
ELLIPSE
  5
A006
330
1F
100
AcDbEntity
  8
0
100
AcDbEllipse
 10
5.898911658838127
 20
2.648204051438926
 30
0.0
 11
0.0
 21
-0.4841350632239992
 31
0.0
210
0.0
220
0.0
230
-1.0
 40
0.1666666666666656
 41
1.738244406014585
 42
4.544940901165
1001
ACAD
1000
TCW40_DEV_WIDTH
1002
{
1040
-3.0
1002
}
  0
ELLIPSE
  5
A007
330
1F
100
AcDbEntity
  8
0
100
AcDbEllipse
 10
6.15106533760062
 20
2.648204051438926
 30
0.0
 11
0.0
 21
-0.4841350632239992
 31
0.0
210
0.0
220
0.0
230
-1.0
 40
0.1666666666666656
 41
1.738244406014585
 42
4.544940901165
1001
ACAD
1000
TCW40_DEV_WIDTH
1002
{
1040
-3.0
1002
}
  0
ELLIPSE
  5
A008
330
1F
100
AcDbEntity
  8
0
100
AcDbEllipse
 10
6.655372695125635
 20
2.648204051438926
 30
0.0
 11
0.0
 21
-0.4841350632239992
 31
0.0
210
0.0
220
0.0
230
-1.0
 40
0.1666666666666656
 41
1.738244406014585
 42
4.544940901165
1001
ACAD
1000
TCW40_DEV_WIDTH
1002
{
1040
-3.0
1002
}
  0
ELLIPSE
  5
A009
330
1F
100
AcDbEntity
  8
0
100
AcDbEllipse
 10
6.907526373888131
 20
2.648204051438926
 30
0.0
 11
0.0
 21
-0.4841350632240006
 31
0.0
210
0.0
220
0.0
230
-1.0
 40
0.1666666666666648
 41
1.738244406014585
 42
4.536209495863717
1001
ACAD
1000
TCW40_DEV_WIDTH
1002
{
1040
-3.0
1002
}
  0
ELLIPSE
  5
A00A
330
1F
100
AcDbEntity
  8
0
100
AcDbEllipse
 10
7.159680052650625
 20
2.628031757137926
 30
0.0
 11
0.0
 21
-0.4841350632239997
 31
0.0
210
0.0
220
0.0
230
-1.0
 40
0.1666666666666676
 41
1.783423802199356
 42
4.527489045910998
1001
ACAD
1000
TCW40_DEV_WIDTH
1002
{
1040
-3.0
1002
}
  0
ELLIPSE
  5
A00B
330
1F
100
AcDbEntity
  8
0
100
AcDbEllipse
 10
7.411833731422319
 20
2.607859462836926
 30
0.0
 11
0.0
 21
-0.4841350632239992
 31
0.0
210
0.0
220
0.0
230
-1.0
 40
0.1666666666666656
 41
1.771208890231334
 42
4.544940901165
1001
ACAD
1000
TCW40_DEV_WIDTH
1002
{
1040
-3.0
1002
}
  0
ELLIPSE
  5
A00C
330
1F
100
AcDbEntity
  8
0
100
AcDbEllipse
 10
7.663987410184812
 20
2.567514874234926
 30
0.0
 11
0.0
 21
-0.4841350632239992
 31
0.0
210
0.0
220
0.0
230
-1.0
 40
0.1666666666666656
 41
1.762760361692611
 42
4.544940901165
1001
ACAD
1000
TCW40_DEV_WIDTH
1002
{
1040
-3.0
1002
}
  0
ELLIPSE
  5
A00D
330
1F
100
AcDbEntity
  8
0
100
AcDbEllipse
 10
7.916141088947338
 20
2.547342579933926
 30
0.0
 11
0.0
 21
-0.4841350632239992
 31
0.0
210
0.0
220
0.0
230
-1.0
 40
0.1666666666666656
 41
1.738244406014585
 42
4.544940901165
1001
ACAD
1000
TCW40_DEV_WIDTH
1002
{
1040
-3.0
1002
}
  0
ELLIPSE
  5
A00E
330
1F
100
AcDbEntity
  8
0
100
AcDbEllipse
 10
4.890296943788122
 20
2.648204051438926
 30
0.0
 11
0.0
 21
-0.4841350632239992
 31
0.0
210
0.0
220
0.0
230
-1.0
 40
0.1666666666666656
 41
1.738244406014585
 42
4.544940901165
1001
ACAD
1000
TCW40_DEV_WIDTH
1002
{
1040
-3.0
1002
}
  0
ELLIPSE
  5
A00F
330
1F
100
AcDbEntity
  8
0
100
AcDbEllipse
 10
4.638143265025629
 20
2.648204051438926
 30
0.0
 11
0.0
 21
-0.4841350632239992
 31
0.0
210
0.0
220
0.0
230
-1.0
 40
0.1666666666666656
 41
1.738244406014585
 42
4.544940901165
1001
ACAD
1000
TCW40_DEV_WIDTH
1002
{
1040
-3.0
1002
}
  0
ELLIPSE
  5
A010
330
1F
100
AcDbEntity
  8
0
100
AcDbEllipse
 10
4.385989586263136
 20
2.648204051438926
 30
0.0
 11
0.0
 21
-0.4841350632239992
 31
0.0
210
0.0
220
0.0
230
-1.0
 40
0.1666666666666656
 41
1.738244406014585
 42
4.544940901165
1001
ACAD
1000
TCW40_DEV_WIDTH
1002
{
1040
-3.0
1002
}
  0
ELLIPSE
  5
A011
330
1F
100
AcDbEntity
  8
0
100
AcDbEllipse
 10
4.133835907500614
 20
2.648204051438926
 30
0.0
 11
0.0
 21
-0.4841350632239992
 31
0.0
210
0.0
220
0.0
230
-1.0
 40
0.1666666666666656
 41
1.738244406014585
 42
4.544940901165
1001
ACAD
1000
TCW40_DEV_WIDTH
1002
{
1040
-3.0
1002
}
  0
ELLIPSE
  5
A012
330
1F
100
AcDbEntity
  8
0
100
AcDbEllipse
 10
6.403219016363113
 20
2.648204051438926
 30
0.0
 11
0.0
 21
-0.4841350632239992
 31
0.0
210
0.0
220
0.0
230
-1.0
 40
0.1666666666666656
 41
1.738244406014585
 42
4.544940901165
1001
ACAD
1000
TCW40_DEV_WIDTH
1002
{
1040
-3.0
1002
}
  0
ELLIPSE
  5
A013
330
1F
100
AcDbEntity
  8
0
100
AcDbEllipse
 10
4.133835907500614
 20
9.022649050554926
 30
0.0
 11
0.0
 21
-0.4841350632240001
 31
0.0
210
0.0
220
0.0
230
-1.0
 40
0.1666666666666666
 41
4.712388980384689
 42
7.853981633974482
1001
ACAD
1000
TCW40_DEV_WIDTH
1002
{
1040
-3.0
1002
}
  0
LINE
  5
A014
330
1F
100
AcDbEntity
  8
0
100
AcDbLine
 10
3.891768375888641
 20
9.022649050554926
 30
0.0
 11
4.053146730296631
 21
9.022649050554926
 31
0.0
1001
ACAD
1000
TCW40_DEV_WIDTH
1002
{
1040
-3.0
1002
}
  0
LINE
  5
A015
330
1F
100
AcDbEntity
  8
0
100
AcDbLine
 10
4.214525084704625
 20
9.022649050554926
 30
0.0
 11
4.305300409059125
 21
9.022649050554926
 31
0.0
1001
ACAD
1000
TCW40_DEV_WIDTH
1002
{
1040
-3.0
1002
}
  0
LINE
  5
A016
330
1F
100
AcDbEntity
  8
0
100
AcDbLine
 10
4.466678763467118
 20
9.022649050554926
 30
0.0
 11
4.558582663363694
 21
9.022649050554926
 31
0.0
1001
ACAD
1000
TCW40_DEV_WIDTH
1002
{
1040
-3.0
1002
}
  0
LINE
  5
A017
330
1F
100
AcDbEntity
  8
0
100
AcDbLine
 10
4.717703866687539
 20
9.022649050554926
 30
0.0
 11
4.810736342126215
 21
9.022649050554926
 31
0.0
1001
ACAD
1000
TCW40_DEV_WIDTH
1002
{
1040
-3.0
1002
}
  0
LINE
  5
A018
330
1F
100
AcDbEntity
  8
0
100
AcDbLine
 10
4.969857545450061
 20
9.022649050554926
 30
0.0
 11
5.062890020888708
 21
9.022649050554926
 31
0.0
1001
ACAD
1000
TCW40_DEV_WIDTH
1002
{
1040
-3.0
1002
}
  0
LINE
  5
A019
330
1F
100
AcDbEntity
  8
0
100
AcDbLine
 10
5.222011224212554
 20
9.022649050554926
 30
0.0
 11
5.315043699651202
 21
9.022649050554926
 31
0.0
1001
ACAD
1000
TCW40_DEV_WIDTH
1002
{
1040
-3.0
1002
}
  0
LINE
  5
A01A
330
1F
100
AcDbEntity
  8
0
100
AcDbLine
 10
5.474164902975047
 20
9.022649050554926
 30
0.0
 11
5.567197378413695
 21
9.022649050554926
 31
0.0
1001
ACAD
1000
TCW40_DEV_WIDTH
1002
{
1040
-3.0
1002
}
  0
LINE
  5
A01B
330
1F
100
AcDbEntity
  8
0
100
AcDbLine
 10
5.72631858173754
 20
9.022649050554926
 30
0.0
 11
5.818222481634116
 21
9.022649050554926
 31
0.0
1001
ACAD
1000
TCW40_DEV_WIDTH
1002
{
1040
-3.0
1002
}
  0
LINE
  5
A01C
330
1F
100
AcDbEntity
  8
0
100
AcDbLine
 10
5.979600836042138
 20
9.022649050554926
 30
0.0
 11
6.070376160396637
 21
9.022649050554926
 31
0.0
1001
ACAD
1000
TCW40_DEV_WIDTH
1002
{
1040
-3.0
1002
}
  0
LINE
  5
A01D
330
1F
100
AcDbEntity
  8
0
100
AcDbLine
 10
6.231754514804631
 20
9.022649050554926
 30
0.0
 11
6.32252983915913
 21
9.022649050554926
 31
0.0
1001
ACAD
1000
TCW40_DEV_WIDTH
1002
{
1040
-3.0
1002
}
  0
LINE
  5
A01E
330
1F
100
AcDbEntity
  8
0
100
AcDbLine
 10
6.483908193567124
 20
9.022649050554926
 30
0.0
 11
6.574683517921627
 21
9.022649050554926
 31
0.0
1001
ACAD
1000
TCW40_DEV_WIDTH
1002
{
1040
-3.0
1002
}
  0
LINE
  5
A01F
330
1F
100
AcDbEntity
  8
0
100
AcDbLine
 10
6.736061872329617
 20
9.022649050554926
 30
0.0
 11
6.82683719668412
 21
9.022649050554926
 31
0.0
1001
ACAD
1000
TCW40_DEV_WIDTH
1002
{
1040
-3.0
1002
}
  0
ELLIPSE
  5
A020
330
1F
100
AcDbEntity
  8
0
100
AcDbEllipse
 10
4.385989586263136
 20
9.022649050554926
 30
0.0
 11
0.0
 21
-0.4841350632240001
 31
0.0
210
0.0
220
0.0
230
-1.0
 40
0.1666666666666666
 41
4.712388980384689
 42
7.853981633974482
1001
ACAD
1000
TCW40_DEV_WIDTH
1002
{
1040
-3.0
1002
}
  0
ELLIPSE
  5
A021
330
1F
100
AcDbEntity
  8
0
100
AcDbEllipse
 10
4.638143265025629
 20
9.022649050554926
 30
0.0
 11
0.0
 21
-0.4841350632240001
 31
0.0
210
0.0
220
0.0
230
-1.0
 40
0.1666666666666666
 41
4.712388980384689
 42
7.853981633974482
1001
ACAD
1000
TCW40_DEV_WIDTH
1002
{
1040
-3.0
1002
}
  0
ELLIPSE
  5
A022
330
1F
100
AcDbEntity
  8
0
100
AcDbEllipse
 10
4.890296943788122
 20
9.022649050554926
 30
0.0
 11
0.0
 21
-0.4841350632240001
 31
0.0
210
0.0
220
0.0
230
-1.0
 40
0.1666666666666666
 41
4.712388980384689
 42
7.853981633974482
1001
ACAD
1000
TCW40_DEV_WIDTH
1002
{
1040
-3.0
1002
}
  0
ELLIPSE
  5
A023
330
1F
100
AcDbEntity
  8
0
100
AcDbEllipse
 10
5.142450622550615
 20
9.022649050554926
 30
0.0
 11
0.0
 21
-0.4841350632240001
 31
0.0
210
0.0
220
0.0
230
-1.0
 40
0.1666666666666666
 41
4.712388980384689
 42
7.853981633974482
1001
ACAD
1000
TCW40_DEV_WIDTH
1002
{
1040
-3.0
1002
}
  0
ELLIPSE
  5
A024
330
1F
100
AcDbEntity
  8
0
100
AcDbEllipse
 10
5.39460430131314
 20
9.022649050554926
 30
0.0
 11
0.0
 21
-0.4841350632240001
 31
0.0
210
0.0
220
0.0
230
-1.0
 40
0.1666666666666666
 41
4.712388980384689
 42
7.853981633974482
1001
ACAD
1000
TCW40_DEV_WIDTH
1002
{
1040
-3.0
1002
}
  0
ELLIPSE
  5
A025
330
1F
100
AcDbEntity
  8
0
100
AcDbEllipse
 10
5.646757980075634
 20
9.022649050554926
 30
0.0
 11
0.0
 21
-0.4841350632240001
 31
0.0
210
0.0
220
0.0
230
-1.0
 40
0.1666666666666666
 41
4.712388980384689
 42
7.853981633974482
1001
ACAD
1000
TCW40_DEV_WIDTH
1002
{
1040
-3.0
1002
}
  0
ELLIPSE
  5
A026
330
1F
100
AcDbEntity
  8
0
100
AcDbEllipse
 10
5.898911658838127
 20
9.022649050554926
 30
0.0
 11
0.0
 21
-0.4841350632240001
 31
0.0
210
0.0
220
0.0
230
-1.0
 40
0.1666666666666666
 41
4.712388980384689
 42
7.853981633974482
1001
ACAD
1000
TCW40_DEV_WIDTH
1002
{
1040
-3.0
1002
}
  0
ELLIPSE
  5
A027
330
1F
100
AcDbEntity
  8
0
100
AcDbEllipse
 10
6.15106533760062
 20
9.022649050554926
 30
0.0
 11
0.0
 21
-0.4841350632240001
 31
0.0
210
0.0
220
0.0
230
-1.0
 40
0.1666666666666666
 41
4.712388980384689
 42
7.853981633974482
1001
ACAD
1000
TCW40_DEV_WIDTH
1002
{
1040
-3.0
1002
}
  0
ELLIPSE
  5
A028
330
1F
100
AcDbEntity
  8
0
100
AcDbEllipse
 10
6.403219016363113
 20
9.022649050554926
 30
0.0
 11
0.0
 21
-0.4841350632240001
 31
0.0
210
0.0
220
0.0
230
-1.0
 40
0.1666666666666666
 41
4.712388980384689
 42
7.853981633974482
1001
ACAD
1000
TCW40_DEV_WIDTH
1002
{
1040
-3.0
1002
}
  0
ELLIPSE
  5
A029
330
1F
100
AcDbEntity
  8
0
100
AcDbEllipse
 10
6.655372695125635
 20
9.022649050554926
 30
0.0
 11
0.0
 21
-0.4841350632240001
 31
0.0
210
0.0
220
0.0
230
-1.0
 40
0.1666666666666666
 41
4.712388980384689
 42
7.853981633974482
1001
ACAD
1000
TCW40_DEV_WIDTH
1002
{
1040
-3.0
1002
}
  0
ELLIPSE
  5
A02A
330
1F
100
AcDbEntity
  8
0
100
AcDbEllipse
 10
6.907526373888131
 20
9.022649050554926
 30
0.0
 11
0.0
 21
-0.4841350632239993
 31
0.0
210
0.0
220
0.0
230
-1.0
 40
0.1666666666666667
 41
-1.562222240401897
 42
1.570796326794896
1001
ACAD
1000
TCW40_DEV_WIDTH
1002
{
1040
-3.0
1002
}
  0
ELLIPSE
  5
A02B
330
1F
100
AcDbEntity
  8
0
100
AcDbEllipse
 10
7.159680052650625
 20
9.042821344855925
 30
0.0
 11
0.0
 21
-0.4841350632240007
 31
0.0
210
0.0
220
0.0
230
-1.0
 40
0.1666666666666674
 41
-1.55394312469243
 42
1.526241120561437
1001
ACAD
1000
TCW40_DEV_WIDTH
1002
{
1040
-3.0
1002
}
  0
ELLIPSE
  5
A02C
330
1F
100
AcDbEntity
  8
0
100
AcDbEllipse
 10
7.411833731413118
 20
9.062993639156927
 30
0.0
 11
0.0
 21
-0.4841350632239999
 31
0.0
210
0.0
220
0.0
230
-1.0
 40
0.1666666666666651
 41
4.685127266443919
 42
7.821061463544657
1001
ACAD
1000
TCW40_DEV_WIDTH
1002
{
1040
-3.0
1002
}
  0
ELLIPSE
  5
A02D
330
1F
100
AcDbEntity
  8
0
100
AcDbEllipse
 10
7.663987410175639
 20
9.103338227758927
 30
0.0
 11
0.0
 21
-0.4841350632240002
 31
0.0
210
0.0
220
0.0
230
-1.0
 40
0.1666666666666643
 41
4.690932161129962
 42
7.82938616715147
1001
ACAD
1000
TCW40_DEV_WIDTH
1002
{
1040
-3.0
1002
}
  0
ELLIPSE
  5
A02E
330
1F
100
AcDbEntity
  8
0
100
AcDbEllipse
 10
7.916141088938132
 20
9.123510522059925
 30
0.0
 11
0.0
 21
-0.4841350632240009
 31
0.0
210
0.0
220
0.0
230
-1.0
 40
0.1666666666666652
 41
4.685554211486188
 42
7.854189965268535
1001
ACAD
1000
TCW40_DEV_WIDTH
1002
{
1040
-3.0
1002
}
  0
LWPOLYLINE
  5
A02F
330
1F
100
AcDbEntity
  8
0
100
AcDbPolyline
 90
        2
 70
     0
 43
0.0
 10
8.199544570504109
 20
9.143710603151932
 42
0.0083634671130051
 10
7.996801215552682
 20
9.136500615428074
  0
LWPOLYLINE
  5
A030
330
1F
100
AcDbEntity
  8
0
100
AcDbPolyline
 90
        2
 70
     0
 43
0.0
 10
7.835451913485162
 20
9.123611382543414
 42
0.0051836372337704
 10
7.744658013641629
 20
9.113725429226493
  0
LWPOLYLINE
  5
A031
330
1F
100
AcDbEntity
  8
0
100
AcDbPolyline
 90
        2
 70
     0
 43
0.0
 10
7.584780378919212
 20
9.091660622112557
 42
0.0053110407206134
 10
7.4924929263336
 20
9.076190355981863
  0
LWPOLYLINE
  5
A032
330
1F
100
AcDbEntity
  8
0
100
AcDbPolyline
 90
        2
 70
     0
 43
0.0
 10
7.332759585964762
 20
9.047304280532012
 42
-0.0098390854573012
 10
7.238993854782897
 20
9.034503174438919
  0
LWPOLYLINE
  5
A033
330
1F
100
AcDbEntity
  8
0
100
AcDbPolyline
 90
        2
 70
     0
 43
0.0
 10
7.235222818493578
 20
8.953377578511451
 42
-0.0156796610766747
 10
7.084953204090211
 20
8.940865809037047
  0
LWPOLYLINE
  5
A034
330
1F
100
AcDbEntity
  8
0
100
AcDbPolyline
 90
        2
 70
     0
 43
0.0
 10
6.983349628501827
 20
8.937758079204686
 42
-0.0157936648709978
 10
6.831501455372315
 20
8.941121141819065
  0
LWPOLYLINE
  5
A035
330
1F
100
AcDbEntity
  8
0
100
AcDbPolyline
 90
        2
 70
     0
 43
0.0
 10
6.82683725525808
 20
9.022065704755709
 42
-0.0010502966732702
 10
6.816751049533628
 20
9.022649050554926
  0
ELLIPSE
  5
A036
330
1F
100
AcDbEntity
  8
0
100
AcDbEllipse
 10
5.646757980075634
 20
9.103338227758927
 30
0.0
 11
0.0
 21
-0.4841350632239992
 31
0.0
210
0.0
220
0.0
230
-1.0
 40
0.1666666666666656
 41
-1.403348247575207
 42
1.403348247575207
1001
ACAD
1000
TCW40_DEV_WIDTH
1002
{
1040
-3.0
1002
}
  0
ELLIPSE
  5
A037
330
1F
100
AcDbEntity
  8
0
100
AcDbEllipse
 10
5.39460430131314
 20
9.103338227758927
 30
0.0
 11
0.0
 21
-0.4841350632239992
 31
0.0
210
0.0
220
0.0
230
-1.0
 40
0.1666666666666656
 41
-1.403348247575207
 42
1.403348247575207
1001
ACAD
1000
TCW40_DEV_WIDTH
1002
{
1040
-3.0
1002
}
  0
ELLIPSE
  5
A038
330
1F
100
AcDbEntity
  8
0
100
AcDbEllipse
 10
5.142450622550615
 20
9.103338227758927
 30
0.0
 11
0.0
 21
-0.4841350632239992
 31
0.0
210
0.0
220
0.0
230
-1.0
 40
0.1666666666666656
 41
-1.403348247575207
 42
1.403348247575207
1001
ACAD
1000
TCW40_DEV_WIDTH
1002
{
1040
-3.0
1002
}
  0
ELLIPSE
  5
A039
330
1F
100
AcDbEntity
  8
0
100
AcDbEllipse
 10
5.898911658838127
 20
9.103338227758927
 30
0.0
 11
0.0
 21
-0.4841350632239992
 31
0.0
210
0.0
220
0.0
230
-1.0
 40
0.1666666666666656
 41
-1.403348247575207
 42
1.403348247575207
1001
ACAD
1000
TCW40_DEV_WIDTH
1002
{
1040
-3.0
1002
}
  0
ELLIPSE
  5
A03A
330
1F
100
AcDbEntity
  8
0
100
AcDbEllipse
 10
6.15106533760062
 20
9.103338227758927
 30
0.0
 11
0.0
 21
-0.4841350632239992
 31
0.0
210
0.0
220
0.0
230
-1.0
 40
0.1666666666666656
 41
-1.403348247575207
 42
1.403348247575207
1001
ACAD
1000
TCW40_DEV_WIDTH
1002
{
1040
-3.0
1002
}
  0
ELLIPSE
  5
A03B
330
1F
100
AcDbEntity
  8
0
100
AcDbEllipse
 10
6.655372695125635
 20
9.103338227758927
 30
0.0
 11
0.0
 21
-0.4841350632239992
 31
0.0
210
0.0
220
0.0
230
-1.0
 40
0.1666666666666656
 41
-1.403348247575207
 42
1.403348247575207
1001
ACAD
1000
TCW40_DEV_WIDTH
1002
{
1040
-3.0
1002
}
  0
ELLIPSE
  5
A03C
330
1F
100
AcDbEntity
  8
0
100
AcDbEllipse
 10
6.907526373888131
 20
9.103338227758927
 30
0.0
 11
0.0
 21
-0.4841350632240006
 31
0.0
210
0.0
220
0.0
230
-1.0
 40
0.1666666666666648
 41
-1.394616842273924
 42
1.403348247575207
1001
ACAD
1000
TCW40_DEV_WIDTH
1002
{
1040
-3.0
1002
}
  0
ELLIPSE
  5
A03D
330
1F
100
AcDbEntity
  8
0
100
AcDbEllipse
 10
7.159680052650625
 20
9.123510522059925
 30
0.0
 11
0.0
 21
-0.4841350632239997
 31
0.0
210
0.0
220
0.0
230
-1.0
 40
0.1666666666666676
 41
-1.385896392321205
 42
1.358168851390436
1001
ACAD
1000
TCW40_DEV_WIDTH
1002
{
1040
-3.0
1002
}
  0
ELLIPSE
  5
A03E
330
1F
100
AcDbEntity
  8
0
100
AcDbEllipse
 10
7.411833731422319
 20
9.143682816360927
 30
0.0
 11
0.0
 21
-0.4841350632239992
 31
0.0
210
0.0
220
0.0
230
-1.0
 40
0.1666666666666656
 41
-1.403348247575207
 42
1.370383763358458
1001
ACAD
1000
TCW40_DEV_WIDTH
1002
{
1040
-3.0
1002
}
  0
ELLIPSE
  5
A03F
330
1F
100
AcDbEntity
  8
0
100
AcDbEllipse
 10
7.663987410184812
 20
9.184027404962927
 30
0.0
 11
0.0
 21
-0.4841350632239992
 31
0.0
210
0.0
220
0.0
230
-1.0
 40
0.1666666666666656
 41
-1.403348247575207
 42
1.378832291897181
1001
ACAD
1000
TCW40_DEV_WIDTH
1002
{
1040
-3.0
1002
}
  0
ELLIPSE
  5
A040
330
1F
100
AcDbEntity
  8
0
100
AcDbEllipse
 10
7.916141088947338
 20
9.204199699263925
 30
0.0
 11
0.0
 21
-0.4841350632239992
 31
0.0
210
0.0
220
0.0
230
-1.0
 40
0.1666666666666656
 41
-1.403348247575207
 42
1.403348247575207
1001
ACAD
1000
TCW40_DEV_WIDTH
1002
{
1040
-3.0
1002
}
  0
ELLIPSE
  5
A041
330
1F
100
AcDbEntity
  8
0
100
AcDbEllipse
 10
4.890296943788122
 20
9.103338227758927
 30
0.0
 11
0.0
 21
-0.4841350632239992
 31
0.0
210
0.0
220
0.0
230
-1.0
 40
0.1666666666666656
 41
-1.403348247575207
 42
1.403348247575207
1001
ACAD
1000
TCW40_DEV_WIDTH
1002
{
1040
-3.0
1002
}
  0
ELLIPSE
  5
A042
330
1F
100
AcDbEntity
  8
0
100
AcDbEllipse
 10
4.638143265025629
 20
9.103338227758927
 30
0.0
 11
0.0
 21
-0.4841350632239992
 31
0.0
210
0.0
220
0.0
230
-1.0
 40
0.1666666666666656
 41
-1.403348247575207
 42
1.403348247575207
1001
ACAD
1000
TCW40_DEV_WIDTH
1002
{
1040
-3.0
1002
}
  0
ELLIPSE
  5
A043
330
1F
100
AcDbEntity
  8
0
100
AcDbEllipse
 10
4.385989586263136
 20
9.103338227758927
 30
0.0
 11
0.0
 21
-0.4841350632239992
 31
0.0
210
0.0
220
0.0
230
-1.0
 40
0.1666666666666656
 41
-1.403348247575207
 42
1.403348247575207
1001
ACAD
1000
TCW40_DEV_WIDTH
1002
{
1040
-3.0
1002
}
  0
ELLIPSE
  5
A044
330
1F
100
AcDbEntity
  8
0
100
AcDbEllipse
 10
4.133835907500614
 20
9.103338227758927
 30
0.0
 11
0.0
 21
-0.4841350632239992
 31
0.0
210
0.0
220
0.0
230
-1.0
 40
0.1666666666666656
 41
-1.403348247575207
 42
1.403348247575207
1001
ACAD
1000
TCW40_DEV_WIDTH
1002
{
1040
-3.0
1002
}
  0
ELLIPSE
  5
A045
330
1F
100
AcDbEntity
  8
0
100
AcDbEllipse
 10
6.403219016363113
 20
9.103338227758927
 30
0.0
 11
0.0
 21
-0.4841350632239992
 31
0.0
210
0.0
220
0.0
230
-1.0
 40
0.1666666666666656
 41
-1.403348247575207
 42
1.403348247575207
1001
ACAD
1000
TCW40_DEV_WIDTH
1002
{
1040
-3.0
1002
}
  0
LWPOLYLINE
  5
A046
330
1F
100
AcDbEntity
  8
0
100
AcDbPolyline
 90
        2
 70
     0
 43
0.0
 10
7.992933852629533
 20
9.055572206852351
 42
0.0089034290691004
 10
7.836574545742628
 20
9.043032532622012
  0
LWPOLYLINE
  5
A047
330
1F
100
AcDbEntity
  8
0
100
AcDbPolyline
 90
        2
 70
     0
 43
0.0
 10
7.740625492925573
 20
9.032552940776435
 42
0.0089301670529736
 10
7.584780378910068
 20
9.010971444907278
  0
LWPOLYLINE
  5
A048
330
1F
100
AcDbEntity
  8
0
100
AcDbPolyline
 90
        2
 70
     0
 43
0.0
 10
7.491770568103216
 20
8.997035800485656
 42
-0.0164208329197848
 10
7.336694447193352
 20
8.967234732769762
  0
LWPOLYLINE
  5
A049
330
1F
100
AcDbEntity
  8
0
100
AcDbPolyline
 90
        2
 70
     0
 43
0.0
 10
7.331188273209072
 20
9.047058708942211
 42
-0.009530968508237
 10
7.240357771035348
 20
9.034662505029663
  0
LWPOLYLINE
  5
A04A
330
1F
100
AcDbEntity
  8
0
100
AcDbPolyline
 90
        2
 70
     0
 43
0.0
 10
7.079070952919877
 20
9.021257743478026
 42
-0.0095802259197058
 10
6.986966522661457
 20
9.018484124109084
  0
LWPOLYLINE
  5
A04B
330
1F
100
AcDbEntity
  8
0
100
AcDbPolyline
 90
        2
 70
     0
 43
0.0
 10
7.230575686480818
 20
8.892331182194999
 42
-0.0146801367772511
 10
7.089881601929473
 20
8.880609090585627
  0
LWPOLYLINE
  5
A04C
330
1F
100
AcDbEntity
  8
0
100
AcDbPolyline
 90
        2
 70
     0
 43
0.0
 10
6.978872490612296
 20
8.87720309544945
 42
-0.014869698490557
 10
6.835903786962671
 20
8.880371546483894
  0
LWPOLYLINE
  5
A04D
330
1F
100
AcDbEntity
  8
0
100
AcDbPolyline
 90
        2
 70
     0
 43
0.0
 10
7.988892420954304
 20
8.994801675570313
 42
0.0082305580818414
 10
7.844343273770682
 20
8.983271172509423
  0
LWPOLYLINE
  5
A04E
330
1F
100
AcDbEntity
  8
0
100
AcDbPolyline
 90
        2
 70
     0
 43
0.0
 10
7.740625492925573
 20
8.972036057873436
 42
0.008447071874798
 10
7.59319023971873
 20
8.951764314940549
  0
LWPOLYLINE
  5
A04F
330
1F
100
AcDbEntity
  8
0
100
AcDbPolyline
 90
        2
 70
     0
 43
0.0
 10
7.484635319735371
 20
8.934914537998368
 42
-0.0151648059833676
 10
7.341400707334923
 20
8.907467728596705
  0
LINE
  5
A050
330
1F
100
AcDbEntity
  8
0
100
AcDbLine
 10
4.057761421674868
 20
8.941959873350926
 30
0.0
 11
4.20991039332636
 21
8.941959873350926
 31
0.0
1001
ACAD
1000
TCW40_DEV_WIDTH
1002
{
1040
-3.0
1002
}
  0
LINE
  5
A051
330
1F
100
AcDbEntity
  8
0
100
AcDbLine
 10
4.309915100437393
 20
8.941959873350926
 30
0.0
 11
4.462064072088882
 21
8.941959873350926
 31
0.0
1001
ACAD
1000
TCW40_DEV_WIDTH
1002
{
1040
-3.0
1002
}
  0
LINE
  5
A052
330
1F
100
AcDbEntity
  8
0
100
AcDbLine
 10
4.562068779199886
 20
8.941959873350926
 30
0.0
 11
4.714217750851375
 21
8.941959873350926
 31
0.0
1001
ACAD
1000
TCW40_DEV_WIDTH
1002
{
1040
-3.0
1002
}
  0
LINE
  5
A053
330
1F
100
AcDbEntity
  8
0
100
AcDbLine
 10
4.81422245796238
 20
8.941959873350926
 30
0.0
 11
4.966371429613868
 21
8.941959873350926
 31
0.0
1001
ACAD
1000
TCW40_DEV_WIDTH
1002
{
1040
-3.0
1002
}
  0
LINE
  5
A054
330
1F
100
AcDbEntity
  8
0
100
AcDbLine
 10
5.066376136724873
 20
8.941959873350926
 30
0.0
 11
5.218525108376361
 21
8.941959873350926
 31
0.0
1001
ACAD
1000
TCW40_DEV_WIDTH
1002
{
1040
-3.0
1002
}
  0
LINE
  5
A055
330
1F
100
AcDbEntity
  8
0
100
AcDbLine
 10
5.318529815487366
 20
8.941959873350926
 30
0.0
 11
5.470678787138883
 21
8.941959873350926
 31
0.0
1001
ACAD
1000
TCW40_DEV_WIDTH
1002
{
1040
-3.0
1002
}
  0
LINE
  5
A056
330
1F
100
AcDbEntity
  8
0
100
AcDbLine
 10
5.570683494249887
 20
8.941959873350926
 30
0.0
 11
5.72283246590138
 21
8.941959873350926
 31
0.0
1001
ACAD
1000
TCW40_DEV_WIDTH
1002
{
1040
-3.0
1002
}
  0
LINE
  5
A057
330
1F
100
AcDbEntity
  8
0
100
AcDbLine
 10
5.822837173012381
 20
8.941959873350926
 30
0.0
 11
5.974986144663873
 21
8.941959873350926
 31
0.0
1001
ACAD
1000
TCW40_DEV_WIDTH
1002
{
1040
-3.0
1002
}
  0
LINE
  5
A058
330
1F
100
AcDbEntity
  8
0
100
AcDbLine
 10
6.074990851774874
 20
8.941959873350926
 30
0.0
 11
6.227139823426366
 21
8.941959873350926
 31
0.0
1001
ACAD
1000
TCW40_DEV_WIDTH
1002
{
1040
-3.0
1002
}
  0
LINE
  5
A059
330
1F
100
AcDbEntity
  8
0
100
AcDbLine
 10
6.327144530537367
 20
8.941959873350926
 30
0.0
 11
6.479293502188887
 21
8.941959873350926
 31
0.0
1001
ACAD
1000
TCW40_DEV_WIDTH
1002
{
1040
-3.0
1002
}
  0
LINE
  5
A05A
330
1F
100
AcDbEntity
  8
0
100
AcDbLine
 10
6.579298209299892
 20
8.941959873350926
 30
0.0
 11
6.731447180951381
 21
8.941959873350926
 31
0.0
1001
ACAD
1000
TCW40_DEV_WIDTH
1002
{
1040
-3.0
1002
}
  0
LINE
  5
A05B
330
1F
100
AcDbEntity
  8
0
100
AcDbLine
 10
4.060484657093535
 20
8.901615284748929
 30
0.0
 11
4.207187157907721
 21
8.901615284748929
 31
0.0
1001
ACAD
1000
TCW40_DEV_WIDTH
1002
{
1040
-3.0
1002
}
  0
LINE
  5
A05C
330
1F
100
AcDbEntity
  8
0
100
AcDbLine
 10
4.312638335856028
 20
8.901615284748929
 30
0.0
 11
4.459340836670246
 21
8.901615284748929
 31
0.0
1001
ACAD
1000
TCW40_DEV_WIDTH
1002
{
1040
-3.0
1002
}
  0
LINE
  5
A05D
330
1F
100
AcDbEntity
  8
0
100
AcDbLine
 10
4.564792014618522
 20
8.901615284748929
 30
0.0
 11
4.71149451543274
 21
8.901615284748929
 31
0.0
1001
ACAD
1000
TCW40_DEV_WIDTH
1002
{
1040
-3.0
1002
}
  0
LINE
  5
A05E
330
1F
100
AcDbEntity
  8
0
100
AcDbLine
 10
4.816945693381015
 20
8.901615284748929
 30
0.0
 11
4.963648194195233
 21
8.901615284748929
 31
0.0
1001
ACAD
1000
TCW40_DEV_WIDTH
1002
{
1040
-3.0
1002
}
  0
LINE
  5
A05F
330
1F
100
AcDbEntity
  8
0
100
AcDbLine
 10
5.069099372143508
 20
8.901615284748929
 30
0.0
 11
5.215801872957726
 21
8.901615284748929
 31
0.0
1001
ACAD
1000
TCW40_DEV_WIDTH
1002
{
1040
-3.0
1002
}
  0
LINE
  5
A060
330
1F
100
AcDbEntity
  8
0
100
AcDbLine
 10
5.32125305090603
 20
8.901615284748929
 30
0.0
 11
5.467955551720219
 21
8.901615284748929
 31
0.0
1001
ACAD
1000
TCW40_DEV_WIDTH
1002
{
1040
-3.0
1002
}
  0
LINE
  5
A061
330
1F
100
AcDbEntity
  8
0
100
AcDbLine
 10
5.573406729668526
 20
8.901615284748929
 30
0.0
 11
5.720109230482741
 21
8.901615284748929
 31
0.0
1001
ACAD
1000
TCW40_DEV_WIDTH
1002
{
1040
-3.0
1002
}
  0
LINE
  5
A062
330
1F
100
AcDbEntity
  8
0
100
AcDbLine
 10
5.825560408431019
 20
8.901615284748929
 30
0.0
 11
5.972262909245234
 21
8.901615284748929
 31
0.0
1001
ACAD
1000
TCW40_DEV_WIDTH
1002
{
1040
-3.0
1002
}
  0
LINE
  5
A063
330
1F
100
AcDbEntity
  8
0
100
AcDbLine
 10
6.077714087193513
 20
8.901615284748929
 30
0.0
 11
6.224416588007727
 21
8.901615284748929
 31
0.0
1001
ACAD
1000
TCW40_DEV_WIDTH
1002
{
1040
-3.0
1002
}
  0
LINE
  5
A064
330
1F
100
AcDbEntity
  8
0
100
AcDbLine
 10
6.329867765956034
 20
8.901615284748929
 30
0.0
 11
6.47657026677022
 21
8.901615284748929
 31
0.0
1001
ACAD
1000
TCW40_DEV_WIDTH
1002
{
1040
-3.0
1002
}
  0
LINE
  5
A065
330
1F
100
AcDbEntity
  8
0
100
AcDbLine
 10
6.582021444718527
 20
8.901615284748929
 30
0.0
 11
6.728723945532745
 21
8.901615284748929
 31
0.0
1001
ACAD
1000
TCW40_DEV_WIDTH
1002
{
1040
-3.0
1002
}
  0
LINE
  5
A066
330
1F
100
AcDbEntity
  8
0
100
AcDbLine
 10
4.063957030231506
 20
8.861270696146929
 30
0.0
 11
4.203714784769751
 21
8.861270696146929
 31
0.0
1001
ACAD
1000
TCW40_DEV_WIDTH
1002
{
1040
-3.0
1002
}
  0
LINE
  5
A067
330
1F
100
AcDbEntity
  8
0
100
AcDbLine
 10
4.316110708993999
 20
8.861270696146929
 30
0.0
 11
4.455868463532244
 21
8.861270696146929
 31
0.0
1001
ACAD
1000
TCW40_DEV_WIDTH
1002
{
1040
-3.0
1002
}
  0
LINE
  5
A068
330
1F
100
AcDbEntity
  8
0
100
AcDbLine
 10
4.568264387756496
 20
8.861270696146929
 30
0.0
 11
4.708022142294765
 21
8.861270696146929
 31
0.0
1001
ACAD
1000
TCW40_DEV_WIDTH
1002
{
1040
-3.0
1002
}
  0
LINE
  5
A069
330
1F
100
AcDbEntity
  8
0
100
AcDbLine
 10
4.820418066518989
 20
8.861270696146929
 30
0.0
 11
4.960175821057259
 21
8.861270696146929
 31
0.0
1001
ACAD
1000
TCW40_DEV_WIDTH
1002
{
1040
-3.0
1002
}
  0
LINE
  5
A06A
330
1F
100
AcDbEntity
  8
0
100
AcDbLine
 10
5.072571745281511
 20
8.861270696146929
 30
0.0
 11
5.212329499819752
 21
8.861270696146929
 31
0.0
1001
ACAD
1000
TCW40_DEV_WIDTH
1002
{
1040
-3.0
1002
}
  0
LINE
  5
A06B
330
1F
100
AcDbEntity
  8
0
100
AcDbLine
 10
5.324725424044004
 20
8.861270696146929
 30
0.0
 11
5.464483178582245
 21
8.861270696146929
 31
0.0
1001
ACAD
1000
TCW40_DEV_WIDTH
1002
{
1040
-3.0
1002
}
  0
LINE
  5
A06C
330
1F
100
AcDbEntity
  8
0
100
AcDbLine
 10
5.576879102806497
 20
8.861270696146929
 30
0.0
 11
5.71663685734477
 21
8.861270696146929
 31
0.0
1001
ACAD
1000
TCW40_DEV_WIDTH
1002
{
1040
-3.0
1002
}
  0
LINE
  5
A06D
330
1F
100
AcDbEntity
  8
0
100
AcDbLine
 10
5.82903278156899
 20
8.861270696146929
 30
0.0
 11
5.968790536107263
 21
8.861270696146929
 31
0.0
1001
ACAD
1000
TCW40_DEV_WIDTH
1002
{
1040
-3.0
1002
}
  0
LINE
  5
A06E
330
1F
100
AcDbEntity
  8
0
100
AcDbLine
 10
6.081186460331483
 20
8.861270696146929
 30
0.0
 11
6.220944214869756
 21
8.861270696146929
 31
0.0
1001
ACAD
1000
TCW40_DEV_WIDTH
1002
{
1040
-3.0
1002
}
  0
LINE
  5
A06F
330
1F
100
AcDbEntity
  8
0
100
AcDbLine
 10
6.333340139094008
 20
8.861270696146929
 30
0.0
 11
6.47309789363225
 21
8.861270696146929
 31
0.0
1001
ACAD
1000
TCW40_DEV_WIDTH
1002
{
1040
-3.0
1002
}
  0
LINE
  5
A070
330
1F
100
AcDbEntity
  8
0
100
AcDbLine
 10
6.585493817856502
 20
8.861270696146929
 30
0.0
 11
6.725251572394743
 21
8.861270696146929
 31
0.0
1001
ACAD
1000
TCW40_DEV_WIDTH
1002
{
1040
-3.0
1002
}
  0
LINE
  5
A071
330
1F
100
AcDbEntity
  8
0
100
AcDbLine
 10
4.070847938734207
 20
8.800753813243927
 30
0.0
 11
4.19682387626705
 21
8.800753813243927
 31
0.0
1001
ACAD
1000
TCW40_DEV_WIDTH
1002
{
1040
-3.0
1002
}
  0
LINE
  5
A072
330
1F
100
AcDbEntity
  8
0
100
AcDbLine
 10
4.3230016174967
 20
8.800753813243927
 30
0.0
 11
4.448977555029543
 21
8.800753813243927
 31
0.0
1001
ACAD
1000
TCW40_DEV_WIDTH
1002
{
1040
-3.0
1002
}
  0
LINE
  5
A073
330
1F
100
AcDbEntity
  8
0
100
AcDbLine
 10
4.575155296259193
 20
8.800753813243927
 30
0.0
 11
4.701131233792064
 21
8.800753813243927
 31
0.0
1001
ACAD
1000
TCW40_DEV_WIDTH
1002
{
1040
-3.0
1002
}
  0
LINE
  5
A074
330
1F
100
AcDbEntity
  8
0
100
AcDbLine
 10
4.82730897502169
 20
8.800753813243927
 30
0.0
 11
4.953284912554558
 21
8.800753813243927
 31
0.0
1001
ACAD
1000
TCW40_DEV_WIDTH
1002
{
1040
-3.0
1002
}
  0
LINE
  5
A075
330
1F
100
AcDbEntity
  8
0
100
AcDbLine
 10
5.079462653784212
 20
8.800753813243927
 30
0.0
 11
5.205438591317051
 21
8.800753813243927
 31
0.0
1001
ACAD
1000
TCW40_DEV_WIDTH
1002
{
1040
-3.0
1002
}
  0
LINE
  5
A076
330
1F
100
AcDbEntity
  8
0
100
AcDbLine
 10
5.331616332546705
 20
8.800753813243927
 30
0.0
 11
5.457592270079544
 21
8.800753813243927
 31
0.0
1001
ACAD
1000
TCW40_DEV_WIDTH
1002
{
1040
-3.0
1002
}
  0
LINE
  5
A077
330
1F
100
AcDbEntity
  8
0
100
AcDbLine
 10
5.583770011309198
 20
8.800753813243927
 30
0.0
 11
5.709745948842037
 21
8.800753813243927
 31
0.0
1001
ACAD
1000
TCW40_DEV_WIDTH
1002
{
1040
-3.0
1002
}
  0
LINE
  5
A078
330
1F
100
AcDbEntity
  8
0
100
AcDbLine
 10
5.835923690071691
 20
8.800753813243927
 30
0.0
 11
5.961899627604562
 21
8.800753813243927
 31
0.0
1001
ACAD
1000
TCW40_DEV_WIDTH
1002
{
1040
-3.0
1002
}
  0
LINE
  5
A079
330
1F
100
AcDbEntity
  8
0
100
AcDbLine
 10
6.088077368834213
 20
8.800753813243927
 30
0.0
 11
6.214053306367055
 21
8.800753813243927
 31
0.0
1001
ACAD
1000
TCW40_DEV_WIDTH
1002
{
1040
-3.0
1002
}
  0
LINE
  5
A07A
330
1F
100
AcDbEntity
  8
0
100
AcDbLine
 10
6.340231047596709
 20
8.800753813243927
 30
0.0
 11
6.466206985129549
 21
8.800753813243927
 31
0.0
1001
ACAD
1000
TCW40_DEV_WIDTH
1002
{
1040
-3.0
1002
}
  0
LINE
  5
A07B
330
1F
100
AcDbEntity
  8
0
100
AcDbLine
 10
6.592384726359203
 20
8.800753813243927
 30
0.0
 11
6.718360663892042
 21
8.800753813243927
 31
0.0
1001
ACAD
1000
TCW40_DEV_WIDTH
1002
{
1040
-3.0
1002
}
  0
LWPOLYLINE
  5
A07C
330
1F
100
AcDbEntity
  8
0
100
AcDbPolyline
 90
        2
 70
     0
 43
0.0
 10
7.235222818493578
 20
2.798164700686402
 42
0.0156796610766747
 10
7.084953204090211
 20
2.810676470160808
  0
LWPOLYLINE
  5
A07D
330
1F
100
AcDbEntity
  8
0
100
AcDbPolyline
 90
        2
 70
     0
 43
0.0
 10
6.983349628501827
 20
2.813784199993167
 42
0.0157936648709978
 10
6.831501455372315
 20
2.810421137378788
  0
LWPOLYLINE
  5
A07E
330
1F
100
AcDbEntity
  8
0
100
AcDbPolyline
 90
        2
 70
     0
 43
0.0
 10
7.992933852629533
 20
2.695970072345505
 42
-0.0089034290691004
 10
7.836574545742628
 20
2.708509746575841
  0
LWPOLYLINE
  5
A07F
330
1F
100
AcDbEntity
  8
0
100
AcDbPolyline
 90
        2
 70
     0
 43
0.0
 10
7.740625492925573
 20
2.718989338421418
 42
-0.0089301670529736
 10
7.584780378910068
 20
2.740570834290575
  0
LWPOLYLINE
  5
A080
330
1F
100
AcDbEntity
  8
0
100
AcDbPolyline
 90
        2
 70
     0
 43
0.0
 10
7.491770568103216
 20
2.754506478712198
 42
0.0164208329197848
 10
7.336694447193352
 20
2.784307546428091
  0
LWPOLYLINE
  5
A081
330
1F
100
AcDbEntity
  8
0
100
AcDbPolyline
 90
        2
 70
     0
 43
0.0
 10
7.230575686480818
 20
2.859211097002854
 42
0.0146801367772511
 10
7.089881601929473
 20
2.870933188612226
  0
LWPOLYLINE
  5
A082
330
1F
100
AcDbEntity
  8
0
100
AcDbPolyline
 90
        2
 70
     0
 43
0.0
 10
6.978872490612296
 20
2.874339183748403
 42
0.014869698490557
 10
6.835903786962671
 20
2.871170732713959
  0
LWPOLYLINE
  5
A083
330
1F
100
AcDbEntity
  8
0
100
AcDbPolyline
 90
        2
 70
     0
 43
0.0
 10
7.988892420954304
 20
2.756740603627542
 42
-0.0082305580818414
 10
7.844343273770682
 20
2.768271106688431
  0
LWPOLYLINE
  5
A084
330
1F
100
AcDbEntity
  8
0
100
AcDbPolyline
 90
        2
 70
     0
 43
0.0
 10
7.740625492925573
 20
2.779506221324418
 42
-0.008447071874798
 10
7.59319023971873
 20
2.799777964257304
  0
LWPOLYLINE
  5
A085
330
1F
100
AcDbEntity
  8
0
100
AcDbPolyline
 90
        2
 70
     0
 43
0.0
 10
7.484635319735371
 20
2.816627741199483
 42
0.0151648059833676
 10
7.341400707334923
 20
2.84407455060115
  0
LINE
  5
A086
330
1F
100
AcDbEntity
  8
0
100
AcDbLine
 10
4.057761421674868
 20
2.809582405846927
 30
0.0
 11
4.20991039332636
 21
2.809582405846927
 31
0.0
1001
ACAD
1000
TCW40_DEV_WIDTH
1002
{
1040
-3.0
1002
}
  0
LINE
  5
A087
330
1F
100
AcDbEntity
  8
0
100
AcDbLine
 10
4.309915100437393
 20
2.809582405846927
 30
0.0
 11
4.462064072088882
 21
2.809582405846927
 31
0.0
1001
ACAD
1000
TCW40_DEV_WIDTH
1002
{
1040
-3.0
1002
}
  0
LINE
  5
A088
330
1F
100
AcDbEntity
  8
0
100
AcDbLine
 10
4.562068779199886
 20
2.809582405846927
 30
0.0
 11
4.714217750851375
 21
2.809582405846927
 31
0.0
1001
ACAD
1000
TCW40_DEV_WIDTH
1002
{
1040
-3.0
1002
}
  0
LINE
  5
A089
330
1F
100
AcDbEntity
  8
0
100
AcDbLine
 10
4.81422245796238
 20
2.809582405846927
 30
0.0
 11
4.966371429613868
 21
2.809582405846927
 31
0.0
1001
ACAD
1000
TCW40_DEV_WIDTH
1002
{
1040
-3.0
1002
}
  0
LINE
  5
A08A
330
1F
100
AcDbEntity
  8
0
100
AcDbLine
 10
5.066376136724873
 20
2.809582405846927
 30
0.0
 11
5.218525108376361
 21
2.809582405846927
 31
0.0
1001
ACAD
1000
TCW40_DEV_WIDTH
1002
{
1040
-3.0
1002
}
  0
LINE
  5
A08B
330
1F
100
AcDbEntity
  8
0
100
AcDbLine
 10
5.318529815487366
 20
2.809582405846927
 30
0.0
 11
5.470678787138883
 21
2.809582405846927
 31
0.0
1001
ACAD
1000
TCW40_DEV_WIDTH
1002
{
1040
-3.0
1002
}
  0
LINE
  5
A08C
330
1F
100
AcDbEntity
  8
0
100
AcDbLine
 10
5.570683494249887
 20
2.809582405846927
 30
0.0
 11
5.72283246590138
 21
2.809582405846927
 31
0.0
1001
ACAD
1000
TCW40_DEV_WIDTH
1002
{
1040
-3.0
1002
}
  0
LINE
  5
A08D
330
1F
100
AcDbEntity
  8
0
100
AcDbLine
 10
5.822837173012381
 20
2.809582405846927
 30
0.0
 11
5.974986144663873
 21
2.809582405846927
 31
0.0
1001
ACAD
1000
TCW40_DEV_WIDTH
1002
{
1040
-3.0
1002
}
  0
LINE
  5
A08E
330
1F
100
AcDbEntity
  8
0
100
AcDbLine
 10
6.074990851774874
 20
2.809582405846927
 30
0.0
 11
6.227139823426366
 21
2.809582405846927
 31
0.0
1001
ACAD
1000
TCW40_DEV_WIDTH
1002
{
1040
-3.0
1002
}
  0
LINE
  5
A08F
330
1F
100
AcDbEntity
  8
0
100
AcDbLine
 10
6.327144530537367
 20
2.809582405846927
 30
0.0
 11
6.479293502188887
 21
2.809582405846927
 31
0.0
1001
ACAD
1000
TCW40_DEV_WIDTH
1002
{
1040
-3.0
1002
}
  0
LINE
  5
A090
330
1F
100
AcDbEntity
  8
0
100
AcDbLine
 10
6.579298209299892
 20
2.809582405846927
 30
0.0
 11
6.731447180951381
 21
2.809582405846927
 31
0.0
1001
ACAD
1000
TCW40_DEV_WIDTH
1002
{
1040
-3.0
1002
}
  0
LINE
  5
A091
330
1F
100
AcDbEntity
  8
0
100
AcDbLine
 10
4.060484657093535
 20
2.849926994448925
 30
0.0
 11
4.207187157907721
 21
2.849926994448925
 31
0.0
1001
ACAD
1000
TCW40_DEV_WIDTH
1002
{
1040
-3.0
1002
}
  0
LINE
  5
A092
330
1F
100
AcDbEntity
  8
0
100
AcDbLine
 10
4.312638335856028
 20
2.849926994448925
 30
0.0
 11
4.459340836670246
 21
2.849926994448925
 31
0.0
1001
ACAD
1000
TCW40_DEV_WIDTH
1002
{
1040
-3.0
1002
}
  0
LINE
  5
A093
330
1F
100
AcDbEntity
  8
0
100
AcDbLine
 10
4.564792014618522
 20
2.849926994448925
 30
0.0
 11
4.71149451543274
 21
2.849926994448925
 31
0.0
1001
ACAD
1000
TCW40_DEV_WIDTH
1002
{
1040
-3.0
1002
}
  0
LINE
  5
A094
330
1F
100
AcDbEntity
  8
0
100
AcDbLine
 10
4.816945693381015
 20
2.849926994448925
 30
0.0
 11
4.963648194195233
 21
2.849926994448925
 31
0.0
1001
ACAD
1000
TCW40_DEV_WIDTH
1002
{
1040
-3.0
1002
}
  0
LINE
  5
A095
330
1F
100
AcDbEntity
  8
0
100
AcDbLine
 10
5.069099372143508
 20
2.849926994448925
 30
0.0
 11
5.215801872957726
 21
2.849926994448925
 31
0.0
1001
ACAD
1000
TCW40_DEV_WIDTH
1002
{
1040
-3.0
1002
}
  0
LINE
  5
A096
330
1F
100
AcDbEntity
  8
0
100
AcDbLine
 10
5.32125305090603
 20
2.849926994448925
 30
0.0
 11
5.467955551720219
 21
2.849926994448925
 31
0.0
1001
ACAD
1000
TCW40_DEV_WIDTH
1002
{
1040
-3.0
1002
}
  0
LINE
  5
A097
330
1F
100
AcDbEntity
  8
0
100
AcDbLine
 10
5.573406729668526
 20
2.849926994448925
 30
0.0
 11
5.720109230482741
 21
2.849926994448925
 31
0.0
1001
ACAD
1000
TCW40_DEV_WIDTH
1002
{
1040
-3.0
1002
}
  0
LINE
  5
A098
330
1F
100
AcDbEntity
  8
0
100
AcDbLine
 10
5.825560408431019
 20
2.849926994448925
 30
0.0
 11
5.972262909245234
 21
2.849926994448925
 31
0.0
1001
ACAD
1000
TCW40_DEV_WIDTH
1002
{
1040
-3.0
1002
}
  0
LINE
  5
A099
330
1F
100
AcDbEntity
  8
0
100
AcDbLine
 10
6.077714087193513
 20
2.849926994448925
 30
0.0
 11
6.224416588007727
 21
2.849926994448925
 31
0.0
1001
ACAD
1000
TCW40_DEV_WIDTH
1002
{
1040
-3.0
1002
}
  0
LINE
  5
A09A
330
1F
100
AcDbEntity
  8
0
100
AcDbLine
 10
6.329867765956034
 20
2.849926994448925
 30
0.0
 11
6.47657026677022
 21
2.849926994448925
 31
0.0
1001
ACAD
1000
TCW40_DEV_WIDTH
1002
{
1040
-3.0
1002
}
  0
LINE
  5
A09B
330
1F
100
AcDbEntity
  8
0
100
AcDbLine
 10
6.582021444718527
 20
2.849926994448925
 30
0.0
 11
6.728723945532745
 21
2.849926994448925
 31
0.0
1001
ACAD
1000
TCW40_DEV_WIDTH
1002
{
1040
-3.0
1002
}
  0
LINE
  5
A09C
330
1F
100
AcDbEntity
  8
0
100
AcDbLine
 10
4.063957030231506
 20
2.890271583050927
 30
0.0
 11
4.203714784769751
 21
2.890271583050927
 31
0.0
1001
ACAD
1000
TCW40_DEV_WIDTH
1002
{
1040
-3.0
1002
}
  0
LINE
  5
A09D
330
1F
100
AcDbEntity
  8
0
100
AcDbLine
 10
4.316110708993999
 20
2.890271583050927
 30
0.0
 11
4.455868463532244
 21
2.890271583050927
 31
0.0
1001
ACAD
1000
TCW40_DEV_WIDTH
1002
{
1040
-3.0
1002
}
  0
LINE
  5
A09E
330
1F
100
AcDbEntity
  8
0
100
AcDbLine
 10
4.568264387756496
 20
2.890271583050927
 30
0.0
 11
4.708022142294765
 21
2.890271583050927
 31
0.0
1001
ACAD
1000
TCW40_DEV_WIDTH
1002
{
1040
-3.0
1002
}
  0
LINE
  5
A09F
330
1F
100
AcDbEntity
  8
0
100
AcDbLine
 10
4.820418066518989
 20
2.890271583050927
 30
0.0
 11
4.960175821057259
 21
2.890271583050927
 31
0.0
1001
ACAD
1000
TCW40_DEV_WIDTH
1002
{
1040
-3.0
1002
}
  0
LINE
  5
A0A0
330
1F
100
AcDbEntity
  8
0
100
AcDbLine
 10
5.072571745281511
 20
2.890271583050927
 30
0.0
 11
5.212329499819752
 21
2.890271583050927
 31
0.0
1001
ACAD
1000
TCW40_DEV_WIDTH
1002
{
1040
-3.0
1002
}
  0
LINE
  5
A0A1
330
1F
100
AcDbEntity
  8
0
100
AcDbLine
 10
5.324725424044004
 20
2.890271583050927
 30
0.0
 11
5.464483178582245
 21
2.890271583050927
 31
0.0
1001
ACAD
1000
TCW40_DEV_WIDTH
1002
{
1040
-3.0
1002
}
  0
LINE
  5
A0A2
330
1F
100
AcDbEntity
  8
0
100
AcDbLine
 10
5.576879102806497
 20
2.890271583050927
 30
0.0
 11
5.71663685734477
 21
2.890271583050927
 31
0.0
1001
ACAD
1000
TCW40_DEV_WIDTH
1002
{
1040
-3.0
1002
}
  0
LINE
  5
A0A3
330
1F
100
AcDbEntity
  8
0
100
AcDbLine
 10
5.82903278156899
 20
2.890271583050927
 30
0.0
 11
5.968790536107263
 21
2.890271583050927
 31
0.0
1001
ACAD
1000
TCW40_DEV_WIDTH
1002
{
1040
-3.0
1002
}
  0
LINE
  5
A0A4
330
1F
100
AcDbEntity
  8
0
100
AcDbLine
 10
6.081186460331483
 20
2.890271583050927
 30
0.0
 11
6.220944214869756
 21
2.890271583050927
 31
0.0
1001
ACAD
1000
TCW40_DEV_WIDTH
1002
{
1040
-3.0
1002
}
  0
LINE
  5
A0A5
330
1F
100
AcDbEntity
  8
0
100
AcDbLine
 10
6.333340139094008
 20
2.890271583050927
 30
0.0
 11
6.47309789363225
 21
2.890271583050927
 31
0.0
1001
ACAD
1000
TCW40_DEV_WIDTH
1002
{
1040
-3.0
1002
}
  0
LINE
  5
A0A6
330
1F
100
AcDbEntity
  8
0
100
AcDbLine
 10
6.585493817856502
 20
2.890271583050927
 30
0.0
 11
6.725251572394743
 21
2.890271583050927
 31
0.0
1001
ACAD
1000
TCW40_DEV_WIDTH
1002
{
1040
-3.0
1002
}
  0
LINE
  5
A0A7
330
1F
100
AcDbEntity
  8
0
100
AcDbLine
 10
4.070847938734207
 20
2.950788465953926
 30
0.0
 11
4.19682387626705
 21
2.950788465953926
 31
0.0
1001
ACAD
1000
TCW40_DEV_WIDTH
1002
{
1040
-3.0
1002
}
  0
LINE
  5
A0A8
330
1F
100
AcDbEntity
  8
0
100
AcDbLine
 10
4.3230016174967
 20
2.950788465953926
 30
0.0
 11
4.448977555029543
 21
2.950788465953926
 31
0.0
1001
ACAD
1000
TCW40_DEV_WIDTH
1002
{
1040
-3.0
1002
}
  0
LINE
  5
A0A9
330
1F
100
AcDbEntity
  8
0
100
AcDbLine
 10
4.575155296259193
 20
2.950788465953926
 30
0.0
 11
4.701131233792064
 21
2.950788465953926
 31
0.0
1001
ACAD
1000
TCW40_DEV_WIDTH
1002
{
1040
-3.0
1002
}
  0
LINE
  5
A0AA
330
1F
100
AcDbEntity
  8
0
100
AcDbLine
 10
4.82730897502169
 20
2.950788465953926
 30
0.0
 11
4.953284912554558
 21
2.950788465953926
 31
0.0
1001
ACAD
1000
TCW40_DEV_WIDTH
1002
{
1040
-3.0
1002
}
  0
LINE
  5
A0AB
330
1F
100
AcDbEntity
  8
0
100
AcDbLine
 10
5.079462653784212
 20
2.950788465953926
 30
0.0
 11
5.205438591317051
 21
2.950788465953926
 31
0.0
1001
ACAD
1000
TCW40_DEV_WIDTH
1002
{
1040
-3.0
1002
}
  0
LINE
  5
A0AC
330
1F
100
AcDbEntity
  8
0
100
AcDbLine
 10
5.331616332546705
 20
2.950788465953926
 30
0.0
 11
5.457592270079544
 21
2.950788465953926
 31
0.0
1001
ACAD
1000
TCW40_DEV_WIDTH
1002
{
1040
-3.0
1002
}
  0
LINE
  5
A0AD
330
1F
100
AcDbEntity
  8
0
100
AcDbLine
 10
5.583770011309198
 20
2.950788465953926
 30
0.0
 11
5.709745948842037
 21
2.950788465953926
 31
0.0
1001
ACAD
1000
TCW40_DEV_WIDTH
1002
{
1040
-3.0
1002
}
  0
LINE
  5
A0AE
330
1F
100
AcDbEntity
  8
0
100
AcDbLine
 10
5.835923690071691
 20
2.950788465953926
 30
0.0
 11
5.961899627604562
 21
2.950788465953926
 31
0.0
1001
ACAD
1000
TCW40_DEV_WIDTH
1002
{
1040
-3.0
1002
}
  0
LINE
  5
A0AF
330
1F
100
AcDbEntity
  8
0
100
AcDbLine
 10
6.088077368834213
 20
2.950788465953926
 30
0.0
 11
6.214053306367055
 21
2.950788465953926
 31
0.0
1001
ACAD
1000
TCW40_DEV_WIDTH
1002
{
1040
-3.0
1002
}
  0
LINE
  5
A0B0
330
1F
100
AcDbEntity
  8
0
100
AcDbLine
 10
6.340231047596709
 20
2.950788465953926
 30
0.0
 11
6.466206985129549
 21
2.950788465953926
 31
0.0
1001
ACAD
1000
TCW40_DEV_WIDTH
1002
{
1040
-3.0
1002
}
  0
LINE
  5
A0B1
330
1F
100
AcDbEntity
  8
0
100
AcDbLine
 10
6.592384726359203
 20
2.950788465953926
 30
0.0
 11
6.718360663892042
 21
2.950788465953926
 31
0.0
1001
ACAD
1000
TCW40_DEV_WIDTH
1002
{
1040
-3.0
1002
}
  0
LWPOLYLINE
  5
A0B2
330
1F
100
AcDbEntity
  8
0
100
AcDbPolyline
 90
        4
 70
     1
 43
0.0
 10
7.03864628684462
 20
4.504055127130928
 10
4.416248027714637
 20
4.504055127130928
 10
4.416248027714637
 20
7.126453386260925
 10
7.03864628684462
 20
7.126453386260925
1001
ACAD
1000
TCW40_DEV_WIDTH
1002
{
1040
-3.0
1002
}
  0
LWPOLYLINE
  5
A0B3
330
1F
100
AcDbEntity
  8
0
100
AcDbPolyline
 90
        3
 70
     0
 43
0.0
 10
8.322749226183418
 20
9.143710603151932
 42
-0.1116363669694671
 10
8.364208547840288
 20
5.608795778236428
 42
0.0457021566903444
 10
8.27832323051362
 20
2.609037341713077
  0
LWPOLYLINE
  5
A0B4
330
1F
100
AcDbEntity
  8
0
100
AcDbPolyline
 90
        3
 70
     0
 43
0.0
 10
8.199544570504109
 20
9.143710603151932
 42
-0.1116363669694671
 10
8.241003892160982
 20
5.608795778236428
 42
0.045686805620937
 10
8.125118574834313
 20
2.609037341713077
  0
LINE
  5
A0B5
330
1F
100
AcDbEntity
  8
0
100
AcDbLine
 10
8.322749226183418
 20
9.143710603151932
 30
0.0
 11
8.199544570504109
 21
9.143710603151932
 31
0.0
1001
ACAD
1000
TCW40_DEV_WIDTH
1002
{
1040
-3.0
1002
}
  0
LINE
  5
A0B6
330
1F
100
AcDbEntity
  8
0
100
AcDbLine
 10
8.27832323051362
 20
2.609037341713077
 30
0.0
 11
8.125118574834313
 21
2.609037341713077
 31
0.0
1001
ACAD
1000
TCW40_DEV_WIDTH
1002
{
1040
-3.0
1002
}
  0
DIMENSION
  5
A0B7
330
1F
100
AcDbEntity
  8
DIM
100
AcDbDimension
  2
*D3
 10
9.243359585900055
 20
2.609037341713076
 30
0.0
 11
9.243359585900055
 21
5.876373972432508
 31
0.0
 70
   160
 71
     5
 42
6.534673261438855
  3
Standard
100
AcDbAlignedDimension
 13
8.322749226183418
 23
9.143710603151932
 33
0.0
 14
8.27832323051362
 24
2.609037341713077
 34
0.0
 50
90.0
100
AcDbRotatedDimension
  0
DIMENSION
  5
A0B8
330
1F
100
AcDbEntity
  8
DIM
100
AcDbDimension
  2
*D4
 10
8.540791411311893
 20
9.793520567017271
 30
0.0
 11
6.10725880103603
 21
9.793520567017271
 31
0.0
 70
   160
 71
     5
 42
4.649023035423251
  3
Standard
100
AcDbAlignedDimension
 13
3.891768375888641
 23
9.022649050554926
 33
0.0
 14
8.540791411311893
 24
7.378567374717576
 34
0.0
100
AcDbRotatedDimension
  0
LWPOLYLINE
  5
A60E
330
1F
100
AcDbEntity
  8
0
100
AcDbPolyline
 90
        4
 70
     1
 43
0.0
 10
0.0
 20
0.0
 10
22.0
 20
0.0
 10
22.0
 20
17.0
 10
0.0
 20
17.0
  0
ENDSEC
  0
SECTION
  2
OBJECTS
  0
DICTIONARY
  5
C
330
0
100
AcDbDictionary
281
     1
  3
ACAD_COLOR
350
5D
  3
ACAD_GROUP
350
D
  3
ACAD_LAYOUT
350
1A
  3
ACAD_MATERIAL
350
33
  3
ACAD_MLEADERSTYLE
350
82
  3
ACAD_MLINESTYLE
350
17
  3
ACAD_PLOTSETTINGS
350
19
  3
ACAD_PLOTSTYLENAME
350
E
  3
ACAD_SCALELIST
350
60
  3
ACAD_TABLESTYLE
350
5E
  3
ACAD_VISUALSTYLE
350
4C
  3
ACADE_WIRETYPE
350
226D
  3
AcAec
350
94AC
  3
ACDB_RECOMPOSE_DATA
350
A937
  3
AcDbVariableDictionary
350
8A
  3
AEC_PROPERTY_SET_DEFS
350
28C1
  3
ASE_INDEX_DICTIONARY
350
2834
  3
DWGPROPS
350
A97E
  0
DICTIONARY
  5
181
330
8
100
AcDbDictionary
280
     1
281
     1
  0
DICTIONARY
  5
107
330
2
100
AcDbDictionary
280
     1
281
     1
  3
ACAD_LAYERSTATES
360
108
  0
DICTIONARY
  5
17C
330
10
100
AcDbDictionary
280
     1
281
     1
  3
ADSK_XREC_LAYER_RECONCILED
360
292F
  0
DICTIONARY
  5
17A
330
1F
100
AcDbDictionary
280
     1
281
     1
  3
ACAD_SORTENTS
360
17B
  0
DICTIONARY
  5
5D
102
{ACAD_REACTORS
330
C
102
}
330
C
100
AcDbDictionary
281
     1
  0
DICTIONARY
  5
D
102
{ACAD_REACTORS
330
C
102
}
330
C
100
AcDbDictionary
281
     1
  0
DICTIONARY
  5
1A
102
{ACAD_REACTORS
330
C
102
}
330
C
100
AcDbDictionary
281
     1
  3
Layout1
350
1E
  3
Layout2
350
26
  3
Model
350
22
  0
DICTIONARY
  5
33
102
{ACAD_REACTORS
330
C
102
}
330
C
100
AcDbDictionary
281
     1
  3
ByBlock
350
3C
  3
ByLayer
350
34
  3
Global
350
44
  0
DICTIONARY
  5
82
102
{ACAD_REACTORS
330
C
102
}
330
C
100
AcDbDictionary
281
     1
  3
Standard
350
83
  0
DICTIONARY
  5
17
102
{ACAD_REACTORS
330
C
102
}
330
C
100
AcDbDictionary
281
     1
  3
Standard
350
18
  0
DICTIONARY
  5
19
102
{ACAD_REACTORS
330
C
102
}
330
C
100
AcDbDictionary
281
     1
  0
ACDBDICTIONARYWDFLT
  5
E
102
{ACAD_REACTORS
330
C
102
}
330
C
100
AcDbDictionary
281
     1
  3
Normal
350
F
100
AcDbDictionaryWithDefault
340
F
  0
DICTIONARY
  5
60
102
{ACAD_REACTORS
330
C
102
}
330
C
100
AcDbDictionary
281
     1
  3
A0
350
61
  3
A1
350
62
  3
A2
350
63
  3
A3
350
64
  3
A4
350
65
  3
A5
350
66
  3
A6
350
67
  3
A7
350
68
  3
A8
350
69
  3
A9
350
6A
  3
B0
350
6B
  3
B1
350
6C
  3
B2
350
6D
  3
B3
350
6E
  3
B4
350
6F
  3
B5
350
70
  3
B6
350
71
  3
B7
350
72
  3
B8
350
73
  3
B9
350
74
  3
C0
350
75
  3
C1
350
76
  3
C2
350
77
  3
C3
350
78
  3
C4
350
79
  3
C5
350
7A
  3
C6
350
7B
  3
C7
350
7C
  3
C8
350
7D
  3
C9
350
7E
  3
D0
350
7F
  3
D1
350
80
  3
D2
350
81
  0
DICTIONARY
  5
5E
102
{ACAD_REACTORS
330
C
102
}
330
C
100
AcDbDictionary
281
     1
  3
Standard
350
5F
  0
DICTIONARY
  5
4C
102
{ACAD_REACTORS
330
C
102
}
330
C
100
AcDbDictionary
281
     1
  3
2dWireframe
350
52
  3
3D Hidden
350
54
  3
3dWireframe
350
53
  3
Basic
350
51
  3
Brighten
350
58
  3
ColorChange
350
5C
  3
Conceptual
350
55
  3
Dim
350
57
  3
EdgeColorOff
350
2848
  3
Facepattern
350
5B
  3
Flat
350
4D
  3
FlatWithEdges
350
4E
  3
Gouraud
350
4F
  3
GouraudWithEdges
350
50
  3
Hidden
350
2840
  3
JitterOff
350
2846
  3
Linepattern
350
5A
  3
OverhangOff
350
2847
  3
Realistic
350
56
  3
Shaded
350
2845
  3
Shaded with edges
350
2844
  3
Shades of Gray
350
2841
  3
Sketchy
350
2842
  3
Thicken
350
59
  3
Wireframe
350
283F
  3
X-Ray
350
2843
  0
DICTIONARY
  5
226D
102
{ACAD_REACTORS
330
C
102
}
330
C
100
AcDbDictionary
281
     1
  3
CURRENT_WIRELAY
350
226E
  0
DICTIONARY
  5
94AC
102
{ACAD_REACTORS
330
C
102
}
330
C
100
AcDbDictionary
280
     1
281
     1
  0
XRECORD
  5
A937
102
{ACAD_REACTORS
330
C
102
}
330
C
100
AcDbXrecord
280
     1
 90
        1
330
5F
  0
DICTIONARY
  5
8A
102
{ACAD_REACTORS
330
C
102
}
330
C
100
AcDbDictionary
281
     1
  3
CANNOSCALE
350
8E
  3
CMLEADERSTYLE
350
8C
  3
CTABLESTYLE
350
8B
  3
DIMASSOC
350
18F
  3
INDEXCTL
350
18E
  3
LAYEREVAL
350
217D
  3
LAYERNOTIFY
350
217E
  3
LIGHTINGUNITS
350
8F
  3
MSLTSCALE
350
8D
  3
SORTENTS
350
18D
  3
XCLIPFRAME
350
A979
  0
DICTIONARY
  5
28C1
102
{ACAD_REACTORS
330
C
102
}
330
C
100
AcDbDictionary
281
     1
  0
DICTIONARY
  5
2834
102
{ACAD_REACTORS
330
C
102
}
330
C
100
AcDbDictionary
281
     1
  3
ASEBlockHierarchyIndexRecord
350
2835
1001
DCO15
1040
1674887783.539
  0
XRECORD
  5
A97E
102
{ACAD_REACTORS
330
C
102
}
330
C
100
AcDbXrecord
280
     1
  1
DWGPROPS COOKIE
  2

  3

  4

  6

  7

  8
dan
  9

300
Drawing Description 1=
301
Drawing Description 2=
302
Drawing Description 3=
303
Project Code=
304
Installation Code=
305
Location Code=
306
Sheet=
307
Drawing=
308
Section=
309
Sub-Section=
 40
0.3468705324074074
 41
2455997.945083449
 42
2456008.619507847
  1

 90
       10
  0
DICTIONARY
  5
108
102
{ACAD_REACTORS
330
107
102
}
330
107
100
AcDbDictionary
281
     1
  0
XRECORD
  5
292F
102
{ACAD_REACTORS
330
17C
102
}
330
17C
100
AcDbXrecord
280
     1
290
     1
  0
SORTENTSTABLE
  5
17B
102
{ACAD_REACTORS
330
17A
102
}
330
17A
100
AcDbSortentsTable
330
1F
  0
LAYOUT
  5
1E
102
{ACAD_XDICTIONARY
360
A97F
102
}
102
{ACAD_REACTORS
330
1A
102
}
330
1A
100
AcDbPlotSettings
  1

  2
Microsoft Office Document Image Writer
  4

  6

 40
0.0
 41
0.0
 42
0.0
 43
0.0
 44
0.0
 45
0.0
 46
0.0
 47
0.0
 48
0.0
 49
0.0
140
0.0
141
0.0
142
1.0
143
1.0
 70
   688
 72
     0
 73
     0
 74
     5
  7
monochromeII.ctb
 75
    16
147
1.0
148
0.0
149
0.0
100
AcDbLayout
  1
Layout1
 70
     1
 71
     1
 10
0.0
 20
0.0
 11
12.0
 21
9.0
 12
0.0
 22
0.0
 32
0.0
 14
1.000000000000000E+20
 24
1.000000000000000E+20
 34
1.000000000000000E+20
 15
-1.000000000000000E+20
 25
-1.000000000000000E+20
 35
-1.000000000000000E+20
146
0.0
 13
0.0
 23
0.0
 33
0.0
 16
1.0
 26
0.0
 36
0.0
 17
0.0
 27
1.0
 37
0.0
 76
     0
330
1B
  0
LAYOUT
  5
26
102
{ACAD_XDICTIONARY
360
A982
102
}
102
{ACAD_REACTORS
330
1A
102
}
330
1A
100
AcDbPlotSettings
  1

  2
Microsoft Office Document Image Writer
  4

  6

 40
0.0
 41
0.0
 42
0.0
 43
0.0
 44
0.0
 45
0.0
 46
0.0
 47
0.0
 48
0.0
 49
0.0
140
0.0
141
0.0
142
1.0
143
1.0
 70
   688
 72
     0
 73
     0
 74
     5
  7
monochromeII.ctb
 75
    16
147
1.0
148
0.0
149
0.0
100
AcDbLayout
  1
Layout2
 70
     1
 71
     2
 10
0.0
 20
0.0
 11
12.0
 21
9.0
 12
0.0
 22
0.0
 32
0.0
 14
0.0
 24
0.0
 34
0.0
 15
0.0
 25
0.0
 35
0.0
146
0.0
 13
0.0
 23
0.0
 33
0.0
 16
1.0
 26
0.0
 36
0.0
 17
0.0
 27
1.0
 37
0.0
 76
     0
330
23
  0
LAYOUT
  5
22
102
{ACAD_XDICTIONARY
360
291A
102
}
102
{ACAD_REACTORS
330
1A
102
}
330
1A
100
AcDbPlotSettings
  1

  2
Default Windows System Printer.pc3
  4
11x17
  6

 40
4.857749938964843
 41
4.857734680175781
 42
4.85772705078125
 43
4.857757568359375
 44
279.3999938964844
 45
431.7999877929687
 46
0.0
 47
2.649666526100765
 48
0.0
 49
0.0
140
0.0
141
0.0
142
1.0
143
2.072177197471839
 70
 11956
 72
     0
 73
     1
 74
     1
  7
monochromeII.ctb
 75
     0
147
0.4825842120162553
148
0.0263525400471963
149
0.0170517658604823
100
AcDbLayout
  1
Model
 70
     1
 71
     0
 10
0.0
 20
0.0
 11
12.0
 21
9.0
 12
0.0
 22
0.0
 32
0.0
 14
0.0
 24
0.0
 34
0.0
 15
0.0
 25
0.0
 35
0.0
146
0.0
 13
0.0
 23
0.0
 33
0.0
 16
1.0
 26
0.0
 36
0.0
 17
0.0
 27
1.0
 37
0.0
 76
     0
330
1F
331
31
1001
ACAD_PSEXT
1000
Default Windows System Printer.pc3
1000
Xerox WorkCentre 7335 PS
1000
Engineering Office
1000

1070
     0
  0
MATERIAL
  5
3C
102
{ACAD_XDICTIONARY
360
3D
102
}
102
{ACAD_REACTORS
330
33
102
}
330
33
100
AcDbMaterial
  1
ByBlock
 72
     0
 43
0.0208333333333333
 43
0.0
 43
0.0
 43
0.0
 43
0.0
 43
0.0208333333333333
 43
0.0
 43
0.0
 43
0.0
 43
0.0
 43
1.0
 43
0.0
 43
0.0
 43
0.0
 43
0.0
 43
1.0
 77
     0
 47
0.0208333333333333
 47
0.0
 47
0.0
 47
0.0
 47
0.0
 47
0.0208333333333333
 47
0.0
 47
0.0
 47
0.0
 47
0.0
 47
1.0
 47
0.0
 47
0.0
 47
0.0
 47
0.0
 47
1.0
171
     0
 49
0.0208333333333333
 49
0.0
 49
0.0
 49
0.0
 49
0.0
 49
0.0208333333333333
 49
0.0
 49
0.0
 49
0.0
 49
0.0
 49
1.0
 49
0.0
 49
0.0
 49
0.0
 49
0.0
 49
1.0
175
     0
142
0.0208333333333333
142
0.0
142
0.0
142
0.0
142
0.0
142
0.0208333333333333
142
0.0
142
0.0
142
0.0
142
0.0
142
1.0
142
0.0
142
0.0
142
0.0
142
0.0
142
1.0
179
     0
144
0.0208333333333333
144
0.0
144
0.0
144
0.0
144
0.0
144
0.0208333333333333
144
0.0
144
0.0
144
0.0
144
0.0
144
1.0
144
0.0
144
0.0
144
0.0
144
0.0
144
1.0
147
0.0208333333333333
147
0.0
147
0.0
147
0.0
147
0.0
147
0.0208333333333333
147
0.0
147
0.0
147
0.0
147
0.0
147
1.0
147
0.0
147
0.0
147
0.0
147
0.0
147
1.0
  0
MATERIAL
  5
34
102
{ACAD_XDICTIONARY
360
35
102
}
102
{ACAD_REACTORS
330
33
102
}
330
33
100
AcDbMaterial
  1
ByLayer
 72
     0
 43
0.0208333333333333
 43
0.0
 43
0.0
 43
0.0
 43
0.0
 43
0.0208333333333333
 43
0.0
 43
0.0
 43
0.0
 43
0.0
 43
1.0
 43
0.0
 43
0.0
 43
0.0
 43
0.0
 43
1.0
 77
     0
 47
0.0208333333333333
 47
0.0
 47
0.0
 47
0.0
 47
0.0
 47
0.0208333333333333
 47
0.0
 47
0.0
 47
0.0
 47
0.0
 47
1.0
 47
0.0
 47
0.0
 47
0.0
 47
0.0
 47
1.0
171
     0
 49
0.0208333333333333
 49
0.0
 49
0.0
 49
0.0
 49
0.0
 49
0.0208333333333333
 49
0.0
 49
0.0
 49
0.0
 49
0.0
 49
1.0
 49
0.0
 49
0.0
 49
0.0
 49
0.0
 49
1.0
175
     0
142
0.0208333333333333
142
0.0
142
0.0
142
0.0
142
0.0
142
0.0208333333333333
142
0.0
142
0.0
142
0.0
142
0.0
142
1.0
142
0.0
142
0.0
142
0.0
142
0.0
142
1.0
179
     0
144
0.0208333333333333
144
0.0
144
0.0
144
0.0
144
0.0
144
0.0208333333333333
144
0.0
144
0.0
144
0.0
144
0.0
144
1.0
144
0.0
144
0.0
144
0.0
144
0.0
144
1.0
147
0.0208333333333333
147
0.0
147
0.0
147
0.0
147
0.0
147
0.0208333333333333
147
0.0
147
0.0
147
0.0
147
0.0
147
1.0
147
0.0
147
0.0
147
0.0
147
0.0
147
1.0
  0
MATERIAL
  5
44
102
{ACAD_XDICTIONARY
360
45
102
}
102
{ACAD_REACTORS
330
33
102
}
330
33
100
AcDbMaterial
  1
Global
 72
     0
 43
0.0208333333333333
 43
0.0
 43
0.0
 43
0.0
 43
0.0
 43
0.0208333333333333
 43
0.0
 43
0.0
 43
0.0
 43
0.0
 43
1.0
 43
0.0
 43
0.0
 43
0.0
 43
0.0
 43
1.0
 77
     0
 47
0.0208333333333333
 47
0.0
 47
0.0
 47
0.0
 47
0.0
 47
0.0208333333333333
 47
0.0
 47
0.0
 47
0.0
 47
0.0
 47
1.0
 47
0.0
 47
0.0
 47
0.0
 47
0.0
 47
1.0
171
     0
 49
0.0208333333333333
 49
0.0
 49
0.0
 49
0.0
 49
0.0
 49
0.0208333333333333
 49
0.0
 49
0.0
 49
0.0
 49
0.0
 49
1.0
 49
0.0
 49
0.0
 49
0.0
 49
0.0
 49
1.0
175
     0
142
0.0208333333333333
142
0.0
142
0.0
142
0.0
142
0.0
142
0.0208333333333333
142
0.0
142
0.0
142
0.0
142
0.0
142
1.0
142
0.0
142
0.0
142
0.0
142
0.0
142
1.0
179
     0
144
0.0208333333333333
144
0.0
144
0.0
144
0.0
144
0.0
144
0.0208333333333333
144
0.0
144
0.0
144
0.0
144
0.0
144
1.0
144
0.0
144
0.0
144
0.0
144
0.0
144
1.0
147
0.0208333333333333
147
0.0
147
0.0
147
0.0
147
0.0
147
0.0208333333333333
147
0.0
147
0.0
147
0.0
147
0.0
147
1.0
147
0.0
147
0.0
147
0.0
147
0.0
147
1.0
  0
MLEADERSTYLE
  5
83
102
{ACAD_REACTORS
330
82
102
}
330
82
100
AcDbMLeaderStyle
170
     2
171
     1
172
     0
 90
        2
 40
0.0
 41
0.0
173
     1
 91
-1056964608
340
14
 92
       -2
290
     1
 42
0.09
291
     1
 43
0.36
  3
Standard
 44
0.18
300

342
11
174
     1
178
     6
175
     1
176
     0
 93
-1056964608
 45
0.18
292
     0
297
     0
 46
0.18
 94
-1056964608
 47
1.0
 49
1.0
140
1.0
293
     1
141
0.0
294
     1
177
     0
142
1.0
295
     0
296
     0
143
0.125
1001
ACAD_MLEADERVER
1070
     2
  0
MLINESTYLE
  5
18
102
{ACAD_REACTORS
330
17
102
}
330
17
100
AcDbMlineStyle
  2
STANDARD
 70
     0
  3

 62
   256
 51
90.0
 52
90.0
 71
     2
 49
0.5
 62
   256
  6
BYLAYER
 49
-0.5
 62
   256
  6
BYLAYER
  0
ACDBPLACEHOLDER
  5
F
102
{ACAD_REACTORS
330
E
102
}
330
E
  0
SCALE
  5
61
102
{ACAD_REACTORS
330
60
102
}
330
60
100
AcDbScale
 70
     0
300
1:1
140
1.0
141
1.0
290
     1
  0
SCALE
  5
62
102
{ACAD_REACTORS
330
60
102
}
330
60
100
AcDbScale
 70
     0
300
1:2
140
1.0
141
2.0
290
     0
  0
SCALE
  5
63
102
{ACAD_REACTORS
330
60
102
}
330
60
100
AcDbScale
 70
     0
300
1:4
140
1.0
141
4.0
290
     0
  0
SCALE
  5
64
102
{ACAD_REACTORS
330
60
102
}
330
60
100
AcDbScale
 70
     0
300
1:5
140
1.0
141
5.0
290
     0
  0
SCALE
  5
65
102
{ACAD_REACTORS
330
60
102
}
330
60
100
AcDbScale
 70
     0
300
1:8
140
1.0
141
8.0
290
     0
  0
SCALE
  5
66
102
{ACAD_REACTORS
330
60
102
}
330
60
100
AcDbScale
 70
     0
300
1:10
140
1.0
141
10.0
290
     0
  0
SCALE
  5
67
102
{ACAD_REACTORS
330
60
102
}
330
60
100
AcDbScale
 70
     0
300
1:16
140
1.0
141
16.0
290
     0
  0
SCALE
  5
68
102
{ACAD_REACTORS
330
60
102
}
330
60
100
AcDbScale
 70
     0
300
1:20
140
1.0
141
20.0
290
     0
  0
SCALE
  5
69
102
{ACAD_REACTORS
330
60
102
}
330
60
100
AcDbScale
 70
     0
300
1:30
140
1.0
141
30.0
290
     0
  0
SCALE
  5
6A
102
{ACAD_REACTORS
330
60
102
}
330
60
100
AcDbScale
 70
     0
300
1:40
140
1.0
141
40.0
290
     0
  0
SCALE
  5
6B
102
{ACAD_REACTORS
330
60
102
}
330
60
100
AcDbScale
 70
     0
300
1:50
140
1.0
141
50.0
290
     0
  0
SCALE
  5
6C
102
{ACAD_REACTORS
330
60
102
}
330
60
100
AcDbScale
 70
     0
300
1:100
140
1.0
141
100.0
290
     0
  0
SCALE
  5
6D
102
{ACAD_REACTORS
330
60
102
}
330
60
100
AcDbScale
 70
     0
300
2:1
140
2.0
141
1.0
290
     0
  0
SCALE
  5
6E
102
{ACAD_REACTORS
330
60
102
}
330
60
100
AcDbScale
 70
     0
300
4:1
140
4.0
141
1.0
290
     0
  0
SCALE
  5
6F
102
{ACAD_REACTORS
330
60
102
}
330
60
100
AcDbScale
 70
     0
300
8:1
140
8.0
141
1.0
290
     0
  0
SCALE
  5
70
102
{ACAD_REACTORS
330
60
102
}
330
60
100
AcDbScale
 70
     0
300
10:1
140
10.0
141
1.0
290
     0
  0
SCALE
  5
71
102
{ACAD_REACTORS
330
60
102
}
330
60
100
AcDbScale
 70
     0
300
100:1
140
100.0
141
1.0
290
     0
  0
SCALE
  5
72
102
{ACAD_REACTORS
330
60
102
}
330
60
100
AcDbScale
 70
     0
300
1/128" = 1'-0"
140
0.0078125
141
12.0
290
     0
  0
SCALE
  5
73
102
{ACAD_REACTORS
330
60
102
}
330
60
100
AcDbScale
 70
     0
300
1/64" = 1'-0"
140
0.015625
141
12.0
290
     0
  0
SCALE
  5
74
102
{ACAD_REACTORS
330
60
102
}
330
60
100
AcDbScale
 70
     0
300
1/32" = 1'-0"
140
0.03125
141
12.0
290
     0
  0
SCALE
  5
75
102
{ACAD_REACTORS
330
60
102
}
330
60
100
AcDbScale
 70
     0
300
1/16" = 1'-0"
140
0.0625
141
12.0
290
     0
  0
SCALE
  5
76
102
{ACAD_REACTORS
330
60
102
}
330
60
100
AcDbScale
 70
     0
300
3/32" = 1'-0"
140
0.09375
141
12.0
290
     0
  0
SCALE
  5
77
102
{ACAD_REACTORS
330
60
102
}
330
60
100
AcDbScale
 70
     0
300
1/8" = 1'-0"
140
0.125
141
12.0
290
     0
  0
SCALE
  5
78
102
{ACAD_REACTORS
330
60
102
}
330
60
100
AcDbScale
 70
     0
300
3/16" = 1'-0"
140
0.1875
141
12.0
290
     0
  0
SCALE
  5
79
102
{ACAD_REACTORS
330
60
102
}
330
60
100
AcDbScale
 70
     0
300
1/4" = 1'-0"
140
0.25
141
12.0
290
     0
  0
SCALE
  5
7A
102
{ACAD_REACTORS
330
60
102
}
330
60
100
AcDbScale
 70
     0
300
3/8" = 1'-0"
140
0.375
141
12.0
290
     0
  0
SCALE
  5
7B
102
{ACAD_REACTORS
330
60
102
}
330
60
100
AcDbScale
 70
     0
300
1/2" = 1'-0"
140
0.5
141
12.0
290
     0
  0
SCALE
  5
7C
102
{ACAD_REACTORS
330
60
102
}
330
60
100
AcDbScale
 70
     0
300
3/4" = 1'-0"
140
0.75
141
12.0
290
     0
  0
SCALE
  5
7D
102
{ACAD_REACTORS
330
60
102
}
330
60
100
AcDbScale
 70
     0
300
1" = 1'-0"
140
1.0
141
12.0
290
     0
  0
SCALE
  5
7E
102
{ACAD_REACTORS
330
60
102
}
330
60
100
AcDbScale
 70
     0
300
1-1/2" = 1'-0"
140
1.5
141
12.0
290
     0
  0
SCALE
  5
7F
102
{ACAD_REACTORS
330
60
102
}
330
60
100
AcDbScale
 70
     0
300
3" = 1'-0"
140
3.0
141
12.0
290
     0
  0
SCALE
  5
80
102
{ACAD_REACTORS
330
60
102
}
330
60
100
AcDbScale
 70
     0
300
6" = 1'-0"
140
6.0
141
12.0
290
     0
  0
SCALE
  5
81
102
{ACAD_REACTORS
330
60
102
}
330
60
100
AcDbScale
 70
     0
300
1'-0" = 1'-0"
140
12.0
141
12.0
290
     0
  0
TABLESTYLE
  5
5F
102
{ACAD_XDICTIONARY
360
87
102
}
102
{ACAD_REACTORS
330
5E
102
}
330
5E
100
AcDbTableStyle
  3
Standard
 70
     0
 71
     0
 40
0.06
 41
0.06
280
     0
281
     0
  7
Standard
140
0.18
170
     2
 62
     0
 63
     7
283
     0
274
    -2
284
     1
 64
     0
275
    -2
285
     1
 65
     0
276
    -2
286
     1
 66
     0
277
    -2
287
     1
 67
     0
278
    -2
288
     1
 68
     0
279
    -2
289
     1
 69
     0
  7
Standard
140
0.25
170
     5
 62
     0
 63
     7
283
     0
274
    -2
284
     1
 64
     0
275
    -2
285
     1
 65
     0
276
    -2
286
     1
 66
     0
277
    -2
287
     1
 67
     0
278
    -2
288
     1
 68
     0
279
    -2
289
     1
 69
     0
  7
Standard
140
0.18
170
     5
 62
     0
 63
     7
283
     0
274
    -2
284
     1
 64
     0
275
    -2
285
     1
 65
     0
276
    -2
286
     1
 66
     0
277
    -2
287
     1
 67
     0
278
    -2
288
     1
 68
     0
279
    -2
289
     1
 69
     0
  0
VISUALSTYLE
  5
52
102
{ACAD_XDICTIONARY
360
A94E
102
}
102
{ACAD_REACTORS
330
4C
102
}
330
4C
100
AcDbVisualStyle
  2
2dWireframe
 70
     4
 71
     0
 72
     2
 73
     0
 90
        0
 40
-0.6
 41
-30.0
 62
     5
 63
     7
 74
     1
 91
        4
 64
     7
 65
   257
 75
     1
175
     1
 42
1.0
 92
        0
 66
   257
 43
1.0
 76
     1
 77
     6
 78
     2
 67
     7
 79
     5
170
     0
171
     0
290
     0
174
     0
 93
        1
 44
0.0
173
     0
291
     0
 45
0.0
1001
ACAD
1000
AcDbSavedByObjectVersion
1070
     0
  0
VISUALSTYLE
  5
54
102
{ACAD_XDICTIONARY
360
A952
102
}
102
{ACAD_REACTORS
330
4C
102
}
330
4C
100
AcDbVisualStyle
  2
3D Hidden
 70
     6
 71
     1
 72
     2
 73
     2
 90
        0
 40
-0.6
 41
-30.0
 62
     5
 63
     7
 74
     2
 91
        2
 64
     7
 65
   257
 75
     2
175
     1
 42
40.0
 92
        0
 66
   257
 43
1.0
 76
     1
 77
     6
 78
     2
 67
     7
 79
     3
170
     0
171
     0
290
     0
174
     0
 93
        1
 44
0.0
173
     0
291
     0
 45
0.0
1001
ACAD
1000
AcDbSavedByObjectVersion
1070
     0
  0
VISUALSTYLE
  5
53
102
{ACAD_XDICTIONARY
360
A950
102
}
102
{ACAD_REACTORS
330
4C
102
}
330
4C
100
AcDbVisualStyle
  2
3dWireframe
 70
     5
 71
     0
 72
     2
 73
     0
 90
        0
 40
-0.6
 41
-30.0
 62
     5
 63
     7
 74
     1
 91
        4
 64
     7
 65
   257
 75
     1
175
     1
 42
1.0
 92
        0
 66
   257
 43
1.0
 76
     1
 77
     6
 78
     2
 67
     7
 79
     5
170
     0
171
     0
290
     0
174
     0
 93
        1
 44
0.0
173
     0
291
     0
 45
0.0
1001
ACAD
1000
AcDbSavedByObjectVersion
1070
     0
  0
VISUALSTYLE
  5
51
102
{ACAD_XDICTIONARY
360
A94C
102
}
102
{ACAD_REACTORS
330
4C
102
}
330
4C
100
AcDbVisualStyle
  2
Basic
 70
     7
 71
     1
 72
     0
 73
     1
 90
        0
 40
-0.6
 41
-30.0
 62
     5
 63
     7
 74
     0
 91
        4
 64
     7
 65
   257
 75
     1
175
     1
 42
1.0
 92
        8
 66
     7
 43
1.0
 76
     1
 77
     6
 78
     2
 67
     7
 79
     5
170
     0
171
     0
290
     0
174
     0
 93
        1
 44
0.0
173
     0
291
     1
 45
0.0
1001
ACAD
1000
AcDbSavedByObjectVersion
1070
     0
  0
VISUALSTYLE
  5
58
102
{ACAD_XDICTIONARY
360
A95A
102
}
102
{ACAD_REACTORS
330
4C
102
}
330
4C
100
AcDbVisualStyle
  2
Brighten
 70
    12
 71
     2
 72
     2
 73
     0
 90
        0
 40
-0.6
 41
-30.0
 62
     5
 63
     7
 74
     1
 91
        4
 64
     7
 65
   257
 75
     1
175
     1
 42
1.0
 92
        8
 66
     7
 43
1.0
 76
     1
 77
     6
 78
     2
 67
     7
 79
     5
170
     0
171
     0
290
     0
174
     0
 93
        1
 44
50.0
173
     0
291
     1
 45
0.0
1001
ACAD
1000
AcDbSavedByObjectVersion
1070
     0
  0
VISUALSTYLE
  5
5C
102
{ACAD_XDICTIONARY
360
A962
102
}
102
{ACAD_REACTORS
330
4C
102
}
330
4C
100
AcDbVisualStyle
  2
ColorChange
 70
    16
 71
     2
 72
     2
 73
     3
 90
        0
 40
-0.6
 41
-30.0
 62
     5
 63
     8
 74
     1
 91
        4
 64
     7
 65
   257
 75
     1
175
     1
 42
1.0
 92
        8
 66
     8
 43
1.0
 76
     1
 77
     6
 78
     2
 67
     7
 79
     5
170
     0
171
     0
290
     0
174
     0
 93
        1
 44
0.0
173
     0
291
     1
 45
0.0
1001
ACAD
1000
AcDbSavedByObjectVersion
1070
     0
  0
VISUALSTYLE
  5
55
102
{ACAD_XDICTIONARY
360
A954
102
}
102
{ACAD_REACTORS
330
4C
102
}
330
4C
100
AcDbVisualStyle
  2
Conceptual
 70
     9
 71
     3
 72
     2
 73
     0
 90
        0
 40
-0.6
 41
-30.0
 62
     5
 63
     7
 74
     2
 91
        2
 64
     7
 65
   257
 75
     1
175
     1
 42
40.0
 92
        8
 66
     7
 43
1.0
 76
     1
 77
     6
 78
     2
 67
     7
 79
     3
170
     0
171
     0
290
     0
174
     0
 93
        1
 44
0.0
173
     0
291
     0
 45
0.0
1001
ACAD
1000
AcDbSavedByObjectVersion
1070
     0
  0
VISUALSTYLE
  5
57
102
{ACAD_XDICTIONARY
360
A958
102
}
102
{ACAD_REACTORS
330
4C
102
}
330
4C
100
AcDbVisualStyle
  2
Dim
 70
    11
 71
     2
 72
     2
 73
     0
 90
        0
 40
-0.6
 41
-30.0
 62
     5
 63
     7
 74
     1
 91
        4
 64
     7
 65
   257
 75
     1
175
     1
 42
1.0
 92
        8
 66
     7
 43
1.0
 76
     1
 77
     6
 78
     2
 67
     7
 79
     5
170
     0
171
     0
290
     0
174
     0
 93
        1
 44
-50.0
173
     0
291
     1
 45
0.0
1001
ACAD
1000
AcDbSavedByObjectVersion
1070
     0
  0
VISUALSTYLE
  5
2848
102
{ACAD_XDICTIONARY
360
A977
102
}
102
{ACAD_REACTORS
330
4C
102
}
330
4C
100
AcDbVisualStyle
  2
EdgeColorOff
 70
    22
 71
     2
 72
     2
 73
     0
 90
        0
 40
-0.6
 41
-30.0
 62
     5
 63
     7
 74
     1
 91
        4
 64
     7
 65
   257
 75
     1
175
     1
 42
1.0
 92
        8
 66
     7
 43
1.0
 76
     1
 77
     6
 78
     2
 67
     7
 79
     5
170
     0
171
     0
290
     0
174
     0
 93
        1
 44
0.0
173
     0
291
     1
 45
0.0
1001
ACAD
1000
AcDbSavedByObjectVersion
1070
     0
  0
VISUALSTYLE
  5
5B
102
{ACAD_XDICTIONARY
360
A960
102
}
102
{ACAD_REACTORS
330
4C
102
}
330
4C
100
AcDbVisualStyle
  2
Facepattern
 70
    15
 71
     2
 72
     2
 73
     0
 90
        0
 40
-0.6
 41
-30.0
 62
     5
 63
     7
 74
     1
 91
        4
 64
     7
 65
   257
 75
     1
175
     1
 42
1.0
 92
        8
 66
     7
 43
1.0
 76
     1
 77
     6
 78
     2
 67
     7
 79
     5
170
     0
171
     0
290
     0
174
     0
 93
        1
 44
0.0
173
     0
291
     1
 45
0.0
1001
ACAD
1000
AcDbSavedByObjectVersion
1070
     0
  0
VISUALSTYLE
  5
4D
102
{ACAD_XDICTIONARY
360
A944
102
}
102
{ACAD_REACTORS
330
4C
102
}
330
4C
100
AcDbVisualStyle
  2
Flat
 70
     0
 71
     2
 72
     1
 73
     1
 90
        2
 40
-0.6
 41
30.0
 62
     5
 63
     7
 74
     0
 91
        4
 64
     7
 65
   257
 75
     1
175
     1
 42
1.0
 92
        8
 66
     7
 43
1.0
 76
     1
 77
     6
 78
     2
 67
     7
 79
     5
170
     0
171
     0
290
     0
174
     0
 93
       13
 44
0.0
173
     0
291
     1
 45
0.0
1001
ACAD
1000
AcDbSavedByObjectVersion
1070
     0
  0
VISUALSTYLE
  5
4E
102
{ACAD_XDICTIONARY
360
A946
102
}
102
{ACAD_REACTORS
330
4C
102
}
330
4C
100
AcDbVisualStyle
  2
FlatWithEdges
 70
     1
 71
     2
 72
     1
 73
     1
 90
        2
 40
-0.6
 41
30.0
 62
     5
 63
     7
 74
     1
 91
        4
 64
     7
 65
   257
 75
     1
175
     1
 42
1.0
 92
        0
 66
   257
 43
1.0
 76
     1
 77
     6
 78
     2
 67
     7
 79
     5
170
     0
171
     0
290
     0
174
     0
 93
       13
 44
0.0
173
     0
291
     1
 45
0.0
1001
ACAD
1000
AcDbSavedByObjectVersion
1070
     0
  0
VISUALSTYLE
  5
4F
102
{ACAD_XDICTIONARY
360
A948
102
}
102
{ACAD_REACTORS
330
4C
102
}
330
4C
100
AcDbVisualStyle
  2
Gouraud
 70
     2
 71
     2
 72
     2
 73
     1
 90
        2
 40
-0.6
 41
30.0
 62
     5
 63
     7
 74
     0
 91
        4
 64
     7
 65
   257
 75
     1
175
     1
 42
1.0
 92
        0
 66
     7
 43
1.0
 76
     1
 77
     6
 78
     2
 67
     7
 79
     5
170
     0
171
     0
290
     0
174
     0
 93
       13
 44
0.0
173
     0
291
     1
 45
0.0
1001
ACAD
1000
AcDbSavedByObjectVersion
1070
     0
  0
VISUALSTYLE
  5
50
102
{ACAD_XDICTIONARY
360
A94A
102
}
102
{ACAD_REACTORS
330
4C
102
}
330
4C
100
AcDbVisualStyle
  2
GouraudWithEdges
 70
     3
 71
     2
 72
     2
 73
     1
 90
        2
 40
-0.6
 41
30.0
 62
     5
 63
     7
 74
     1
 91
        4
 64
     7
 65
   257
 75
     1
175
     1
 42
1.0
 92
        0
 66
   257
 43
1.0
 76
     1
 77
     6
 78
     2
 67
     7
 79
     5
170
     0
171
     0
290
     0
174
     0
 93
       13
 44
0.0
173
     0
291
     1
 45
0.0
1001
ACAD
1000
AcDbSavedByObjectVersion
1070
     0
  0
VISUALSTYLE
  5
2840
102
{ACAD_XDICTIONARY
360
A967
102
}
102
{ACAD_REACTORS
330
4C
102
}
330
4C
100
AcDbVisualStyle
  2
Hidden
 70
     6
 71
     1
 72
     2
 73
     2
 90
        0
 40
-0.6
 41
-30.0
 62
     5
 63
     7
 74
     2
 91
        2
 64
     7
 65
   257
 75
     2
175
     1
 42
40.0
 92
        0
 66
   257
 43
1.0
 76
     1
 77
     6
 78
     2
 67
     7
 79
     3
170
     0
171
     0
290
     0
174
     0
 93
        1
 44
0.0
173
     0
291
     0
 45
0.0
1001
ACAD
1000
AcDbSavedByObjectVersion
1070
     0
  0
VISUALSTYLE
  5
2846
102
{ACAD_XDICTIONARY
360
A973
102
}
102
{ACAD_REACTORS
330
4C
102
}
330
4C
100
AcDbVisualStyle
  2
JitterOff
 70
    20
 71
     2
 72
     2
 73
     0
 90
        0
 40
-0.6
 41
-30.0
 62
     5
 63
     7
 74
     1
 91
        4
 64
     7
 65
   257
 75
     1
175
     1
 42
1.0
 92
       10
 66
     7
 43
1.0
 76
     1
 77
     6
 78
     2
 67
     7
 79
     5
170
     0
171
     0
290
     0
174
     0
 93
        1
 44
0.0
173
     0
291
     1
 45
0.0
1001
ACAD
1000
AcDbSavedByObjectVersion
1070
     0
  0
VISUALSTYLE
  5
5A
102
{ACAD_XDICTIONARY
360
A95E
102
}
102
{ACAD_REACTORS
330
4C
102
}
330
4C
100
AcDbVisualStyle
  2
Linepattern
 70
    14
 71
     2
 72
     2
 73
     0
 90
        0
 40
-0.6
 41
-30.0
 62
     5
 63
     7
 74
     1
 91
        4
 64
     7
 65
   257
 75
     7
175
     7
 42
1.0
 92
        8
 66
     7
 43
1.0
 76
     1
 77
     6
 78
     2
 67
     7
 79
     5
170
     0
171
     0
290
     0
174
     0
 93
        1
 44
0.0
173
     0
291
     1
 45
0.0
1001
ACAD
1000
AcDbSavedByObjectVersion
1070
     0
  0
VISUALSTYLE
  5
2847
102
{ACAD_XDICTIONARY
360
A975
102
}
102
{ACAD_REACTORS
330
4C
102
}
330
4C
100
AcDbVisualStyle
  2
OverhangOff
 70
    21
 71
     2
 72
     2
 73
     0
 90
        0
 40
-0.6
 41
-30.0
 62
     5
 63
     7
 74
     1
 91
        4
 64
     7
 65
   257
 75
     1
175
     1
 42
1.0
 92
        9
 66
     7
 43
1.0
 76
     1
 77
     6
 78
     2
 67
     7
 79
     5
170
     0
171
     0
290
     0
174
     0
 93
        1
 44
0.0
173
     0
291
     1
 45
0.0
1001
ACAD
1000
AcDbSavedByObjectVersion
1070
     0
  0
VISUALSTYLE
  5
56
102
{ACAD_XDICTIONARY
360
A956
102
}
102
{ACAD_REACTORS
330
4C
102
}
330
4C
100
AcDbVisualStyle
  2
Realistic
 70
     8
 71
     2
 72
     2
 73
     0
 90
        0
 40
-0.6
 41
-30.0
 62
     5
 63
     7
 74
     1
 91
        0
 64
     7
 65
   257
 75
     1
175
     1
 42
1.0
 92
        8
 66
     8
 43
1.0
 76
     1
 77
     6
 78
     2
 67
     7
 79
     5
170
     0
171
     0
290
     0
174
     0
 93
       13
 44
0.0
173
     0
291
     0
 45
0.0
1001
ACAD
1000
AcDbSavedByObjectVersion
1070
     0
  0
VISUALSTYLE
  5
2845
102
{ACAD_XDICTIONARY
360
A971
102
}
102
{ACAD_REACTORS
330
4C
102
}
330
4C
100
AcDbVisualStyle
  2
Shaded
 70
    27
 71
     2
 72
     2
 73
     1
 90
        2
 40
-0.6
 41
30.0
 62
     5
 63
     7
 74
     0
 91
        4
 64
     7
 65
   257
 75
     1
175
     1
 42
1.0
 92
        8
 66
   257
 43
1.0
 76
     1
 77
     6
 78
     2
 67
     8
 79
     3
170
     0
171
     0
290
     0
174
     0
 93
        5
 44
0.0
173
     0
291
     0
 45
0.0
1001
ACAD
1000
AcDbSavedByObjectVersion
1070
     0
  0
VISUALSTYLE
  5
2844
102
{ACAD_XDICTIONARY
360
A96F
102
}
102
{ACAD_REACTORS
330
4C
102
}
330
4C
100
AcDbVisualStyle
  2
Shaded with edges
 70
    26
 71
     2
 72
     2
 73
     1
 90
        2
 40
-0.6
 41
30.0
 62
     5
 63
     7
 74
     1
 91
       10
 64
     7
 65
   257
 75
     2
175
     1
 42
1.0
 92
        8
 66
   257
 43
1.0
 76
     1
 77
     6
 78
     2
 67
     7
 79
     3
170
     0
171
     0
290
     0
174
     0
 93
        5
 44
0.0
173
     0
291
     0
 45
0.0
1001
ACAD
1000
AcDbSavedByObjectVersion
1070
     0
  0
VISUALSTYLE
  5
2841
102
{ACAD_XDICTIONARY
360
A969
102
}
102
{ACAD_REACTORS
330
4C
102
}
330
4C
100
AcDbVisualStyle
  2
Shades of Gray
 70
    23
 71
     2
 72
     2
 73
     3
 90
        0
 40
-0.6
 41
-30.0
 62
     5
 63
     7
 74
     2
 91
        2
 64
     7
 65
     7
 75
     1
175
     1
 42
40.0
 92
        8
 66
     7
 43
1.0
 76
     1
 77
     6
 78
     2
 67
     7
 79
     3
170
     0
171
     0
290
     0
174
     0
 93
        1
 44
0.0
173
     0
291
     0
 45
0.0
1001
ACAD
1000
AcDbSavedByObjectVersion
1070
     0
  0
VISUALSTYLE
  5
2842
102
{ACAD_XDICTIONARY
360
A96B
102
}
102
{ACAD_REACTORS
330
4C
102
}
330
4C
100
AcDbVisualStyle
  2
Sketchy
 70
    24
 71
     1
 72
     2
 73
     2
 90
        0
 40
-0.6
 41
-30.0
 62
     5
 63
     7
 74
     2
 91
        2
 64
     7
 65
     7
 75
     1
175
     1
 42
40.0
 92
       11
 66
     7
 43
1.0
 76
     1
 77
     6
 78
     2
 67
     7
 79
     6
170
     0
171
     0
290
     0
174
     0
 93
        1
 44
0.0
173
     0
291
     0
 45
0.0
1001
ACAD
1000
AcDbSavedByObjectVersion
1070
     0
  0
VISUALSTYLE
  5
59
102
{ACAD_XDICTIONARY
360
A95C
102
}
102
{ACAD_REACTORS
330
4C
102
}
330
4C
100
AcDbVisualStyle
  2
Thicken
 70
    13
 71
     2
 72
     2
 73
     0
 90
        0
 40
-0.6
 41
-30.0
 62
     5
 63
     7
 74
     1
 91
        4
 64
     7
 65
   257
 75
     1
175
     1
 42
1.0
 92
       12
 66
     7
 43
1.0
 76
     1
 77
     6
 78
     2
 67
     7
 79
     5
170
     0
171
     0
290
     0
174
     0
 93
        1
 44
0.0
173
     0
291
     1
 45
0.0
1001
ACAD
1000
AcDbSavedByObjectVersion
1070
     0
  0
VISUALSTYLE
  5
283F
102
{ACAD_XDICTIONARY
360
A965
102
}
102
{ACAD_REACTORS
330
4C
102
}
330
4C
100
AcDbVisualStyle
  2
Wireframe
 70
     5
 71
     0
 72
     2
 73
     0
 90
        0
 40
-0.6
 41
-30.0
 62
     5
 63
     7
 74
     1
 91
        4
 64
     7
 65
   257
 75
     1
175
     1
 42
1.0
 92
        0
 66
   257
 43
1.0
 76
     1
 77
     6
 78
     2
 67
     7
 79
     3
170
     0
171
     0
290
     0
174
     0
 93
        1
 44
0.0
173
     0
291
     0
 45
0.0
1001
ACAD
1000
AcDbSavedByObjectVersion
1070
     0
  0
VISUALSTYLE
  5
2843
102
{ACAD_XDICTIONARY
360
A96D
102
}
102
{ACAD_REACTORS
330
4C
102
}
330
4C
100
AcDbVisualStyle
  2
X-Ray
 70
    25
 71
     2
 72
     2
 73
     1
 90
        1
 40
0.5
 41
-30.0
 62
     5
 63
     7
 74
     1
 91
        0
 64
     7
 65
   257
 75
     1
175
     1
 42
1.0
 92
        8
 66
     7
 43
1.0
 76
     1
 77
     6
 78
     2
 67
     7
 79
     3
170
     0
171
     0
290
     0
174
     0
 93
       13
 44
0.0
173
     0
291
     0
 45
0.0
1001
ACAD
1000
AcDbSavedByObjectVersion
1070
     0
  0
XRECORD
  5
226E
102
{ACAD_REACTORS
330
226D
102
}
330
226D
100
AcDbXrecord
280
     1
  1
WIRES
  1
WIRES
  1

290
     0
  0
DICTIONARYVAR
  5
8E
102
{ACAD_REACTORS
330
8A
102
}
330
8A
100
DictionaryVariables
280
     0
  1
1:1
  0
DICTIONARYVAR
  5
8C
102
{ACAD_REACTORS
330
8A
102
}
330
8A
100
DictionaryVariables
280
     0
  1
STANDARD
  0
DICTIONARYVAR
  5
8B
102
{ACAD_REACTORS
330
8A
102
}
330
8A
100
DictionaryVariables
280
     0
  1
STANDARD
  0
DICTIONARYVAR
  5
18F
102
{ACAD_REACTORS
330
8A
102
}
330
8A
100
DictionaryVariables
280
     0
  1
1
  0
DICTIONARYVAR
  5
18E
102
{ACAD_REACTORS
330
8A
102
}
330
8A
100
DictionaryVariables
280
     0
  1
0
  0
DICTIONARYVAR
  5
217D
102
{ACAD_REACTORS
330
8A
102
}
330
8A
100
DictionaryVariables
280
     0
  1
1
  0
DICTIONARYVAR
  5
217E
102
{ACAD_REACTORS
330
8A
102
}
330
8A
100
DictionaryVariables
280
     0
  1
15
  0
DICTIONARYVAR
  5
8F
102
{ACAD_REACTORS
330
8A
102
}
330
8A
100
DictionaryVariables
280
     0
  1
0
  0
DICTIONARYVAR
  5
8D
102
{ACAD_REACTORS
330
8A
102
}
330
8A
100
DictionaryVariables
280
     0
  1
0
  0
DICTIONARYVAR
  5
18D
102
{ACAD_REACTORS
330
8A
102
}
330
8A
100
DictionaryVariables
280
     0
  1
127
  0
DICTIONARYVAR
  5
A979
102
{ACAD_REACTORS
330
8A
102
}
330
8A
100
DictionaryVariables
280
     0
  1
0
  0
XRECORD
  5
2835
102
{ACAD_REACTORS
330
2834
102
}
330
2834
100
AcDbXrecord
280
     1
330
0
330
0
330
0
330
0
330
0
330
0
  0
DICTIONARY
  5
A97F
330
1E
100
AcDbDictionary
280
     1
281
     1
  3
ACAD_XREC_ROUNDTRIP
360
A980
  0
DICTIONARY
  5
A982
330
26
100
AcDbDictionary
280
     1
281
     1
  3
ACAD_XREC_ROUNDTRIP
360
A983
  0
DICTIONARY
  5
291A
330
22
100
AcDbDictionary
280
     1
281
     1
  3
ACAD_XREC_ROUNDTRIP
360
A981
  3
ADSK_XREC_LAYOUTTHUMBNAIL
360
291B
  0
DICTIONARY
  5
3D
330
3C
100
AcDbDictionary
280
     1
281
     1
  3
ACAD_XREC_ROUNDTRIP
360
A985
  3
BUMPTILE
360
3F
  3
DIFFUSETILE
360
3E
  3
OPACITYTILE
360
42
  3
REFLECTIONTILE
360
41
  3
REFRACTIONTILE
360
43
  3
SPECULARTILE
360
40
  0
DICTIONARY
  5
35
330
34
100
AcDbDictionary
280
     1
281
     1
  3
ACAD_XREC_ROUNDTRIP
360
A984
  3
BUMPTILE
360
37
  3
DIFFUSETILE
360
36
  3
OPACITYTILE
360
3A
  3
REFLECTIONTILE
360
39
  3
REFRACTIONTILE
360
3B
  3
SPECULARTILE
360
38
  0
DICTIONARY
  5
45
330
44
100
AcDbDictionary
280
     1
281
     1
  3
ACAD_XREC_ROUNDTRIP
360
A986
  3
BUMPTILE
360
47
  3
DIFFUSETILE
360
46
  3
OPACITYTILE
360
4A
  3
REFLECTIONTILE
360
49
  3
REFRACTIONTILE
360
4B
  3
SPECULARTILE
360
48
  0
DICTIONARY
  5
87
330
5F
100
AcDbDictionary
280
     1
281
     1
  3
ACAD_ROUNDTRIP_2008_TABLESTYLE_CELLSTYLEMAP
360
A97D
  3
ACAD_XREC_ROUNDTRIP
360
A987
  0
DICTIONARY
  5
A94E
330
52
100
AcDbDictionary
280
     1
281
     1
  3
ACAD_XREC_ROUNDTRIP
360
A94F
  0
DICTIONARY
  5
A952
330
54
100
AcDbDictionary
280
     1
281
     1
  3
ACAD_XREC_ROUNDTRIP
360
A953
  0
DICTIONARY
  5
A950
330
53
100
AcDbDictionary
280
     1
281
     1
  3
ACAD_XREC_ROUNDTRIP
360
A951
  0
DICTIONARY
  5
A94C
330
51
100
AcDbDictionary
280
     1
281
     1
  3
ACAD_XREC_ROUNDTRIP
360
A94D
  0
DICTIONARY
  5
A95A
330
58
100
AcDbDictionary
280
     1
281
     1
  3
ACAD_XREC_ROUNDTRIP
360
A95B
  0
DICTIONARY
  5
A962
330
5C
100
AcDbDictionary
280
     1
281
     1
  3
ACAD_XREC_ROUNDTRIP
360
A963
  0
DICTIONARY
  5
A954
330
55
100
AcDbDictionary
280
     1
281
     1
  3
ACAD_XREC_ROUNDTRIP
360
A955
  0
DICTIONARY
  5
A958
330
57
100
AcDbDictionary
280
     1
281
     1
  3
ACAD_XREC_ROUNDTRIP
360
A959
  0
DICTIONARY
  5
A977
330
2848
100
AcDbDictionary
280
     1
281
     1
  3
ACAD_XREC_ROUNDTRIP
360
A978
  0
DICTIONARY
  5
A960
330
5B
100
AcDbDictionary
280
     1
281
     1
  3
ACAD_XREC_ROUNDTRIP
360
A961
  0
DICTIONARY
  5
A944
330
4D
100
AcDbDictionary
280
     1
281
     1
  3
ACAD_XREC_ROUNDTRIP
360
A945
  0
DICTIONARY
  5
A946
330
4E
100
AcDbDictionary
280
     1
281
     1
  3
ACAD_XREC_ROUNDTRIP
360
A947
  0
DICTIONARY
  5
A948
330
4F
100
AcDbDictionary
280
     1
281
     1
  3
ACAD_XREC_ROUNDTRIP
360
A949
  0
DICTIONARY
  5
A94A
330
50
100
AcDbDictionary
280
     1
281
     1
  3
ACAD_XREC_ROUNDTRIP
360
A94B
  0
DICTIONARY
  5
A967
330
2840
100
AcDbDictionary
280
     1
281
     1
  3
ACAD_XREC_ROUNDTRIP
360
A968
  0
DICTIONARY
  5
A973
330
2846
100
AcDbDictionary
280
     1
281
     1
  3
ACAD_XREC_ROUNDTRIP
360
A974
  0
DICTIONARY
  5
A95E
330
5A
100
AcDbDictionary
280
     1
281
     1
  3
ACAD_XREC_ROUNDTRIP
360
A95F
  0
DICTIONARY
  5
A975
330
2847
100
AcDbDictionary
280
     1
281
     1
  3
ACAD_XREC_ROUNDTRIP
360
A976
  0
DICTIONARY
  5
A956
330
56
100
AcDbDictionary
280
     1
281
     1
  3
ACAD_XREC_ROUNDTRIP
360
A957
  0
DICTIONARY
  5
A971
330
2845
100
AcDbDictionary
280
     1
281
     1
  3
ACAD_XREC_ROUNDTRIP
360
A972
  0
DICTIONARY
  5
A96F
330
2844
100
AcDbDictionary
280
     1
281
     1
  3
ACAD_XREC_ROUNDTRIP
360
A970
  0
DICTIONARY
  5
A969
330
2841
100
AcDbDictionary
280
     1
281
     1
  3
ACAD_XREC_ROUNDTRIP
360
A96A
  0
DICTIONARY
  5
A96B
330
2842
100
AcDbDictionary
280
     1
281
     1
  3
ACAD_XREC_ROUNDTRIP
360
A96C
  0
DICTIONARY
  5
A95C
330
59
100
AcDbDictionary
280
     1
281
     1
  3
ACAD_XREC_ROUNDTRIP
360
A95D
  0
DICTIONARY
  5
A965
330
283F
100
AcDbDictionary
280
     1
281
     1
  3
ACAD_XREC_ROUNDTRIP
360
A966
  0
DICTIONARY
  5
A96D
330
2843
100
AcDbDictionary
280
     1
281
     1
  3
ACAD_XREC_ROUNDTRIP
360
A96E
  0
XRECORD
  5
A980
102
{ACAD_REACTORS
330
A97F
102
}
330
A97F
100
AcDbXrecord
280
     1
102
SHADEPLOT
 70
     0
102
SHADEPLOTRESLEVEL
 70
     2
102
SHADEPLOTCUSTOMDPI
 70
   300
  0
XRECORD
  5
A983
102
{ACAD_REACTORS
330
A982
102
}
330
A982
100
AcDbXrecord
280
     1
102
SHADEPLOT
 70
     0
102
SHADEPLOTRESLEVEL
 70
     2
102
SHADEPLOTCUSTOMDPI
 70
   300
  0
XRECORD
  5
A981
102
{ACAD_REACTORS
330
291A
102
}
330
291A
100
AcDbXrecord
280
     1
102
SHADEPLOT
 70
     0
102
SHADEPLOTRESLEVEL
 70
     2
102
SHADEPLOTCUSTOMDPI
 70
   300
  0
XRECORD
  5
291B
102
{ACAD_REACTORS
330
291A
102
}
330
291A
100
AcDbXrecord
280
     1
310
28000000000100007B0000000100080000000000007B0000000000000000000000010000000000000000000000000000FFFFFF000000000000000000000000000000000000000000000000000000000000000000330000006600000099000000CC000000FF00000000330000333300006633000099330000CC330000FF3300
310
0000660000336600006666000099660000CC660000FF66000000990000339900006699000099990000CC990000FF99000000CC000033CC000066CC000099CC0000CCCC0000FFCC000000FF000033FF000066FF000099FF0000CCFF0000FFFF000000003300330033006600330099003300CC003300FF003300003333003333
310
33006633330099333300CC333300FF33330000663300336633006666330099663300CC663300FF66330000993300339933006699330099993300CC993300FF99330000CC330033CC330066CC330099CC3300CCCC3300FFCC330000FF330033FF330066FF330099FF3300CCFF3300FFFF330000006600330066006600660099
310
006600CC006600FF00660000336600333366006633660099336600CC336600FF33660000666600336666006666660099666600CC666600FF66660000996600339966006699660099996600CC996600FF99660000CC660033CC660066CC660099CC6600CCCC6600FFCC660000FF660033FF660066FF660099FF6600CCFF6600
310
FFFF660000009900330099006600990099009900CC009900FF00990000339900333399006633990099339900CC339900FF33990000669900336699006666990099669900CC669900FF66990000999900339999006699990099999900CC999900FF99990000CC990033CC990066CC990099CC9900CCCC9900FFCC990000FF99
310
0033FF990066FF990099FF9900CCFF9900FFFF99000000CC003300CC006600CC009900CC00CC00CC00FF00CC000033CC003333CC006633CC009933CC00CC33CC00FF33CC000066CC003366CC006666CC009966CC00CC66CC00FF66CC000099CC003399CC006699CC009999CC00CC99CC00FF99CC0000CCCC0033CCCC0066CC
310
CC0099CCCC00CCCCCC00FFCCCC0000FFCC0033FFCC0066FFCC0099FFCC00CCFFCC00FFFFCC000000FF003300FF006600FF009900FF00CC00FF00FF00FF000033FF003333FF006633FF009933FF00CC33FF00FF33FF000066FF003366FF006666FF009966FF00CC66FF00FF66FF000099FF003399FF006699FF009999FF00CC
310
99FF00FF99FF0000CCFF0033CCFF0066CCFF0099CCFF00CCCCFF00FFCCFF0000FFFF0033FFFF0066FFFF0099FFFF00CCFFFF00FFFFFF00000000000D0D0D001A1A1A00282828003535350043434300505050005D5D5D006B6B6B00787878008686860093939300A1A1A100AEAEAE00BBBBBB00C9C9C900D6D6D600E4E4E400
310
F1F1F100FFFFFF000000000000000000000000000000000000000000000000000000000000000000000000000000000000000000000000000000000000000000000000000000000000000000000000000028280000000000000000000000000000000000000000000000000000000000000000000000000000000000000000
310
00000000000000000000000000000000000000000000000000000000000000000000000000000000000000000000000000000000000000000000000000000000000000000000000000000000000000000000000000000000000000000000000000000000000000000000000000000000000000000000000000000000000000
310
00000000000000000000000000000028280000000000000000000000000000000000000000000000000000000000000000000000000000000000000000000000000000000000000000000000000000000000002800000000000000000000000000000000000000000000000000000000000000000000000000000000000000
310
00000000000000000000000000000000000000000000000000000000000000000000000000000000000000000000000000000028000000000000000000000000000000000000000000000000000000000000000000000000000000000000000000000000000000000000000000000000000000000000000000000000000000
310
00000000000000000000000000000000000028000000000000000000000000000000000000000000000000000000000000000000000000000000000000000000000000000000000000000000000000000000000000280000000000000000000000002800000000000000000000280000000000000000000028280000000000
310
00000000002800000000000000000000002800000000000000000000002800000000000000000000282800000000000000000000282800000000000000000000282800000000000000000000280000000000000000000000280000000000000000000000280000000000000000000028000000000000000000000028000000
310
00000000000000002800000000000000000000002800000000000000000000000000000000000000000000000000000000000000000000000000000000000000000000000000000000000000000000000000000000000000000028282828282828282828282828282828282828282828282828282828282828282828282828
310
28282828282828282828282828282828282828282828282828282828282828282828282828282828282828282828282828282828282828282828282828282828282828282828282828282828282828282828282828282828282828282828282828282828282828282828282828282828282828282828282828282828282828
310
28282828282828282828282828282828282828280000000000000000000000000000000000000000000000000000000000000000000000000000000000000000000000000000000000000000000000000000000000000000000000002800000000000000000000000000000000000000000000000000000000000000000000
310
000000000000000000000000000000000000000000000000000000000000000000000000000000000000000000000000000000000000000000282828280000000000002828282828280000000028002828002828282828F5F5F5F5F5F500F5F5F50000000000000000000000000028F5F5F5F5F5F5F5F5F5F500F5F5000000
310
28282828000000000000000000000000000028F5F528000000000000000000000000000000000000000000000000000000000000000000000000000000000000000000000000000000000000000000000000000000000000000000000000280000000000000000000000000000000000000000000000000000000000000000
310
000000000000000000000000000000000000000000000000000000000000000000000000000000000000000000000000000000000000000000000028282828282828282828282828282828282828282828F5F5282828282828F5F5F5F5F5F528F5F5F528282828282828282828282828F5F5F5282828282828282828282828
310
282828282828F5F5F5F5282828282828282828282828282800000000000000000000000000000000000000000000000000000000000000000000000000000000000000000000000000000000000000000000000000000000000000000000000028000000000000000000000000000000000000000000000000000000000000
310
0000000000000000000000000000000000000000000000000000000000000000000000000000000000000000000000000000000000000000000000000028F5F528F5F5282828282828282828282828282828F5F5F5F5F5F5F5F5F5282828282828282828282828282828282828282828282828282828282828280000000000
310
0000000000000000F5F5F5F500000000000000000000000000280000000000000000000000000000000000000000000000000000000000000000000000000000000000000000000000000000000000000000000000000000000000000000000000002800000000000000000000000000000000000000000000000000000000
310
00000000000000000000000000000000000000000000000000000000000000000000000000000000000000000000000000000000000000000000000000000028000028000000000000000000000000000000002800000000280028000028002828282828282828282828282828282828282828282828280000000028000000
310
00000000000000000000F5F5F5F50000000000000000000000000028000000000000000000000000000000000000000000000000000000000000000000000000000000000000000000000000000000000000000000000000000000000000000000000000280000000000000000000000000000000000000000000000000000
310
00000000000000000000000000000000000000000000000000000000000000000000000000000000000000000000000000000000000000000000000000000000002828282828282828282828282828282828282828282828282828282828282800282828282828282828282828282828282828282828282828000000002828
310
28282828282828282828282828282828282828282828282828282828282800000000000000000000000000000000000000000000000000000000000000000000000000000000000000000000000000000000000000000000000000000000000000000000000028000000000000000000000000000000000000000000000000
310
00000000000000000000000000000000000000000000000000000000000000000000000000000000000000000000000000000000000000000000000000000000000000282828282828282828282828282828282828282828282828282828282828280028282828282828282828282828282828282828282828282828282828
310
2800000000F5F5F5000000000F0F0F0F0F0F0F0F0F0F0F0F0F0F0F00000000280000000000000000000000000000000000000000000000000000000000000000000000000000000000000000000000000000000000000000000000000000000000000000000000002800000000000000000000000000000000000000000000
310
00000000000000000000000000000000000000000000000000000000000000000000000000000000000000000000000000000000000000000000000000000000000000000028000028000000000000000000000000000000002800000000280028000028002828282828282828280000000000000000000000000000000000
310
00002800000000F5F5F5000000000F0F0F0F0F0F0F0F0F0F0F0F0F0F0F0000000028000000000000000000000000000000000000000000000000000000000000000000000000000000000000000000000000000000000000000000000000000000000000000000000000280000000000000000000000000000000000000000
310
00000000000000000000000000000000000000000000000000000000000000000000000000000000000000000000000000000000000000000000000000000000000000000000002828282828282828282828282828282828282828282828282828282828282828282828282828282828282828282828282828282828282828
310
28282828282828282828282828282828282828282828282828282828282828282828282800000000000000000000000000000000000000000000000000000000000000000000000000000000000000000000000000000000000000000000000000000000000000000000000028000000000000000000000000000000000000
310
00000000000000000000000000000000000000000000000000000000000000000000000000000000000000000000000000000000000000000000000000000000000000000000000000000000000000000000000000000000000000000000000000000000000000000000000000000000000000000000000000000000000000
310
00000000000000000000000000000000000000000000000000000000000000000000000000280000000000000000000000000000000000000000000000000000000000000000000000000000000000000000000000000000000000000000000000000000000000000000000000002800000000000000000000000000000000
310
00000000000000000000000000000000000000000000000000000000000000000000000000000000000000000000000000000000000000000000000000000000000000000000000000000000000000000000000000000000000000000000000000000000000000000000000000000000000000000000000000000000000000
310
00000000000000000000000000000000000000000000000000000000000000000000000000000028000000000000000000000000000000000000000000000000000000000000000000000000000000000000000000000000000000000000000000000000000000000000000000000000280000000000000000000000000000
310
00000000000000000000000000000000000000000000000000000000000000000000000000000000000000000000000000000000000000000000000000000000000000000000000000000000000000000000000000000000000000000000000000000000000000000000000000000000000000000000000000000000000000
310
00000000000000000000000000000000000000000000000000000000000000000000000000000000002800000000000000000000000000000000000000000000000000000000000000000000000000000000000000000000000000000000000000000000000000000000000000000000282828000000000000000000000000
310
00000000000000000000000000000000000000000000000000000000000000000000000000000000000000000000000000000000000000000000000000000000000000000000000000000000000000000000000000000000000000000000000000000000000000000000000000000000000000000000000000000000000000
310
00000000000000000000000000000000000000000000000000000000000000000000000000000000000000282828000000000000000000000000000000000000000000000000000000000000000000000000000000000000000000000000000000000000000000000000000000000000000028282800000000000000000000
310
00000000000000000000000000000000000000000000000000000000000000000000000000000000000000000000000000000000000000000000000000000000000000000000000000000000000000000000000000000000000000000000000000000000000000000000000000000000000000000000000000000000000000
310
00000000000000000000000000000000000000000000000000000000000000000000000000000000000000000028282800000000000000000000000000000000000000000000000000000000000000000000000000000000000000000000000000000000000000000000000000000000000000000000280000000000000000
310
00000000000000000000000000000000000000000000000000000000000000000000000000000000000000000000000000000000000000000000000000000000000000000000000000000000000000000000000000000000000000000000000000000000000000000000000000000000000000000000000000000000000000
310
00000000000000000000000000000000000000000000000000000000000000000000000000000000000000000000002800000000000000000000000000000000000000000000000000000000000000000000000000000000000000000000000000000000000000000000000000000000000000000000000028000000000000
310
00000000000000000000000000000000000000000000000000000000000000000000000000000000000000000000000000000000000000000000000000000000000000000000000000000000000000000000000000000000000000000000000000000000000000000000000000000000000000000000000000000000000000
310
00000000000000000000000000000000000000000000000000000000000000000000000000000000000000000000000000280000000000000000000000000000000000000000000000000000000000000000000000000000000000000000000000000000000000000000000000000000000000000000000000002800000000
310
00000000000000000000000000000000000000000000000000000000000000000000000000000000000000000000000000000000000000000000000000000000000000000000000000000000000000000000000000000000000000000000000000000000000000000000000000000000000000000000000000000000000000
310
00000000000000000000000000000000000000000000000000000000000000000000000000000000000000000000000000000028000000000000000000000000000000000000000000000000000000000000000000000000000000000000000000000000000000000000000000000000000000000000000000000000280000
310
00000000000000000000000000000000000000000000000000000000000000000000000000000000000000000000000000000000000000000000000000000000000000000000000000000000000000000000000000000000000000000000000000000000000000000000000000000000000000000000000000000000000000
310
00000000000000000000000000000000000000000000000000000000000000000000000000000000000000000000000000000000002800000000000000000000000000000000000000000000000000000000000000000000000000000000000000000000000000000000000000000000000000000000000000000000000028
310
00000000000000000000000000000000000000000000000000000000000000000000000000000000000000000000000000000000000000000000000000000000000000000000000000000000000000000000000000000000000000000000000000000000000000000000000000000000000000000000000000000000000000
310
00000000000000000000000000000000000000000000000000000000000000000000000000000000000000000000000000000000000000280000000000000000000000000000000000000000000000000000000000000000000000000000000000000000000000000000000000000000000000000000000000000000000000
310
00280000000000000000000000000000000000000000000000000000000000000000000000000000000000000000000000000000000000000000000000000000000000000000000000000000000000000000000000000000000000000000000000000000000000000000000000000000000000000000000000000000000000
310
00000000000000000000000000000000000000000000000000000000000000000000000000000000000000000000000000000000000000000028000000000000000000000000000000000000000000000000000000000000000000000000000000000000000000000000000000000000000000000000000000000000000000
310
00000028000000000000000000000000000000000000000000000000000000000000000000000000000000000000000000000000000000000000000000000000000000000000000000000000000000000000000000000000000000000000000000000000000000000000000000000000000000000000000000000000000000
310
00000000000000000000000000000000000000000000000000000000000000000000000000000000000000000000000000000000000000000000002800000000000000000000000000000000000000000000000000000000000000000000000000000000000000000000000000000000000000000000000000000000000000
310
00000000002800000000000000000000000000000000000000000000000000000000000000000000000000000000000000000000000000000000000000000000000000000000000000000000000000000000000000000000000000000000000000000000000000000000000000000000000000000000000000000000000000
310
00000000000000000000000000000000000000000000000000000000000000000000000000000000000000000000000000000000000000000000000000280000000000000000000000000000000000000000000000000000000000000000000000000000000000000000000000000000000000000000000000000000000000
310
00000000000000280000000000000000000000000000000000000000000000000000000000000000000000000000000000000000000000000000000000000000000000000000000000000000000000000000000000000000000000000000000000000000000000000000000000000000000000000000000000000000000000
310
00000000000000000000000000000000000000000000000000000000000000000000000000000000000000000000000000000000000000000000000000000028000000000000000000000000000000000000000000000000000000000000000000000000000000000000000000000000000000000000000000000000000000
310
00000000000000000028000000000000000000000000000000000000000000000000000000000000000000000000000000000000000000000000000000000000000000000000000000000000000000000000000000000000000000000000000000000000000000000000000000000000000000000000000000000000000000
310
00000000000000000000000000000000000000000000000000000000000000000000000000000000000000000000000000000000000000000000000000000000002800000000000000000000000000000000000000000000000000000000000000000000000000000000000000000000000000000000000000000000000000
310
00000000000000000000002800000000000000000000000000000000000000000000000000000000000000000000000000000000000000000000000000000000000000000000000000000000000000000000000000000000000000000000000000000000000000000000000000000000000000000000000000000000000000
310
00000000000000000000000000000000000000000000000000000000000000000000000000000000000000000000000000000000000000000000000000000000000000280000000000000000000000000000000000000000000000000000000000000000000000000000000000000000000000000000000000000000000000
310
00000000000000000000000000280000000000000000000000000000000000000000000000000000000000000000000000000000000000000000000000000000000000000000000000000000000000000000000000000000000000000000000000000000000000000000000000000000000000000000000000000000000000
310
00000000000000000000000000000000000000000000000000000000000000000000000000000000000000000000000000000000000000000000000000000000000000000028000000000000000000000000000000000000000000000000000000000000000000000000000000000000000000000000000000000000000000
310
00000000000000000000000000000028000000000000000000000000000000000000000000000000000000000000000000000000000000000000000000000000000000000000000000000000000000000000000000000000000000000000000000000000000000000000000000000000000000000000000000000000000000
310
00000000000000000000000000000000000000000000000000000000000000000000000000000000000000000000000000000000000000000000000000000000000000000000002800000000000000000000000000000000000000000000000000000000000000000000000000000000000000000000000000000000000000
310
00000000000000000000000000000000002800000000000000000000000000000000000000000000000000000000000000000000000000000000000000000000000000000000000000000000000000000000000000000000000000000000000000000000000000000000000000000000000000000000000000000000000000
310
00000000000000000000000000000000000000000000000000000000000000000000000000000000000000000000000000000000000000000000000000000000000000000000000000280000000000000000000000000000000000000000000000000000000000000000000000000000000000000000000000000000000000
310
00000000000000000000000000000000002828280000000000000000000000000000000000000000000000000000000000000000000000000000000000000000000000000000000000000000000000000000000000000000000000000000000000000000000000000000000000000000000000000000000000000000000000
310
00000000000000000000000000000000000000000000000000000000000000000000000000000000000000000000000000000000000000000000000000000000000000000000000000000028282800000000000000000000000000000000000000000000000000000000000000000000000000000000000000000000000000
310
00000000000000000000000000000000000000000028000000000000000000000000000000000000000000000000000000000000000000000000000000000000000000000000000000000000000000000000000000000000000000000000000000000000000000000000000000000000000000000000000000000000000000
310
00000000000000000000000000000000000000000000000000000000000000000000000000000000000000000000000000000000000000000000000000000000000000000000000000000000002800000000000000000000000000000000000000000000000000000000000000000000000000000000000000000000000000
310
00000000000000000000000000000000000000000000002800000000000000000000000000000000000000000000000000000000000000000000000000000000000000000000000000000000000000000000000000000000000000000000000000000000000000000000000000000000000000000000000000000000000000
310
00000000000000000000000000000000000000000000000000000000000000000000000000000000000000000000000000000000000000000000000000000000000000000000000000000000000000280000000000000000000000000000000000000000000000000000000000000000000000000000000000000000000000
310
00000000000000000000000000000000000000000000000000280000000000000000000000000000000000000000000000000000000000000000000000000000000000000000000000000000000000000000000000000000000000000000000000000000000000000000000000000000000000000000000000000000000000
310
00000000000000000000000000000000000000000000000000000000000000000000000000000000000000000000000000000000000000000000000000000000000000000000000000000000000000000028000000000000000000000000000000000000000000000000000000000000000000000000000000000000000000
310
00000000000000000000000000000000000000000000000000000028000000000000000000000000000000000000000000000000000000000000000000000000000000000000000000000000000000000000000000000000000000000000000000000000000000000000000000000000000000000000000000000000000000
310
00000000000000000000000000000000000000000000000000000000000000000000000000000000000000000000000000000000000000000000000000000000000000000000000000000000000000000000002800000000000000000000000000000000000000000000000000000000000000000000000000000000000000
310
00000000000000000000000000000000000000000000000000000000002800000000000000000000000000000000000000000000000000000000000000000000000000000000000000000000000000000000000000000000000000000000000000000000000000000000000000000000000000000000000000000000000000
310
00000000000000000000000000000000000000000000000000000000000000000000000000000000000000000000000000000000000000000000000000000000000000000000000000000000000000000000000000280000000000000000000000000000000000000000000000000000000000000000000000000000000000
310
00000000000000000000000000000000000000000000000000000000000000280000000000000000000000000000000000000000000000000000000000000000000000000000000000000000000000000000000000000000000000000000000000000000000000000000000000000000000000000000000000000000000000
310
00000000000000000000000000000000000000000000000000000000000000000000000000000000000000000000000000000000000000000000000000000000000000000000000000000000000000000000000000000028000000000000000000000000000000000000000000000000000000000000000000000000000000
310
00000000000000000000000000000000000000000000000000000000000000000028000000000000000000000000000000000000000000000000000000000000000000000000000000000000000000000000000000000000000000000000000000000000000000000000000000000000000000000000000000000000000000
310
00000000000000000000000000000000000000000000000000000000000000000000000000000000000000000000000000000000000000000000000000000000000000000000000000000000000000000000000000000000002800000000000000000000000000000000000000000000000000000000000000000000000000
310
00000000000000000000000000000000000000000000000000000000000000000000002800000000000000000000000000000000000000000000000000000000000000000000000000000000000000000000000000000000000000000000000000000000000000000000000000000000000000000000000000000000000000
310
00000000000000000000000000000000000000000000000000000000000000000000000000000000000000000000000000000000000000000000000000000000000000000000000000000000000000000000000000000000000000280000000000000000000000000000000000000000000000000000000000000000000000
310
00000000000000000000000000000000000000000000000000000000000000000000000000280000000000000000000000000000000000000000000000000000000000000000000000000000000000000000000000000000000000000000000000000000000000000000000000000000000000000000000000000000000000
310
00000000000000000000000000000000000000000000000000000000000000000000000000000000000000000000000000000000000000000000000000000000000000000000000000000000000000000000000000000000000000000028000000000000000000000000000000000000000000000000000000000000000000
310
00000000000000000000000000000000000000000000000000000000000000000000000000000028000000000000000000000000000000000000000000000000000000000000000000000000000000000000000000000000000000000000000000000000000000000000000000000000000000000000000000000000000000
310
00000000000000000000000000000000000000000000000000000000000000000000000000000000000000000000000000000000000000000000000000000000000000000000000000000000000000000000000000000000000000000000002800000000000000000000000000000000000000000000000000000000000000
310
00000000000000000000000000000000000000000000000000000000000000000000000000000000002800000000000000000000000000000000000000000000000000000000000000000000000000000000000000000000000000000000000000000000000000000000000000000000000000000000000000000000000000
310
00000000000000000000000000000000000000000000000000000000000000000000000000000000000000000000000000000000000000000000000000000000000000000000000000000000000000000000000000000000000000000000000000280000000000000000000000000000000000000000000000000000000000
310
00000000000000000000000000000000000000000000000000000000000000000000000000000000000000280000000000000000000000000000000000000000000000000000000000000000000000000000000000000000000000000000000000000000000000000000000000000000000000000000000000000000000000
310
00000000000000000000000000000000000000000000000000000000000000000000000000000000000000000000000000000000000000000000000000000000000000000000000000000000000000000000000000000000000000000000000000000028000000000000000000000000000000000000000000000000000000
310
00000000000000000000000000000000000000000000000000000000000000000000000000000000000000000028000000000000000000000000000000000000000000000000000000000000000000000000000000000000000000000000000000000000000000000000000000000000000000000000000000000000000000
310
00000000000000000000000000000000000000000000000000000000000000000000000000000000000000000000000000000000000000000000000000000000000000000000000000000000000000000000000000000000000000000000000000000000002800000000000000000000000000000000000000000000000000
310
00000000000000000000000000000000000000000000000000000000000000000000000000000000000000000028282800000000000000000000000000000000000000000000000000000000000000000000000000000000000000000000000000000000000000000000000000000000000000000000000000000000000000
310
00000000000000000000000000000000000000000000000000000000000000000000000000000000000000000000000000000000000000000000000000000000000000000000000000000000000000000000000000000000000000000000000000000000000000282828000000000000000000000000000000000000000000
310
00000000000000000000000000000000000000000000000000000000000000000000000000000000000000000000002828280000000000000000000000000000000000000000000000000000000000000000000000000000000000000000000000000000000000000000000000000000000000000000000000000000000000
310
00000000000000000000000000000000000000000000000000000000000000000000000000000000000000000000000000000000000000000000000000000000000000000000000000000000000000000000000000000000000000000000000000000000000000000028282800000000000000000000000000000000000000
310
00000000000000000000000000000000000000000000000000000000000000000000000000000000000000000000000000000028000000000000000000000000000000000000000000000000000000000000000000000000000000000000000000000000000000000000000000000000000000000000000000000000000000
310
00000000000000000000000000000000000000000000000000000000000000000000000000000000000000000000000000000000000000000000000000000000000000000000000000000000000000000000000000000000000000000000000000000000000000000000002800000000000000000000000000000000000000
310
00000000000000000000000000000000000000000000000000000000000000000000000000000000000000000000000000000000002800000000000000000000000000000000000000000000000000000000000000000000000000000000000000000000000000000000000000000000000000000000000000000000000000
310
00000000000000000000000000000000000000000000000000000000000000000000000000000000000000000000000000000000000000000000000000000000000000000000000000000000000000000000000000000000000000000000000000000000000000000000000000280000000000000000000000000000000000
310
00000000000000000000000000000000000000000000000000000000000000000000000000000000000000000000000000000000000000280000000000000000000000000000000000000000000000000000000000000000000000000000000000000000000000000000000000000000000000000000000000000000000000
310
00000000000000000000000000000000000000000000000000000000000000000000000000000000000000000000000000000000000000000000000000000000000000000000000000000000000000000000000000000000000000000000000000000000000000000000000000000028000000000000000000000000000000
310
00000000000000000000000000000000000000000000000000000000000000000000000000000000000000000000000000000000000000000028000000000000000000000000000000000000000000000000000000000000000000000000000000000000000000000000000000000000000000000000000000000000000000
310
00000000000000000000000000000000000000000000000000000000000000000000000000000000000000000000000000000000000000000000000000000000000000000000000000000000000000000000000000000000000000000000000000000000000000000000000000000000002800000000000000000000000000
310
00000000000000000000000000000000000000000000000000000000000000000000000000000000000000000000000000000000000000000000002800000000000000000000000000000000000000000000000000000000000000000000000000000000000000000000000000000000000000000000000000000000000000
310
00000000000000000000000000000000000000000000000000000000000000000000000000000000000000000000000000000000000000000000000000000000000000000000000000000000000000000000000000000000000000000000000000000000000000000000000000000000000000280000000000000000000000
310
00000000000000000000000000000000000000000000000000000000000000000000000000000000000000000000000000000000000000000000000000280000000000000000000000000000000000000000000000000000000000000000000000000000000000000000000000000000000000000000000000000000000000
310
00000000000000000000000000000000000000000000000000000000000000000000000000000000000000000000000000000000000000000000000000000000000000000000000000000000000000000000000000000000000000000000000000000000000000000000000000000000000000000028000000000000000000
310
00000000000000000000000000000000000000000000000000000000000000000000000000000000000000000000000000000000000000000000000000000028000000000000000000000000000000000000000000000000000000000000000000000000000000000000000000000000000000000000000000000000000000
310
00000000000000000000000000000000000000000000000000000000000000000000000000000000000000000000000000000000000000000000000000000000000000000000000000000000000000000000000000000000000000000000000000000000000000000000000000000000000000000000002800000000000000
310
00000000000000000000000000000000000000000000000000000000000000000000000000000000000000000000000000000000000000000000000000000000002800000000000000000000000000000000000000000000000000000000000000000000000000000000000000000000000000000000000000000000000000
310
00000000000000000000000000000000000000000000000000000000000000000000000000000000000000000000000000000000000000000000000000000000000000000000000000000000000000000000000000000000000000000000000000000000000000000000000000000000000000000000000000280000000000
310
00000000000000000000000000000000000000000000000000000000000000000000000000000000000000000000000000000000000000000000000000000000000000280000000000000000000000000000000000000000000000000000000000000000000000000000000000000000000000000000000000000000000000
310
00000000000000000000000000000000000000000000000000000000000000000000000000000000000000000000000000000000000000000000000000000000000000000000000000000000000000000000000000000000000000000000000000000000000000000000000000000000000000000000000000000028000000
310
00000000000000000000000000000000000000000000000000000000000000000000000000000000000000000000000000000000000000000000000000000000000000000028000000000000000000000000000000000000000000000000000000000000000000000000000000000000000000000000000000000000000000
310
00000000000000000000000000000000000000000000000000000000000000000000000000000000000000000000000000000000000000000000000000000000000000000000000000000000000000000000000000000000000000000000000000000000000000000000000000000000000000000000000000000000002800
310
00000000000000000000000000000000000000000000000000000000000000000000000000000000000000000000000000000000000000000000000000000000000000000000002800000000000000000000000000000000000000000000000000000000000000000000000000000000000000000000000000000000000000
310
00000000000000000000000000000000000000000000000000000000000000000000000000000000000000000000000000000000000000000000000000000000000000000000000000000000000000000000000000000000000000000000000000000000000000000000000000000000000000000000000000000000000000
310
28000000000000000000000000000000000000000000000000000000000000000000000000000000000000000000000000000000000000000000000000000000000000000000000000280000000000000000000000000000000000000000000000000000000000000000000000000000000000000000000000000000000000
310
00000000000000000000000000000000000000000000000000000000000000000000000000000000000000000000000000000000000000000000000000000000000000000000000000000000000000000000000000000000000000000000000000000000000000000000000000000000000000000000000000000000000000
310
00002800000000000000000000000000000000000000000000000000000000000000000000000000000000000000000000000000000000000000000000000000000000000000000000000028000000000000000000000000000000000000000000000000000000000000000000000000000000000000000000000000000000
310
00000000000000000000000000000000000000000000000000000000000000000000000000000000000000000000000000000000000000000000000000000000000000000000000000000000000000000000000000000000000000000000000000000000000000000000000000000000000000000000000000000000000000
310
00000000280000000000000000000000000000000000000000000000000000000000000000000000000000000000000000000000000000000000000000000000000000000000000000000000002800000000000000000000000000000000000000000000000000000000000000000000000000000000000000000000000000
310
00000000000000000000000000000000000000000000000000000000000000000000000000000000000000000000000000000000000000000000000000000000000000000000000000000000000000000000000000000000000000000000000000000000000000000000000000000000000000000000000000000000000000
310
00000000000028000000000000000000000000000000000000000000000000000000000000000000000000000000000000000000000000000000000000000000000000000000000000000000002828280000000000000000000000000000000000000000000000000000000000000000000000000000000000000000000000
310
00000000000000000000000000000000000000000000000000000000000000000000000000000000000000000000000000000000000000000000000000000000000000000000000000000000000000000000000000000000000000000000000000000000000000000000000000000000000000000000000000000000000000
310
00000000000000002828280000000000000000000000000000000000000000000000000000000000000000000000000000000000000000000000000000000000000000000000000000000000000000000028000000000000000000000000000000000000000000000000000000000000000000000000000000000000000000
310
00000000000000000000000000000000000000000000000000000000000000000000000000000000000000000000000000000000000000000000000000000000000000000000000000000000000000000000000000000000000000000000000000000000000000000000000000000000000000000000000000000000000000
310
00000000000000000000280000000000000000000000000000000000000000000000000000000000000000000000000000000000000000000000000000000000000000000000000000000000000000000000002800000000000000000000000000000000000000000000000000000000000000000000000000000000000000
310
00000000000000000000000000000000000000000000000000000000000000000000000000000000000000000000000000000000000000000000000000000000000000000000000000000000000000000000000000000000000000000000000000000000000000000000000000000000000000000000000000000000000000
310
00000000000000000000000028000000000000000000000000000000000000000000000000000000000000000000000000000000000000000000000000000000000000000000000000000000000000000000000000280000000000000000000000000000000000000000000000000000000000000000000000000000000000
310
00000000000000000000000000000000000000000000000000000000000000000000000000000000000000000000000000000000000000000000000000000000000000000000000000000000000000000000000000000000000000000000000000000000000000000000000000000000000000000000000000000000000000
310
00000000000000000000000000002800000000000000000000000000000000000000000000000000000000000000000000000000000000000000000000000000000000000000000000000000000000000000000000000028000000000000000000000000000000000000000000000000000000000000000000000000000000
310
00000000000000000000000000000000000000000000000000000000000000000000000000000000000000000000000000000000000000000000000000000000000000000000000000000000000000000000000000000000000000000000000000000000000000000000000000000000000000000000000000000000000000
310
00000000000000000000000000000000280000000000000000000000000000000000000000000000000000000000000000000000000000000000000000000000000000000000000000000000000000000000000000000000002800000000000000000000000000000000000000000000000000000000000000000000000000
310
00000000000000000000000000000000000000000000000000000000000000000000000000000000000000000000000000000000000000000000000000000000000000000000000000000000000000000000000000000000000000000000000000000000000000000000000000000000000000000000000000000000000000
310
00000000000000000000000000000000000028000000000000000000000000000000000000000000000000000000000000000000000000000000000000000000000000000000000000000000000000000000000000000000000000280000000000000000000000000000000000000000000000000000000000000000000000
310
00000000000000000000000000000000000000000000000000000000000000000000000000000000000000000000000000000000000000000000000000000000000000000000000000000000000000000000000000000000000000000000000000000000000000000000000000000000000000000000000000000000000000
310
00000000000000000000000000000000000000002800000000000000000000000000000000000000000000000000000000000000000000000000000000000000000000000000000000000000000000000000000000000000000000000028000000000000000000000000000000000000000000000000000000000000000000
310
00000000000000000000000000000000000000000000000000000000000000000000000000000000000000000000000000000000000000000000000000000000000000000000000000000000000000000000000000000000000000000000000000000000000000000000000000000000000000000000000000000000000000
310
00000000000000000000000000000000000000000000280000000000000000000000000000000000000000000000000000000000000000000000000000000000000000000000000000000000000000000000000000000000000000000000002800000000000000000000000000000000000000000000000000000000000000
310
00000000000000000000000000000000000000000000000000000000000000000000000000000000000000000000000000000000000000000000000000000000000000000000000000000000000000000000000000000000000000000000000000000000000000000000000000000000000000000000000000000000000000
310
00000000000000000000000000000000000000000000000028000000000000000000000000000000000000000000000000000000000000000000000000000000000000000000000000000000000000000000000000000000000000000000000000280000000000000000000000000000000000000000000000000000000000
310
00000000000000000000000000000000000000000000000000000000000000000000000000000000000000000000000000000000000000000000000000000000000000000000000000000000000000000000000000000000000000000000000000000000000000000000000000000000000000000000000000000000000000
310
00000000000000000000000000000000000000000000000000002800000000000000000000000000000000000000000000000000000000000000000000000000000000000000000000000000000000000000000000000000000000000000000000000028000000000000000000000000000000000000000000000000000000
310
00000000000000000000000000000000000000000000000000000000000000000000000000000000000000000000000000000000000000000000000000000000000000000000000000000000000000000000000000000000000000000000000000000000000000000000000000000000000000000000000000000000000000
310
00000000000000000000000000000000000000000000000000000000280000000000000000000000000000000000000000000000000000000000000000000000000000000000000000000000000000000000000000000000000000000000000000000000002800000000000000000000000000000000000000000000000000
310
00000000000000000000000000000000000000000000000000000000000000000000000000000000000000000000000000000000000000000000000000000000000000000000000000000000000000000000000000000000000000000000000000000000000000000000000000000000000000000000000000000000000000
310
00000000000000000000000000000000000000000000000000000000000028000000000000000000000000000000000000000000000000000000000000000000000000000000000000000000000000000000000000000000000000000000000000000000000000280000000000000000000000000000000000000000000000
310
00000000000000000000000000000000000000000000000000000000000000000000000000000000000000000000000000000000000000000000000000000000000000000000000000000000000000000000000000000000000000000000000000000000000000000000000000000000000000000000000000000000000000
310
00000000000000000000000000000000000000000000000000000000000000002800000000000000000000000000000000000000000000000000000000000000000000000000000000000000000000000000000000000000000000000000000000000000000000000028000000000000000000000000000000000000000000
310
00000000000000000000000000000000000000000000000000000000000000000000000000000000000000000000000000000000000000000000000000000000000000000000000000000000000000000000000000000000000000000000000000000000000000000000000000000000000000000000000000000000000000
310
00000000000000000000000000000000000000000000000000000000000000000000280000000000000000000000000000000000000000000000000000000000000000000000000000000000000000000000000000000000000000000000000000000000000000000000002800000000000000000000000000000000000000
310
00000000000000000000000000000000000000000000000000000000000000000000000000000000000000000000000000000000000000000000000000000000000000000000000000000000000000000000000000000000000000000000000000000000000000000000000000000000000000000000000000000000000000
310
00000000000000000000000000000000000000000000000000000000000000000000000028000000000000000000000000000000000000000000000000000000000000000000000000000000000000000000000000000000000000000000000000000000000000000000002828280000000000000000000000000000000000
310
00000000000000000000000000000000000000000000000000000000000000000000000000000000000000000000000000000000000000000000000000000000000000000000000000000000000000000000000000000000000000000000000000000000000000000000000000000000000000000000000000000000000000
310
00000000000000000000000000000000000000000000000000000000000000000000000000002828280000000000000000000000000000000000000000000000000000000000000000000000000000000000000000000000000000000000000000000000000000000000000000282828000000000000000000000000000000
310
00000000000000000000000000000000000000000000000000000000000000000000000000000000000000000000000000000000000000000000000000000000000000000000000000000000000000000000000000000000000000000000000000000000000000000000000000000000000000000000000000000000000000
310
00000000000000000000000000000000000000000000000000000000000000000000000000000000282828000000000000000000000000000000000000000000000000000000000000000000000000000000000000000000000000000000000000000000000000000000000000000000002800000000000000000000000000
310
00000000000000000000000000000000000000000000000000000000000000000000000000000000000000000000000000000000000000000000000000000000000000000000000000000000000000000000000000000000000000000000000000000000000000000000000000000000000000000000000000000000000000
310
00000000000000000000000000000000000000000000000000000000000000000000000000000000000028000000000000000000000000000000000000000000000000000000000000000000000000000000000000000000000000000000000000000000000000000000000000000000000000280000000000000000000000
310
00000000000000000000000000000000000000000000000000000000000000000000000000000000000000000000000000000000000000000000000000000000000000000000000000000000000000000000000000000000000000000000000000000000000000000000000000000000000000000000000000000000000000
310
00000000000000000000000000000000000000000000000000000000000000000000000000000000000000002800000000000000000000000000000000000000000000000000000000000000000000000000000000000000000000000000000000000000000000000000000000000000000000000028000000000000000000
310
00000000000000000000000000000000000000000000000000000000000000000000000000000000000000000000000000000000000000000000000000000000000000000000000000000000000000000000000000000000000000000000000000000000000000000000000000000000000000000000000000000000000000
310
00000000000000000000000000000000000000000000000000000000000000000000000000000000000000000000280000000000000000000000000000000000000000000000000000000000000000000000000000000000000000000000000000000000000000000000000000000000000000000000002800000000000000
310
00000000000000000000000000000000000000000000000000000000000000000000000000000000000000000000000000000000000000000000000000000000000000000000000000000000000000000000000000000000000000000000000000000000000000000000000000000000000000000000000000000000000000
310
00000000000000000000000000000000000000000000000000000000000000000000000000000000000000000000000028000000000000000000000000000000000000000000000000000000000000000000000000000000000000000000000000000000000000000000000000000000000000000000000000280000000000
310
00000000000000000000000000000000000000000000000000000000000000000000000000000000000000000000000000000000000000000000000000000000000000000000000000000000000000000000000000000000000000000000000000000000000000000000000000000000000000000000000000000000000000
310
00000000000000000000000000000000000000000000000000000000000000000000000000000000000000000000000000002800000000000000000000000000000000000000000000000000000000000000000000000000000000000000000000000000000000000000000000000000000000000000000000000028000000
310
00000000000000000000000000000000000000000000000000000000000000000000000000000000000000000000000000000000000000000000000000000000000000000000000000000000000000000000000000000000000000000000000000000000000000000000000000000000000000000000000000000000000000
310
00000000000000000000000000000000000000000000000000000000000000000000000000000000000000000000000000000000280000000000000000000000000000000000000000000000000000000000000000000000000000000000000000000000000000000000000000000000000000000000000000000000002800
310
00000000000000000000000000000000000000000000000000000000000000000000000000000000000000000000000000000000000000000000000000000000000000000000000000000000000000000000000000000000000000000000000000000000000000000000000000000000000000000000000000000000000000
310
00000000000000000000000000000000000000000000000000000000000000000000000000000000000000000000000000000000000028000000000000000000000000000000000000000000000000000000000000000000000000000000000000000000000000000000000000000000000000000000000000000000000000
310
28000000000000000000000000000000000000000000000000000000000000000000000000000000000000000000000000000000000000000000000000000000000000000000000000000000000000000000000000000000000000000000000000000000000000000000000000000000000000000000000000000000000000
310
00000000000000000000000000000000000000000000000000000000000000000000000000000000000000000000000000000000000000002800000000000000000000000000000000000000000000000000000000000000000000000000000000000000000000000000000000000000000000000000000000000000000000
310
00002800000000000000000000000000000000000000000000000000000000000000000000000000000000000000000000000000000000000000000000000000000000000000000000000000000000000000000000000000000000000000000000000000000000000000000000000000000000000000000000000000000000
310
00000000000000000000000000000000000000000000000000000000000000000000000000000000000000000000000000000000000000000000280000000000000000000000000000000000000000000000000000000000000000000000000000000000000000000000000000000000000000000000000000000000000000
310
00000000280000000000000000000000000000000000000000000000000000000000000000000000000000000000000000000000000000000000000000000000000000000000000000000000000000000000000000000000000000000000000000000000000000000000000000000000000000000000000000000000000000
310
00000000000000000000000000000000000000000000000000000000000000000000000000000000000000000000000000000000000000000000000028000000000000000000000000000000000000000000000000000000000000000000000000000000000000000000000000000000000000000000000000000000000000
310
00000000000028000000000000000000000000000000000000000000000000000000000000000000000000000000000000000000000000000000000000000000000000000000000000000000000000000000000000000000000000000000000000000000000000000000000000000000000000000000000000000000000000
310
00000000000000000000000000000000000000000000000000000000000000000000000000000000000000000000000000000000000000000000000000002800000000000000000000000000000000000000000000000000000000000000000000000000000000000000000000000000000000000000000000000000000000
310
00000000000000002800000000000000000000000000000000000000000000000000000000000000000000000000000000000000000000000000000000000000000000000000000000000000000000000000000000000000000000000000000000000000000000000000000000000000000000000000000000000000000000
310
00000000000000000000000000000000000000000000000000000000000000000000000000000000000000000000000000000000000000000000000000000000280000000000000000000000000000000000000000000000000000000000000000000000000000000000000000000000000000000000000000000000000000
310
00000000000000000000280000000000000000000000000000000000000000000000000000000000000000000000000000000000000000000000000000000000000000000000000000000000000000000000000000000000000000000000000000000000000000000000000000000000000000000000000000000000000000
310
00000000000000000000000000000000000000000000000000000000000000000000000000000000000000000000000000000000000000000000000000000000000028000000000000000000000000000000000000000000000000000000000000000000000000000000000000000000000000000000000000000000000000
310
00000000000000000000282828000000000000000000000000000000000000000000000000000000000000000000000000000000000000000000000000000000000000000000000000000000000000000000000000000000000000000000000000000000000000000000000000000000000000000000000000000000000000
310
00000000000000000000000000000000000000000000000000000000000000000000000000000000000000000000000000000000000000000000000000000000000000002828280000000000000000000000000000000000000000000000000000000000000000000000000000000000000000000000000000000000000000
310
00000000000000000000000000002800000000000000000000000000000000000000000000000000000000000000000000000000000000000000000000000000000000000000000000000000000000000000000000000000000000000000000000000000000000000000000000000000000000000000000000000000000000
310
00000000000000000000000000000000000000000000000000000000000000000000000000000000000000000000000000000000000000000000000000000000000000000000280000000000000000000000000000000000000000000000000000000000000000000000000000000000000000000000000000000000000000
310
00000000000000000000000000000000280000000000000000000000000000000000000000000000000000000000000000000000000000000000000000000000000000000000000000000000000000000000000000000000000000000000000000000000000000000000000000000000000000000000000000000000000000
310
00000000000000000000000000000000000000000000000000000000000000000000000000000000000000000000000000000000000000000000000000000000000000000000000028000000000000000000000000000000000000000000000000000000000000000000000000000000000000000000000000000000000000
310
00000000000000000000000000000000000028000000000000000000000000000000000000000000000000000000000000000000000000000000000000000000000000000000000000000000000000000000000000000000000000000000000000000000000000000000000000000000000000000000000000000000000000
310
00000000000000000000000000000000000000000000000000000000000000000000000000000000000000000000000000000000000000000000000000000000000000000000000000002800000000000000000000000000000000000000000000000000000000000000000000000000000000000000000000000000000000
310
00000000000000000000000000000000000000002800000000000000000000000000000000000000000000000000000000000000000000000000000000000000000000000000000000000000000000000000000000000000000000000000000000000000000000000000000000000000000000000000000000000000000000
310
00000000000000000000000000000000000000000000000000000000000000000000000000000000000000000000000000000000000000000000000000000000000000000000000000000000280000000000000000000000000000000000000000000000000000000000000000000000000000000000000000000000000000
310
00000000000000000000000000000000000000000000280000000000000000000000000000000000000000000000000000000000000000000000000000000000000000000000000000000000000000000000000000000000000000000000000000000000000000000000000000000000000000000000000000000000000000
310
00000000000000000000000000000000000000000000000000000000000000000000000000000000000000000000000000000000000000000000000000000000000000000000000000000000000028000000000000000000000000000000000000000000000000000000000000000000000000000000000000000000000000
310
00000000000000000000000000000000000000000000000028000000000000000000000000000000000000000000000000000000000000000000000000000000000000000000000000000000000000000000000000000000000000000000000000000000000000000000000000000000000000000000000000000000000000
310
00000000000000000000000000000000000000000000000000000000000000000000000000000000000000000000000000000000000000000000000000000000000000000000000000000000000000002800000000000000000000000000000000000000000000000000000000000000000000000000000000000000000000
310
00000000000000000000000000000000000000000000000000002800000000000000000000000000000000000000000000000000000000000000000000000000000000000000000000000000000000000000000000000000000000000000000000000000000000000000000000000000000000000000000000000000000000
310
00000000000000000000000000000000000000000000000000000000000000000000000000000000000000000000000000000000000000000000000000000000000000000000000000000000000000000000280000000000000000000000000000000000000000000000000000000000000000000000000000000000000000
310
00000000000000000000000000000000000000000000000000000000280000000000000000000000000000000000000000000000000000000000000000000000000000000000000000000000000000000000000000000000000000000000000000000000000000000000000000000000000000000000000000000000000000
310
00000000000000000000000000000000000000000000000000000000000000000000000000000000000000000000000000000000000000000000000000000000000000000000000000000000000000000000000028000000000000000000000000000000000000000000000000000000000000000000000000000000000000
310
00000000000000000000000000000000000000000000000000000000000028000000000000000000000000000000000000000000000000000000000000000000000000000000000000000000000000000000000000000000000000000000000000000000000000000000000000000000000000000000000000000000000000
310
00000000000000000000000000000000000000000000000000000000000000000000000000000000000000000000000000000000000000000000000000000000000000000000000000000000000000000000000000002800000000000000000000000000000000000000000000000000000000000000000000000000000000
310
00000000000000000000000000000000000000000000000000000000000000002800000000000000000000000000000000000000000000000000000000000000000000000000000000000000000000000000000000000000000000000000000000000000000000000000000000000000000000000000000000000000000000
310
00000000000000000000000000000000000000000000000000000000000000000000000000000000000000000000000000000000000000000000000000000000000000000000000000000000000000000000000000000000280000000000000000000000000000000000000000000000000000000000000000000000000000
310
00000000000000000000000000000000000000000000000000000000000000000000280000000000000000000000000000000000000000000000000000000000000000000000000000000000000000000000000000000000000000000000000000000000000000000000000000000000000000000000000000000000000000
310
00000000000000000000000000000000000000000000000000000000000000000000000000000000000000000000000000000000000000000000000000000000000000000000000000000000000000000000000000000000000028000000000000000000000000000000000000000000000000000000000000000000000000
310
00000000000000000000000000000000000000000000000000000000000000000000000028000000000000000000000000000000000000000000000000000000000000000000000000000000000000000000000000000000000000000000000000000000000000000000000000000000000000000000000000000000000000
310
00000000000000000000000000000000000000000000000000000000000000000000000000000000000000000000000000000000000000000000000000000000000000000000000000000000000000000000000000000000000000002800000000000000000000000000000000000000000000000000000000000000000000
310
00000000000000000000000000000000000000000000000000000000000000000000000028282800000000000000000000000000000000000000000000000000000000000000000000000000000000000000000000000000000000000000000000000000000000000000000000000000000000000000000000000000000000
310
00000000000000000000000000000000000000000000000000000000000000000000000000000000000000000000000000000000000000000000000000000000000000000000000000000000000000000000000000000000000000000000282828000000000000000000000000000000000000000000000000000000000000
310
00000000000000000000000000000000000000000000000000000000000000000000000000002828280000000000000000000000000000000000000000000000000000000000000000000000000000000000000000000000000000000000000000000000000000000000000000000000000000000000000000000000000000
310
00000000000000000000000000000000000000000000000000000000000000000000000000000000000000000000000000000000000000000000000000000000000000000000000000000000000000000000000000000000000000000000000028282800000000000000000000000000000000000000000000000000000000
310
00000000000000000000000000000000000000000000000000000000000000000000000000000000280028000000000000000000000000000000000000000000000000000000000000000000000000000000000000000000000000000000000000000000000000000000000000000000000000000000000000000000000000
310
00000000000000000000000000000000000000000000000000000000000000000000000000000000000000000000000000000000000000000000000000000000000000000000000000000000000000000000000000000000000000000000000000002800280000000000000000000000000000000000000000000000000000
310
00000000000000000000000000000000000000000000000000000000000000000000000000000000000000002800000000000000000000000000000000000000000000000000000000000000000000000000000000000000000000000000000000000000000000000000000000000000000000000000000000000000000000
310
00000000000000000000000000000000000000000000000000000000000000000000000000000000000000000000000000000000000000000000000000000000000000000000000000000000000000000000000000000000000000000000000000000000280000000000000000000000000000000000000000000000000000
310
00000000000000000000000000000000000000000000000000000000000000000000000000000000000000000000280000000000000000000000000000000000000000000000000000000000000000000000000000000000000000000000000000000000000000000000000000000000000000000000000000000000000000
310
00000000000000000000000000000000000000000000000000000000000000000000000000000000000000000000000000000000000000000000000000000000000000000000000000000000000000000000000000000000000000000000000000000000000028000000000000000000000000000000000000000000000000
310
00000000000000000000000000000000000000000000000000000000000000000000000000000000000000000000000028000000000000000000000000000000000000000000000000000000000000000000000000000000000000000000000000000000000000000000000000000000000000000000000000000000000000
310
00000000000000000000000000000000000000000000000000000000000000000000000000000000000000000000000000000000000000000000000000000000000000000000000000000000000000000000000000000000000000000000000000000000000000002800000000000000000000000000000000000000000000
310
00000000000000000000000000000000000000000000000000000000000000000000000000000000000000000000000000002800000000000000000000000000000000000000000000000000000000000000000000000000000000000000000000000000000000000000000000000000000000000000000000000000000000
310
00000000000000000000000000000000000000000000000000000000000000000000000000000000000000000000000000000000000000000000000000000000000000000000000000000000000000000000000000000000000000000000000000000000000000000000280000000000000000000000000000000000000000
310
00000000000000000000000000000000000000000000000000000000000000000000000000000000000000000000000000000000280000000000000000000000000000000000000000000000000000000000000000000000000000000000000000000000000000000000000000000000000000000000000000000000000000
310
00000000000000000000000000000000000000000000000000000000000000000000000000000000000000000000000000000000000000000000000000000000000000000000000000000000000000000000000000000000000000000000000000000000000000000000000028000000000000000000000000000000000000
310
00000000000000000000000000000000000000000000000000000000000000000000000000000000000000000000000000000000000028000000000000000000000000000000000000000000000000000000000000000000000000000000000000000000000000000000000000000000000000000000000000000000000000
310
00000000000000000000000000000000000000000000000000000000000000000000000000000000000000000000000000000000000000000000000000000000000000000000000000000000000000000000000000000000000000000000000000000000000000000000000000002800000000000000000000000000000000
310
00000000000000000000000000000000000000000000000000000000000000000000000000000000000000000000000000000000000000002800000000000000000000000000000000000000000000000000000000000000000000000000000000000000000000000000000000000000000000000000000000000000000000
310
00000000000000000000000000000000000000000000000000000000000000000000000000000000000000000000000000000000000000000000000000000000000000000000000000000000000000000000000000000000000000000000000000000000000000000000000000000000280000000000000000000000000000
310
00000000000000000000000000000000000000000000000000000000000000000000000000000000000000000000000000000000000000000000280000000000000000000000000000000000000000000000000000000000000000000000000000000000000000000000000000000000000000000000000000000000000000
310
00000000000000000000000000000000000000000000000000000000000000000000000000000000000000000000000000000000000000000000000000000000000000000000000000000000000000000000000000000000000000000000000000000000000000000000000000000000000028000000000000000000000000
310
00000000000000000000000000000000000000000000000000000000000000000000000000000000000000000000000000000000000000000000000028000000000000000000000000000000000000000000000000000000000000000000000000000000000000000000000000000000000000000000000000000000000000
310
00000000000000000000000000000000000000000000000000000000000000000000000000000000000000000000000000000000000000000000000000000000000000000000000000000000000000000000000000000000000000000000000000000000000000000000000000000000000000002800000000000000000000
310
00000000000000000000000000000000000000000000000000000000000000000000000000000000000000000000000000000000000000000000000000002800000000000000000000000000000000000000000000000000000000000000000000000000000000000000000000000000000000000000000000000000000000
310
00000000000000000000000000000000000000000000000000000000000000000000000000000000000000000000000000000000000000000000000000000000000000000000000000000000000000000000000000000000000000000000000000000000000000000000000000000000000000000000280000000000000000
310
00000000000000000000000000000000000000000000000000000000000000000000000000000000000000000000000000000000000000000000000000000000280000000000000000000000000000000000000000000000000000000000000000000000000000000000000000000000000000000000000000000000000000
310
00000000000000000000000000000000000000000000000000000000000000000000000000000000000000000000000000000000000000000000000000000000000000000000000000000000000000000000000000000000000000000000000000000000000000000000000000000000000000000000000028000000000000
310
00000000000000000000000000000000000000000000000000000000000000000000000000000000000000000000000000000000000000000000000000000000000028000000000000000000000000000000000000000000000000000000000000000000000000000000000000000000000000000000000000000000000000
310
00000000000000000000000000000000000000000000000000000000000000000000000000000000000000000000000000000000000000000000000000000000000000000000000000000000000000000000000000000000000000000000000000000000000000000000000000000000000000000000000000002800000000
310
00000000000000000000000000000000000000000000000000000000000000000000000000000000000000000000000000000000000000000000000000000000000000002828282828282828282828282828282828282828282828282828282828282828282828282828282828282828282828282828282828282828282828
310
28282828282828282828282828282828282828282828282828282828282828282828282828282828282828282828282828282828282828282828282828282828282828282828282828282828282828282828282828282828282828282828282828282828282828282828282828282828282828282828282828282828280000
310
00000000000000000000000000000000000000000000000000000000000000000000000000000000000000000000000000000000000000000000000000000000000000280000000000000000000000002800000000000000000000280000000000000000000028280000000000000000000028000000000000000000000028
310
00000000000000000000002800000000000000000000282800000000000000000000282800000000000000000000282800000000000000000000280000000000000000000000280000000000000000000000280000000000000000000028000000000000000000000028000000000000000000000028000000000000000000
310
00002800000000000000000000000000000000000000000000000000000000000000000000000000000000000000000000000000000000000000000000000000000000000028000000000000000000000000280000000000000000000028000000000000000000002828000000000000000000002800000000000000000000
310
00280000000000000000000000280000000000000000000000280000000000000000000000280000000000000000000028280000000000000000000028000000000000000000000028000000000000000000000028000000000000000000002828000000000000000000002800000000000000000000002800000000000000
310
00000000280000000000000000000000000000000000000000000000000000000000000000000000000000000000000000000000000000000000000000000000000000000000002828000000000000000000000000000000000000000000000000000000000000000000000000000000000000000000000000000000000000
310
00000000000000000000000000000000000000000000000000000000000000000000000000000000000000000000000000000000000000000000000000000000000000000000000000000000000000000000000000000000000000000000000000000000000000000000000000000000000000000000000000000000000000
310
00000000002828000000000000000000000000000000000000000000000000000000000000000000
  0
XRECORD
  5
A985
102
{ACAD_REACTORS
330
3D
102
}
330
3D
100
AcDbXrecord
280
     1
102
MATERIAL
148
0.0
149
0.0
149
0.0
 93
        0
 94
      127
282
     0
 72
     0
 77
     0
171
     0
175
     0
179
     0
273
     0
  0
XRECORD
  5
3F
102
{ACAD_REACTORS
330
3D
102
}
330
3D
100
AcDbXrecord
280
     1
270
     1
271
     1
  0
XRECORD
  5
3E
102
{ACAD_REACTORS
330
3D
102
}
330
3D
100
AcDbXrecord
280
     1
270
     1
271
     1
  0
XRECORD
  5
42
102
{ACAD_REACTORS
330
3D
102
}
330
3D
100
AcDbXrecord
280
     1
270
     1
271
     1
  0
XRECORD
  5
41
102
{ACAD_REACTORS
330
3D
102
}
330
3D
100
AcDbXrecord
280
     1
270
     1
271
     1
  0
XRECORD
  5
43
102
{ACAD_REACTORS
330
3D
102
}
330
3D
100
AcDbXrecord
280
     1
270
     1
271
     1
  0
XRECORD
  5
40
102
{ACAD_REACTORS
330
3D
102
}
330
3D
100
AcDbXrecord
280
     1
270
     1
271
     1
  0
XRECORD
  5
A984
102
{ACAD_REACTORS
330
35
102
}
330
35
100
AcDbXrecord
280
     1
102
MATERIAL
148
0.0
149
0.0
149
0.0
 93
        0
 94
      127
282
     0
 72
     0
 77
     0
171
     0
175
     0
179
     0
273
     0
  0
XRECORD
  5
37
102
{ACAD_REACTORS
330
35
102
}
330
35
100
AcDbXrecord
280
     1
270
     1
271
     1
  0
XRECORD
  5
36
102
{ACAD_REACTORS
330
35
102
}
330
35
100
AcDbXrecord
280
     1
270
     1
271
     1
  0
XRECORD
  5
3A
102
{ACAD_REACTORS
330
35
102
}
330
35
100
AcDbXrecord
280
     1
270
     1
271
     1
  0
XRECORD
  5
39
102
{ACAD_REACTORS
330
35
102
}
330
35
100
AcDbXrecord
280
     1
270
     1
271
     1
  0
XRECORD
  5
3B
102
{ACAD_REACTORS
330
35
102
}
330
35
100
AcDbXrecord
280
     1
270
     1
271
     1
  0
XRECORD
  5
38
102
{ACAD_REACTORS
330
35
102
}
330
35
100
AcDbXrecord
280
     1
270
     1
271
     1
  0
XRECORD
  5
A986
102
{ACAD_REACTORS
330
45
102
}
330
45
100
AcDbXrecord
280
     1
102
MATERIAL
148
0.0
149
0.0
149
0.0
 93
        0
 94
      127
282
     0
 72
     0
 77
     0
171
     0
175
     0
179
     0
273
     0
  0
XRECORD
  5
47
102
{ACAD_REACTORS
330
45
102
}
330
45
100
AcDbXrecord
280
     1
270
     1
271
     1
  0
XRECORD
  5
46
102
{ACAD_REACTORS
330
45
102
}
330
45
100
AcDbXrecord
280
     1
270
     1
271
     1
  0
XRECORD
  5
4A
102
{ACAD_REACTORS
330
45
102
}
330
45
100
AcDbXrecord
280
     1
270
     1
271
     1
  0
XRECORD
  5
49
102
{ACAD_REACTORS
330
45
102
}
330
45
100
AcDbXrecord
280
     1
270
     1
271
     1
  0
XRECORD
  5
4B
102
{ACAD_REACTORS
330
45
102
}
330
45
100
AcDbXrecord
280
     1
270
     1
271
     1
  0
XRECORD
  5
48
102
{ACAD_REACTORS
330
45
102
}
330
45
100
AcDbXrecord
280
     1
270
     1
271
     1
  0
CELLSTYLEMAP
  5
A97D
102
{ACAD_REACTORS
330
87
102
}
330
87
100
AcDbCellStyleMap
 90
        3
300
CELLSTYLE
  1
TABLEFORMAT_BEGIN
 90
        5
170
     1
 91
        0
 92
    32768
 62
   257
 93
        1
300
CONTENTFORMAT
  1
CONTENTFORMAT_BEGIN
 90
        0
 91
        0
 92
      512
 93
        0
300

 40
0.0
140
1.0
 94
        5
 62
     0
340
11
144
0.25
309
CONTENTFORMAT_END
171
     0
 94
        0
309
TABLEFORMAT_END
  1
CELLSTYLE_BEGIN
 90
        1
 91
        1
300
_TITLE
309
CELLSTYLE_END
300
CELLSTYLE
  1
TABLEFORMAT_BEGIN
 90
        5
170
     1
 91
        0
 92
        0
 62
   257
 93
        1
300
CONTENTFORMAT
  1
CONTENTFORMAT_BEGIN
 90
        0
 91
        0
 92
      512
 93
        0
300

 40
0.0
140
1.0
 94
        5
 62
     0
340
11
144
0.18
309
CONTENTFORMAT_END
171
     0
 94
        0
309
TABLEFORMAT_END
  1
CELLSTYLE_BEGIN
 90
        2
 91
        1
300
_HEADER
309
CELLSTYLE_END
300
CELLSTYLE
  1
TABLEFORMAT_BEGIN
 90
        5
170
     1
 91
        0
 92
        0
 62
   257
 93
        1
300
CONTENTFORMAT
  1
CONTENTFORMAT_BEGIN
 90
        0
 91
        0
 92
      512
 93
        0
300

 40
0.0
140
1.0
 94
        2
 62
     0
340
11
144
0.18
309
CONTENTFORMAT_END
171
     0
 94
        0
309
TABLEFORMAT_END
  1
CELLSTYLE_BEGIN
 90
        3
 91
        2
300
_DATA
309
CELLSTYLE_END
  0
XRECORD
  5
A987
102
{ACAD_REACTORS
330
87
102
}
330
87
100
AcDbXrecord
280
     1
102
ACAD_ROUNDTRIP_PRE2007_TABLESTYLE
 90
      512
 91
        0
  1

 92
      512
 93
        0
  2

 94
      512
 95
        0
  3

  0
XRECORD
  5
A94F
102
{ACAD_REACTORS
330
A94E
102
}
330
A94E
100
AcDbXrecord
280
     1
102
RTVSPropertyOp0
 70
     1
102
RTVSPropertyOp1
 70
     1
102
RTVSPropertyOp2
 70
     1
102
RTVSPropertyOp3
 70
     1
102
RTVSPropertyOp4
 70
     1
102
RTVSPropertyOp5
 70
     1
102
RTVSPropertyOp6
 70
     1
102
RTVSPropertyOp7
 70
     1
102
RTVSPropertyOp8
 70
     1
102
RTVSPropertyOp9
 70
     1
102
RTVSPropertyOp10
 70
     1
102
RTVSPropertyOp11
 70
     1
102
RTVSPropertyOp12
 70
     1
102
RTVSPropertyOp13
 70
     1
102
RTVSPropertyOp14
 70
     1
102
RTVSPropertyOp15
 70
     1
102
RTVSPropertyOp16
 70
     1
102
RTVSPropertyOp17
 70
     1
102
RTVSPropertyOp18
 70
     1
102
RTVSPropertyOp19
 70
     1
102
RTVSPropertyOp20
 70
     1
102
RTVSPropertyOp21
 70
     1
102
RTVSPropertyOp22
 70
     1
102
RTVSPropertyOp23
 70
     1
102
RTVSPropertyOp24
 70
     1
102
RTVSPropertyOp25
 70
     1
102
RTVSPropertyOp26
 70
     1
102
RTVSPropertyOp27
 70
     1
102
RTVSPropertyOp28
 70
     1
102
RTVSPropertyOp29
 70
     1
102
RTVSPropertyOp30
 70
     1
102
RTVSPropertyOp31
 70
     1
102
RTVSPropertyOp32
 70
     1
  0
XRECORD
  5
A953
102
{ACAD_REACTORS
330
A952
102
}
330
A952
100
AcDbXrecord
280
     1
102
RTVSPropertyOp0
 70
     1
102
RTVSPropertyOp1
 70
     1
102
RTVSPropertyOp2
 70
     1
102
RTVSPropertyOp3
 70
     1
102
RTVSPropertyOp4
 70
     1
102
RTVSPropertyOp5
 70
     1
102
RTVSPropertyOp6
 70
     1
102
RTVSPropertyOp7
 70
     1
102
RTVSPropertyOp8
 70
     1
102
RTVSPropertyOp9
 70
     1
102
RTVSPropertyOp10
 70
     1
102
RTVSPropertyOp11
 70
     1
102
RTVSPropertyOp12
 70
     1
102
RTVSPropertyOp13
 70
     1
102
RTVSPropertyOp14
 70
     1
102
RTVSPropertyOp15
 70
     1
102
RTVSPropertyOp16
 70
     1
102
RTVSPropertyOp17
 70
     1
102
RTVSPropertyOp18
 70
     1
102
RTVSPropertyOp19
 70
     1
102
RTVSPropertyOp20
 70
     1
102
RTVSPropertyOp21
 70
     1
102
RTVSPropertyOp22
 70
     1
102
RTVSPropertyOp23
 70
     1
102
RTVSPropertyOp24
 70
     1
102
RTVSPropertyOp25
 70
     1
102
RTVSPropertyOp26
 70
     1
102
RTVSPropertyOp27
 70
     1
102
RTVSPropertyOp28
 70
     1
102
RTVSPropertyOp29
 70
     1
102
RTVSPropertyOp30
 70
     1
102
RTVSPropertyOp31
 70
     1
102
RTVSPropertyOp32
 70
     1
  0
XRECORD
  5
A951
102
{ACAD_REACTORS
330
A950
102
}
330
A950
100
AcDbXrecord
280
     1
102
RTVSPropertyOp0
 70
     1
102
RTVSPropertyOp1
 70
     1
102
RTVSPropertyOp2
 70
     1
102
RTVSPropertyOp3
 70
     1
102
RTVSPropertyOp4
 70
     1
102
RTVSPropertyOp5
 70
     1
102
RTVSPropertyOp6
 70
     1
102
RTVSPropertyOp7
 70
     1
102
RTVSPropertyOp8
 70
     1
102
RTVSPropertyOp9
 70
     1
102
RTVSPropertyOp10
 70
     1
102
RTVSPropertyOp11
 70
     1
102
RTVSPropertyOp12
 70
     1
102
RTVSPropertyOp13
 70
     1
102
RTVSPropertyOp14
 70
     1
102
RTVSPropertyOp15
 70
     1
102
RTVSPropertyOp16
 70
     1
102
RTVSPropertyOp17
 70
     1
102
RTVSPropertyOp18
 70
     1
102
RTVSPropertyOp19
 70
     1
102
RTVSPropertyOp20
 70
     1
102
RTVSPropertyOp21
 70
     1
102
RTVSPropertyOp22
 70
     1
102
RTVSPropertyOp23
 70
     1
102
RTVSPropertyOp24
 70
     1
102
RTVSPropertyOp25
 70
     1
102
RTVSPropertyOp26
 70
     1
102
RTVSPropertyOp27
 70
     1
102
RTVSPropertyOp28
 70
     1
102
RTVSPropertyOp29
 70
     1
102
RTVSPropertyOp30
 70
     1
102
RTVSPropertyOp31
 70
     1
102
RTVSPropertyOp32
 70
     1
  0
XRECORD
  5
A94D
102
{ACAD_REACTORS
330
A94C
102
}
330
A94C
100
AcDbXrecord
280
     1
102
RTVSPropertyOp0
 70
     1
102
RTVSPropertyOp1
 70
     1
102
RTVSPropertyOp2
 70
     1
102
RTVSPropertyOp3
 70
     1
102
RTVSPropertyOp4
 70
     1
102
RTVSPropertyOp5
 70
     1
102
RTVSPropertyOp6
 70
     1
102
RTVSPropertyOp7
 70
     1
102
RTVSPropertyOp8
 70
     1
102
RTVSPropertyOp9
 70
     1
102
RTVSPropertyOp10
 70
     1
102
RTVSPropertyOp11
 70
     1
102
RTVSPropertyOp12
 70
     1
102
RTVSPropertyOp13
 70
     1
102
RTVSPropertyOp14
 70
     1
102
RTVSPropertyOp15
 70
     1
102
RTVSPropertyOp16
 70
     1
102
RTVSPropertyOp17
 70
     1
102
RTVSPropertyOp18
 70
     1
102
RTVSPropertyOp19
 70
     1
102
RTVSPropertyOp20
 70
     1
102
RTVSPropertyOp21
 70
     1
102
RTVSPropertyOp22
 70
     1
102
RTVSPropertyOp23
 70
     1
102
RTVSPropertyOp24
 70
     1
102
RTVSPropertyOp25
 70
     1
102
RTVSPropertyOp26
 70
     1
102
RTVSPropertyOp27
 70
     1
102
RTVSPropertyOp28
 70
     1
102
RTVSPropertyOp29
 70
     1
102
RTVSPropertyOp30
 70
     1
102
RTVSPropertyOp31
 70
     1
102
RTVSPropertyOp32
 70
     1
  0
XRECORD
  5
A95B
102
{ACAD_REACTORS
330
A95A
102
}
330
A95A
100
AcDbXrecord
280
     1
102
RTVSPropertyOp0
 70
     1
102
RTVSPropertyOp1
 70
     1
102
RTVSPropertyOp2
 70
     1
102
RTVSPropertyOp3
 70
     1
102
RTVSPropertyOp4
 70
     1
102
RTVSPropertyOp5
 70
     1
102
RTVSPropertyOp6
 70
     1
102
RTVSPropertyOp7
 70
     1
102
RTVSPropertyOp8
 70
     1
102
RTVSPropertyOp9
 70
     1
102
RTVSPropertyOp10
 70
     1
102
RTVSPropertyOp11
 70
     1
102
RTVSPropertyOp12
 70
     1
102
RTVSPropertyOp13
 70
     1
102
RTVSPropertyOp14
 70
     1
102
RTVSPropertyOp15
 70
     1
102
RTVSPropertyOp16
 70
     1
102
RTVSPropertyOp17
 70
     1
102
RTVSPropertyOp18
 70
     1
102
RTVSPropertyOp19
 70
     1
102
RTVSPropertyOp20
 70
     1
102
RTVSPropertyOp21
 70
     1
102
RTVSPropertyOp22
 70
     1
102
RTVSPropertyOp23
 70
     1
102
RTVSPropertyOp24
 70
     1
102
RTVSPropertyOp25
 70
     1
102
RTVSPropertyOp26
 70
     1
102
RTVSPropertyOp27
 70
     1
102
RTVSPropertyOp28
 70
     1
102
RTVSPropertyOp29
 70
     1
102
RTVSPropertyOp30
 70
     1
102
RTVSPropertyOp31
 70
     1
102
RTVSPropertyOp32
 70
     1
  0
XRECORD
  5
A963
102
{ACAD_REACTORS
330
A962
102
}
330
A962
100
AcDbXrecord
280
     1
102
RTVSPropertyOp0
 70
     1
102
RTVSPropertyOp1
 70
     1
102
RTVSPropertyOp2
 70
     1
102
RTVSPropertyOp3
 70
     1
102
RTVSPropertyOp4
 70
     1
102
RTVSPropertyOp5
 70
     1
102
RTVSPropertyOp6
 70
     1
102
RTVSPropertyOp7
 70
     1
102
RTVSPropertyOp8
 70
     1
102
RTVSPropertyOp9
 70
     1
102
RTVSPropertyOp10
 70
     1
102
RTVSPropertyOp11
 70
     1
102
RTVSPropertyOp12
 70
     1
102
RTVSPropertyOp13
 70
     1
102
RTVSPropertyOp14
 70
     1
102
RTVSPropertyOp15
 70
     1
102
RTVSPropertyOp16
 70
     1
102
RTVSPropertyOp17
 70
     1
102
RTVSPropertyOp18
 70
     1
102
RTVSPropertyOp19
 70
     1
102
RTVSPropertyOp20
 70
     1
102
RTVSPropertyOp21
 70
     1
102
RTVSPropertyOp22
 70
     1
102
RTVSPropertyOp23
 70
     1
102
RTVSPropertyOp24
 70
     1
102
RTVSPropertyOp25
 70
     1
102
RTVSPropertyOp26
 70
     1
102
RTVSPropertyOp27
 70
     1
102
RTVSPropertyOp28
 70
     1
102
RTVSPropertyOp29
 70
     1
102
RTVSPropertyOp30
 70
     1
102
RTVSPropertyOp31
 70
     1
102
RTVSPropertyOp32
 70
     1
  0
XRECORD
  5
A955
102
{ACAD_REACTORS
330
A954
102
}
330
A954
100
AcDbXrecord
280
     1
102
RTVSPropertyOp0
 70
     1
102
RTVSPropertyOp1
 70
     1
102
RTVSPropertyOp2
 70
     1
102
RTVSPropertyOp3
 70
     1
102
RTVSPropertyOp4
 70
     1
102
RTVSPropertyOp5
 70
     1
102
RTVSPropertyOp6
 70
     1
102
RTVSPropertyOp7
 70
     1
102
RTVSPropertyOp8
 70
     1
102
RTVSPropertyOp9
 70
     1
102
RTVSPropertyOp10
 70
     1
102
RTVSPropertyOp11
 70
     1
102
RTVSPropertyOp12
 70
     1
102
RTVSPropertyOp13
 70
     1
102
RTVSPropertyOp14
 70
     1
102
RTVSPropertyOp15
 70
     1
102
RTVSPropertyOp16
 70
     1
102
RTVSPropertyOp17
 70
     1
102
RTVSPropertyOp18
 70
     1
102
RTVSPropertyOp19
 70
     1
102
RTVSPropertyOp20
 70
     1
102
RTVSPropertyOp21
 70
     1
102
RTVSPropertyOp22
 70
     1
102
RTVSPropertyOp23
 70
     1
102
RTVSPropertyOp24
 70
     1
102
RTVSPropertyOp25
 70
     1
102
RTVSPropertyOp26
 70
     1
102
RTVSPropertyOp27
 70
     1
102
RTVSPropertyOp28
 70
     1
102
RTVSPropertyOp29
 70
     1
102
RTVSPropertyOp30
 70
     1
102
RTVSPropertyOp31
 70
     1
102
RTVSPropertyOp32
 70
     1
  0
XRECORD
  5
A959
102
{ACAD_REACTORS
330
A958
102
}
330
A958
100
AcDbXrecord
280
     1
102
RTVSPropertyOp0
 70
     1
102
RTVSPropertyOp1
 70
     1
102
RTVSPropertyOp2
 70
     1
102
RTVSPropertyOp3
 70
     1
102
RTVSPropertyOp4
 70
     1
102
RTVSPropertyOp5
 70
     1
102
RTVSPropertyOp6
 70
     1
102
RTVSPropertyOp7
 70
     1
102
RTVSPropertyOp8
 70
     1
102
RTVSPropertyOp9
 70
     1
102
RTVSPropertyOp10
 70
     1
102
RTVSPropertyOp11
 70
     1
102
RTVSPropertyOp12
 70
     1
102
RTVSPropertyOp13
 70
     1
102
RTVSPropertyOp14
 70
     1
102
RTVSPropertyOp15
 70
     1
102
RTVSPropertyOp16
 70
     1
102
RTVSPropertyOp17
 70
     1
102
RTVSPropertyOp18
 70
     1
102
RTVSPropertyOp19
 70
     1
102
RTVSPropertyOp20
 70
     1
102
RTVSPropertyOp21
 70
     1
102
RTVSPropertyOp22
 70
     1
102
RTVSPropertyOp23
 70
     1
102
RTVSPropertyOp24
 70
     1
102
RTVSPropertyOp25
 70
     1
102
RTVSPropertyOp26
 70
     1
102
RTVSPropertyOp27
 70
     1
102
RTVSPropertyOp28
 70
     1
102
RTVSPropertyOp29
 70
     1
102
RTVSPropertyOp30
 70
     1
102
RTVSPropertyOp31
 70
     1
102
RTVSPropertyOp32
 70
     1
  0
XRECORD
  5
A978
102
{ACAD_REACTORS
330
A977
102
}
330
A977
100
AcDbXrecord
280
     1
102
RTVSPropertyOp0
 70
     0
102
RTVSPropertyOp1
 70
     0
102
RTVSPropertyOp2
 70
     0
102
RTVSPropertyOp3
 70
     0
102
RTVSPropertyOp4
 70
     0
102
RTVSPropertyOp5
 70
     0
102
RTVSPropertyOp6
 70
     0
102
RTVSPropertyOp7
 70
     0
102
RTVSPropertyOp8
 70
     0
102
RTVSPropertyOp9
 70
     0
102
RTVSPropertyOp10
 70
     0
102
RTVSPropertyOp11
 70
     0
102
RTVSPropertyOp12
 70
     0
102
RTVSPropertyOp13
 70
     0
102
RTVSPropertyOp14
 70
     2
102
RTVSPropertyOp15
 70
     0
102
RTVSPropertyOp16
 70
     0
102
RTVSPropertyOp17
 70
     0
102
RTVSPropertyOp18
 70
     0
102
RTVSPropertyOp19
 70
     0
102
RTVSPropertyOp20
 70
     0
102
RTVSPropertyOp21
 70
     0
102
RTVSPropertyOp22
 70
     0
102
RTVSPropertyOp23
 70
     0
102
RTVSPropertyOp24
 70
     0
102
RTVSPropertyOp25
 70
     0
102
RTVSPropertyOp26
 70
     0
102
RTVSPropertyOp27
 70
     0
102
RTVSPropertyOp28
 70
     1
102
RTVSPropertyOp29
 70
     1
102
RTVSPropertyOp30
 70
     1
102
RTVSPropertyOp31
 70
     1
102
RTVSPropertyOp32
 70
     1
  0
XRECORD
  5
A961
102
{ACAD_REACTORS
330
A960
102
}
330
A960
100
AcDbXrecord
280
     1
102
RTVSPropertyOp0
 70
     1
102
RTVSPropertyOp1
 70
     1
102
RTVSPropertyOp2
 70
     1
102
RTVSPropertyOp3
 70
     1
102
RTVSPropertyOp4
 70
     1
102
RTVSPropertyOp5
 70
     1
102
RTVSPropertyOp6
 70
     1
102
RTVSPropertyOp7
 70
     1
102
RTVSPropertyOp8
 70
     1
102
RTVSPropertyOp9
 70
     1
102
RTVSPropertyOp10
 70
     1
102
RTVSPropertyOp11
 70
     1
102
RTVSPropertyOp12
 70
     1
102
RTVSPropertyOp13
 70
     1
102
RTVSPropertyOp14
 70
     1
102
RTVSPropertyOp15
 70
     1
102
RTVSPropertyOp16
 70
     1
102
RTVSPropertyOp17
 70
     1
102
RTVSPropertyOp18
 70
     1
102
RTVSPropertyOp19
 70
     1
102
RTVSPropertyOp20
 70
     1
102
RTVSPropertyOp21
 70
     1
102
RTVSPropertyOp22
 70
     1
102
RTVSPropertyOp23
 70
     1
102
RTVSPropertyOp24
 70
     1
102
RTVSPropertyOp25
 70
     1
102
RTVSPropertyOp26
 70
     1
102
RTVSPropertyOp27
 70
     1
102
RTVSPropertyOp28
 70
     1
102
RTVSPropertyOp29
 70
     1
102
RTVSPropertyOp30
 70
     1
102
RTVSPropertyOp31
 70
     1
102
RTVSPropertyOp32
 70
     1
  0
XRECORD
  5
A945
102
{ACAD_REACTORS
330
A944
102
}
330
A944
100
AcDbXrecord
280
     1
102
RTVSPropertyOp0
 70
     1
102
RTVSPropertyOp1
 70
     1
102
RTVSPropertyOp2
 70
     1
102
RTVSPropertyOp3
 70
     1
102
RTVSPropertyOp4
 70
     1
102
RTVSPropertyOp5
 70
     1
102
RTVSPropertyOp6
 70
     1
102
RTVSPropertyOp7
 70
     1
102
RTVSPropertyOp8
 70
     1
102
RTVSPropertyOp9
 70
     1
102
RTVSPropertyOp10
 70
     1
102
RTVSPropertyOp11
 70
     1
102
RTVSPropertyOp12
 70
     1
102
RTVSPropertyOp13
 70
     1
102
RTVSPropertyOp14
 70
     1
102
RTVSPropertyOp15
 70
     1
102
RTVSPropertyOp16
 70
     1
102
RTVSPropertyOp17
 70
     1
102
RTVSPropertyOp18
 70
     1
102
RTVSPropertyOp19
 70
     1
102
RTVSPropertyOp20
 70
     1
102
RTVSPropertyOp21
 70
     1
102
RTVSPropertyOp22
 70
     1
102
RTVSPropertyOp23
 70
     1
102
RTVSPropertyOp24
 70
     1
102
RTVSPropertyOp25
 70
     1
102
RTVSPropertyOp26
 70
     1
102
RTVSPropertyOp27
 70
     1
102
RTVSPropertyOp28
 70
     1
102
RTVSPropertyOp29
 70
     1
102
RTVSPropertyOp30
 70
     1
102
RTVSPropertyOp31
 70
     1
102
RTVSPropertyOp32
 70
     1
  0
XRECORD
  5
A947
102
{ACAD_REACTORS
330
A946
102
}
330
A946
100
AcDbXrecord
280
     1
102
RTVSPropertyOp0
 70
     1
102
RTVSPropertyOp1
 70
     1
102
RTVSPropertyOp2
 70
     1
102
RTVSPropertyOp3
 70
     1
102
RTVSPropertyOp4
 70
     1
102
RTVSPropertyOp5
 70
     1
102
RTVSPropertyOp6
 70
     1
102
RTVSPropertyOp7
 70
     1
102
RTVSPropertyOp8
 70
     1
102
RTVSPropertyOp9
 70
     1
102
RTVSPropertyOp10
 70
     1
102
RTVSPropertyOp11
 70
     1
102
RTVSPropertyOp12
 70
     1
102
RTVSPropertyOp13
 70
     1
102
RTVSPropertyOp14
 70
     1
102
RTVSPropertyOp15
 70
     1
102
RTVSPropertyOp16
 70
     1
102
RTVSPropertyOp17
 70
     1
102
RTVSPropertyOp18
 70
     1
102
RTVSPropertyOp19
 70
     1
102
RTVSPropertyOp20
 70
     1
102
RTVSPropertyOp21
 70
     1
102
RTVSPropertyOp22
 70
     1
102
RTVSPropertyOp23
 70
     1
102
RTVSPropertyOp24
 70
     1
102
RTVSPropertyOp25
 70
     1
102
RTVSPropertyOp26
 70
     1
102
RTVSPropertyOp27
 70
     1
102
RTVSPropertyOp28
 70
     1
102
RTVSPropertyOp29
 70
     1
102
RTVSPropertyOp30
 70
     1
102
RTVSPropertyOp31
 70
     1
102
RTVSPropertyOp32
 70
     1
  0
XRECORD
  5
A949
102
{ACAD_REACTORS
330
A948
102
}
330
A948
100
AcDbXrecord
280
     1
102
RTVSPropertyOp0
 70
     1
102
RTVSPropertyOp1
 70
     1
102
RTVSPropertyOp2
 70
     1
102
RTVSPropertyOp3
 70
     1
102
RTVSPropertyOp4
 70
     1
102
RTVSPropertyOp5
 70
     1
102
RTVSPropertyOp6
 70
     1
102
RTVSPropertyOp7
 70
     1
102
RTVSPropertyOp8
 70
     1
102
RTVSPropertyOp9
 70
     1
102
RTVSPropertyOp10
 70
     1
102
RTVSPropertyOp11
 70
     1
102
RTVSPropertyOp12
 70
     1
102
RTVSPropertyOp13
 70
     1
102
RTVSPropertyOp14
 70
     1
102
RTVSPropertyOp15
 70
     1
102
RTVSPropertyOp16
 70
     1
102
RTVSPropertyOp17
 70
     1
102
RTVSPropertyOp18
 70
     1
102
RTVSPropertyOp19
 70
     1
102
RTVSPropertyOp20
 70
     1
102
RTVSPropertyOp21
 70
     1
102
RTVSPropertyOp22
 70
     1
102
RTVSPropertyOp23
 70
     1
102
RTVSPropertyOp24
 70
     1
102
RTVSPropertyOp25
 70
     1
102
RTVSPropertyOp26
 70
     1
102
RTVSPropertyOp27
 70
     1
102
RTVSPropertyOp28
 70
     1
102
RTVSPropertyOp29
 70
     1
102
RTVSPropertyOp30
 70
     1
102
RTVSPropertyOp31
 70
     1
102
RTVSPropertyOp32
 70
     1
  0
XRECORD
  5
A94B
102
{ACAD_REACTORS
330
A94A
102
}
330
A94A
100
AcDbXrecord
280
     1
102
RTVSPropertyOp0
 70
     1
102
RTVSPropertyOp1
 70
     1
102
RTVSPropertyOp2
 70
     1
102
RTVSPropertyOp3
 70
     1
102
RTVSPropertyOp4
 70
     1
102
RTVSPropertyOp5
 70
     1
102
RTVSPropertyOp6
 70
     1
102
RTVSPropertyOp7
 70
     1
102
RTVSPropertyOp8
 70
     1
102
RTVSPropertyOp9
 70
     1
102
RTVSPropertyOp10
 70
     1
102
RTVSPropertyOp11
 70
     1
102
RTVSPropertyOp12
 70
     1
102
RTVSPropertyOp13
 70
     1
102
RTVSPropertyOp14
 70
     1
102
RTVSPropertyOp15
 70
     1
102
RTVSPropertyOp16
 70
     1
102
RTVSPropertyOp17
 70
     1
102
RTVSPropertyOp18
 70
     1
102
RTVSPropertyOp19
 70
     1
102
RTVSPropertyOp20
 70
     1
102
RTVSPropertyOp21
 70
     1
102
RTVSPropertyOp22
 70
     1
102
RTVSPropertyOp23
 70
     1
102
RTVSPropertyOp24
 70
     1
102
RTVSPropertyOp25
 70
     1
102
RTVSPropertyOp26
 70
     1
102
RTVSPropertyOp27
 70
     1
102
RTVSPropertyOp28
 70
     1
102
RTVSPropertyOp29
 70
     1
102
RTVSPropertyOp30
 70
     1
102
RTVSPropertyOp31
 70
     1
102
RTVSPropertyOp32
 70
     1
  0
XRECORD
  5
A968
102
{ACAD_REACTORS
330
A967
102
}
330
A967
100
AcDbXrecord
280
     1
102
RTVSPropertyOp0
 70
     1
102
RTVSPropertyOp1
 70
     1
102
RTVSPropertyOp2
 70
     1
102
RTVSPropertyOp3
 70
     1
102
RTVSPropertyOp4
 70
     1
102
RTVSPropertyOp5
 70
     1
102
RTVSPropertyOp6
 70
     1
102
RTVSPropertyOp7
 70
     1
102
RTVSPropertyOp8
 70
     1
102
RTVSPropertyOp9
 70
     1
102
RTVSPropertyOp10
 70
     1
102
RTVSPropertyOp11
 70
     1
102
RTVSPropertyOp12
 70
     1
102
RTVSPropertyOp13
 70
     1
102
RTVSPropertyOp14
 70
     1
102
RTVSPropertyOp15
 70
     1
102
RTVSPropertyOp16
 70
     1
102
RTVSPropertyOp17
 70
     1
102
RTVSPropertyOp18
 70
     1
102
RTVSPropertyOp19
 70
     1
102
RTVSPropertyOp20
 70
     1
102
RTVSPropertyOp21
 70
     1
102
RTVSPropertyOp22
 70
     1
102
RTVSPropertyOp23
 70
     1
102
RTVSPropertyOp24
 70
     1
102
RTVSPropertyOp25
 70
     1
102
RTVSPropertyOp26
 70
     1
102
RTVSPropertyOp27
 70
     1
102
RTVSPropertyOp28
 70
     1
102
RTVSPropertyOp29
 70
     1
102
RTVSPropertyOp30
 70
     1
102
RTVSPropertyOp31
 70
     1
102
RTVSPropertyOp32
 70
     1
  0
XRECORD
  5
A974
102
{ACAD_REACTORS
330
A973
102
}
330
A973
100
AcDbXrecord
280
     1
102
RTVSPropertyOp0
 70
     0
102
RTVSPropertyOp1
 70
     0
102
RTVSPropertyOp2
 70
     0
102
RTVSPropertyOp3
 70
     0
102
RTVSPropertyOp4
 70
     0
102
RTVSPropertyOp5
 70
     0
102
RTVSPropertyOp6
 70
     0
102
RTVSPropertyOp7
 70
     0
102
RTVSPropertyOp8
 70
     0
102
RTVSPropertyOp9
 70
     0
102
RTVSPropertyOp10
 70
     0
102
RTVSPropertyOp11
 70
     0
102
RTVSPropertyOp12
 70
     0
102
RTVSPropertyOp13
 70
     0
102
RTVSPropertyOp14
 70
     2
102
RTVSPropertyOp15
 70
     0
102
RTVSPropertyOp16
 70
     0
102
RTVSPropertyOp17
 70
     0
102
RTVSPropertyOp18
 70
     0
102
RTVSPropertyOp19
 70
     0
102
RTVSPropertyOp20
 70
     0
102
RTVSPropertyOp21
 70
     0
102
RTVSPropertyOp22
 70
     0
102
RTVSPropertyOp23
 70
     0
102
RTVSPropertyOp24
 70
     0
102
RTVSPropertyOp25
 70
     0
102
RTVSPropertyOp26
 70
     0
102
RTVSPropertyOp27
 70
     0
102
RTVSPropertyOp28
 70
     1
102
RTVSPropertyOp29
 70
     1
102
RTVSPropertyOp30
 70
     1
102
RTVSPropertyOp31
 70
     1
102
RTVSPropertyOp32
 70
     1
  0
XRECORD
  5
A95F
102
{ACAD_REACTORS
330
A95E
102
}
330
A95E
100
AcDbXrecord
280
     1
102
RTVSPropertyOp0
 70
     1
102
RTVSPropertyOp1
 70
     1
102
RTVSPropertyOp2
 70
     1
102
RTVSPropertyOp3
 70
     1
102
RTVSPropertyOp4
 70
     1
102
RTVSPropertyOp5
 70
     1
102
RTVSPropertyOp6
 70
     1
102
RTVSPropertyOp7
 70
     1
102
RTVSPropertyOp8
 70
     1
102
RTVSPropertyOp9
 70
     1
102
RTVSPropertyOp10
 70
     1
102
RTVSPropertyOp11
 70
     1
102
RTVSPropertyOp12
 70
     1
102
RTVSPropertyOp13
 70
     1
102
RTVSPropertyOp14
 70
     1
102
RTVSPropertyOp15
 70
     1
102
RTVSPropertyOp16
 70
     1
102
RTVSPropertyOp17
 70
     1
102
RTVSPropertyOp18
 70
     1
102
RTVSPropertyOp19
 70
     1
102
RTVSPropertyOp20
 70
     1
102
RTVSPropertyOp21
 70
     1
102
RTVSPropertyOp22
 70
     1
102
RTVSPropertyOp23
 70
     1
102
RTVSPropertyOp24
 70
     1
102
RTVSPropertyOp25
 70
     1
102
RTVSPropertyOp26
 70
     1
102
RTVSPropertyOp27
 70
     1
102
RTVSPropertyOp28
 70
     1
102
RTVSPropertyOp29
 70
     1
102
RTVSPropertyOp30
 70
     1
102
RTVSPropertyOp31
 70
     1
102
RTVSPropertyOp32
 70
     1
  0
XRECORD
  5
A976
102
{ACAD_REACTORS
330
A975
102
}
330
A975
100
AcDbXrecord
280
     1
102
RTVSPropertyOp0
 70
     0
102
RTVSPropertyOp1
 70
     0
102
RTVSPropertyOp2
 70
     0
102
RTVSPropertyOp3
 70
     0
102
RTVSPropertyOp4
 70
     0
102
RTVSPropertyOp5
 70
     0
102
RTVSPropertyOp6
 70
     0
102
RTVSPropertyOp7
 70
     0
102
RTVSPropertyOp8
 70
     0
102
RTVSPropertyOp9
 70
     0
102
RTVSPropertyOp10
 70
     0
102
RTVSPropertyOp11
 70
     0
102
RTVSPropertyOp12
 70
     0
102
RTVSPropertyOp13
 70
     0
102
RTVSPropertyOp14
 70
     2
102
RTVSPropertyOp15
 70
     0
102
RTVSPropertyOp16
 70
     0
102
RTVSPropertyOp17
 70
     0
102
RTVSPropertyOp18
 70
     0
102
RTVSPropertyOp19
 70
     0
102
RTVSPropertyOp20
 70
     0
102
RTVSPropertyOp21
 70
     0
102
RTVSPropertyOp22
 70
     0
102
RTVSPropertyOp23
 70
     0
102
RTVSPropertyOp24
 70
     0
102
RTVSPropertyOp25
 70
     0
102
RTVSPropertyOp26
 70
     0
102
RTVSPropertyOp27
 70
     0
102
RTVSPropertyOp28
 70
     1
102
RTVSPropertyOp29
 70
     1
102
RTVSPropertyOp30
 70
     1
102
RTVSPropertyOp31
 70
     1
102
RTVSPropertyOp32
 70
     1
  0
XRECORD
  5
A957
102
{ACAD_REACTORS
330
A956
102
}
330
A956
100
AcDbXrecord
280
     1
102
RTVSPropertyOp0
 70
     1
102
RTVSPropertyOp1
 70
     1
102
RTVSPropertyOp2
 70
     1
102
RTVSPropertyOp3
 70
     1
102
RTVSPropertyOp4
 70
     1
102
RTVSPropertyOp5
 70
     1
102
RTVSPropertyOp6
 70
     1
102
RTVSPropertyOp7
 70
     1
102
RTVSPropertyOp8
 70
     1
102
RTVSPropertyOp9
 70
     1
102
RTVSPropertyOp10
 70
     1
102
RTVSPropertyOp11
 70
     1
102
RTVSPropertyOp12
 70
     1
102
RTVSPropertyOp13
 70
     1
102
RTVSPropertyOp14
 70
     1
102
RTVSPropertyOp15
 70
     1
102
RTVSPropertyOp16
 70
     1
102
RTVSPropertyOp17
 70
     1
102
RTVSPropertyOp18
 70
     1
102
RTVSPropertyOp19
 70
     1
102
RTVSPropertyOp20
 70
     1
102
RTVSPropertyOp21
 70
     1
102
RTVSPropertyOp22
 70
     1
102
RTVSPropertyOp23
 70
     1
102
RTVSPropertyOp24
 70
     1
102
RTVSPropertyOp25
 70
     1
102
RTVSPropertyOp26
 70
     1
102
RTVSPropertyOp27
 70
     1
102
RTVSPropertyOp28
 70
     1
102
RTVSPropertyOp29
 70
     1
102
RTVSPropertyOp30
 70
     1
102
RTVSPropertyOp31
 70
     1
102
RTVSPropertyOp32
 70
     1
  0
XRECORD
  5
A972
102
{ACAD_REACTORS
330
A971
102
}
330
A971
100
AcDbXrecord
280
     1
102
RTVSPropertyOp0
 70
     1
102
RTVSPropertyOp1
 70
     1
102
RTVSPropertyOp2
 70
     1
102
RTVSPropertyOp3
 70
     1
102
RTVSPropertyOp4
 70
     1
102
RTVSPropertyOp5
 70
     1
102
RTVSPropertyOp6
 70
     1
102
RTVSPropertyOp7
 70
     1
102
RTVSPropertyOp8
 70
     1
102
RTVSPropertyOp9
 70
     1
102
RTVSPropertyOp10
 70
     1
102
RTVSPropertyOp11
 70
     1
102
RTVSPropertyOp12
 70
     1
102
RTVSPropertyOp13
 70
     1
102
RTVSPropertyOp14
 70
     1
102
RTVSPropertyOp15
 70
     1
102
RTVSPropertyOp16
 70
     1
102
RTVSPropertyOp17
 70
     1
102
RTVSPropertyOp18
 70
     1
102
RTVSPropertyOp19
 70
     1
102
RTVSPropertyOp20
 70
     1
102
RTVSPropertyOp21
 70
     1
102
RTVSPropertyOp22
 70
     1
102
RTVSPropertyOp23
 70
     1
102
RTVSPropertyOp24
 70
     1
102
RTVSPropertyOp25
 70
     1
102
RTVSPropertyOp26
 70
     1
102
RTVSPropertyOp27
 70
     1
102
RTVSPropertyOp28
 70
     1
102
RTVSPropertyOp29
 70
     1
102
RTVSPropertyOp30
 70
     1
102
RTVSPropertyOp31
 70
     1
102
RTVSPropertyOp32
 70
     1
  0
XRECORD
  5
A970
102
{ACAD_REACTORS
330
A96F
102
}
330
A96F
100
AcDbXrecord
280
     1
102
RTVSPropertyOp0
 70
     1
102
RTVSPropertyOp1
 70
     1
102
RTVSPropertyOp2
 70
     1
102
RTVSPropertyOp3
 70
     1
102
RTVSPropertyOp4
 70
     1
102
RTVSPropertyOp5
 70
     1
102
RTVSPropertyOp6
 70
     1
102
RTVSPropertyOp7
 70
     1
102
RTVSPropertyOp8
 70
     1
102
RTVSPropertyOp9
 70
     1
102
RTVSPropertyOp10
 70
     1
102
RTVSPropertyOp11
 70
     1
102
RTVSPropertyOp12
 70
     1
102
RTVSPropertyOp13
 70
     1
102
RTVSPropertyOp14
 70
     1
102
RTVSPropertyOp15
 70
     1
102
RTVSPropertyOp16
 70
     1
102
RTVSPropertyOp17
 70
     1
102
RTVSPropertyOp18
 70
     1
102
RTVSPropertyOp19
 70
     1
102
RTVSPropertyOp20
 70
     1
102
RTVSPropertyOp21
 70
     1
102
RTVSPropertyOp22
 70
     1
102
RTVSPropertyOp23
 70
     1
102
RTVSPropertyOp24
 70
     1
102
RTVSPropertyOp25
 70
     1
102
RTVSPropertyOp26
 70
     1
102
RTVSPropertyOp27
 70
     1
102
RTVSPropertyOp28
 70
     1
102
RTVSPropertyOp29
 70
     1
102
RTVSPropertyOp30
 70
     1
102
RTVSPropertyOp31
 70
     1
102
RTVSPropertyOp32
 70
     1
  0
XRECORD
  5
A96A
102
{ACAD_REACTORS
330
A969
102
}
330
A969
100
AcDbXrecord
280
     1
102
RTVSPropertyOp0
 70
     1
102
RTVSPropertyOp1
 70
     1
102
RTVSPropertyOp2
 70
     1
102
RTVSPropertyOp3
 70
     1
102
RTVSPropertyOp4
 70
     1
102
RTVSPropertyOp5
 70
     1
102
RTVSPropertyOp6
 70
     1
102
RTVSPropertyOp7
 70
     1
102
RTVSPropertyOp8
 70
     1
102
RTVSPropertyOp9
 70
     1
102
RTVSPropertyOp10
 70
     1
102
RTVSPropertyOp11
 70
     1
102
RTVSPropertyOp12
 70
     1
102
RTVSPropertyOp13
 70
     1
102
RTVSPropertyOp14
 70
     1
102
RTVSPropertyOp15
 70
     1
102
RTVSPropertyOp16
 70
     1
102
RTVSPropertyOp17
 70
     1
102
RTVSPropertyOp18
 70
     1
102
RTVSPropertyOp19
 70
     1
102
RTVSPropertyOp20
 70
     1
102
RTVSPropertyOp21
 70
     1
102
RTVSPropertyOp22
 70
     1
102
RTVSPropertyOp23
 70
     1
102
RTVSPropertyOp24
 70
     1
102
RTVSPropertyOp25
 70
     1
102
RTVSPropertyOp26
 70
     1
102
RTVSPropertyOp27
 70
     1
102
RTVSPropertyOp28
 70
     1
102
RTVSPropertyOp29
 70
     1
102
RTVSPropertyOp30
 70
     1
102
RTVSPropertyOp31
 70
     1
102
RTVSPropertyOp32
 70
     1
  0
XRECORD
  5
A96C
102
{ACAD_REACTORS
330
A96B
102
}
330
A96B
100
AcDbXrecord
280
     1
102
RTVSPropertyOp0
 70
     1
102
RTVSPropertyOp1
 70
     1
102
RTVSPropertyOp2
 70
     1
102
RTVSPropertyOp3
 70
     1
102
RTVSPropertyOp4
 70
     1
102
RTVSPropertyOp5
 70
     1
102
RTVSPropertyOp6
 70
     1
102
RTVSPropertyOp7
 70
     1
102
RTVSPropertyOp8
 70
     1
102
RTVSPropertyOp9
 70
     1
102
RTVSPropertyOp10
 70
     1
102
RTVSPropertyOp11
 70
     1
102
RTVSPropertyOp12
 70
     1
102
RTVSPropertyOp13
 70
     1
102
RTVSPropertyOp14
 70
     1
102
RTVSPropertyOp15
 70
     1
102
RTVSPropertyOp16
 70
     1
102
RTVSPropertyOp17
 70
     1
102
RTVSPropertyOp18
 70
     1
102
RTVSPropertyOp19
 70
     1
102
RTVSPropertyOp20
 70
     1
102
RTVSPropertyOp21
 70
     1
102
RTVSPropertyOp22
 70
     1
102
RTVSPropertyOp23
 70
     1
102
RTVSPropertyOp24
 70
     1
102
RTVSPropertyOp25
 70
     1
102
RTVSPropertyOp26
 70
     1
102
RTVSPropertyOp27
 70
     1
102
RTVSPropertyOp28
 70
     1
102
RTVSPropertyOp29
 70
     1
102
RTVSPropertyOp30
 70
     1
102
RTVSPropertyOp31
 70
     1
102
RTVSPropertyOp32
 70
     1
  0
XRECORD
  5
A95D
102
{ACAD_REACTORS
330
A95C
102
}
330
A95C
100
AcDbXrecord
280
     1
102
RTVSPropertyOp0
 70
     1
102
RTVSPropertyOp1
 70
     1
102
RTVSPropertyOp2
 70
     1
102
RTVSPropertyOp3
 70
     1
102
RTVSPropertyOp4
 70
     1
102
RTVSPropertyOp5
 70
     1
102
RTVSPropertyOp6
 70
     1
102
RTVSPropertyOp7
 70
     1
102
RTVSPropertyOp8
 70
     1
102
RTVSPropertyOp9
 70
     1
102
RTVSPropertyOp10
 70
     1
102
RTVSPropertyOp11
 70
     1
102
RTVSPropertyOp12
 70
     1
102
RTVSPropertyOp13
 70
     1
102
RTVSPropertyOp14
 70
     1
102
RTVSPropertyOp15
 70
     1
102
RTVSPropertyOp16
 70
     1
102
RTVSPropertyOp17
 70
     1
102
RTVSPropertyOp18
 70
     1
102
RTVSPropertyOp19
 70
     1
102
RTVSPropertyOp20
 70
     1
102
RTVSPropertyOp21
 70
     1
102
RTVSPropertyOp22
 70
     1
102
RTVSPropertyOp23
 70
     1
102
RTVSPropertyOp24
 70
     1
102
RTVSPropertyOp25
 70
     1
102
RTVSPropertyOp26
 70
     1
102
RTVSPropertyOp27
 70
     1
102
RTVSPropertyOp28
 70
     1
102
RTVSPropertyOp29
 70
     1
102
RTVSPropertyOp30
 70
     1
102
RTVSPropertyOp31
 70
     1
102
RTVSPropertyOp32
 70
     1
  0
XRECORD
  5
A966
102
{ACAD_REACTORS
330
A965
102
}
330
A965
100
AcDbXrecord
280
     1
102
RTVSPropertyOp0
 70
     1
102
RTVSPropertyOp1
 70
     1
102
RTVSPropertyOp2
 70
     1
102
RTVSPropertyOp3
 70
     1
102
RTVSPropertyOp4
 70
     1
102
RTVSPropertyOp5
 70
     1
102
RTVSPropertyOp6
 70
     1
102
RTVSPropertyOp7
 70
     1
102
RTVSPropertyOp8
 70
     1
102
RTVSPropertyOp9
 70
     1
102
RTVSPropertyOp10
 70
     1
102
RTVSPropertyOp11
 70
     1
102
RTVSPropertyOp12
 70
     1
102
RTVSPropertyOp13
 70
     1
102
RTVSPropertyOp14
 70
     1
102
RTVSPropertyOp15
 70
     1
102
RTVSPropertyOp16
 70
     1
102
RTVSPropertyOp17
 70
     1
102
RTVSPropertyOp18
 70
     1
102
RTVSPropertyOp19
 70
     1
102
RTVSPropertyOp20
 70
     1
102
RTVSPropertyOp21
 70
     1
102
RTVSPropertyOp22
 70
     1
102
RTVSPropertyOp23
 70
     1
102
RTVSPropertyOp24
 70
     1
102
RTVSPropertyOp25
 70
     1
102
RTVSPropertyOp26
 70
     1
102
RTVSPropertyOp27
 70
     1
102
RTVSPropertyOp28
 70
     1
102
RTVSPropertyOp29
 70
     1
102
RTVSPropertyOp30
 70
     1
102
RTVSPropertyOp31
 70
     1
102
RTVSPropertyOp32
 70
     1
  0
XRECORD
  5
A96E
102
{ACAD_REACTORS
330
A96D
102
}
330
A96D
100
AcDbXrecord
280
     1
102
RTVSPropertyOp0
 70
     1
102
RTVSPropertyOp1
 70
     1
102
RTVSPropertyOp2
 70
     1
102
RTVSPropertyOp3
 70
     1
102
RTVSPropertyOp4
 70
     1
102
RTVSPropertyOp5
 70
     1
102
RTVSPropertyOp6
 70
     1
102
RTVSPropertyOp7
 70
     1
102
RTVSPropertyOp8
 70
     1
102
RTVSPropertyOp9
 70
     1
102
RTVSPropertyOp10
 70
     1
102
RTVSPropertyOp11
 70
     1
102
RTVSPropertyOp12
 70
     1
102
RTVSPropertyOp13
 70
     1
102
RTVSPropertyOp14
 70
     1
102
RTVSPropertyOp15
 70
     1
102
RTVSPropertyOp16
 70
     1
102
RTVSPropertyOp17
 70
     1
102
RTVSPropertyOp18
 70
     1
102
RTVSPropertyOp19
 70
     1
102
RTVSPropertyOp20
 70
     1
102
RTVSPropertyOp21
 70
     1
102
RTVSPropertyOp22
 70
     1
102
RTVSPropertyOp23
 70
     1
102
RTVSPropertyOp24
 70
     1
102
RTVSPropertyOp25
 70
     1
102
RTVSPropertyOp26
 70
     1
102
RTVSPropertyOp27
 70
     1
102
RTVSPropertyOp28
 70
     1
102
RTVSPropertyOp29
 70
     1
102
RTVSPropertyOp30
 70
     1
102
RTVSPropertyOp31
 70
     1
102
RTVSPropertyOp32
 70
     1
  0
ENDSEC
  0
EOF
