999
DXF file: 1606-xle120ec.dxf
999
Pro/ENGINEER 2010140 by Parametric Technology Corporation
  0
SECTION
  2
HEADER
  9
$ACADVER
  1
AC1018
  9
$DWGCODEPAGE
  3
ANSI_1252
  9
$EXTMAX
 10
17.0
 20
11.0
 30
0.0
  9
$EXTMIN
 10
0.0
 20
0.0
 30
0.0
  9
$LIMMIN
 10
0.0
 20
0.0
  9
$LIMMAX
 10
17.0
 20
11.0
  9
$VIEWCTR
 10
8.5
 20
5.5
  9
$VIEWSIZE
 40
11.0
  9
$CLAYER
  8
0
  9
$LTSCALE
 40
0.935
  9
$CELTYPE
  6
BYLAYER
  9
$DIMSCALE
 40
1.0
  9
$DIMASZ
 40
0.1875
  9
$DIMEXO
 40
0.10625
  9
$DIMDLI
 40
0.646
  9
$DIMEXE
 40
0.306
  9
$DIMCEN
 40
0.153
  9
$DIMLFAC
 40
1.0
  9
$DIMBLK
  1
_CLOSED
  9
$DIMTXT
 40
0.15625
  9
$DIMTOL
 70
0
  9
$DIMLIM
 70
0
  9
$DIMTFAC
 40
1.0
  9
$PDMODE
 70
3
  9
$PDSIZE
 40
0.3125
  9
$HANDSEED
  5
967
  9
$TILEMODE
 70
1
  9
$MEASUREMENT
 70
0
  9
$INSUNITS
 70
1
  0
ENDSEC
  0
SECTION
  2
CLASSES
  0
CLASS
  1
ACDBDICTIONARYWDFLT
  2
AcDbDictionaryWithDefault
  3
AutoCAD 2000
 90
0
 91
1
280
0
281
0
  0
CLASS
  1
ACDBPLACEHOLDER
  2
AcDbPlaceHolder
  3
AutoCAD 2000
 90
0
 91
1
280
0
281
0
  0
CLASS
  1
LAYOUT
  2
AcDbLayout
  3
AutoCAD 2000
 90
0
 91
0
280
0
281
0
  0
ENDSEC
  0
SECTION
  2
TABLES
  0
TABLE
  2
VPORT
  5
8
100
AcDbSymbolTable
 70
2
  0
VPORT
  5
1F4
100
AcDbSymbolTableRecord
100
AcDbViewportTableRecord
  2
*ACTIVE
 70
0
 10
0.0
 20
0.0
 11
1.0
 21
1.0
 12
8.5
 22
5.5
 13
0.0
 23
0.0
 14
1.0
 24
1.0
 15
0.0
 25
0.0
 16
0.0
 26
0.0
 36
1.0
 17
0.0
 27
0.0
 37
0.0
 40
11.0
 41
1.5454545455
 42
50.0
 43
0.0
 44
0.0
 50
0.0
 51
0.0
 71
0
 72
100
 73
1
 74
1
 75
0
 76
0
 77
0
 78
0
  0
ENDTAB
  0
TABLE
  2
LTYPE
  5
5
100
AcDbSymbolTable
 70
6
  0
LTYPE
  5
14
100
AcDbSymbolTableRecord
100
AcDbLinetypeTableRecord
  2
BYBLOCK
 70
0
  3

 72
65
 73
0
 40
0.0
  0
LTYPE
  5
15
100
AcDbSymbolTableRecord
100
AcDbLinetypeTableRecord
  2
BYLAYER
 70
0
  3

 72
65
 73
0
 40
0.0
  0
LTYPE
  5
16
100
AcDbSymbolTableRecord
100
AcDbLinetypeTableRecord
  2
CONTINUOUS
 70
64
  3
Solid line
 72
65
 73
0
 40
0.0
  0
LTYPE
  5
1F5
100
AcDbSymbolTableRecord
100
AcDbLinetypeTableRecord
  2
CENTER
 70
64
  3
____ _ ____ _ ____ _ ____ _ ____ _ ____ _ ____
 72
65
 73
4
 40
0.6
 49
0.375
 74
0
 49
-0.075
 74
0
 49
0.075
 74
0
 49
-0.075
 74
0
  0
LTYPE
  5
1F6
100
AcDbSymbolTableRecord
100
AcDbLinetypeTableRecord
  2
HIDDEN
 70
64
  3
- - - - - - - - - - - - - - - - - - - -
 72
65
 73
2
 40
0.2
 49
0.1
 74
0
 49
-0.1
 74
0
  0
LTYPE
  5
1F7
100
AcDbSymbolTableRecord
100
AcDbLinetypeTableRecord
  2
PHANTOM
 70
64
  3
_____ _ _ _____ _ _ _____ _ _ _____
 72
65
 73
6
 40
0.8
 49
0.45
 74
0
 49
-0.05
 74
0
 49
0.1
 74
0
 49
-0.05
 74
0
 49
0.1
 74
0
 49
-0.05
 74
0
  0
LTYPE
  5
1F8
100
AcDbSymbolTableRecord
100
AcDbLinetypeTableRecord
  2
DOT
 70
64
  3
. . . . . . . . . . . . . . . . . . . .
 72
65
 73
2
 40
0.2
 49
0.1
 74
0
 49
-0.1
 74
0
  0
LTYPE
  5
1F9
100
AcDbSymbolTableRecord
100
AcDbLinetypeTableRecord
  2
DASHED
 70
64
  3
- - - - - - - - - - - - - - - - - - - -
 72
65
 73
2
 40
0.2
 49
0.1
 74
0
 49
-0.1
 74
0
  0
ENDTAB
  0
TABLE
  2
LAYER
  5
2
100
AcDbSymbolTable
 70
36
  0
LAYER
  5
10
100
AcDbSymbolTableRecord
100
AcDbLayerTableRecord
  2
0
 70
0
 62
7
  6
CONTINUOUS
370
-3
390
F
  0
LAYER
  5
1FA
100
AcDbSymbolTableRecord
100
AcDbLayerTableRecord
  2
DEFAULT_1
 70
0
 62
7
  6
CENTER
370
-3
390
F
  0
LAYER
  5
1FB
100
AcDbSymbolTableRecord
100
AcDbLayerTableRecord
  2
DEFAULT_2
 70
0
 62
8
  6
HIDDEN
370
-3
390
F
  0
LAYER
  5
1FC
100
AcDbSymbolTableRecord
100
AcDbLayerTableRecord
  2
DEFAULT_3
 70
0
 62
7
  6
PHANTOM
370
-3
390
F
  0
ENDTAB
  0
TABLE
  2
STYLE
  5
3
100
AcDbSymbolTable
 70
1
  0
STYLE
  5
11
100
AcDbSymbolTableRecord
100
AcDbTextStyleTableRecord
  2
STANDARD
 70
0
 40
0.0
 41
0.8
 50
0.0
 71
0
 42
0.2
  3
txt
  4

  0
STYLE
  5
1FD
100
AcDbSymbolTableRecord
100
AcDbTextStyleTableRecord
  2
TEXTSTYLE_1
 70
0
 40
0.0
 41
0.8
 50
0.0
 71
0
 42
0.2
  3
gdt
  4

  0
ENDTAB
  0
TABLE
  2
VIEW
  5
6
100
AcDbSymbolTable
 70
0
  0
ENDTAB
  0
TABLE
  2
UCS
  5
7
100
AcDbSymbolTable
 70
0
  0
ENDTAB
  0
TABLE
  2
APPID
  5
9
100
AcDbSymbolTable
 70
1
  0
APPID
  5
1FE
100
AcDbSymbolTableRecord
100
AcDbRegAppTableRecord
  2
ACAD
 70
0
  0
ENDTAB
  0
TABLE
  2
BLOCK_RECORD
  5
1
100
AcDbSymbolTable
 70
0
  0
BLOCK_RECORD
  5
1FF
100
AcDbSymbolTableRecord
100
AcDbBlockTableRecord
  2
*Model_Space
  0
BLOCK_RECORD
  5
200
100
AcDbSymbolTableRecord
100
AcDbBlockTableRecord
  2
*Paper_Space
  0
BLOCK_RECORD
  5
201
100
AcDbSymbolTableRecord
100
AcDbBlockTableRecord
  2
_CLOSED
  0
BLOCK_RECORD
  5
202
100
AcDbSymbolTableRecord
100
AcDbBlockTableRecord
  2
*D0
  0
BLOCK_RECORD
  5
203
100
AcDbSymbolTableRecord
100
AcDbBlockTableRecord
  2
*D1
  0
BLOCK_RECORD
  5
204
100
AcDbSymbolTableRecord
100
AcDbBlockTableRecord
  2
*D2
  0
ENDTAB
  0
TABLE
  2
DIMSTYLE
  5
A
100
AcDbSymbolTable
 70
1
100
AcDbDimStyleTable
 71
0
  0
DIMSTYLE
105
205
100
AcDbSymbolTableRecord
100
AcDbDimStyleTableRecord
  2
STANDARD
 70
0
  3

  4

 40
1.0
 41
0.1875
 42
0.0625
 43
0.38
 44
0.18
 45
0.0
 46
0.0
 47
0.001
 48
0.001
140
0.15625
141
0.09
142
0.0
143
25.4
144
1.0
145
0.0
146
1.0
147
0.09
 71
0.0
 72
0.0
 73
1
 74
1
 75
0
 76
0
 77
0
 78
0
170
0
171
2
172
0
173
0
174
0
175
0
176
0
177
0
178
0
270
2
271
3
272
3
273
2
274
2
275
0
280
0
281
0
282
0
283
1
284
0
285
0
286
0
287
3
288
0
340
11
341
201
342
201
343
201
344
201
  0
DIMSTYLE
105
206
100
AcDbSymbolTableRecord
100
AcDbDimStyleTableRecord
  2
DIMSTYLE_1
 70
0
  3

  4

 40
1.0
 41
0.1875
 42
0.0625
 43
0.38
 44
0.18
 45
0.0
 46
0.0
 47
0.0
 48
0.0
140
0.15625
141
0.09
142
0.0
143
25.4
144
1.0
145
0.0
146
1.0
147
0.09
 71
0.0
 72
0.0
 73
1
 74
1
 75
0
 76
0
 77
0
 78
0
170
0
171
2
172
0
173
0
174
0
175
0
176
0
177
0
178
0
270
2
271
2
272
2
273
2
274
2
275
0
280
0
281
0
282
0
283
1
284
0
285
0
286
0
287
3
288
0
340
11
341
201
342
201
343
201
344
201
  0
ENDTAB
  0
ENDSEC
  0
SECTION
  2
BLOCKS
  0
BLOCK
  5
20
100
AcDbEntity
  8
0
100
AcDbBlockBegin
  2
*Model_Space
 70
0
 10
0.0
 20
0.0
 30
0.0
  3
*Model_Space
  1

  0
ENDBLK
  5
21
100
AcDbEntity
  8
0
100
AcDbBlockEnd
  0
BLOCK
  5
1C
100
AcDbEntity
  8
0
100
AcDbBlockBegin
  2
*Paper_Space
 70
0
 10
0.0
 20
0.0
 30
0.0
  3
*Paper_Space
  1

  0
ENDBLK
  5
1D
100
AcDbEntity
  8
0
100
AcDbBlockEnd
  0
BLOCK
  5
207
100
AcDbEntity
  8
0
100
AcDbBlockBegin
  2
_CLOSED
 70
64
 10
0.0
 20
0.0
  3
_CLOSED
  1

  0
LINE
  5
208
100
AcDbEntity
  8
0
  6
BYBLOCK
 62
0
100
AcDbLine
 10
0.0
 20
0.0
 11
-1.0
 21
0.1666666667
  0
LINE
  5
209
100
AcDbEntity
  8
0
  6
BYBLOCK
 62
0
100
AcDbLine
 10
-1.0
 20
0.1666666667
 11
-1.0
 21
-0.1666666667
  0
LINE
  5
20A
100
AcDbEntity
  8
0
  6
BYBLOCK
 62
0
100
AcDbLine
 10
-1.0
 20
-0.1666666667
 11
0.0
 21
0.0
  0
LINE
  5
20B
100
AcDbEntity
  8
0
  6
BYBLOCK
 62
0
100
AcDbLine
 10
-1.0
 20
0.0
 11
0.0
 21
0.0
  0
ENDBLK
  5
20C
100
AcDbEntity
  8
0
  6
BYBLOCK
 62
0
100
AcDbBlockEnd
  0
BLOCK
  5
20D
100
AcDbEntity
  8
0
100
AcDbBlockBegin
 62
7
  6
CONTINUOUS
  2
*D0
 70
65
 10
0.0
 20
0.0
  3
*D0
  1

  0
MTEXT
  5
20E
100
AcDbEntity
  8
0
100
AcDbMText
 62
7
  6
CONTINUOUS
  7
STANDARD
 71
2
 72
1
 10
10.3151211443
 20
3.8539228498
 30
0.0
 11
1.0
 21
0.0
 31
0.0
 44
0.9
  1
4.61\P[117.00]
 40
0.15625
 41
1.0
  0
LINE
  5
20F
100
AcDbEntity
  8
0
100
AcDbLine
 62
7
  6
CONTINUOUS
 10
9.6808777438
 20
1.4726512629
 11
10.6901211443
 21
1.4726512629
  0
LINE
  5
210
100
AcDbEntity
  8
0
100
AcDbLine
 62
7
  6
CONTINUOUS
 10
9.5338638736
 20
6.0789444366
 11
10.6901211443
 21
6.0789444366
  0
LINE
  5
211
100
AcDbEntity
  8
0
100
AcDbLine
 62
7
  6
CONTINUOUS
 10
10.5651211443
 20
1.4726512629
 11
10.5651211443
 21
3.3851728498
  0
LINE
  5
212
100
AcDbEntity
  8
0
100
AcDbLine
 62
7
  6
CONTINUOUS
 10
10.5651211443
 20
6.0789444366
 11
10.5651211443
 21
3.9320478498
  0
INSERT
  5
213
100
AcDbEntity
  8
0
100
AcDbBlockReference
 62
7
  6
CONTINUOUS
  2
_CLOSED
 10
10.5651211443
 20
1.4726512629
 41
0.1875
 42
0.1875
 43
0.1875
 50
270.0
  0
INSERT
  5
214
100
AcDbEntity
  8
0
100
AcDbBlockReference
 62
7
  6
CONTINUOUS
  2
_CLOSED
 10
10.5651211443
 20
6.0789444366
 41
0.1875
 42
0.1875
 43
0.1875
 50
90.0
  0
ENDBLK
  5
215
100
AcDbEntity
  8
0
  6
BYBLOCK
 62
0
100
AcDbBlockEnd
  0
BLOCK
  5
216
100
AcDbEntity
  8
0
100
AcDbBlockBegin
 62
7
  6
CONTINUOUS
  2
*D1
 70
65
 10
0.0
 20
0.0
  3
*D1
  1

  0
MTEXT
  5
217
100
AcDbEntity
  8
0
100
AcDbMText
 62
7
  6
CONTINUOUS
  7
STANDARD
 71
2
 72
1
 10
3.4927139193
 20
8.7971024711
 30
0.0
 11
1.0
 21
0.0
 31
0.0
 44
0.9
  1
1.26\P[32.00]
 40
0.15625
 41
0.875
  0
LINE
  5
218
100
AcDbEntity
  8
0
100
AcDbLine
 62
7
  6
CONTINUOUS
 10
4.4343083373
 20
9.3488987309
 11
3.5552139193
 21
9.3488987309
  0
LINE
  5
219
100
AcDbEntity
  8
0
100
AcDbLine
 62
7
  6
CONTINUOUS
 10
4.4343083373
 20
8.0890562112
 11
3.5552139193
 21
8.0890562112
  0
LINE
  5
21A
100
AcDbEntity
  8
0
100
AcDbLine
 62
7
  6
CONTINUOUS
 10
3.6802139193
 20
9.3488987309
 11
3.6802139193
 21
8.8752274711
  0
LINE
  5
21B
100
AcDbEntity
  8
0
100
AcDbLine
 62
7
  6
CONTINUOUS
 10
3.6802139193
 20
8.0890562112
 11
3.6802139193
 21
8.3283524711
  0
INSERT
  5
21C
100
AcDbEntity
  8
0
100
AcDbBlockReference
 62
7
  6
CONTINUOUS
  2
_CLOSED
 10
3.6802139193
 20
9.3488987309
 41
0.1875
 42
0.1875
 43
0.1875
 50
90.0
  0
INSERT
  5
21D
100
AcDbEntity
  8
0
100
AcDbBlockReference
 62
7
  6
CONTINUOUS
  2
_CLOSED
 10
3.6802139193
 20
8.0890562112
 41
0.1875
 42
0.1875
 43
0.1875
 50
270.0
  0
ENDBLK
  5
21E
100
AcDbEntity
  8
0
  6
BYBLOCK
 62
0
100
AcDbBlockEnd
  0
BLOCK
  5
21F
100
AcDbEntity
  8
0
100
AcDbBlockBegin
 62
7
  6
CONTINUOUS
  2
*D2
 70
65
 10
0.0
 20
0.0
  3
*D2
  1

  0
MTEXT
  5
220
100
AcDbEntity
  8
0
100
AcDbMText
 62
7
  6
CONTINUOUS
  7
STANDARD
 71
2
 72
1
 10
6.9377532192
 20
10.1294137986
 30
0.0
 11
1.0
 21
0.0
 31
0.0
 44
0.9
  1
4.88{\Ftxt.shx;\W1.000000;\H0.156250; }[124.00]
 40
0.15625
 41
1.65625
  0
LINE
  5
221
100
AcDbEntity
  8
0
100
AcDbLine
 62
7
  6
CONTINUOUS
 10
4.4968083373
 20
9.4113987309
 11
4.4968083373
 21
10.1762887986
  0
LINE
  5
222
100
AcDbEntity
  8
0
100
AcDbLine
 62
7
  6
CONTINUOUS
 10
9.3786981011
 20
9.4113987309
 11
9.3786981011
 21
10.1762887986
  0
LINE
  5
223
100
AcDbEntity
  8
0
100
AcDbLine
 62
7
  6
CONTINUOUS
 10
4.4968083373
 20
10.0512887986
 11
6.0315032192
 21
10.0512887986
  0
LINE
  5
224
100
AcDbEntity
  8
0
100
AcDbLine
 62
7
  6
CONTINUOUS
 10
9.3786981011
 20
10.0512887986
 11
7.8440032192
 21
10.0512887986
  0
INSERT
  5
225
100
AcDbEntity
  8
0
100
AcDbBlockReference
 62
7
  6
CONTINUOUS
  2
_CLOSED
 10
4.4968083373
 20
10.0512887986
 41
0.1875
 42
0.1875
 43
0.1875
 50
180.0
  0
INSERT
  5
226
100
AcDbEntity
  8
0
100
AcDbBlockReference
 62
7
  6
CONTINUOUS
  2
_CLOSED
 10
9.3786981011
 20
10.0512887986
 41
0.1875
 42
0.1875
 43
0.1875
  0
ENDBLK
  5
227
100
AcDbEntity
  8
0
  6
BYBLOCK
 62
0
100
AcDbBlockEnd
  0
ENDSEC
  0
SECTION
  2
ENTITIES
  0
DIMENSION
  5
228
100
AcDbEntity
  8
0
100
AcDbDimension
 62
7
  6
CONTINUOUS
  2
*D0
 10
10.5651211443
 20
6.0789444366
 11
10.4088711443
 21
3.6586103498
 70
160
 71
2
 42
116.9998466118
  3
DIMSTYLE_1
100
AcDbAlignedDimension
 13
9.6808777438
 23
1.4726512629
 14
9.5338638736
 24
6.0789444366
 50
90.0
100
AcDbRotatedDimension
  0
DIMENSION
  5
229
100
AcDbEntity
  8
0
100
AcDbDimension
 62
7
  6
CONTINUOUS
  2
*D1
 10
3.6802139193
 20
8.0890562112
 11
3.5239639193
 21
8.6017899711
 70
160
 71
2
 42
32.0
  3
DIMSTYLE_1
100
AcDbAlignedDimension
 13
4.4343083373
 23
9.3488987309
 14
4.4343083373
 24
8.0890562112
 50
270.0
100
AcDbRotatedDimension
  0
DIMENSION
  5
22A
100
AcDbEntity
  8
0
100
AcDbDimension
 62
7
  6
CONTINUOUS
  2
*D2
 10
9.3786981011
 20
10.0512887986
 11
6.7815032192
 21
10.0512887986
 70
160
 71
2
 42
124.0
  3
DIMSTYLE_1
100
AcDbAlignedDimension
 13
4.4968083373
 23
9.4113987309
 14
9.3786981011
 24
9.4113987309
100
AcDbRotatedDimension
  0
LINE
  5
22B
100
AcDbEntity
  8
0
100
AcDbLine
 62
7
  6
CONTINUOUS
 10
0.0
 20
0.0
 11
0.0
 21
11.0
  0
LINE
  5
22C
100
AcDbEntity
  8
0
100
AcDbLine
 62
7
  6
CONTINUOUS
 10
0.0
 20
0.0
 11
17.0
 21
0.0
  0
LINE
  5
22D
100
AcDbEntity
  8
0
100
AcDbLine
 62
7
  6
CONTINUOUS
 10
0.0
 20
11.0
 11
17.0
 21
11.0
  0
LINE
  5
22E
100
AcDbEntity
  8
0
100
AcDbLine
 62
7
  6
CONTINUOUS
 10
17.0
 20
0.0
 11
17.0
 21
11.0
  0
LINE
  5
22F
100
AcDbEntity
  8
0
100
AcDbLine
 62
7
  6
CONTINUOUS
 10
4.41314692
 20
1.4726512629
 11
4.41314692
 21
1.6606433889
  0
LINE
  5
230
100
AcDbEntity
  8
0
100
AcDbLine
 62
7
  6
CONTINUOUS
 10
4.4849973137
 20
5.4393835464
 11
4.4849973137
 21
5.0063126802
  0
LINE
  5
231
100
AcDbEntity
  8
0
100
AcDbLine
 62
7
  6
CONTINUOUS
 10
4.4968083373
 20
1.7000134676
 11
4.4968083373
 21
5.7149740976
  0
LINE
  5
232
100
AcDbEntity
  8
0
100
AcDbLine
 62
7
  6
CONTINUOUS
 10
4.5164933767
 20
5.720786534
 11
4.5164933767
 21
5.731045029
  0
LINE
  5
233
100
AcDbEntity
  8
0
100
AcDbLine
 62
7
  6
CONTINUOUS
 10
4.6159028255
 20
5.7565374055
 11
4.6159028255
 21
5.856706381
  0
LINE
  5
234
100
AcDbEntity
  8
0
100
AcDbLine
 62
7
  6
CONTINUOUS
 10
9.4771232979
 20
1.2984386645
 11
7.6464146365
 21
1.2984386645
  0
LINE
  5
235
100
AcDbEntity
  8
0
100
AcDbLine
 62
7
  6
CONTINUOUS
 10
6.3472020381
 20
1.2984386645
 11
6.0716114869
 21
1.2984386645
  0
LINE
  5
236
100
AcDbEntity
  8
0
100
AcDbLine
 62
7
  6
CONTINUOUS
 10
4.850154794
 20
5.8220076967
 11
4.850154794
 21
5.856706381
  0
LINE
  5
237
100
AcDbEntity
  8
0
100
AcDbLine
 62
7
  6
CONTINUOUS
 10
6.1995642428
 20
1.407690633
 11
6.2783044003
 21
1.407690633
  0
LINE
  5
238
100
AcDbEntity
  8
0
100
AcDbLine
 62
7
  6
CONTINUOUS
 10
7.6464146365
 20
1.4726512629
 11
6.1995642428
 21
1.4726512629
  0
LINE
  5
239
100
AcDbEntity
  8
0
100
AcDbLine
 62
7
  6
CONTINUOUS
 10
6.0716114869
 20
1.4726512629
 11
4.41314692
 21
1.4726512629
  0
LINE
  5
23A
100
AcDbEntity
  8
0
100
AcDbLine
 62
7
  6
CONTINUOUS
 10
6.2783044003
 20
1.4736355149
 11
6.1995642428
 21
1.4736355149
  0
LINE
  5
23B
100
AcDbEntity
  8
0
100
AcDbLine
 62
7
  6
CONTINUOUS
 10
6.1995642428
 20
1.5523756724
 11
6.2783044003
 21
1.5523756724
  0
LINE
  5
23C
100
AcDbEntity
  8
0
100
AcDbLine
 62
7
  6
CONTINUOUS
 10
7.1346036129
 20
1.5710764598
 11
7.5283044003
 21
1.5710764598
  0
LINE
  5
23D
100
AcDbEntity
  8
0
100
AcDbLine
 62
7
  6
CONTINUOUS
 10
6.1995642428
 20
1.6015882708
 11
6.9731756523
 21
1.6015882708
  0
LINE
  5
23E
100
AcDbEntity
  8
0
100
AcDbLine
 62
7
  6
CONTINUOUS
 10
8.099170542
 20
1.6212733102
 11
7.7842099121
 21
1.6212733102
  0
LINE
  5
23F
100
AcDbEntity
  8
0
100
AcDbLine
 62
7
  6
CONTINUOUS
 10
6.0716114869
 20
1.6212733102
 11
5.756650857
 21
1.6212733102
  0
LINE
  5
240
100
AcDbEntity
  8
0
100
AcDbLine
 62
7
  6
CONTINUOUS
 10
6.2783044003
 20
1.407690633
 11
6.3472020381
 21
1.3584780346
  0
LINE
  5
241
100
AcDbEntity
  8
0
100
AcDbLine
 62
7
  6
CONTINUOUS
 10
5.0824382586
 20
1.6606433889
 11
5.0824382586
 21
1.7000134676
  0
LINE
  5
242
100
AcDbEntity
  8
0
100
AcDbLine
 62
7
  6
CONTINUOUS
 10
5.0824382586
 20
1.6606433889
 11
4.41314692
 21
1.6606433889
  0
LINE
  5
243
100
AcDbEntity
  8
0
100
AcDbLine
 62
7
  6
CONTINUOUS
 10
8.8275169987
 20
1.6606433889
 11
9.4771232979
 21
1.6606433889
  0
LINE
  5
244
100
AcDbEntity
  8
0
100
AcDbLine
 62
7
  6
CONTINUOUS
 10
5.8157059751
 20
1.6803284283
 11
6.0125563688
 21
1.6803284283
  0
LINE
  5
245
100
AcDbEntity
  8
0
100
AcDbLine
 62
7
  6
CONTINUOUS
 10
7.8432650302
 20
1.6803284283
 11
8.0401154239
 21
1.6803284283
  0
LINE
  5
246
100
AcDbEntity
  8
0
100
AcDbLine
 62
7
  6
CONTINUOUS
 10
9.3786981011
 20
1.7000134676
 11
4.4968083373
 21
1.7000134676
  0
LINE
  5
247
100
AcDbEntity
  8
0
100
AcDbLine
 62
7
  6
CONTINUOUS
 10
7.6464146365
 20
1.856706381
 11
6.2290918019
 21
1.856706381
  0
LINE
  5
248
100
AcDbEntity
  8
0
100
AcDbLine
 62
7
  6
CONTINUOUS
 10
5.3629500696
 20
5.933640491
 11
5.3629500696
 21
6.0102496881
  0
LINE
  5
249
100
AcDbEntity
  8
0
100
AcDbLine
 62
7
  6
CONTINUOUS
 10
7.0519158098
 20
1.4726512629
 11
7.0401047862
 21
1.4855449637
  0
LINE
  5
24A
100
AcDbEntity
  8
0
100
AcDbLine
 62
7
  6
CONTINUOUS
 10
7.0624345331
 20
1.5041473259
 11
6.9731756523
 21
1.6015882708
  0
LINE
  5
24B
100
AcDbEntity
  8
0
100
AcDbLine
 62
7
  6
CONTINUOUS
 10
5.6582256601
 20
6.0594622865
 11
5.6582256601
 21
5.9833695305
  0
LINE
  5
24C
100
AcDbEntity
  8
0
100
AcDbLine
 62
7
  6
CONTINUOUS
 10
5.756650857
 20
1.6212733102
 11
5.756650857
 21
1.7000134676
  0
LINE
  5
24D
100
AcDbEntity
  8
0
100
AcDbLine
 62
7
  6
CONTINUOUS
 10
5.8157059751
 20
1.7000134676
 11
5.8157059751
 21
1.6803284283
  0
LINE
  5
24E
100
AcDbEntity
  8
0
100
AcDbLine
 62
7
  6
CONTINUOUS
 10
7.0164933767
 20
1.7000134676
 11
7.1346036129
 21
1.5710764598
  0
LINE
  5
24F
100
AcDbEntity
  8
0
100
AcDbLine
 62
7
  6
CONTINUOUS
 10
6.0125563688
 20
1.6803284283
 11
6.0125563688
 21
1.7000134676
  0
LINE
  5
250
100
AcDbEntity
  8
0
100
AcDbLine
 62
7
  6
CONTINUOUS
 10
6.0716114869
 20
1.2984386645
 11
6.0716114869
 21
1.6212733102
  0
LINE
  5
251
100
AcDbEntity
  8
0
100
AcDbLine
 62
7
  6
CONTINUOUS
 10
6.1995642428
 20
1.6015882708
 11
6.1995642428
 21
1.5523756724
  0
LINE
  5
252
100
AcDbEntity
  8
0
100
AcDbLine
 62
7
  6
CONTINUOUS
 10
6.1995642428
 20
1.4736355149
 11
6.1995642428
 21
1.407690633
  0
LINE
  5
253
100
AcDbEntity
  8
0
100
AcDbLine
 62
7
  6
CONTINUOUS
 10
6.2290918019
 20
1.856706381
 11
6.2290918019
 21
4.329601243
  0
LINE
  5
254
100
AcDbEntity
  8
0
100
AcDbLine
 62
7
  6
CONTINUOUS
 10
6.2783044003
 20
1.5523756724
 11
6.2783044003
 21
1.4736355149
  0
LINE
  5
255
100
AcDbEntity
  8
0
100
AcDbLine
 62
7
  6
CONTINUOUS
 10
6.3472020381
 20
1.3584780346
 11
6.3472020381
 21
1.2984386645
  0
LINE
  5
256
100
AcDbEntity
  8
0
100
AcDbLine
 62
7
  6
CONTINUOUS
 10
7.6464146365
 20
1.2984386645
 11
7.5873595184
 21
1.4007251295
  0
LINE
  5
257
100
AcDbEntity
  8
0
100
AcDbLine
 62
7
  6
CONTINUOUS
 10
6.8590130617
 20
6.0689436973
 11
6.8590130617
 21
6.0787866305
  0
LINE
  5
258
100
AcDbEntity
  8
0
100
AcDbLine
 62
7
  6
CONTINUOUS
 10
9.4968083373
 20
4.6729020838
 11
9.4909690669
 21
4.670699957
  0
LINE
  5
259
100
AcDbEntity
  8
0
100
AcDbLine
 62
7
  6
CONTINUOUS
 10
7.5283044003
 20
1.5710764598
 11
7.5283044003
 21
1.7000134676
  0
LINE
  5
25A
100
AcDbEntity
  8
0
100
AcDbLine
 62
7
  6
CONTINUOUS
 10
7.6464146365
 20
4.329601243
 11
7.6464146365
 21
1.856706381
  0
LINE
  5
25B
100
AcDbEntity
  8
0
100
AcDbLine
 62
7
  6
CONTINUOUS
 10
7.6464146365
 20
1.2984386645
 11
7.6464146365
 21
1.4726512629
  0
LINE
  5
25C
100
AcDbEntity
  8
0
100
AcDbLine
 62
7
  6
CONTINUOUS
 10
7.7842099121
 20
1.6212733102
 11
7.7842099121
 21
1.2984386645
  0
LINE
  5
25D
100
AcDbEntity
  8
0
100
AcDbLine
 62
7
  6
CONTINUOUS
 10
7.8432650302
 20
1.7000134676
 11
7.8432650302
 21
1.6803284283
  0
LINE
  5
25E
100
AcDbEntity
  8
0
100
AcDbLine
 62
7
  6
CONTINUOUS
 10
9.3786981011
 20
4.4905646487
 11
9.4279106995
 21
4.4905646487
  0
LINE
  5
25F
100
AcDbEntity
  8
0
100
AcDbLine
 62
7
  6
CONTINUOUS
 10
8.0401154239
 20
1.6803284283
 11
8.0401154239
 21
1.7000134676
  0
LINE
  5
260
100
AcDbEntity
  8
0
100
AcDbLine
 62
7
  6
CONTINUOUS
 10
8.099170542
 20
1.7000134676
 11
8.099170542
 21
1.6212733102
  0
LINE
  5
261
100
AcDbEntity
  8
0
100
AcDbLine
 62
7
  6
CONTINUOUS
 10
9.3786981011
 20
4.7661551999
 11
9.4279106995
 21
4.7661551999
  0
LINE
  5
262
100
AcDbEntity
  8
0
100
AcDbLine
 62
7
  6
CONTINUOUS
 10
9.3905091247
 20
5.0063126802
 11
9.3786981011
 21
5.0063126802
  0
LINE
  5
263
100
AcDbEntity
  8
0
100
AcDbLine
 62
7
  6
CONTINUOUS
 10
4.4849973137
 20
5.0063126802
 11
4.4968083373
 21
5.0063126802
  0
LINE
  5
264
100
AcDbEntity
  8
0
100
AcDbLine
 62
7
  6
CONTINUOUS
 10
8.8275169987
 20
1.7000134676
 11
8.8275169987
 21
1.6606433889
  0
LINE
  5
265
100
AcDbEntity
  8
0
100
AcDbLine
 62
7
  6
CONTINUOUS
 10
7.0401047862
 20
1.4855449637
 11
7.0624345331
 21
1.5041473259
  0
LINE
  5
266
100
AcDbEntity
  8
0
100
AcDbLine
 62
7
  6
CONTINUOUS
 10
9.3905091247
 20
5.4393835464
 11
9.3786981011
 21
5.4393835464
  0
LINE
  5
267
100
AcDbEntity
  8
0
100
AcDbLine
 62
7
  6
CONTINUOUS
 10
4.4849973137
 20
5.4393835464
 11
4.4968083373
 21
5.4393835464
  0
LINE
  5
268
100
AcDbEntity
  8
0
100
AcDbLine
 62
7
  6
CONTINUOUS
 10
9.4968083373
 20
4.5838177649
 11
9.4909690669
 21
4.5860198916
  0
LINE
  5
269
100
AcDbEntity
  8
0
100
AcDbLine
 62
7
  6
CONTINUOUS
 10
9.0253516444
 20
5.8220076967
 11
9.0253516444
 21
5.856706381
  0
LINE
  5
26A
100
AcDbEntity
  8
0
100
AcDbLine
 62
7
  6
CONTINUOUS
 10
9.2596036129
 20
5.7565070748
 11
9.2596036129
 21
5.856706381
  0
LINE
  5
26B
100
AcDbEntity
  8
0
100
AcDbLine
 62
7
  6
CONTINUOUS
 10
7.5873595184
 20
1.4007251295
 11
7.6464146365
 21
1.4362339401
  0
LINE
  5
26C
100
AcDbEntity
  8
0
100
AcDbLine
 62
7
  6
CONTINUOUS
 10
9.259587962
 20
5.856706381
 11
9.0253672952
 21
5.856706381
  0
LINE
  5
26D
100
AcDbEntity
  8
0
100
AcDbLine
 62
7
  6
CONTINUOUS
 10
4.8501391431
 20
5.856706381
 11
4.6159184763
 21
5.856706381
  0
LINE
  5
26E
100
AcDbEntity
  8
0
100
AcDbLine
 62
7
  6
CONTINUOUS
 10
9.3590130617
 20
5.720786534
 11
9.3590130617
 21
5.731045029
  0
LINE
  5
26F
100
AcDbEntity
  8
0
100
AcDbLine
 62
7
  6
CONTINUOUS
 10
9.3786981011
 20
5.7149740976
 11
9.3786981011
 21
1.7000134676
  0
LINE
  5
270
100
AcDbEntity
  8
0
100
AcDbLine
 62
7
  6
CONTINUOUS
 10
9.3905091247
 20
5.0063126802
 11
9.3905091247
 21
5.4393835464
  0
LINE
  5
271
100
AcDbEntity
  8
0
100
AcDbLine
 62
7
  6
CONTINUOUS
 10
9.4771232979
 20
1.6606433889
 11
9.4771232979
 21
1.2984386645
  0
LINE
  5
272
100
AcDbEntity
  8
0
100
AcDbLine
 62
7
  6
CONTINUOUS
 10
9.4968083373
 20
4.5627593944
 11
9.4968083373
 21
4.5838177649
  0
LINE
  5
273
100
AcDbEntity
  8
0
100
AcDbLine
 62
7
  6
CONTINUOUS
 10
9.4968083373
 20
4.6073015539
 11
9.4968083373
 21
4.6494182948
  0
LINE
  5
274
100
AcDbEntity
  8
0
100
AcDbLine
 62
7
  6
CONTINUOUS
 10
9.4968083373
 20
4.6729020838
 11
9.4968083373
 21
4.6939604543
  0
LINE
  5
275
100
AcDbEntity
  8
0
100
AcDbLine
 62
7
  6
CONTINUOUS
 10
5.3629500696
 20
6.0102496881
 11
5.6582256601
 21
6.0594622865
  0
LINE
  5
276
100
AcDbEntity
  8
0
100
AcDbLine
 62
7
  6
CONTINUOUS
 10
4.41314692
 20
8.4827569986
 11
4.41314692
 21
8.9551979435
  0
LINE
  5
277
100
AcDbEntity
  8
0
100
AcDbLine
 62
7
  6
CONTINUOUS
 10
4.4849973137
 20
9.1815758963
 11
4.4849973137
 21
8.2366940065
  0
LINE
  5
278
100
AcDbEntity
  8
0
100
AcDbLine
 62
7
  6
CONTINUOUS
 10
4.4968083373
 20
8.0890562112
 11
4.4968083373
 21
9.3488987309
  0
LINE
  5
279
100
AcDbEntity
  8
0
100
AcDbLine
 62
7
  6
CONTINUOUS
 10
4.5164933767
 20
8.1087412506
 11
4.5164933767
 21
8.2366940065
  0
LINE
  5
27A
100
AcDbEntity
  8
0
100
AcDbLine
 62
7
  6
CONTINUOUS
 10
4.5164933767
 20
9.1815758963
 11
4.5164933767
 21
9.3292136915
  0
LINE
  5
27B
100
AcDbEntity
  8
0
100
AcDbLine
 62
7
  6
CONTINUOUS
 10
4.5755484948
 20
8.2366940065
 11
4.5755484948
 21
9.1815758963
  0
LINE
  5
27C
100
AcDbEntity
  8
0
100
AcDbLine
 62
7
  6
CONTINUOUS
 10
4.851139046
 20
8.2366940065
 11
4.851139046
 21
9.1815758963
  0
LINE
  5
27D
100
AcDbEntity
  8
0
100
AcDbLine
 62
7
  6
CONTINUOUS
 10
4.7552998895
 20
9.1135755894
 11
4.7330288097
 21
9.0913045097
  0
LINE
  5
27E
100
AcDbEntity
  8
0
100
AcDbLine
 62
7
  6
CONTINUOUS
 10
4.7051899601
 20
9.06346566
 11
4.6829188804
 21
9.0411945803
  0
LINE
  5
27F
100
AcDbEntity
  8
0
100
AcDbLine
 62
7
  6
CONTINUOUS
 10
4.71075773
 20
9.0133557307
 11
4.7330288097
 21
9.0356268104
  0
LINE
  5
280
100
AcDbEntity
  8
0
100
AcDbLine
 62
7
  6
CONTINUOUS
 10
4.7608676594
 20
9.06346566
 11
4.7831387391
 21
9.0857367398
  0
LINE
  5
281
100
AcDbEntity
  8
0
100
AcDbLine
 62
7
  6
CONTINUOUS
 10
4.6829188804
 20
8.332533163
 11
4.71075773
 21
8.3046943133
  0
LINE
  5
282
100
AcDbEntity
  8
0
100
AcDbLine
 62
7
  6
CONTINUOUS
 10
4.6544482869
 20
8.405545916
 11
4.7051899601
 21
8.3548042427
  0
LINE
  5
283
100
AcDbEntity
  8
0
100
AcDbLine
 62
7
  6
CONTINUOUS
 10
4.7330288097
 20
8.3269653931
 11
4.7844566002
 21
8.2755376026
  0
LINE
  5
284
100
AcDbEntity
  8
0
100
AcDbLine
 62
7
  6
CONTINUOUS
 10
4.8116093326
 20
8.3040625695
 11
4.7608676594
 21
8.3548042427
  0
LINE
  5
285
100
AcDbEntity
  8
0
100
AcDbLine
 62
7
  6
CONTINUOUS
 10
4.7330288097
 20
8.3826430924
 11
4.6816010193
 21
8.4340708828
  0
LINE
  5
286
100
AcDbEntity
  8
0
100
AcDbLine
 62
7
  6
CONTINUOUS
 10
4.7831387391
 20
8.3770753224
 11
4.7552998895
 21
8.4049141721
  0
LINE
  5
287
100
AcDbEntity
  8
0
100
AcDbLine
 62
7
  6
CONTINUOUS
 10
5.3629500696
 20
8.8370877073
 11
5.3629500696
 21
9.1914184159
  0
LINE
  5
288
100
AcDbEntity
  8
0
100
AcDbLine
 62
7
  6
CONTINUOUS
 10
4.7552998895
 20
8.877355117
 11
4.7330288097
 21
8.8550840373
  0
LINE
  5
289
100
AcDbEntity
  8
0
100
AcDbLine
 62
7
  6
CONTINUOUS
 10
4.7051899601
 20
8.8272451876
 11
4.6829188804
 21
8.8049741079
  0
LINE
  5
28A
100
AcDbEntity
  8
0
100
AcDbLine
 62
7
  6
CONTINUOUS
 10
4.71075773
 20
8.7771352582
 11
4.7330288097
 21
8.7994063379
  0
LINE
  5
28B
100
AcDbEntity
  8
0
100
AcDbLine
 62
7
  6
CONTINUOUS
 10
4.7608676594
 20
8.8272451876
 11
4.7831387391
 21
8.8495162673
  0
LINE
  5
28C
100
AcDbEntity
  8
0
100
AcDbLine
 62
7
  6
CONTINUOUS
 10
4.6829188804
 20
8.5687536354
 11
4.71075773
 21
8.5409147858
  0
LINE
  5
28D
100
AcDbEntity
  8
0
100
AcDbLine
 62
7
  6
CONTINUOUS
 10
4.6544482869
 20
8.6417663884
 11
4.7051899601
 21
8.5910247152
  0
LINE
  5
28E
100
AcDbEntity
  8
0
100
AcDbLine
 62
7
  6
CONTINUOUS
 10
4.7330288097
 20
8.5631858655
 11
4.7844566002
 21
8.5117580751
  0
LINE
  5
28F
100
AcDbEntity
  8
0
100
AcDbLine
 62
7
  6
CONTINUOUS
 10
4.8116093326
 20
8.5402830419
 11
4.7608676594
 21
8.5910247152
  0
LINE
  5
290
100
AcDbEntity
  8
0
100
AcDbLine
 62
7
  6
CONTINUOUS
 10
4.7330288097
 20
8.6188635648
 11
4.6816010193
 21
8.6702913552
  0
LINE
  5
291
100
AcDbEntity
  8
0
100
AcDbLine
 62
7
  6
CONTINUOUS
 10
4.7831387391
 20
8.6132957949
 11
4.7552998895
 21
8.6411346445
  0
LINE
  5
292
100
AcDbEntity
  8
0
100
AcDbLine
 62
7
  6
CONTINUOUS
 10
4.7552998895
 20
8.6411346445
 11
4.7330288097
 21
8.6188635648
  0
LINE
  5
293
100
AcDbEntity
  8
0
100
AcDbLine
 62
7
  6
CONTINUOUS
 10
4.7051899601
 20
8.5910247152
 11
4.6829188804
 21
8.5687536354
  0
LINE
  5
294
100
AcDbEntity
  8
0
100
AcDbLine
 62
7
  6
CONTINUOUS
 10
4.71075773
 20
8.5409147858
 11
4.7330288097
 21
8.5631858655
  0
LINE
  5
295
100
AcDbEntity
  8
0
100
AcDbLine
 62
7
  6
CONTINUOUS
 10
4.7608676594
 20
8.5910247152
 11
4.7831387391
 21
8.6132957949
  0
LINE
  5
296
100
AcDbEntity
  8
0
100
AcDbLine
 62
7
  6
CONTINUOUS
 10
4.6829188804
 20
8.8049741079
 11
4.71075773
 21
8.7771352582
  0
LINE
  5
297
100
AcDbEntity
  8
0
100
AcDbLine
 62
7
  6
CONTINUOUS
 10
4.6544482869
 20
8.8779868608
 11
4.7051899601
 21
8.8272451876
  0
LINE
  5
298
100
AcDbEntity
  8
0
100
AcDbLine
 62
7
  6
CONTINUOUS
 10
4.7330288097
 20
8.7994063379
 11
4.7844566002
 21
8.7479785475
  0
LINE
  5
299
100
AcDbEntity
  8
0
100
AcDbLine
 62
7
  6
CONTINUOUS
 10
4.8116093326
 20
8.7765035144
 11
4.7608676594
 21
8.8272451876
  0
LINE
  5
29A
100
AcDbEntity
  8
0
100
AcDbLine
 62
7
  6
CONTINUOUS
 10
4.7330288097
 20
8.8550840373
 11
4.6816010193
 21
8.9065118277
  0
LINE
  5
29B
100
AcDbEntity
  8
0
100
AcDbLine
 62
7
  6
CONTINUOUS
 10
4.7831387391
 20
8.8495162673
 11
4.7552998895
 21
8.877355117
  0
LINE
  5
29C
100
AcDbEntity
  8
0
100
AcDbLine
 62
7
  6
CONTINUOUS
 10
4.6829188804
 20
9.0411945803
 11
4.71075773
 21
9.0133557307
  0
LINE
  5
29D
100
AcDbEntity
  8
0
100
AcDbLine
 62
7
  6
CONTINUOUS
 10
5.6582256601
 20
9.1914184159
 11
5.6582256601
 21
8.8370877073
  0
LINE
  5
29E
100
AcDbEntity
  8
0
100
AcDbLine
 62
7
  6
CONTINUOUS
 10
4.7552998895
 20
8.4049141721
 11
4.7330288097
 21
8.3826430924
  0
LINE
  5
29F
100
AcDbEntity
  8
0
100
AcDbLine
 62
7
  6
CONTINUOUS
 10
4.7051899601
 20
8.3548042427
 11
4.6829188804
 21
8.332533163
  0
LINE
  5
2A0
100
AcDbEntity
  8
0
100
AcDbLine
 62
7
  6
CONTINUOUS
 10
4.71075773
 20
8.3046943133
 11
4.7330288097
 21
8.3269653931
  0
LINE
  5
2A1
100
AcDbEntity
  8
0
100
AcDbLine
 62
7
  6
CONTINUOUS
 10
4.7608676594
 20
8.3548042427
 11
4.7831387391
 21
8.3770753224
  0
LINE
  5
2A2
100
AcDbEntity
  8
0
100
AcDbLine
 62
7
  6
CONTINUOUS
 10
4.6544482869
 20
9.1142073333
 11
4.7051899601
 21
9.06346566
  0
LINE
  5
2A3
100
AcDbEntity
  8
0
100
AcDbLine
 62
7
  6
CONTINUOUS
 10
4.7330288097
 20
9.0356268104
 11
4.7844566002
 21
8.98419902
  0
LINE
  5
2A4
100
AcDbEntity
  8
0
100
AcDbLine
 62
7
  6
CONTINUOUS
 10
4.8116093326
 20
9.0127239868
 11
4.7608676594
 21
9.06346566
  0
LINE
  5
2A5
100
AcDbEntity
  8
0
100
AcDbLine
 62
7
  6
CONTINUOUS
 10
4.7330288097
 20
9.0913045097
 11
4.6816010193
 21
9.1427323001
  0
LINE
  5
2A6
100
AcDbEntity
  8
0
100
AcDbLine
 62
7
  6
CONTINUOUS
 10
4.7831387391
 20
9.0857367398
 11
4.7552998895
 21
9.1135755894
  0
LINE
  5
2A7
100
AcDbEntity
  8
0
100
AcDbLine
 62
7
  6
CONTINUOUS
 10
6.2290918019
 20
8.0792136915
 11
6.2290918019
 21
8.0890562112
  0
LINE
  5
2A8
100
AcDbEntity
  8
0
100
AcDbLine
 62
7
  6
CONTINUOUS
 10
6.2290918019
 20
8.0792136915
 11
7.6464146365
 21
8.0792136915
  0
LINE
  5
2A9
100
AcDbEntity
  8
0
100
AcDbLine
 62
7
  6
CONTINUOUS
 10
4.4968083373
 20
8.0890562112
 11
9.3786981011
 21
8.0890562112
  0
LINE
  5
2AA
100
AcDbEntity
  8
0
100
AcDbLine
 62
7
  6
CONTINUOUS
 10
4.5164933767
 20
8.1087412506
 11
6.8590130617
 21
8.1087412506
  0
LINE
  5
2AB
100
AcDbEntity
  8
0
100
AcDbLine
 62
7
  6
CONTINUOUS
 10
6.9968083373
 20
8.1087412506
 11
9.3590130617
 21
8.1087412506
  0
LINE
  5
2AC
100
AcDbEntity
  8
0
100
AcDbLine
 62
7
  6
CONTINUOUS
 10
6.504682353
 20
9.3292136915
 11
6.504682353
 21
8.5811821955
  0
LINE
  5
2AD
100
AcDbEntity
  8
0
100
AcDbLine
 62
7
  6
CONTINUOUS
 10
6.5243673924
 20
8.5811821955
 11
6.5243673924
 21
9.3292136915
  0
LINE
  5
2AE
100
AcDbEntity
  8
0
100
AcDbLine
 62
7
  6
CONTINUOUS
 10
4.4849973137
 20
8.2366940065
 11
4.851139046
 21
8.2366940065
  0
LINE
  5
2AF
100
AcDbEntity
  8
0
100
AcDbLine
 62
7
  6
CONTINUOUS
 10
9.3905091247
 20
8.2662215656
 11
9.0243673924
 21
8.2662215656
  0
LINE
  5
2B0
100
AcDbEntity
  8
0
100
AcDbLine
 62
7
  6
CONTINUOUS
 10
4.4849973137
 20
8.4827569986
 11
4.41314692
 21
8.4827569986
  0
LINE
  5
2B1
100
AcDbEntity
  8
0
100
AcDbLine
 62
7
  6
CONTINUOUS
 10
9.3905091247
 20
8.4827569986
 11
9.4771232979
 21
8.4827569986
  0
LINE
  5
2B2
100
AcDbEntity
  8
0
100
AcDbLine
 62
7
  6
CONTINUOUS
 10
9.4279106995
 20
8.7583475498
 11
9.3905091247
 21
8.7583475498
  0
LINE
  5
2B3
100
AcDbEntity
  8
0
100
AcDbLine
 62
7
  6
CONTINUOUS
 10
4.4849973137
 20
8.9551979435
 11
4.41314692
 21
8.9551979435
  0
LINE
  5
2B4
100
AcDbEntity
  8
0
100
AcDbLine
 62
7
  6
CONTINUOUS
 10
9.0243673924
 20
8.9748829829
 11
9.3905091247
 21
8.9748829829
  0
LINE
  5
2B5
100
AcDbEntity
  8
0
100
AcDbLine
 62
7
  6
CONTINUOUS
 10
9.4279106995
 20
9.033938101
 11
9.3786981011
 21
9.033938101
  0
LINE
  5
2B6
100
AcDbEntity
  8
0
100
AcDbLine
 62
7
  6
CONTINUOUS
 10
4.4849973137
 20
9.1815758963
 11
4.851139046
 21
9.1815758963
  0
LINE
  5
2B7
100
AcDbEntity
  8
0
100
AcDbLine
 62
7
  6
CONTINUOUS
 10
5.6582256601
 20
9.1914184159
 11
5.3629500696
 21
9.1914184159
  0
LINE
  5
2B8
100
AcDbEntity
  8
0
100
AcDbLine
 62
7
  6
CONTINUOUS
 10
7.6464146365
 20
8.0792136915
 11
7.6464146365
 21
8.0890562112
  0
LINE
  5
2B9
100
AcDbEntity
  8
0
100
AcDbLine
 62
7
  6
CONTINUOUS
 10
9.4968083373
 20
8.9406849848
 11
9.4909690669
 21
8.9384828581
  0
LINE
  5
2BA
100
AcDbEntity
  8
0
100
AcDbLine
 62
7
  6
CONTINUOUS
 10
9.3590130617
 20
9.3292136915
 11
6.5243673924
 21
9.3292136915
  0
LINE
  5
2BB
100
AcDbEntity
  8
0
100
AcDbLine
 62
7
  6
CONTINUOUS
 10
6.504682353
 20
9.3292136915
 11
4.5164933767
 21
9.3292136915
  0
LINE
  5
2BC
100
AcDbEntity
  8
0
100
AcDbLine
 62
7
  6
CONTINUOUS
 10
9.3786981011
 20
9.3488987309
 11
4.4968083373
 21
9.3488987309
  0
LINE
  5
2BD
100
AcDbEntity
  8
0
100
AcDbLine
 62
7
  6
CONTINUOUS
 10
9.4968083373
 20
8.851600666
 11
9.4909690669
 21
8.8538027927
  0
LINE
  5
2BE
100
AcDbEntity
  8
0
100
AcDbLine
 62
7
  6
CONTINUOUS
 10
9.0923676993
 20
8.3620607221
 11
9.1202065489
 21
8.3342218724
  0
LINE
  5
2BF
100
AcDbEntity
  8
0
100
AcDbLine
 62
7
  6
CONTINUOUS
 10
9.0638971058
 20
8.435073475
 11
9.114638779
 21
8.3843318018
  0
LINE
  5
2C0
100
AcDbEntity
  8
0
100
AcDbLine
 62
7
  6
CONTINUOUS
 10
9.1424776286
 20
8.3564929521
 11
9.1939054191
 21
8.3050651617
  0
LINE
  5
2C1
100
AcDbEntity
  8
0
100
AcDbLine
 62
7
  6
CONTINUOUS
 10
9.2210581515
 20
8.3335901285
 11
9.1703164783
 21
8.3843318018
  0
LINE
  5
2C2
100
AcDbEntity
  8
0
100
AcDbLine
 62
7
  6
CONTINUOUS
 10
9.1424776286
 20
8.4121706514
 11
9.0910498382
 21
8.4635984419
  0
LINE
  5
2C3
100
AcDbEntity
  8
0
100
AcDbLine
 62
7
  6
CONTINUOUS
 10
9.192587558
 20
8.4066028815
 11
9.1647487084
 21
8.4344417312
  0
LINE
  5
2C4
100
AcDbEntity
  8
0
100
AcDbLine
 62
7
  6
CONTINUOUS
 10
9.1647487084
 20
8.906882676
 11
9.1424776286
 21
8.8846115963
  0
LINE
  5
2C5
100
AcDbEntity
  8
0
100
AcDbLine
 62
7
  6
CONTINUOUS
 10
9.114638779
 20
8.8567727467
 11
9.0923676993
 21
8.8345016669
  0
LINE
  5
2C6
100
AcDbEntity
  8
0
100
AcDbLine
 62
7
  6
CONTINUOUS
 10
9.1202065489
 20
8.8066628173
 11
9.1424776286
 21
8.828933897
  0
LINE
  5
2C7
100
AcDbEntity
  8
0
100
AcDbLine
 62
7
  6
CONTINUOUS
 10
9.1703164783
 20
8.8567727467
 11
9.192587558
 21
8.8790438264
  0
LINE
  5
2C8
100
AcDbEntity
  8
0
100
AcDbLine
 62
7
  6
CONTINUOUS
 10
9.1647487084
 20
8.6706622036
 11
9.1424776286
 21
8.6483911239
  0
LINE
  5
2C9
100
AcDbEntity
  8
0
100
AcDbLine
 62
7
  6
CONTINUOUS
 10
9.114638779
 20
8.6205522742
 11
9.0923676993
 21
8.5982811945
  0
LINE
  5
2CA
100
AcDbEntity
  8
0
100
AcDbLine
 62
7
  6
CONTINUOUS
 10
9.0923676993
 20
8.5982811945
 11
9.1202065489
 21
8.5704423448
  0
LINE
  5
2CB
100
AcDbEntity
  8
0
100
AcDbLine
 62
7
  6
CONTINUOUS
 10
9.0638971058
 20
8.6712939474
 11
9.114638779
 21
8.6205522742
  0
LINE
  5
2CC
100
AcDbEntity
  8
0
100
AcDbLine
 62
7
  6
CONTINUOUS
 10
9.1424776286
 20
8.5927134246
 11
9.1939054191
 21
8.5412856341
  0
LINE
  5
2CD
100
AcDbEntity
  8
0
100
AcDbLine
 62
7
  6
CONTINUOUS
 10
9.2210581515
 20
8.569810601
 11
9.1703164783
 21
8.6205522742
  0
LINE
  5
2CE
100
AcDbEntity
  8
0
100
AcDbLine
 62
7
  6
CONTINUOUS
 10
9.1424776286
 20
8.6483911239
 11
9.0910498382
 21
8.6998189143
  0
LINE
  5
2CF
100
AcDbEntity
  8
0
100
AcDbLine
 62
7
  6
CONTINUOUS
 10
9.192587558
 20
8.6428233539
 11
9.1647487084
 21
8.6706622036
  0
LINE
  5
2D0
100
AcDbEntity
  8
0
100
AcDbLine
 62
7
  6
CONTINUOUS
 10
9.1202065489
 20
8.5704423448
 11
9.1424776286
 21
8.5927134246
  0
LINE
  5
2D1
100
AcDbEntity
  8
0
100
AcDbLine
 62
7
  6
CONTINUOUS
 10
9.1703164783
 20
8.6205522742
 11
9.192587558
 21
8.6428233539
  0
LINE
  5
2D2
100
AcDbEntity
  8
0
100
AcDbLine
 62
7
  6
CONTINUOUS
 10
9.1647487084
 20
8.4344417312
 11
9.1424776286
 21
8.4121706514
  0
LINE
  5
2D3
100
AcDbEntity
  8
0
100
AcDbLine
 62
7
  6
CONTINUOUS
 10
9.114638779
 20
8.3843318018
 11
9.0923676993
 21
8.3620607221
  0
LINE
  5
2D4
100
AcDbEntity
  8
0
100
AcDbLine
 62
7
  6
CONTINUOUS
 10
9.0923676993
 20
8.8345016669
 11
9.1202065489
 21
8.8066628173
  0
LINE
  5
2D5
100
AcDbEntity
  8
0
100
AcDbLine
 62
7
  6
CONTINUOUS
 10
9.0638971058
 20
8.9075144199
 11
9.114638779
 21
8.8567727467
  0
LINE
  5
2D6
100
AcDbEntity
  8
0
100
AcDbLine
 62
7
  6
CONTINUOUS
 10
9.1424776286
 20
8.828933897
 11
9.1939054191
 21
8.7775061066
  0
LINE
  5
2D7
100
AcDbEntity
  8
0
100
AcDbLine
 62
7
  6
CONTINUOUS
 10
9.2210581515
 20
8.8060310734
 11
9.1703164783
 21
8.8567727467
  0
LINE
  5
2D8
100
AcDbEntity
  8
0
100
AcDbLine
 62
7
  6
CONTINUOUS
 10
9.1424776286
 20
8.8846115963
 11
9.0910498382
 21
8.9360393867
  0
LINE
  5
2D9
100
AcDbEntity
  8
0
100
AcDbLine
 62
7
  6
CONTINUOUS
 10
9.192587558
 20
8.8790438264
 11
9.1647487084
 21
8.906882676
  0
LINE
  5
2DA
100
AcDbEntity
  8
0
100
AcDbLine
 62
7
  6
CONTINUOUS
 10
9.1202065489
 20
8.3342218724
 11
9.1424776286
 21
8.3564929521
  0
LINE
  5
2DB
100
AcDbEntity
  8
0
100
AcDbLine
 62
7
  6
CONTINUOUS
 10
9.1703164783
 20
8.3843318018
 11
9.192587558
 21
8.4066028815
  0
LINE
  5
2DC
100
AcDbEntity
  8
0
100
AcDbLine
 62
7
  6
CONTINUOUS
 10
9.0243673924
 20
8.9748829829
 11
9.0243673924
 21
8.2662215656
  0
LINE
  5
2DD
100
AcDbEntity
  8
0
100
AcDbLine
 62
7
  6
CONTINUOUS
 10
9.2999579436
 20
8.9748829829
 11
9.2999579436
 21
8.2662215656
  0
LINE
  5
2DE
100
AcDbEntity
  8
0
100
AcDbLine
 62
7
  6
CONTINUOUS
 10
9.3590130617
 20
9.3292136915
 11
9.3590130617
 21
8.9748829829
  0
LINE
  5
2DF
100
AcDbEntity
  8
0
100
AcDbLine
 62
7
  6
CONTINUOUS
 10
9.3590130617
 20
8.2662215656
 11
9.3590130617
 21
8.1087412506
  0
LINE
  5
2E0
100
AcDbEntity
  8
0
100
AcDbLine
 62
7
  6
CONTINUOUS
 10
9.3786981011
 20
8.0890562112
 11
9.3786981011
 21
9.3488987309
  0
LINE
  5
2E1
100
AcDbEntity
  8
0
100
AcDbLine
 62
7
  6
CONTINUOUS
 10
9.3905091247
 20
8.2662215656
 11
9.3905091247
 21
8.9748829829
  0
LINE
  5
2E2
100
AcDbEntity
  8
0
100
AcDbLine
 62
7
  6
CONTINUOUS
 10
9.4771232979
 20
8.7801529099
 11
9.4771232979
 21
8.4827569986
  0
LINE
  5
2E3
100
AcDbEntity
  8
0
100
AcDbLine
 62
7
  6
CONTINUOUS
 10
9.4968083373
 20
8.8305422955
 11
9.4968083373
 21
8.851600666
  0
LINE
  5
2E4
100
AcDbEntity
  8
0
100
AcDbLine
 62
7
  6
CONTINUOUS
 10
9.4968083373
 20
8.8750844549
 11
9.4968083373
 21
8.9172011959
  0
LINE
  5
2E5
100
AcDbEntity
  8
0
100
AcDbLine
 62
7
  6
CONTINUOUS
 10
9.4968083373
 20
8.9406849848
 11
9.4968083373
 21
8.9617433553
  0
LINE
  5
2E6
100
AcDbEntity
  8
0
100
AcDbLine
 62
7
  6
CONTINUOUS
 10
1.4147203234
 20
1.2984386645
 11
1.1194447329
 21
1.2984386645
  0
LINE
  5
2E7
100
AcDbEntity
  8
0
100
AcDbLine
 62
7
  6
CONTINUOUS
 10
1.4934604809
 20
1.2984386645
 11
1.9659014258
 21
1.2984386645
  0
LINE
  5
2E8
100
AcDbEntity
  8
0
100
AcDbLine
 62
7
  6
CONTINUOUS
 10
2.0446415833
 20
1.2984386645
 11
2.3399171738
 21
1.2984386645
  0
LINE
  5
2E9
100
AcDbEntity
  8
0
100
AcDbLine
 62
7
  6
CONTINUOUS
 10
1.5722006384
 20
1.4007251295
 11
1.8871612683
 21
1.4007251295
  0
LINE
  5
2EA
100
AcDbEntity
  8
0
100
AcDbLine
 62
7
  6
CONTINUOUS
 10
1.5722006384
 20
1.4362339401
 11
1.8871612683
 21
1.4362339401
  0
LINE
  5
2EB
100
AcDbEntity
  8
0
100
AcDbLine
 62
7
  6
CONTINUOUS
 10
1.4934604809
 20
1.4726512629
 11
1.9659014258
 21
1.4726512629
  0
LINE
  5
2EC
100
AcDbEntity
  8
0
100
AcDbLine
 62
7
  6
CONTINUOUS
 10
1.4147203234
 20
1.6212733102
 11
1.1194447329
 21
1.6212733102
  0
LINE
  5
2ED
100
AcDbEntity
  8
0
100
AcDbLine
 62
7
  6
CONTINUOUS
 10
2.0446415833
 20
1.6212733102
 11
2.3399171738
 21
1.6212733102
  0
LINE
  5
2EE
100
AcDbEntity
  8
0
100
AcDbLine
 62
7
  6
CONTINUOUS
 10
1.9659014258
 20
1.6606433889
 11
1.4934604809
 21
1.6606433889
  0
LINE
  5
2EF
100
AcDbEntity
  8
0
100
AcDbLine
 62
7
  6
CONTINUOUS
 10
2.3596022132
 20
1.7000134676
 11
1.0997596935
 21
1.7000134676
  0
LINE
  5
2F0
100
AcDbEntity
  8
0
100
AcDbLine
 62
7
  6
CONTINUOUS
 10
2.2493659927
 20
1.7976512629
 11
2.115507725
 21
1.7976512629
  0
LINE
  5
2F1
100
AcDbEntity
  8
0
100
AcDbLine
 62
7
  6
CONTINUOUS
 10
2.0682636305
 20
1.7976512629
 11
1.9344053628
 21
1.7976512629
  0
LINE
  5
2F2
100
AcDbEntity
  8
0
100
AcDbLine
 62
7
  6
CONTINUOUS
 10
1.8871612683
 20
1.7976512629
 11
1.7533030006
 21
1.7976512629
  0
LINE
  5
2F3
100
AcDbEntity
  8
0
100
AcDbLine
 62
7
  6
CONTINUOUS
 10
1.7060589061
 20
1.7976512629
 11
1.5722006384
 21
1.7976512629
  0
LINE
  5
2F4
100
AcDbEntity
  8
0
100
AcDbLine
 62
7
  6
CONTINUOUS
 10
1.5249565439
 20
1.7976512629
 11
1.3910982762
 21
1.7976512629
  0
LINE
  5
2F5
100
AcDbEntity
  8
0
100
AcDbLine
 62
7
  6
CONTINUOUS
 10
1.3438541817
 20
1.7976512629
 11
1.209995914
 21
1.7976512629
  0
LINE
  5
2F6
100
AcDbEntity
  8
0
100
AcDbLine
 62
7
  6
CONTINUOUS
 10
2.3694447329
 20
1.856706381
 11
2.3596022132
 21
1.856706381
  0
LINE
  5
2F7
100
AcDbEntity
  8
0
100
AcDbLine
 62
7
  6
CONTINUOUS
 10
2.2493659927
 20
1.9315095306
 11
2.115507725
 21
1.9315095306
  0
LINE
  5
2F8
100
AcDbEntity
  8
0
100
AcDbLine
 62
7
  6
CONTINUOUS
 10
2.0682636305
 20
1.9315095306
 11
1.9344053628
 21
1.9315095306
  0
LINE
  5
2F9
100
AcDbEntity
  8
0
100
AcDbLine
 62
7
  6
CONTINUOUS
 10
1.8871612683
 20
1.9315095306
 11
1.7533030006
 21
1.9315095306
  0
LINE
  5
2FA
100
AcDbEntity
  8
0
100
AcDbLine
 62
7
  6
CONTINUOUS
 10
1.7060589061
 20
1.9315095306
 11
1.5722006384
 21
1.9315095306
  0
LINE
  5
2FB
100
AcDbEntity
  8
0
100
AcDbLine
 62
7
  6
CONTINUOUS
 10
1.5249565439
 20
1.9315095306
 11
1.3910982762
 21
1.9315095306
  0
LINE
  5
2FC
100
AcDbEntity
  8
0
100
AcDbLine
 62
7
  6
CONTINUOUS
 10
1.3438541817
 20
1.9315095306
 11
1.209995914
 21
1.9315095306
  0
LINE
  5
2FD
100
AcDbEntity
  8
0
100
AcDbLine
 62
7
  6
CONTINUOUS
 10
1.209995914
 20
1.9787536251
 11
1.3438541817
 21
1.9787536251
  0
LINE
  5
2FE
100
AcDbEntity
  8
0
100
AcDbLine
 62
7
  6
CONTINUOUS
 10
1.3910982762
 20
1.9787536251
 11
1.5249565439
 21
1.9787536251
  0
LINE
  5
2FF
100
AcDbEntity
  8
0
100
AcDbLine
 62
7
  6
CONTINUOUS
 10
1.5722006384
 20
1.9787536251
 11
1.7060589061
 21
1.9787536251
  0
LINE
  5
300
100
AcDbEntity
  8
0
100
AcDbLine
 62
7
  6
CONTINUOUS
 10
1.7533030006
 20
1.9787536251
 11
1.8871612683
 21
1.9787536251
  0
LINE
  5
301
100
AcDbEntity
  8
0
100
AcDbLine
 62
7
  6
CONTINUOUS
 10
1.9344053628
 20
1.9787536251
 11
2.0682636305
 21
1.9787536251
  0
LINE
  5
302
100
AcDbEntity
  8
0
100
AcDbLine
 62
7
  6
CONTINUOUS
 10
2.115507725
 20
1.9787536251
 11
2.2493659927
 21
1.9787536251
  0
LINE
  5
303
100
AcDbEntity
  8
0
100
AcDbLine
 62
7
  6
CONTINUOUS
 10
2.2493659927
 20
2.1126118928
 11
2.115507725
 21
2.1126118928
  0
LINE
  5
304
100
AcDbEntity
  8
0
100
AcDbLine
 62
7
  6
CONTINUOUS
 10
2.0682636305
 20
2.1126118928
 11
1.9344053628
 21
2.1126118928
  0
LINE
  5
305
100
AcDbEntity
  8
0
100
AcDbLine
 62
7
  6
CONTINUOUS
 10
1.8871612683
 20
2.1126118928
 11
1.7533030006
 21
2.1126118928
  0
LINE
  5
306
100
AcDbEntity
  8
0
100
AcDbLine
 62
7
  6
CONTINUOUS
 10
1.7060589061
 20
2.1126118928
 11
1.5722006384
 21
2.1126118928
  0
LINE
  5
307
100
AcDbEntity
  8
0
100
AcDbLine
 62
7
  6
CONTINUOUS
 10
1.5249565439
 20
2.1126118928
 11
1.3910982762
 21
2.1126118928
  0
LINE
  5
308
100
AcDbEntity
  8
0
100
AcDbLine
 62
7
  6
CONTINUOUS
 10
1.3438541817
 20
2.1126118928
 11
1.209995914
 21
2.1126118928
  0
LINE
  5
309
100
AcDbEntity
  8
0
100
AcDbLine
 62
7
  6
CONTINUOUS
 10
1.209995914
 20
2.1598559873
 11
1.3438541817
 21
2.1598559873
  0
LINE
  5
30A
100
AcDbEntity
  8
0
100
AcDbLine
 62
7
  6
CONTINUOUS
 10
1.3910982762
 20
2.1598559873
 11
1.5249565439
 21
2.1598559873
  0
LINE
  5
30B
100
AcDbEntity
  8
0
100
AcDbLine
 62
7
  6
CONTINUOUS
 10
1.5722006384
 20
2.1598559873
 11
1.7060589061
 21
2.1598559873
  0
LINE
  5
30C
100
AcDbEntity
  8
0
100
AcDbLine
 62
7
  6
CONTINUOUS
 10
1.7533030006
 20
2.1598559873
 11
1.8871612683
 21
2.1598559873
  0
LINE
  5
30D
100
AcDbEntity
  8
0
100
AcDbLine
 62
7
  6
CONTINUOUS
 10
1.9344053628
 20
2.1598559873
 11
2.0682636305
 21
2.1598559873
  0
LINE
  5
30E
100
AcDbEntity
  8
0
100
AcDbLine
 62
7
  6
CONTINUOUS
 10
2.115507725
 20
2.1598559873
 11
2.2493659927
 21
2.1598559873
  0
LINE
  5
30F
100
AcDbEntity
  8
0
100
AcDbLine
 62
7
  6
CONTINUOUS
 10
1.4836179612
 20
5.4098559873
 11
1.4442478825
 21
5.3704859086
  0
LINE
  5
310
100
AcDbEntity
  8
0
100
AcDbLine
 62
7
  6
CONTINUOUS
 10
1.2966100872
 20
5.1145803968
 11
1.335980166
 21
5.1539504755
  0
LINE
  5
311
100
AcDbEntity
  8
0
100
AcDbLine
 62
7
  6
CONTINUOUS
 10
2.2493659927
 20
2.293714255
 11
2.115507725
 21
2.293714255
  0
LINE
  5
312
100
AcDbEntity
  8
0
100
AcDbLine
 62
7
  6
CONTINUOUS
 10
2.0682636305
 20
2.293714255
 11
1.9344053628
 21
2.293714255
  0
LINE
  5
313
100
AcDbEntity
  8
0
100
AcDbLine
 62
7
  6
CONTINUOUS
 10
1.8871612683
 20
2.293714255
 11
1.7533030006
 21
2.293714255
  0
LINE
  5
314
100
AcDbEntity
  8
0
100
AcDbLine
 62
7
  6
CONTINUOUS
 10
1.7060589061
 20
2.293714255
 11
1.5722006384
 21
2.293714255
  0
LINE
  5
315
100
AcDbEntity
  8
0
100
AcDbLine
 62
7
  6
CONTINUOUS
 10
1.5249565439
 20
2.293714255
 11
1.3910982762
 21
2.293714255
  0
LINE
  5
316
100
AcDbEntity
  8
0
100
AcDbLine
 62
7
  6
CONTINUOUS
 10
1.3438541817
 20
2.293714255
 11
1.209995914
 21
2.293714255
  0
LINE
  5
317
100
AcDbEntity
  8
0
100
AcDbLine
 62
7
  6
CONTINUOUS
 10
1.209995914
 20
2.3409583495
 11
1.3438541817
 21
2.3409583495
  0
LINE
  5
318
100
AcDbEntity
  8
0
100
AcDbLine
 62
7
  6
CONTINUOUS
 10
1.3910982762
 20
2.3409583495
 11
1.5249565439
 21
2.3409583495
  0
LINE
  5
319
100
AcDbEntity
  8
0
100
AcDbLine
 62
7
  6
CONTINUOUS
 10
1.5722006384
 20
2.3409583495
 11
1.7060589061
 21
2.3409583495
  0
LINE
  5
31A
100
AcDbEntity
  8
0
100
AcDbLine
 62
7
  6
CONTINUOUS
 10
1.7533030006
 20
2.3409583495
 11
1.8871612683
 21
2.3409583495
  0
LINE
  5
31B
100
AcDbEntity
  8
0
100
AcDbLine
 62
7
  6
CONTINUOUS
 10
1.9344053628
 20
2.3409583495
 11
2.0682636305
 21
2.3409583495
  0
LINE
  5
31C
100
AcDbEntity
  8
0
100
AcDbLine
 62
7
  6
CONTINUOUS
 10
2.115507725
 20
2.3409583495
 11
2.2493659927
 21
2.3409583495
  0
LINE
  5
31D
100
AcDbEntity
  8
0
100
AcDbLine
 62
7
  6
CONTINUOUS
 10
1.7198384337
 20
5.4098559873
 11
1.6804683549
 21
5.3704859086
  0
LINE
  5
31E
100
AcDbEntity
  8
0
100
AcDbLine
 62
7
  6
CONTINUOUS
 10
1.5328305597
 20
5.1145803968
 11
1.5722006384
 21
5.1539504755
  0
LINE
  5
31F
100
AcDbEntity
  8
0
100
AcDbLine
 62
7
  6
CONTINUOUS
 10
2.2493659927
 20
2.4748166172
 11
2.115507725
 21
2.4748166172
  0
LINE
  5
320
100
AcDbEntity
  8
0
100
AcDbLine
 62
7
  6
CONTINUOUS
 10
2.0682636305
 20
2.4748166172
 11
1.9344053628
 21
2.4748166172
  0
LINE
  5
321
100
AcDbEntity
  8
0
100
AcDbLine
 62
7
  6
CONTINUOUS
 10
1.8871612683
 20
2.4748166172
 11
1.7533030006
 21
2.4748166172
  0
LINE
  5
322
100
AcDbEntity
  8
0
100
AcDbLine
 62
7
  6
CONTINUOUS
 10
1.7060589061
 20
2.4748166172
 11
1.5722006384
 21
2.4748166172
  0
LINE
  5
323
100
AcDbEntity
  8
0
100
AcDbLine
 62
7
  6
CONTINUOUS
 10
1.5249565439
 20
2.4748166172
 11
1.3910982762
 21
2.4748166172
  0
LINE
  5
324
100
AcDbEntity
  8
0
100
AcDbLine
 62
7
  6
CONTINUOUS
 10
1.3438541817
 20
2.4748166172
 11
1.209995914
 21
2.4748166172
  0
LINE
  5
325
100
AcDbEntity
  8
0
100
AcDbLine
 62
7
  6
CONTINUOUS
 10
1.209995914
 20
2.5220607117
 11
1.3438541817
 21
2.5220607117
  0
LINE
  5
326
100
AcDbEntity
  8
0
100
AcDbLine
 62
7
  6
CONTINUOUS
 10
1.3910982762
 20
2.5220607117
 11
1.5249565439
 21
2.5220607117
  0
LINE
  5
327
100
AcDbEntity
  8
0
100
AcDbLine
 62
7
  6
CONTINUOUS
 10
1.5722006384
 20
2.5220607117
 11
1.7060589061
 21
2.5220607117
  0
LINE
  5
328
100
AcDbEntity
  8
0
100
AcDbLine
 62
7
  6
CONTINUOUS
 10
1.7533030006
 20
2.5220607117
 11
1.8871612683
 21
2.5220607117
  0
LINE
  5
329
100
AcDbEntity
  8
0
100
AcDbLine
 62
7
  6
CONTINUOUS
 10
1.9344053628
 20
2.5220607117
 11
2.0682636305
 21
2.5220607117
  0
LINE
  5
32A
100
AcDbEntity
  8
0
100
AcDbLine
 62
7
  6
CONTINUOUS
 10
2.115507725
 20
2.5220607117
 11
2.2493659927
 21
2.5220607117
  0
LINE
  5
32B
100
AcDbEntity
  8
0
100
AcDbLine
 62
7
  6
CONTINUOUS
 10
1.9560589061
 20
5.4098559873
 11
1.9166888274
 21
5.3704859086
  0
LINE
  5
32C
100
AcDbEntity
  8
0
100
AcDbLine
 62
7
  6
CONTINUOUS
 10
1.7690510321
 20
5.1145803968
 11
1.8084211108
 21
5.1539504755
  0
LINE
  5
32D
100
AcDbEntity
  8
0
100
AcDbLine
 62
7
  6
CONTINUOUS
 10
2.2493659927
 20
2.6559189795
 11
2.115507725
 21
2.6559189795
  0
LINE
  5
32E
100
AcDbEntity
  8
0
100
AcDbLine
 62
7
  6
CONTINUOUS
 10
2.0682636305
 20
2.6559189795
 11
1.9344053628
 21
2.6559189795
  0
LINE
  5
32F
100
AcDbEntity
  8
0
100
AcDbLine
 62
7
  6
CONTINUOUS
 10
1.8871612683
 20
2.6559189795
 11
1.7533030006
 21
2.6559189795
  0
LINE
  5
330
100
AcDbEntity
  8
0
100
AcDbLine
 62
7
  6
CONTINUOUS
 10
1.7060589061
 20
2.6559189795
 11
1.5722006384
 21
2.6559189795
  0
LINE
  5
331
100
AcDbEntity
  8
0
100
AcDbLine
 62
7
  6
CONTINUOUS
 10
1.5249565439
 20
2.6559189795
 11
1.3910982762
 21
2.6559189795
  0
LINE
  5
332
100
AcDbEntity
  8
0
100
AcDbLine
 62
7
  6
CONTINUOUS
 10
1.3438541817
 20
2.6559189795
 11
1.209995914
 21
2.6559189795
  0
LINE
  5
333
100
AcDbEntity
  8
0
100
AcDbLine
 62
7
  6
CONTINUOUS
 10
1.209995914
 20
2.7031630739
 11
1.3438541817
 21
2.7031630739
  0
LINE
  5
334
100
AcDbEntity
  8
0
100
AcDbLine
 62
7
  6
CONTINUOUS
 10
1.3910982762
 20
2.7031630739
 11
1.5249565439
 21
2.7031630739
  0
LINE
  5
335
100
AcDbEntity
  8
0
100
AcDbLine
 62
7
  6
CONTINUOUS
 10
1.5722006384
 20
2.7031630739
 11
1.7060589061
 21
2.7031630739
  0
LINE
  5
336
100
AcDbEntity
  8
0
100
AcDbLine
 62
7
  6
CONTINUOUS
 10
1.7533030006
 20
2.7031630739
 11
1.8871612683
 21
2.7031630739
  0
LINE
  5
337
100
AcDbEntity
  8
0
100
AcDbLine
 62
7
  6
CONTINUOUS
 10
1.9344053628
 20
2.7031630739
 11
2.0682636305
 21
2.7031630739
  0
LINE
  5
338
100
AcDbEntity
  8
0
100
AcDbLine
 62
7
  6
CONTINUOUS
 10
2.115507725
 20
2.7031630739
 11
2.2493659927
 21
2.7031630739
  0
LINE
  5
339
100
AcDbEntity
  8
0
100
AcDbLine
 62
7
  6
CONTINUOUS
 10
2.1824368589
 20
5.4098559873
 11
2.1430667801
 21
5.3704859086
  0
LINE
  5
33A
100
AcDbEntity
  8
0
100
AcDbLine
 62
7
  6
CONTINUOUS
 10
1.9954289849
 20
5.1145803968
 11
2.0347990636
 21
5.1539504755
  0
LINE
  5
33B
100
AcDbEntity
  8
0
100
AcDbLine
 62
7
  6
CONTINUOUS
 10
2.2493659927
 20
2.8370213417
 11
2.115507725
 21
2.8370213417
  0
LINE
  5
33C
100
AcDbEntity
  8
0
100
AcDbLine
 62
7
  6
CONTINUOUS
 10
2.0682636305
 20
2.8370213417
 11
1.9344053628
 21
2.8370213417
  0
LINE
  5
33D
100
AcDbEntity
  8
0
100
AcDbLine
 62
7
  6
CONTINUOUS
 10
1.8871612683
 20
2.8370213417
 11
1.7533030006
 21
2.8370213417
  0
LINE
  5
33E
100
AcDbEntity
  8
0
100
AcDbLine
 62
7
  6
CONTINUOUS
 10
1.7060589061
 20
2.8370213417
 11
1.5722006384
 21
2.8370213417
  0
LINE
  5
33F
100
AcDbEntity
  8
0
100
AcDbLine
 62
7
  6
CONTINUOUS
 10
1.5249565439
 20
2.8370213417
 11
1.3910982762
 21
2.8370213417
  0
LINE
  5
340
100
AcDbEntity
  8
0
100
AcDbLine
 62
7
  6
CONTINUOUS
 10
1.3438541817
 20
2.8370213417
 11
1.209995914
 21
2.8370213417
  0
LINE
  5
341
100
AcDbEntity
  8
0
100
AcDbLine
 62
7
  6
CONTINUOUS
 10
1.209995914
 20
2.8842654361
 11
1.3438541817
 21
2.8842654361
  0
LINE
  5
342
100
AcDbEntity
  8
0
100
AcDbLine
 62
7
  6
CONTINUOUS
 10
1.3910982762
 20
2.8842654361
 11
1.5249565439
 21
2.8842654361
  0
LINE
  5
343
100
AcDbEntity
  8
0
100
AcDbLine
 62
7
  6
CONTINUOUS
 10
1.5722006384
 20
2.8842654361
 11
1.7060589061
 21
2.8842654361
  0
LINE
  5
344
100
AcDbEntity
  8
0
100
AcDbLine
 62
7
  6
CONTINUOUS
 10
1.7533030006
 20
2.8842654361
 11
1.8871612683
 21
2.8842654361
  0
LINE
  5
345
100
AcDbEntity
  8
0
100
AcDbLine
 62
7
  6
CONTINUOUS
 10
1.9344053628
 20
2.8842654361
 11
2.0682636305
 21
2.8842654361
  0
LINE
  5
346
100
AcDbEntity
  8
0
100
AcDbLine
 62
7
  6
CONTINUOUS
 10
2.115507725
 20
2.8842654361
 11
2.2493659927
 21
2.8842654361
  0
LINE
  5
347
100
AcDbEntity
  8
0
100
AcDbLine
 62
7
  6
CONTINUOUS
 10
2.2493659927
 20
3.0181237039
 11
2.115507725
 21
3.0181237039
  0
LINE
  5
348
100
AcDbEntity
  8
0
100
AcDbLine
 62
7
  6
CONTINUOUS
 10
2.0682636305
 20
3.0181237039
 11
1.9344053628
 21
3.0181237039
  0
LINE
  5
349
100
AcDbEntity
  8
0
100
AcDbLine
 62
7
  6
CONTINUOUS
 10
1.8871612683
 20
3.0181237039
 11
1.7533030006
 21
3.0181237039
  0
LINE
  5
34A
100
AcDbEntity
  8
0
100
AcDbLine
 62
7
  6
CONTINUOUS
 10
1.7060589061
 20
3.0181237039
 11
1.5722006384
 21
3.0181237039
  0
LINE
  5
34B
100
AcDbEntity
  8
0
100
AcDbLine
 62
7
  6
CONTINUOUS
 10
1.5249565439
 20
3.0181237039
 11
1.3910982762
 21
3.0181237039
  0
LINE
  5
34C
100
AcDbEntity
  8
0
100
AcDbLine
 62
7
  6
CONTINUOUS
 10
1.3438541817
 20
3.0181237039
 11
1.209995914
 21
3.0181237039
  0
LINE
  5
34D
100
AcDbEntity
  8
0
100
AcDbLine
 62
7
  6
CONTINUOUS
 10
1.0997596935
 20
1.7000134676
 11
1.0997596935
 21
6.0693045399
  0
LINE
  5
34E
100
AcDbEntity
  8
0
100
AcDbLine
 62
7
  6
CONTINUOUS
 10
1.1194447329
 20
6.0791457967
 11
1.1194447329
 21
6.0692001113
  0
LINE
  5
34F
100
AcDbEntity
  8
0
100
AcDbLine
 62
7
  6
CONTINUOUS
 10
1.1194447329
 20
6.0692001113
 11
1.1194447329
 21
6.0682295847
  0
LINE
  5
350
100
AcDbEntity
  8
0
100
AcDbLine
 62
7
  6
CONTINUOUS
 10
1.1194447329
 20
1.7000134676
 11
1.1194447329
 21
1.2984386645
  0
LINE
  5
351
100
AcDbEntity
  8
0
100
AcDbLine
 62
7
  6
CONTINUOUS
 10
1.1194447329
 20
5.720786534
 11
1.1194447329
 21
6.0682295847
  0
LINE
  5
352
100
AcDbEntity
  8
0
100
AcDbLine
 62
7
  6
CONTINUOUS
 10
1.209995914
 20
1.7976512629
 11
1.209995914
 21
1.9315095306
  0
LINE
  5
353
100
AcDbEntity
  8
0
100
AcDbLine
 62
7
  6
CONTINUOUS
 10
1.209995914
 20
1.9787536251
 11
1.209995914
 21
2.1126118928
  0
LINE
  5
354
100
AcDbEntity
  8
0
100
AcDbLine
 62
7
  6
CONTINUOUS
 10
1.209995914
 20
2.1598559873
 11
1.209995914
 21
2.293714255
  0
LINE
  5
355
100
AcDbEntity
  8
0
100
AcDbLine
 62
7
  6
CONTINUOUS
 10
1.209995914
 20
2.3409583495
 11
1.209995914
 21
2.4748166172
  0
LINE
  5
356
100
AcDbEntity
  8
0
100
AcDbLine
 62
7
  6
CONTINUOUS
 10
1.209995914
 20
2.5220607117
 11
1.209995914
 21
2.6559189795
  0
LINE
  5
357
100
AcDbEntity
  8
0
100
AcDbLine
 62
7
  6
CONTINUOUS
 10
1.209995914
 20
2.7031630739
 11
1.209995914
 21
2.8370213417
  0
LINE
  5
358
100
AcDbEntity
  8
0
100
AcDbLine
 62
7
  6
CONTINUOUS
 10
1.209995914
 20
2.8842654361
 11
1.209995914
 21
3.0181237039
  0
LINE
  5
359
100
AcDbEntity
  8
0
100
AcDbLine
 62
7
  6
CONTINUOUS
 10
1.209995914
 20
3.0653677984
 11
1.209995914
 21
3.1992260661
  0
LINE
  5
35A
100
AcDbEntity
  8
0
100
AcDbLine
 62
7
  6
CONTINUOUS
 10
1.209995914
 20
3.2464701606
 11
1.209995914
 21
3.3803284283
  0
LINE
  5
35B
100
AcDbEntity
  8
0
100
AcDbLine
 62
7
  6
CONTINUOUS
 10
1.209995914
 20
3.4275725228
 11
1.209995914
 21
3.5614307905
  0
LINE
  5
35C
100
AcDbEntity
  8
0
100
AcDbLine
 62
7
  6
CONTINUOUS
 10
1.209995914
 20
3.608674885
 11
1.209995914
 21
3.7425331527
  0
LINE
  5
35D
100
AcDbEntity
  8
0
100
AcDbLine
 62
7
  6
CONTINUOUS
 10
1.209995914
 20
3.7897772472
 11
1.209995914
 21
3.9236355149
  0
LINE
  5
35E
100
AcDbEntity
  8
0
100
AcDbLine
 62
7
  6
CONTINUOUS
 10
1.209995914
 20
3.9708796094
 11
1.209995914
 21
4.1047378771
  0
LINE
  5
35F
100
AcDbEntity
  8
0
100
AcDbLine
 62
7
  6
CONTINUOUS
 10
1.209995914
 20
4.1519819716
 11
1.209995914
 21
4.2858402393
  0
LINE
  5
360
100
AcDbEntity
  8
0
100
AcDbLine
 62
7
  6
CONTINUOUS
 10
1.209995914
 20
4.3330843338
 11
1.209995914
 21
4.4669426015
  0
LINE
  5
361
100
AcDbEntity
  8
0
100
AcDbLine
 62
7
  6
CONTINUOUS
 10
1.209995914
 20
4.514186696
 11
1.209995914
 21
4.6480449637
  0
LINE
  5
362
100
AcDbEntity
  8
0
100
AcDbLine
 62
7
  6
CONTINUOUS
 10
1.209995914
 20
4.6952890582
 11
1.209995914
 21
4.8291473259
  0
LINE
  5
363
100
AcDbEntity
  8
0
100
AcDbLine
 62
7
  6
CONTINUOUS
 10
1.2572400085
 20
5.933640491
 11
1.2572400085
 21
6.0594622865
  0
LINE
  5
364
100
AcDbEntity
  8
0
100
AcDbLine
 62
7
  6
CONTINUOUS
 10
1.209995914
 20
3.0653677984
 11
1.3438541817
 21
3.0653677984
  0
LINE
  5
365
100
AcDbEntity
  8
0
100
AcDbLine
 62
7
  6
CONTINUOUS
 10
1.3910982762
 20
3.0653677984
 11
1.5249565439
 21
3.0653677984
  0
LINE
  5
366
100
AcDbEntity
  8
0
100
AcDbLine
 62
7
  6
CONTINUOUS
 10
1.5722006384
 20
3.0653677984
 11
1.7060589061
 21
3.0653677984
  0
LINE
  5
367
100
AcDbEntity
  8
0
100
AcDbLine
 62
7
  6
CONTINUOUS
 10
1.7533030006
 20
3.0653677984
 11
1.8871612683
 21
3.0653677984
  0
LINE
  5
368
100
AcDbEntity
  8
0
100
AcDbLine
 62
7
  6
CONTINUOUS
 10
1.9344053628
 20
3.0653677984
 11
2.0682636305
 21
3.0653677984
  0
LINE
  5
369
100
AcDbEntity
  8
0
100
AcDbLine
 62
7
  6
CONTINUOUS
 10
2.115507725
 20
3.0653677984
 11
2.2493659927
 21
3.0653677984
  0
LINE
  5
36A
100
AcDbEntity
  8
0
100
AcDbLine
 62
7
  6
CONTINUOUS
 10
2.2493659927
 20
3.1992260661
 11
2.115507725
 21
3.1992260661
  0
LINE
  5
36B
100
AcDbEntity
  8
0
100
AcDbLine
 62
7
  6
CONTINUOUS
 10
2.0682636305
 20
3.1992260661
 11
1.9344053628
 21
3.1992260661
  0
LINE
  5
36C
100
AcDbEntity
  8
0
100
AcDbLine
 62
7
  6
CONTINUOUS
 10
1.8871612683
 20
3.1992260661
 11
1.7533030006
 21
3.1992260661
  0
LINE
  5
36D
100
AcDbEntity
  8
0
100
AcDbLine
 62
7
  6
CONTINUOUS
 10
1.7060589061
 20
3.1992260661
 11
1.5722006384
 21
3.1992260661
  0
LINE
  5
36E
100
AcDbEntity
  8
0
100
AcDbLine
 62
7
  6
CONTINUOUS
 10
1.5249565439
 20
3.1992260661
 11
1.3910982762
 21
3.1992260661
  0
LINE
  5
36F
100
AcDbEntity
  8
0
100
AcDbLine
 62
7
  6
CONTINUOUS
 10
1.3438541817
 20
3.1992260661
 11
1.209995914
 21
3.1992260661
  0
LINE
  5
370
100
AcDbEntity
  8
0
100
AcDbLine
 62
7
  6
CONTINUOUS
 10
1.2670825282
 20
5.0063126802
 11
1.2670825282
 21
5.8220076967
  0
LINE
  5
371
100
AcDbEntity
  8
0
100
AcDbLine
 62
7
  6
CONTINUOUS
 10
1.2680667801
 20
5.856706381
 11
1.2680667801
 21
5.6756040188
  0
LINE
  5
372
100
AcDbEntity
  8
0
100
AcDbLine
 62
7
  6
CONTINUOUS
 10
1.2966100872
 20
5.1145803968
 11
1.2966100872
 21
5.4098559873
  0
LINE
  5
373
100
AcDbEntity
  8
0
100
AcDbLine
 62
7
  6
CONTINUOUS
 10
1.335980166
 20
5.3704859086
 11
1.335980166
 21
5.1539504755
  0
LINE
  5
374
100
AcDbEntity
  8
0
100
AcDbLine
 62
7
  6
CONTINUOUS
 10
1.3438541817
 20
1.7976512629
 11
1.3438541817
 21
1.9315095306
  0
LINE
  5
375
100
AcDbEntity
  8
0
100
AcDbLine
 62
7
  6
CONTINUOUS
 10
1.3438541817
 20
1.9787536251
 11
1.3438541817
 21
2.1126118928
  0
LINE
  5
376
100
AcDbEntity
  8
0
100
AcDbLine
 62
7
  6
CONTINUOUS
 10
1.3438541817
 20
2.1598559873
 11
1.3438541817
 21
2.293714255
  0
LINE
  5
377
100
AcDbEntity
  8
0
100
AcDbLine
 62
7
  6
CONTINUOUS
 10
1.3438541817
 20
2.3409583495
 11
1.3438541817
 21
2.4748166172
  0
LINE
  5
378
100
AcDbEntity
  8
0
100
AcDbLine
 62
7
  6
CONTINUOUS
 10
1.3438541817
 20
2.5220607117
 11
1.3438541817
 21
2.6559189795
  0
LINE
  5
379
100
AcDbEntity
  8
0
100
AcDbLine
 62
7
  6
CONTINUOUS
 10
1.3438541817
 20
2.7031630739
 11
1.3438541817
 21
2.8370213417
  0
LINE
  5
37A
100
AcDbEntity
  8
0
100
AcDbLine
 62
7
  6
CONTINUOUS
 10
1.3438541817
 20
2.8842654361
 11
1.3438541817
 21
3.0181237039
  0
LINE
  5
37B
100
AcDbEntity
  8
0
100
AcDbLine
 62
7
  6
CONTINUOUS
 10
1.3438541817
 20
3.0653677984
 11
1.3438541817
 21
3.1992260661
  0
LINE
  5
37C
100
AcDbEntity
  8
0
100
AcDbLine
 62
7
  6
CONTINUOUS
 10
1.3438541817
 20
3.2464701606
 11
1.3438541817
 21
3.3803284283
  0
LINE
  5
37D
100
AcDbEntity
  8
0
100
AcDbLine
 62
7
  6
CONTINUOUS
 10
1.3438541817
 20
3.4275725228
 11
1.3438541817
 21
3.5614307905
  0
LINE
  5
37E
100
AcDbEntity
  8
0
100
AcDbLine
 62
7
  6
CONTINUOUS
 10
1.3438541817
 20
3.608674885
 11
1.3438541817
 21
3.7425331527
  0
LINE
  5
37F
100
AcDbEntity
  8
0
100
AcDbLine
 62
7
  6
CONTINUOUS
 10
1.3438541817
 20
3.7897772472
 11
1.3438541817
 21
3.9236355149
  0
LINE
  5
380
100
AcDbEntity
  8
0
100
AcDbLine
 62
7
  6
CONTINUOUS
 10
1.3438541817
 20
3.9708796094
 11
1.3438541817
 21
4.1047378771
  0
LINE
  5
381
100
AcDbEntity
  8
0
100
AcDbLine
 62
7
  6
CONTINUOUS
 10
1.3438541817
 20
4.1519819716
 11
1.3438541817
 21
4.2858402393
  0
LINE
  5
382
100
AcDbEntity
  8
0
100
AcDbLine
 62
7
  6
CONTINUOUS
 10
1.3438541817
 20
4.3330843338
 11
1.3438541817
 21
4.4669426015
  0
LINE
  5
383
100
AcDbEntity
  8
0
100
AcDbLine
 62
7
  6
CONTINUOUS
 10
1.3438541817
 20
4.514186696
 11
1.3438541817
 21
4.6480449637
  0
LINE
  5
384
100
AcDbEntity
  8
0
100
AcDbLine
 62
7
  6
CONTINUOUS
 10
1.3438541817
 20
4.6952890582
 11
1.3438541817
 21
4.8291473259
  0
LINE
  5
385
100
AcDbEntity
  8
0
100
AcDbLine
 62
7
  6
CONTINUOUS
 10
1.3910982762
 20
4.8291473259
 11
1.3910982762
 21
4.6952890582
  0
LINE
  5
386
100
AcDbEntity
  8
0
100
AcDbLine
 62
7
  6
CONTINUOUS
 10
1.3910982762
 20
4.6480449637
 11
1.3910982762
 21
4.514186696
  0
LINE
  5
387
100
AcDbEntity
  8
0
100
AcDbLine
 62
7
  6
CONTINUOUS
 10
1.3910982762
 20
4.4669426015
 11
1.3910982762
 21
4.3330843338
  0
LINE
  5
388
100
AcDbEntity
  8
0
100
AcDbLine
 62
7
  6
CONTINUOUS
 10
1.3910982762
 20
4.2858402393
 11
1.3910982762
 21
4.1519819716
  0
LINE
  5
389
100
AcDbEntity
  8
0
100
AcDbLine
 62
7
  6
CONTINUOUS
 10
1.3910982762
 20
4.1047378771
 11
1.3910982762
 21
3.9708796094
  0
LINE
  5
38A
100
AcDbEntity
  8
0
100
AcDbLine
 62
7
  6
CONTINUOUS
 10
1.3910982762
 20
3.9236355149
 11
1.3910982762
 21
3.7897772472
  0
LINE
  5
38B
100
AcDbEntity
  8
0
100
AcDbLine
 62
7
  6
CONTINUOUS
 10
1.3910982762
 20
3.7425331527
 11
1.3910982762
 21
3.608674885
  0
LINE
  5
38C
100
AcDbEntity
  8
0
100
AcDbLine
 62
7
  6
CONTINUOUS
 10
1.3910982762
 20
3.5614307905
 11
1.3910982762
 21
3.4275725228
  0
LINE
  5
38D
100
AcDbEntity
  8
0
100
AcDbLine
 62
7
  6
CONTINUOUS
 10
1.3910982762
 20
3.3803284283
 11
1.3910982762
 21
3.2464701606
  0
LINE
  5
38E
100
AcDbEntity
  8
0
100
AcDbLine
 62
7
  6
CONTINUOUS
 10
1.3910982762
 20
3.1992260661
 11
1.3910982762
 21
3.0653677984
  0
LINE
  5
38F
100
AcDbEntity
  8
0
100
AcDbLine
 62
7
  6
CONTINUOUS
 10
1.3910982762
 20
3.0181237039
 11
1.3910982762
 21
2.8842654361
  0
LINE
  5
390
100
AcDbEntity
  8
0
100
AcDbLine
 62
7
  6
CONTINUOUS
 10
1.3910982762
 20
2.8370213417
 11
1.3910982762
 21
2.7031630739
  0
LINE
  5
391
100
AcDbEntity
  8
0
100
AcDbLine
 62
7
  6
CONTINUOUS
 10
1.3910982762
 20
2.6559189795
 11
1.3910982762
 21
2.5220607117
  0
LINE
  5
392
100
AcDbEntity
  8
0
100
AcDbLine
 62
7
  6
CONTINUOUS
 10
1.3910982762
 20
2.4748166172
 11
1.3910982762
 21
2.3409583495
  0
LINE
  5
393
100
AcDbEntity
  8
0
100
AcDbLine
 62
7
  6
CONTINUOUS
 10
1.3910982762
 20
2.293714255
 11
1.3910982762
 21
2.1598559873
  0
LINE
  5
394
100
AcDbEntity
  8
0
100
AcDbLine
 62
7
  6
CONTINUOUS
 10
1.3910982762
 20
2.1126118928
 11
1.3910982762
 21
1.9787536251
  0
LINE
  5
395
100
AcDbEntity
  8
0
100
AcDbLine
 62
7
  6
CONTINUOUS
 10
1.3910982762
 20
1.9315095306
 11
1.3910982762
 21
1.7976512629
  0
LINE
  5
396
100
AcDbEntity
  8
0
100
AcDbLine
 62
7
  6
CONTINUOUS
 10
1.4147203234
 20
1.7000134676
 11
1.4147203234
 21
1.2984386645
  0
LINE
  5
397
100
AcDbEntity
  8
0
100
AcDbLine
 62
7
  6
CONTINUOUS
 10
1.209995914
 20
3.2464701606
 11
1.3438541817
 21
3.2464701606
  0
LINE
  5
398
100
AcDbEntity
  8
0
100
AcDbLine
 62
7
  6
CONTINUOUS
 10
1.3910982762
 20
3.2464701606
 11
1.5249565439
 21
3.2464701606
  0
LINE
  5
399
100
AcDbEntity
  8
0
100
AcDbLine
 62
7
  6
CONTINUOUS
 10
1.5722006384
 20
3.2464701606
 11
1.7060589061
 21
3.2464701606
  0
LINE
  5
39A
100
AcDbEntity
  8
0
100
AcDbLine
 62
7
  6
CONTINUOUS
 10
1.7533030006
 20
3.2464701606
 11
1.8871612683
 21
3.2464701606
  0
LINE
  5
39B
100
AcDbEntity
  8
0
100
AcDbLine
 62
7
  6
CONTINUOUS
 10
1.9344053628
 20
3.2464701606
 11
2.0682636305
 21
3.2464701606
  0
LINE
  5
39C
100
AcDbEntity
  8
0
100
AcDbLine
 62
7
  6
CONTINUOUS
 10
2.115507725
 20
3.2464701606
 11
2.2493659927
 21
3.2464701606
  0
LINE
  5
39D
100
AcDbEntity
  8
0
100
AcDbLine
 62
7
  6
CONTINUOUS
 10
2.2493659927
 20
3.3803284283
 11
2.115507725
 21
3.3803284283
  0
LINE
  5
39E
100
AcDbEntity
  8
0
100
AcDbLine
 62
7
  6
CONTINUOUS
 10
2.0682636305
 20
3.3803284283
 11
1.9344053628
 21
3.3803284283
  0
LINE
  5
39F
100
AcDbEntity
  8
0
100
AcDbLine
 62
7
  6
CONTINUOUS
 10
1.8871612683
 20
3.3803284283
 11
1.7533030006
 21
3.3803284283
  0
LINE
  5
3A0
100
AcDbEntity
  8
0
100
AcDbLine
 62
7
  6
CONTINUOUS
 10
1.7060589061
 20
3.3803284283
 11
1.5722006384
 21
3.3803284283
  0
LINE
  5
3A1
100
AcDbEntity
  8
0
100
AcDbLine
 62
7
  6
CONTINUOUS
 10
1.5249565439
 20
3.3803284283
 11
1.3910982762
 21
3.3803284283
  0
LINE
  5
3A2
100
AcDbEntity
  8
0
100
AcDbLine
 62
7
  6
CONTINUOUS
 10
1.3438541817
 20
3.3803284283
 11
1.209995914
 21
3.3803284283
  0
LINE
  5
3A3
100
AcDbEntity
  8
0
100
AcDbLine
 62
7
  6
CONTINUOUS
 10
1.4442478825
 20
5.3704859086
 11
1.4442478825
 21
5.1539504755
  0
LINE
  5
3A4
100
AcDbEntity
  8
0
100
AcDbLine
 62
7
  6
CONTINUOUS
 10
1.4836179612
 20
5.4098559873
 11
1.4836179612
 21
5.1145803968
  0
LINE
  5
3A5
100
AcDbEntity
  8
0
100
AcDbLine
 62
7
  6
CONTINUOUS
 10
1.4934604809
 20
1.2984386645
 11
1.4934604809
 21
1.7000134676
  0
LINE
  5
3A6
100
AcDbEntity
  8
0
100
AcDbLine
 62
7
  6
CONTINUOUS
 10
1.5023187486
 20
5.856706381
 11
1.5023187486
 21
5.6756040188
  0
LINE
  5
3A7
100
AcDbEntity
  8
0
100
AcDbLine
 62
7
  6
CONTINUOUS
 10
1.5042872526
 20
5.856706381
 11
1.5042872526
 21
5.6756040188
  0
LINE
  5
3A8
100
AcDbEntity
  8
0
100
AcDbLine
 62
7
  6
CONTINUOUS
 10
1.5249565439
 20
1.7976512629
 11
1.5249565439
 21
1.9315095306
  0
LINE
  5
3A9
100
AcDbEntity
  8
0
100
AcDbLine
 62
7
  6
CONTINUOUS
 10
1.5249565439
 20
1.9787536251
 11
1.5249565439
 21
2.1126118928
  0
LINE
  5
3AA
100
AcDbEntity
  8
0
100
AcDbLine
 62
7
  6
CONTINUOUS
 10
1.5249565439
 20
2.1598559873
 11
1.5249565439
 21
2.293714255
  0
LINE
  5
3AB
100
AcDbEntity
  8
0
100
AcDbLine
 62
7
  6
CONTINUOUS
 10
1.5249565439
 20
2.3409583495
 11
1.5249565439
 21
2.4748166172
  0
LINE
  5
3AC
100
AcDbEntity
  8
0
100
AcDbLine
 62
7
  6
CONTINUOUS
 10
1.5249565439
 20
2.5220607117
 11
1.5249565439
 21
2.6559189795
  0
LINE
  5
3AD
100
AcDbEntity
  8
0
100
AcDbLine
 62
7
  6
CONTINUOUS
 10
1.5249565439
 20
2.7031630739
 11
1.5249565439
 21
2.8370213417
  0
LINE
  5
3AE
100
AcDbEntity
  8
0
100
AcDbLine
 62
7
  6
CONTINUOUS
 10
1.5249565439
 20
2.8842654361
 11
1.5249565439
 21
3.0181237039
  0
LINE
  5
3AF
100
AcDbEntity
  8
0
100
AcDbLine
 62
7
  6
CONTINUOUS
 10
1.5249565439
 20
3.0653677984
 11
1.5249565439
 21
3.1992260661
  0
LINE
  5
3B0
100
AcDbEntity
  8
0
100
AcDbLine
 62
7
  6
CONTINUOUS
 10
1.5249565439
 20
3.2464701606
 11
1.5249565439
 21
3.3803284283
  0
LINE
  5
3B1
100
AcDbEntity
  8
0
100
AcDbLine
 62
7
  6
CONTINUOUS
 10
1.5249565439
 20
3.4275725228
 11
1.5249565439
 21
3.5614307905
  0
LINE
  5
3B2
100
AcDbEntity
  8
0
100
AcDbLine
 62
7
  6
CONTINUOUS
 10
1.5249565439
 20
3.608674885
 11
1.5249565439
 21
3.7425331527
  0
LINE
  5
3B3
100
AcDbEntity
  8
0
100
AcDbLine
 62
7
  6
CONTINUOUS
 10
1.5249565439
 20
3.7897772472
 11
1.5249565439
 21
3.9236355149
  0
LINE
  5
3B4
100
AcDbEntity
  8
0
100
AcDbLine
 62
7
  6
CONTINUOUS
 10
1.5249565439
 20
3.9708796094
 11
1.5249565439
 21
4.1047378771
  0
LINE
  5
3B5
100
AcDbEntity
  8
0
100
AcDbLine
 62
7
  6
CONTINUOUS
 10
1.5249565439
 20
4.1519819716
 11
1.5249565439
 21
4.2858402393
  0
LINE
  5
3B6
100
AcDbEntity
  8
0
100
AcDbLine
 62
7
  6
CONTINUOUS
 10
1.5249565439
 20
4.3330843338
 11
1.5249565439
 21
4.4669426015
  0
LINE
  5
3B7
100
AcDbEntity
  8
0
100
AcDbLine
 62
7
  6
CONTINUOUS
 10
1.5249565439
 20
4.514186696
 11
1.5249565439
 21
4.6480449637
  0
LINE
  5
3B8
100
AcDbEntity
  8
0
100
AcDbLine
 62
7
  6
CONTINUOUS
 10
1.5249565439
 20
4.6952890582
 11
1.5249565439
 21
4.8291473259
  0
LINE
  5
3B9
100
AcDbEntity
  8
0
100
AcDbLine
 62
7
  6
CONTINUOUS
 10
1.5328305597
 20
5.1145803968
 11
1.5328305597
 21
5.4098559873
  0
LINE
  5
3BA
100
AcDbEntity
  8
0
100
AcDbLine
 62
7
  6
CONTINUOUS
 10
1.5722006384
 20
5.3704859086
 11
1.5722006384
 21
5.1539504755
  0
LINE
  5
3BB
100
AcDbEntity
  8
0
100
AcDbLine
 62
7
  6
CONTINUOUS
 10
1.5722006384
 20
4.8291473259
 11
1.5722006384
 21
4.6952890582
  0
LINE
  5
3BC
100
AcDbEntity
  8
0
100
AcDbLine
 62
7
  6
CONTINUOUS
 10
1.5722006384
 20
4.6480449637
 11
1.5722006384
 21
4.514186696
  0
LINE
  5
3BD
100
AcDbEntity
  8
0
100
AcDbLine
 62
7
  6
CONTINUOUS
 10
1.5722006384
 20
4.4669426015
 11
1.5722006384
 21
4.3330843338
  0
LINE
  5
3BE
100
AcDbEntity
  8
0
100
AcDbLine
 62
7
  6
CONTINUOUS
 10
1.5722006384
 20
4.2858402393
 11
1.5722006384
 21
4.1519819716
  0
LINE
  5
3BF
100
AcDbEntity
  8
0
100
AcDbLine
 62
7
  6
CONTINUOUS
 10
1.5722006384
 20
4.1047378771
 11
1.5722006384
 21
3.9708796094
  0
LINE
  5
3C0
100
AcDbEntity
  8
0
100
AcDbLine
 62
7
  6
CONTINUOUS
 10
1.5722006384
 20
3.9236355149
 11
1.5722006384
 21
3.7897772472
  0
LINE
  5
3C1
100
AcDbEntity
  8
0
100
AcDbLine
 62
7
  6
CONTINUOUS
 10
1.5722006384
 20
3.7425331527
 11
1.5722006384
 21
3.608674885
  0
LINE
  5
3C2
100
AcDbEntity
  8
0
100
AcDbLine
 62
7
  6
CONTINUOUS
 10
1.5722006384
 20
3.5614307905
 11
1.5722006384
 21
3.4275725228
  0
LINE
  5
3C3
100
AcDbEntity
  8
0
100
AcDbLine
 62
7
  6
CONTINUOUS
 10
1.5722006384
 20
3.3803284283
 11
1.5722006384
 21
3.2464701606
  0
LINE
  5
3C4
100
AcDbEntity
  8
0
100
AcDbLine
 62
7
  6
CONTINUOUS
 10
1.5722006384
 20
3.1992260661
 11
1.5722006384
 21
3.0653677984
  0
LINE
  5
3C5
100
AcDbEntity
  8
0
100
AcDbLine
 62
7
  6
CONTINUOUS
 10
1.5722006384
 20
3.0181237039
 11
1.5722006384
 21
2.8842654361
  0
LINE
  5
3C6
100
AcDbEntity
  8
0
100
AcDbLine
 62
7
  6
CONTINUOUS
 10
1.5722006384
 20
2.8370213417
 11
1.5722006384
 21
2.7031630739
  0
LINE
  5
3C7
100
AcDbEntity
  8
0
100
AcDbLine
 62
7
  6
CONTINUOUS
 10
1.5722006384
 20
2.6559189795
 11
1.5722006384
 21
2.5220607117
  0
LINE
  5
3C8
100
AcDbEntity
  8
0
100
AcDbLine
 62
7
  6
CONTINUOUS
 10
1.5722006384
 20
2.4748166172
 11
1.5722006384
 21
2.3409583495
  0
LINE
  5
3C9
100
AcDbEntity
  8
0
100
AcDbLine
 62
7
  6
CONTINUOUS
 10
1.5722006384
 20
2.293714255
 11
1.5722006384
 21
2.1598559873
  0
LINE
  5
3CA
100
AcDbEntity
  8
0
100
AcDbLine
 62
7
  6
CONTINUOUS
 10
1.5722006384
 20
2.1126118928
 11
1.5722006384
 21
1.9787536251
  0
LINE
  5
3CB
100
AcDbEntity
  8
0
100
AcDbLine
 62
7
  6
CONTINUOUS
 10
1.5722006384
 20
1.9315095306
 11
1.5722006384
 21
1.7976512629
  0
LINE
  5
3CC
100
AcDbEntity
  8
0
100
AcDbLine
 62
7
  6
CONTINUOUS
 10
1.5722006384
 20
1.4362339401
 11
1.5722006384
 21
1.2984386645
  0
LINE
  5
3CD
100
AcDbEntity
  8
0
100
AcDbLine
 62
7
  6
CONTINUOUS
 10
1.209995914
 20
3.4275725228
 11
1.3438541817
 21
3.4275725228
  0
LINE
  5
3CE
100
AcDbEntity
  8
0
100
AcDbLine
 62
7
  6
CONTINUOUS
 10
1.3910982762
 20
3.4275725228
 11
1.5249565439
 21
3.4275725228
  0
LINE
  5
3CF
100
AcDbEntity
  8
0
100
AcDbLine
 62
7
  6
CONTINUOUS
 10
1.5722006384
 20
3.4275725228
 11
1.7060589061
 21
3.4275725228
  0
LINE
  5
3D0
100
AcDbEntity
  8
0
100
AcDbLine
 62
7
  6
CONTINUOUS
 10
1.7533030006
 20
3.4275725228
 11
1.8871612683
 21
3.4275725228
  0
LINE
  5
3D1
100
AcDbEntity
  8
0
100
AcDbLine
 62
7
  6
CONTINUOUS
 10
1.9344053628
 20
3.4275725228
 11
2.0682636305
 21
3.4275725228
  0
LINE
  5
3D2
100
AcDbEntity
  8
0
100
AcDbLine
 62
7
  6
CONTINUOUS
 10
2.115507725
 20
3.4275725228
 11
2.2493659927
 21
3.4275725228
  0
LINE
  5
3D3
100
AcDbEntity
  8
0
100
AcDbLine
 62
7
  6
CONTINUOUS
 10
1.6115707171
 20
5.933640491
 11
1.6115707171
 21
6.0102496881
  0
LINE
  5
3D4
100
AcDbEntity
  8
0
100
AcDbLine
 62
7
  6
CONTINUOUS
 10
1.6804683549
 20
5.3704859086
 11
1.6804683549
 21
5.1539504755
  0
LINE
  5
3D5
100
AcDbEntity
  8
0
100
AcDbLine
 62
7
  6
CONTINUOUS
 10
1.6903108746
 20
5.9598273531
 11
1.6903108746
 21
6.0348550804
  0
LINE
  5
3D6
100
AcDbEntity
  8
0
100
AcDbLine
 62
7
  6
CONTINUOUS
 10
1.7060589061
 20
1.7976512629
 11
1.7060589061
 21
1.9315095306
  0
LINE
  5
3D7
100
AcDbEntity
  8
0
100
AcDbLine
 62
7
  6
CONTINUOUS
 10
1.7060589061
 20
1.9787536251
 11
1.7060589061
 21
2.1126118928
  0
LINE
  5
3D8
100
AcDbEntity
  8
0
100
AcDbLine
 62
7
  6
CONTINUOUS
 10
1.7060589061
 20
2.1598559873
 11
1.7060589061
 21
2.293714255
  0
LINE
  5
3D9
100
AcDbEntity
  8
0
100
AcDbLine
 62
7
  6
CONTINUOUS
 10
1.7060589061
 20
2.3409583495
 11
1.7060589061
 21
2.4748166172
  0
LINE
  5
3DA
100
AcDbEntity
  8
0
100
AcDbLine
 62
7
  6
CONTINUOUS
 10
1.7060589061
 20
2.5220607117
 11
1.7060589061
 21
2.6559189795
  0
LINE
  5
3DB
100
AcDbEntity
  8
0
100
AcDbLine
 62
7
  6
CONTINUOUS
 10
1.7060589061
 20
2.7031630739
 11
1.7060589061
 21
2.8370213417
  0
LINE
  5
3DC
100
AcDbEntity
  8
0
100
AcDbLine
 62
7
  6
CONTINUOUS
 10
1.7060589061
 20
2.8842654361
 11
1.7060589061
 21
3.0181237039
  0
LINE
  5
3DD
100
AcDbEntity
  8
0
100
AcDbLine
 62
7
  6
CONTINUOUS
 10
1.7060589061
 20
3.0653677984
 11
1.7060589061
 21
3.1992260661
  0
LINE
  5
3DE
100
AcDbEntity
  8
0
100
AcDbLine
 62
7
  6
CONTINUOUS
 10
1.7060589061
 20
3.2464701606
 11
1.7060589061
 21
3.3803284283
  0
LINE
  5
3DF
100
AcDbEntity
  8
0
100
AcDbLine
 62
7
  6
CONTINUOUS
 10
1.7060589061
 20
3.4275725228
 11
1.7060589061
 21
3.5614307905
  0
LINE
  5
3E0
100
AcDbEntity
  8
0
100
AcDbLine
 62
7
  6
CONTINUOUS
 10
1.7060589061
 20
3.608674885
 11
1.7060589061
 21
3.7425331527
  0
LINE
  5
3E1
100
AcDbEntity
  8
0
100
AcDbLine
 62
7
  6
CONTINUOUS
 10
1.7060589061
 20
3.7897772472
 11
1.7060589061
 21
3.9236355149
  0
LINE
  5
3E2
100
AcDbEntity
  8
0
100
AcDbLine
 62
7
  6
CONTINUOUS
 10
1.7060589061
 20
3.9708796094
 11
1.7060589061
 21
4.1047378771
  0
LINE
  5
3E3
100
AcDbEntity
  8
0
100
AcDbLine
 62
7
  6
CONTINUOUS
 10
1.7060589061
 20
4.1519819716
 11
1.7060589061
 21
4.2858402393
  0
LINE
  5
3E4
100
AcDbEntity
  8
0
100
AcDbLine
 62
7
  6
CONTINUOUS
 10
1.7060589061
 20
4.3330843338
 11
1.7060589061
 21
4.4669426015
  0
LINE
  5
3E5
100
AcDbEntity
  8
0
100
AcDbLine
 62
7
  6
CONTINUOUS
 10
1.7060589061
 20
4.514186696
 11
1.7060589061
 21
4.6480449637
  0
LINE
  5
3E6
100
AcDbEntity
  8
0
100
AcDbLine
 62
7
  6
CONTINUOUS
 10
1.7060589061
 20
4.6952890582
 11
1.7060589061
 21
4.8291473259
  0
LINE
  5
3E7
100
AcDbEntity
  8
0
100
AcDbLine
 62
7
  6
CONTINUOUS
 10
1.7198384337
 20
5.4098559873
 11
1.7198384337
 21
5.1145803968
  0
LINE
  5
3E8
100
AcDbEntity
  8
0
100
AcDbLine
 62
7
  6
CONTINUOUS
 10
1.7385392211
 20
5.856706381
 11
1.7385392211
 21
5.6756040188
  0
LINE
  5
3E9
100
AcDbEntity
  8
0
100
AcDbLine
 62
7
  6
CONTINUOUS
 10
1.740507725
 20
5.856706381
 11
1.740507725
 21
5.6756040188
  0
LINE
  5
3EA
100
AcDbEntity
  8
0
100
AcDbLine
 62
7
  6
CONTINUOUS
 10
1.7533030006
 20
4.8291473259
 11
1.7533030006
 21
4.6952890582
  0
LINE
  5
3EB
100
AcDbEntity
  8
0
100
AcDbLine
 62
7
  6
CONTINUOUS
 10
1.7533030006
 20
4.6480449637
 11
1.7533030006
 21
4.514186696
  0
LINE
  5
3EC
100
AcDbEntity
  8
0
100
AcDbLine
 62
7
  6
CONTINUOUS
 10
1.7533030006
 20
4.4669426015
 11
1.7533030006
 21
4.3330843338
  0
LINE
  5
3ED
100
AcDbEntity
  8
0
100
AcDbLine
 62
7
  6
CONTINUOUS
 10
1.7533030006
 20
4.2858402393
 11
1.7533030006
 21
4.1519819716
  0
LINE
  5
3EE
100
AcDbEntity
  8
0
100
AcDbLine
 62
7
  6
CONTINUOUS
 10
1.7533030006
 20
4.1047378771
 11
1.7533030006
 21
3.9708796094
  0
LINE
  5
3EF
100
AcDbEntity
  8
0
100
AcDbLine
 62
7
  6
CONTINUOUS
 10
1.7533030006
 20
3.9236355149
 11
1.7533030006
 21
3.7897772472
  0
LINE
  5
3F0
100
AcDbEntity
  8
0
100
AcDbLine
 62
7
  6
CONTINUOUS
 10
1.7533030006
 20
3.7425331527
 11
1.7533030006
 21
3.608674885
  0
LINE
  5
3F1
100
AcDbEntity
  8
0
100
AcDbLine
 62
7
  6
CONTINUOUS
 10
1.7533030006
 20
3.5614307905
 11
1.7533030006
 21
3.4275725228
  0
LINE
  5
3F2
100
AcDbEntity
  8
0
100
AcDbLine
 62
7
  6
CONTINUOUS
 10
1.7533030006
 20
3.3803284283
 11
1.7533030006
 21
3.2464701606
  0
LINE
  5
3F3
100
AcDbEntity
  8
0
100
AcDbLine
 62
7
  6
CONTINUOUS
 10
1.7533030006
 20
3.1992260661
 11
1.7533030006
 21
3.0653677984
  0
LINE
  5
3F4
100
AcDbEntity
  8
0
100
AcDbLine
 62
7
  6
CONTINUOUS
 10
1.7533030006
 20
3.0181237039
 11
1.7533030006
 21
2.8842654361
  0
LINE
  5
3F5
100
AcDbEntity
  8
0
100
AcDbLine
 62
7
  6
CONTINUOUS
 10
1.7533030006
 20
2.8370213417
 11
1.7533030006
 21
2.7031630739
  0
LINE
  5
3F6
100
AcDbEntity
  8
0
100
AcDbLine
 62
7
  6
CONTINUOUS
 10
1.7533030006
 20
2.6559189795
 11
1.7533030006
 21
2.5220607117
  0
LINE
  5
3F7
100
AcDbEntity
  8
0
100
AcDbLine
 62
7
  6
CONTINUOUS
 10
1.7533030006
 20
2.4748166172
 11
1.7533030006
 21
2.3409583495
  0
LINE
  5
3F8
100
AcDbEntity
  8
0
100
AcDbLine
 62
7
  6
CONTINUOUS
 10
1.7533030006
 20
2.293714255
 11
1.7533030006
 21
2.1598559873
  0
LINE
  5
3F9
100
AcDbEntity
  8
0
100
AcDbLine
 62
7
  6
CONTINUOUS
 10
1.7533030006
 20
2.1126118928
 11
1.7533030006
 21
1.9787536251
  0
LINE
  5
3FA
100
AcDbEntity
  8
0
100
AcDbLine
 62
7
  6
CONTINUOUS
 10
1.7533030006
 20
1.9315095306
 11
1.7533030006
 21
1.7976512629
  0
LINE
  5
3FB
100
AcDbEntity
  8
0
100
AcDbLine
 62
7
  6
CONTINUOUS
 10
2.2493659927
 20
3.5614307905
 11
2.115507725
 21
3.5614307905
  0
LINE
  5
3FC
100
AcDbEntity
  8
0
100
AcDbLine
 62
7
  6
CONTINUOUS
 10
2.0682636305
 20
3.5614307905
 11
1.9344053628
 21
3.5614307905
  0
LINE
  5
3FD
100
AcDbEntity
  8
0
100
AcDbLine
 62
7
  6
CONTINUOUS
 10
1.8871612683
 20
3.5614307905
 11
1.7533030006
 21
3.5614307905
  0
LINE
  5
3FE
100
AcDbEntity
  8
0
100
AcDbLine
 62
7
  6
CONTINUOUS
 10
1.7060589061
 20
3.5614307905
 11
1.5722006384
 21
3.5614307905
  0
LINE
  5
3FF
100
AcDbEntity
  8
0
100
AcDbLine
 62
7
  6
CONTINUOUS
 10
1.5249565439
 20
3.5614307905
 11
1.3910982762
 21
3.5614307905
  0
LINE
  5
400
100
AcDbEntity
  8
0
100
AcDbLine
 62
7
  6
CONTINUOUS
 10
1.3438541817
 20
3.5614307905
 11
1.209995914
 21
3.5614307905
  0
LINE
  5
401
100
AcDbEntity
  8
0
100
AcDbLine
 62
7
  6
CONTINUOUS
 10
1.209995914
 20
3.608674885
 11
1.3438541817
 21
3.608674885
  0
LINE
  5
402
100
AcDbEntity
  8
0
100
AcDbLine
 62
7
  6
CONTINUOUS
 10
1.3910982762
 20
3.608674885
 11
1.5249565439
 21
3.608674885
  0
LINE
  5
403
100
AcDbEntity
  8
0
100
AcDbLine
 62
7
  6
CONTINUOUS
 10
1.5722006384
 20
3.608674885
 11
1.7060589061
 21
3.608674885
  0
LINE
  5
404
100
AcDbEntity
  8
0
100
AcDbLine
 62
7
  6
CONTINUOUS
 10
1.7533030006
 20
3.608674885
 11
1.8871612683
 21
3.608674885
  0
LINE
  5
405
100
AcDbEntity
  8
0
100
AcDbLine
 62
7
  6
CONTINUOUS
 10
1.9344053628
 20
3.608674885
 11
2.0682636305
 21
3.608674885
  0
LINE
  5
406
100
AcDbEntity
  8
0
100
AcDbLine
 62
7
  6
CONTINUOUS
 10
2.115507725
 20
3.608674885
 11
2.2493659927
 21
3.608674885
  0
LINE
  5
407
100
AcDbEntity
  8
0
100
AcDbLine
 62
7
  6
CONTINUOUS
 10
1.7690510321
 20
5.1145803968
 11
1.7690510321
 21
5.4098559873
  0
LINE
  5
408
100
AcDbEntity
  8
0
100
AcDbLine
 62
7
  6
CONTINUOUS
 10
1.8084211108
 20
5.3704859086
 11
1.8084211108
 21
5.1539504755
  0
LINE
  5
409
100
AcDbEntity
  8
0
100
AcDbLine
 62
7
  6
CONTINUOUS
 10
1.8871612683
 20
1.2984386645
 11
1.8871612683
 21
1.4362339401
  0
LINE
  5
40A
100
AcDbEntity
  8
0
100
AcDbLine
 62
7
  6
CONTINUOUS
 10
1.8871612683
 20
1.7976512629
 11
1.8871612683
 21
1.9315095306
  0
LINE
  5
40B
100
AcDbEntity
  8
0
100
AcDbLine
 62
7
  6
CONTINUOUS
 10
1.8871612683
 20
1.9787536251
 11
1.8871612683
 21
2.1126118928
  0
LINE
  5
40C
100
AcDbEntity
  8
0
100
AcDbLine
 62
7
  6
CONTINUOUS
 10
1.8871612683
 20
2.1598559873
 11
1.8871612683
 21
2.293714255
  0
LINE
  5
40D
100
AcDbEntity
  8
0
100
AcDbLine
 62
7
  6
CONTINUOUS
 10
1.8871612683
 20
2.3409583495
 11
1.8871612683
 21
2.4748166172
  0
LINE
  5
40E
100
AcDbEntity
  8
0
100
AcDbLine
 62
7
  6
CONTINUOUS
 10
1.8871612683
 20
2.5220607117
 11
1.8871612683
 21
2.6559189795
  0
LINE
  5
40F
100
AcDbEntity
  8
0
100
AcDbLine
 62
7
  6
CONTINUOUS
 10
1.8871612683
 20
2.7031630739
 11
1.8871612683
 21
2.8370213417
  0
LINE
  5
410
100
AcDbEntity
  8
0
100
AcDbLine
 62
7
  6
CONTINUOUS
 10
1.8871612683
 20
2.8842654361
 11
1.8871612683
 21
3.0181237039
  0
LINE
  5
411
100
AcDbEntity
  8
0
100
AcDbLine
 62
7
  6
CONTINUOUS
 10
1.8871612683
 20
3.0653677984
 11
1.8871612683
 21
3.1992260661
  0
LINE
  5
412
100
AcDbEntity
  8
0
100
AcDbLine
 62
7
  6
CONTINUOUS
 10
1.8871612683
 20
3.2464701606
 11
1.8871612683
 21
3.3803284283
  0
LINE
  5
413
100
AcDbEntity
  8
0
100
AcDbLine
 62
7
  6
CONTINUOUS
 10
1.8871612683
 20
3.4275725228
 11
1.8871612683
 21
3.5614307905
  0
LINE
  5
414
100
AcDbEntity
  8
0
100
AcDbLine
 62
7
  6
CONTINUOUS
 10
1.8871612683
 20
3.608674885
 11
1.8871612683
 21
3.7425331527
  0
LINE
  5
415
100
AcDbEntity
  8
0
100
AcDbLine
 62
7
  6
CONTINUOUS
 10
1.8871612683
 20
3.7897772472
 11
1.8871612683
 21
3.9236355149
  0
LINE
  5
416
100
AcDbEntity
  8
0
100
AcDbLine
 62
7
  6
CONTINUOUS
 10
1.8871612683
 20
3.9708796094
 11
1.8871612683
 21
4.1047378771
  0
LINE
  5
417
100
AcDbEntity
  8
0
100
AcDbLine
 62
7
  6
CONTINUOUS
 10
1.8871612683
 20
4.1519819716
 11
1.8871612683
 21
4.2858402393
  0
LINE
  5
418
100
AcDbEntity
  8
0
100
AcDbLine
 62
7
  6
CONTINUOUS
 10
1.8871612683
 20
4.3330843338
 11
1.8871612683
 21
4.4669426015
  0
LINE
  5
419
100
AcDbEntity
  8
0
100
AcDbLine
 62
7
  6
CONTINUOUS
 10
1.8871612683
 20
4.514186696
 11
1.8871612683
 21
4.6480449637
  0
LINE
  5
41A
100
AcDbEntity
  8
0
100
AcDbLine
 62
7
  6
CONTINUOUS
 10
1.8871612683
 20
4.6952890582
 11
1.8871612683
 21
4.8291473259
  0
LINE
  5
41B
100
AcDbEntity
  8
0
100
AcDbLine
 62
7
  6
CONTINUOUS
 10
1.9166888274
 20
5.3704859086
 11
1.9166888274
 21
5.1539504755
  0
LINE
  5
41C
100
AcDbEntity
  8
0
100
AcDbLine
 62
7
  6
CONTINUOUS
 10
2.2493659927
 20
3.7425331527
 11
2.115507725
 21
3.7425331527
  0
LINE
  5
41D
100
AcDbEntity
  8
0
100
AcDbLine
 62
7
  6
CONTINUOUS
 10
2.0682636305
 20
3.7425331527
 11
1.9344053628
 21
3.7425331527
  0
LINE
  5
41E
100
AcDbEntity
  8
0
100
AcDbLine
 62
7
  6
CONTINUOUS
 10
1.8871612683
 20
3.7425331527
 11
1.7533030006
 21
3.7425331527
  0
LINE
  5
41F
100
AcDbEntity
  8
0
100
AcDbLine
 62
7
  6
CONTINUOUS
 10
1.7060589061
 20
3.7425331527
 11
1.5722006384
 21
3.7425331527
  0
LINE
  5
420
100
AcDbEntity
  8
0
100
AcDbLine
 62
7
  6
CONTINUOUS
 10
1.5249565439
 20
3.7425331527
 11
1.3910982762
 21
3.7425331527
  0
LINE
  5
421
100
AcDbEntity
  8
0
100
AcDbLine
 62
7
  6
CONTINUOUS
 10
1.3438541817
 20
3.7425331527
 11
1.209995914
 21
3.7425331527
  0
LINE
  5
422
100
AcDbEntity
  8
0
100
AcDbLine
 62
7
  6
CONTINUOUS
 10
1.209995914
 20
3.7897772472
 11
1.3438541817
 21
3.7897772472
  0
LINE
  5
423
100
AcDbEntity
  8
0
100
AcDbLine
 62
7
  6
CONTINUOUS
 10
1.3910982762
 20
3.7897772472
 11
1.5249565439
 21
3.7897772472
  0
LINE
  5
424
100
AcDbEntity
  8
0
100
AcDbLine
 62
7
  6
CONTINUOUS
 10
1.5722006384
 20
3.7897772472
 11
1.7060589061
 21
3.7897772472
  0
LINE
  5
425
100
AcDbEntity
  8
0
100
AcDbLine
 62
7
  6
CONTINUOUS
 10
1.7533030006
 20
3.7897772472
 11
1.8871612683
 21
3.7897772472
  0
LINE
  5
426
100
AcDbEntity
  8
0
100
AcDbLine
 62
7
  6
CONTINUOUS
 10
1.9344053628
 20
3.7897772472
 11
2.0682636305
 21
3.7897772472
  0
LINE
  5
427
100
AcDbEntity
  8
0
100
AcDbLine
 62
7
  6
CONTINUOUS
 10
2.115507725
 20
3.7897772472
 11
2.2493659927
 21
3.7897772472
  0
LINE
  5
428
100
AcDbEntity
  8
0
100
AcDbLine
 62
7
  6
CONTINUOUS
 10
1.9344053628
 20
4.8291473259
 11
1.9344053628
 21
4.6952890582
  0
LINE
  5
429
100
AcDbEntity
  8
0
100
AcDbLine
 62
7
  6
CONTINUOUS
 10
1.9344053628
 20
4.6480449637
 11
1.9344053628
 21
4.514186696
  0
LINE
  5
42A
100
AcDbEntity
  8
0
100
AcDbLine
 62
7
  6
CONTINUOUS
 10
1.9344053628
 20
4.4669426015
 11
1.9344053628
 21
4.3330843338
  0
LINE
  5
42B
100
AcDbEntity
  8
0
100
AcDbLine
 62
7
  6
CONTINUOUS
 10
1.9344053628
 20
4.2858402393
 11
1.9344053628
 21
4.1519819716
  0
LINE
  5
42C
100
AcDbEntity
  8
0
100
AcDbLine
 62
7
  6
CONTINUOUS
 10
1.9344053628
 20
4.1047378771
 11
1.9344053628
 21
3.9708796094
  0
LINE
  5
42D
100
AcDbEntity
  8
0
100
AcDbLine
 62
7
  6
CONTINUOUS
 10
1.9344053628
 20
3.9236355149
 11
1.9344053628
 21
3.7897772472
  0
LINE
  5
42E
100
AcDbEntity
  8
0
100
AcDbLine
 62
7
  6
CONTINUOUS
 10
1.9344053628
 20
3.7425331527
 11
1.9344053628
 21
3.608674885
  0
LINE
  5
42F
100
AcDbEntity
  8
0
100
AcDbLine
 62
7
  6
CONTINUOUS
 10
1.9344053628
 20
3.5614307905
 11
1.9344053628
 21
3.4275725228
  0
LINE
  5
430
100
AcDbEntity
  8
0
100
AcDbLine
 62
7
  6
CONTINUOUS
 10
1.9344053628
 20
3.3803284283
 11
1.9344053628
 21
3.2464701606
  0
LINE
  5
431
100
AcDbEntity
  8
0
100
AcDbLine
 62
7
  6
CONTINUOUS
 10
1.9344053628
 20
3.1992260661
 11
1.9344053628
 21
3.0653677984
  0
LINE
  5
432
100
AcDbEntity
  8
0
100
AcDbLine
 62
7
  6
CONTINUOUS
 10
1.9344053628
 20
3.0181237039
 11
1.9344053628
 21
2.8842654361
  0
LINE
  5
433
100
AcDbEntity
  8
0
100
AcDbLine
 62
7
  6
CONTINUOUS
 10
1.9344053628
 20
2.8370213417
 11
1.9344053628
 21
2.7031630739
  0
LINE
  5
434
100
AcDbEntity
  8
0
100
AcDbLine
 62
7
  6
CONTINUOUS
 10
1.9344053628
 20
2.6559189795
 11
1.9344053628
 21
2.5220607117
  0
LINE
  5
435
100
AcDbEntity
  8
0
100
AcDbLine
 62
7
  6
CONTINUOUS
 10
1.9344053628
 20
2.4748166172
 11
1.9344053628
 21
2.3409583495
  0
LINE
  5
436
100
AcDbEntity
  8
0
100
AcDbLine
 62
7
  6
CONTINUOUS
 10
1.9344053628
 20
2.293714255
 11
1.9344053628
 21
2.1598559873
  0
LINE
  5
437
100
AcDbEntity
  8
0
100
AcDbLine
 62
7
  6
CONTINUOUS
 10
1.9344053628
 20
2.1126118928
 11
1.9344053628
 21
1.9787536251
  0
LINE
  5
438
100
AcDbEntity
  8
0
100
AcDbLine
 62
7
  6
CONTINUOUS
 10
1.9344053628
 20
1.9315095306
 11
1.9344053628
 21
1.7976512629
  0
LINE
  5
439
100
AcDbEntity
  8
0
100
AcDbLine
 62
7
  6
CONTINUOUS
 10
1.9560589061
 20
5.4098559873
 11
1.9560589061
 21
5.1145803968
  0
LINE
  5
43A
100
AcDbEntity
  8
0
100
AcDbLine
 62
7
  6
CONTINUOUS
 10
1.9659014258
 20
1.2984386645
 11
1.9659014258
 21
1.7000134676
  0
LINE
  5
43B
100
AcDbEntity
  8
0
100
AcDbLine
 62
7
  6
CONTINUOUS
 10
1.9747596935
 20
5.856706381
 11
1.9747596935
 21
5.6756040188
  0
LINE
  5
43C
100
AcDbEntity
  8
0
100
AcDbLine
 62
7
  6
CONTINUOUS
 10
1.9767281975
 20
5.856706381
 11
1.9767281975
 21
5.6756040188
  0
LINE
  5
43D
100
AcDbEntity
  8
0
100
AcDbLine
 62
7
  6
CONTINUOUS
 10
1.9954289849
 20
5.1145803968
 11
1.9954289849
 21
5.4098559873
  0
LINE
  5
43E
100
AcDbEntity
  8
0
100
AcDbLine
 62
7
  6
CONTINUOUS
 10
2.0347990636
 20
5.3704859086
 11
2.0347990636
 21
5.1539504755
  0
LINE
  5
43F
100
AcDbEntity
  8
0
100
AcDbLine
 62
7
  6
CONTINUOUS
 10
2.0446415833
 20
1.2984386645
 11
2.0446415833
 21
1.7000134676
  0
LINE
  5
440
100
AcDbEntity
  8
0
100
AcDbLine
 62
7
  6
CONTINUOUS
 10
2.0682636305
 20
1.7976512629
 11
2.0682636305
 21
1.9315095306
  0
LINE
  5
441
100
AcDbEntity
  8
0
100
AcDbLine
 62
7
  6
CONTINUOUS
 10
2.0682636305
 20
1.9787536251
 11
2.0682636305
 21
2.1126118928
  0
LINE
  5
442
100
AcDbEntity
  8
0
100
AcDbLine
 62
7
  6
CONTINUOUS
 10
2.0682636305
 20
2.1598559873
 11
2.0682636305
 21
2.293714255
  0
LINE
  5
443
100
AcDbEntity
  8
0
100
AcDbLine
 62
7
  6
CONTINUOUS
 10
2.0682636305
 20
2.3409583495
 11
2.0682636305
 21
2.4748166172
  0
LINE
  5
444
100
AcDbEntity
  8
0
100
AcDbLine
 62
7
  6
CONTINUOUS
 10
2.0682636305
 20
2.5220607117
 11
2.0682636305
 21
2.6559189795
  0
LINE
  5
445
100
AcDbEntity
  8
0
100
AcDbLine
 62
7
  6
CONTINUOUS
 10
2.0682636305
 20
2.7031630739
 11
2.0682636305
 21
2.8370213417
  0
LINE
  5
446
100
AcDbEntity
  8
0
100
AcDbLine
 62
7
  6
CONTINUOUS
 10
2.0682636305
 20
2.8842654361
 11
2.0682636305
 21
3.0181237039
  0
LINE
  5
447
100
AcDbEntity
  8
0
100
AcDbLine
 62
7
  6
CONTINUOUS
 10
2.0682636305
 20
3.0653677984
 11
2.0682636305
 21
3.1992260661
  0
LINE
  5
448
100
AcDbEntity
  8
0
100
AcDbLine
 62
7
  6
CONTINUOUS
 10
2.0682636305
 20
3.2464701606
 11
2.0682636305
 21
3.3803284283
  0
LINE
  5
449
100
AcDbEntity
  8
0
100
AcDbLine
 62
7
  6
CONTINUOUS
 10
2.0682636305
 20
3.4275725228
 11
2.0682636305
 21
3.5614307905
  0
LINE
  5
44A
100
AcDbEntity
  8
0
100
AcDbLine
 62
7
  6
CONTINUOUS
 10
2.0682636305
 20
3.608674885
 11
2.0682636305
 21
3.7425331527
  0
LINE
  5
44B
100
AcDbEntity
  8
0
100
AcDbLine
 62
7
  6
CONTINUOUS
 10
2.0682636305
 20
3.7897772472
 11
2.0682636305
 21
3.9236355149
  0
LINE
  5
44C
100
AcDbEntity
  8
0
100
AcDbLine
 62
7
  6
CONTINUOUS
 10
2.0682636305
 20
3.9708796094
 11
2.0682636305
 21
4.1047378771
  0
LINE
  5
44D
100
AcDbEntity
  8
0
100
AcDbLine
 62
7
  6
CONTINUOUS
 10
2.0682636305
 20
4.1519819716
 11
2.0682636305
 21
4.2858402393
  0
LINE
  5
44E
100
AcDbEntity
  8
0
100
AcDbLine
 62
7
  6
CONTINUOUS
 10
2.0682636305
 20
4.3330843338
 11
2.0682636305
 21
4.4669426015
  0
LINE
  5
44F
100
AcDbEntity
  8
0
100
AcDbLine
 62
7
  6
CONTINUOUS
 10
2.0682636305
 20
4.514186696
 11
2.0682636305
 21
4.6480449637
  0
LINE
  5
450
100
AcDbEntity
  8
0
100
AcDbLine
 62
7
  6
CONTINUOUS
 10
2.0682636305
 20
4.6952890582
 11
2.0682636305
 21
4.8291473259
  0
LINE
  5
451
100
AcDbEntity
  8
0
100
AcDbLine
 62
7
  6
CONTINUOUS
 10
2.2493659927
 20
3.9236355149
 11
2.115507725
 21
3.9236355149
  0
LINE
  5
452
100
AcDbEntity
  8
0
100
AcDbLine
 62
7
  6
CONTINUOUS
 10
2.0682636305
 20
3.9236355149
 11
1.9344053628
 21
3.9236355149
  0
LINE
  5
453
100
AcDbEntity
  8
0
100
AcDbLine
 62
7
  6
CONTINUOUS
 10
1.8871612683
 20
3.9236355149
 11
1.7533030006
 21
3.9236355149
  0
LINE
  5
454
100
AcDbEntity
  8
0
100
AcDbLine
 62
7
  6
CONTINUOUS
 10
1.7060589061
 20
3.9236355149
 11
1.5722006384
 21
3.9236355149
  0
LINE
  5
455
100
AcDbEntity
  8
0
100
AcDbLine
 62
7
  6
CONTINUOUS
 10
1.5249565439
 20
3.9236355149
 11
1.3910982762
 21
3.9236355149
  0
LINE
  5
456
100
AcDbEntity
  8
0
100
AcDbLine
 62
7
  6
CONTINUOUS
 10
1.3438541817
 20
3.9236355149
 11
1.209995914
 21
3.9236355149
  0
LINE
  5
457
100
AcDbEntity
  8
0
100
AcDbLine
 62
7
  6
CONTINUOUS
 10
1.209995914
 20
3.9708796094
 11
1.3438541817
 21
3.9708796094
  0
LINE
  5
458
100
AcDbEntity
  8
0
100
AcDbLine
 62
7
  6
CONTINUOUS
 10
1.3910982762
 20
3.9708796094
 11
1.5249565439
 21
3.9708796094
  0
LINE
  5
459
100
AcDbEntity
  8
0
100
AcDbLine
 62
7
  6
CONTINUOUS
 10
1.5722006384
 20
3.9708796094
 11
1.7060589061
 21
3.9708796094
  0
LINE
  5
45A
100
AcDbEntity
  8
0
100
AcDbLine
 62
7
  6
CONTINUOUS
 10
1.7533030006
 20
3.9708796094
 11
1.8871612683
 21
3.9708796094
  0
LINE
  5
45B
100
AcDbEntity
  8
0
100
AcDbLine
 62
7
  6
CONTINUOUS
 10
1.9344053628
 20
3.9708796094
 11
2.0682636305
 21
3.9708796094
  0
LINE
  5
45C
100
AcDbEntity
  8
0
100
AcDbLine
 62
7
  6
CONTINUOUS
 10
2.115507725
 20
3.9708796094
 11
2.2493659927
 21
3.9708796094
  0
LINE
  5
45D
100
AcDbEntity
  8
0
100
AcDbLine
 62
7
  6
CONTINUOUS
 10
2.115507725
 20
4.8291473259
 11
2.115507725
 21
4.6952890582
  0
LINE
  5
45E
100
AcDbEntity
  8
0
100
AcDbLine
 62
7
  6
CONTINUOUS
 10
2.115507725
 20
4.6480449637
 11
2.115507725
 21
4.514186696
  0
LINE
  5
45F
100
AcDbEntity
  8
0
100
AcDbLine
 62
7
  6
CONTINUOUS
 10
2.115507725
 20
4.4669426015
 11
2.115507725
 21
4.3330843338
  0
LINE
  5
460
100
AcDbEntity
  8
0
100
AcDbLine
 62
7
  6
CONTINUOUS
 10
2.115507725
 20
4.2858402393
 11
2.115507725
 21
4.1519819716
  0
LINE
  5
461
100
AcDbEntity
  8
0
100
AcDbLine
 62
7
  6
CONTINUOUS
 10
2.115507725
 20
4.1047378771
 11
2.115507725
 21
3.9708796094
  0
LINE
  5
462
100
AcDbEntity
  8
0
100
AcDbLine
 62
7
  6
CONTINUOUS
 10
2.115507725
 20
3.9236355149
 11
2.115507725
 21
3.7897772472
  0
LINE
  5
463
100
AcDbEntity
  8
0
100
AcDbLine
 62
7
  6
CONTINUOUS
 10
2.115507725
 20
3.7425331527
 11
2.115507725
 21
3.608674885
  0
LINE
  5
464
100
AcDbEntity
  8
0
100
AcDbLine
 62
7
  6
CONTINUOUS
 10
2.115507725
 20
3.5614307905
 11
2.115507725
 21
3.4275725228
  0
LINE
  5
465
100
AcDbEntity
  8
0
100
AcDbLine
 62
7
  6
CONTINUOUS
 10
2.115507725
 20
3.3803284283
 11
2.115507725
 21
3.2464701606
  0
LINE
  5
466
100
AcDbEntity
  8
0
100
AcDbLine
 62
7
  6
CONTINUOUS
 10
2.115507725
 20
3.1992260661
 11
2.115507725
 21
3.0653677984
  0
LINE
  5
467
100
AcDbEntity
  8
0
100
AcDbLine
 62
7
  6
CONTINUOUS
 10
2.115507725
 20
3.0181237039
 11
2.115507725
 21
2.8842654361
  0
LINE
  5
468
100
AcDbEntity
  8
0
100
AcDbLine
 62
7
  6
CONTINUOUS
 10
2.115507725
 20
2.8370213417
 11
2.115507725
 21
2.7031630739
  0
LINE
  5
469
100
AcDbEntity
  8
0
100
AcDbLine
 62
7
  6
CONTINUOUS
 10
2.115507725
 20
2.6559189795
 11
2.115507725
 21
2.5220607117
  0
LINE
  5
46A
100
AcDbEntity
  8
0
100
AcDbLine
 62
7
  6
CONTINUOUS
 10
2.115507725
 20
2.4748166172
 11
2.115507725
 21
2.3409583495
  0
LINE
  5
46B
100
AcDbEntity
  8
0
100
AcDbLine
 62
7
  6
CONTINUOUS
 10
2.115507725
 20
2.293714255
 11
2.115507725
 21
2.1598559873
  0
LINE
  5
46C
100
AcDbEntity
  8
0
100
AcDbLine
 62
7
  6
CONTINUOUS
 10
2.115507725
 20
2.1126118928
 11
2.115507725
 21
1.9787536251
  0
LINE
  5
46D
100
AcDbEntity
  8
0
100
AcDbLine
 62
7
  6
CONTINUOUS
 10
2.115507725
 20
1.9315095306
 11
2.115507725
 21
1.7976512629
  0
LINE
  5
46E
100
AcDbEntity
  8
0
100
AcDbLine
 62
7
  6
CONTINUOUS
 10
2.1430667801
 20
5.3704859086
 11
2.1430667801
 21
5.1539504755
  0
LINE
  5
46F
100
AcDbEntity
  8
0
100
AcDbLine
 62
7
  6
CONTINUOUS
 10
2.1824368589
 20
5.4098559873
 11
2.1824368589
 21
5.1145803968
  0
LINE
  5
470
100
AcDbEntity
  8
0
100
AcDbLine
 62
7
  6
CONTINUOUS
 10
2.210980166
 20
5.856706381
 11
2.210980166
 21
5.6756040188
  0
LINE
  5
471
100
AcDbEntity
  8
0
100
AcDbLine
 62
7
  6
CONTINUOUS
 10
2.2119644179
 20
5.0063126802
 11
2.2119644179
 21
5.8220076967
  0
LINE
  5
472
100
AcDbEntity
  8
0
100
AcDbLine
 62
7
  6
CONTINUOUS
 10
2.2493659927
 20
4.8291473259
 11
2.2493659927
 21
4.6952890582
  0
LINE
  5
473
100
AcDbEntity
  8
0
100
AcDbLine
 62
7
  6
CONTINUOUS
 10
2.2493659927
 20
4.6480449637
 11
2.2493659927
 21
4.514186696
  0
LINE
  5
474
100
AcDbEntity
  8
0
100
AcDbLine
 62
7
  6
CONTINUOUS
 10
2.2493659927
 20
4.4669426015
 11
2.2493659927
 21
4.3330843338
  0
LINE
  5
475
100
AcDbEntity
  8
0
100
AcDbLine
 62
7
  6
CONTINUOUS
 10
2.2493659927
 20
4.2858402393
 11
2.2493659927
 21
4.1519819716
  0
LINE
  5
476
100
AcDbEntity
  8
0
100
AcDbLine
 62
7
  6
CONTINUOUS
 10
2.2493659927
 20
4.1047378771
 11
2.2493659927
 21
3.9708796094
  0
LINE
  5
477
100
AcDbEntity
  8
0
100
AcDbLine
 62
7
  6
CONTINUOUS
 10
2.2493659927
 20
3.9236355149
 11
2.2493659927
 21
3.7897772472
  0
LINE
  5
478
100
AcDbEntity
  8
0
100
AcDbLine
 62
7
  6
CONTINUOUS
 10
2.2493659927
 20
3.7425331527
 11
2.2493659927
 21
3.608674885
  0
LINE
  5
479
100
AcDbEntity
  8
0
100
AcDbLine
 62
7
  6
CONTINUOUS
 10
2.2493659927
 20
3.5614307905
 11
2.2493659927
 21
3.4275725228
  0
LINE
  5
47A
100
AcDbEntity
  8
0
100
AcDbLine
 62
7
  6
CONTINUOUS
 10
2.2493659927
 20
3.3803284283
 11
2.2493659927
 21
3.2464701606
  0
LINE
  5
47B
100
AcDbEntity
  8
0
100
AcDbLine
 62
7
  6
CONTINUOUS
 10
2.2493659927
 20
3.1992260661
 11
2.2493659927
 21
3.0653677984
  0
LINE
  5
47C
100
AcDbEntity
  8
0
100
AcDbLine
 62
7
  6
CONTINUOUS
 10
2.2493659927
 20
3.0181237039
 11
2.2493659927
 21
2.8842654361
  0
LINE
  5
47D
100
AcDbEntity
  8
0
100
AcDbLine
 62
7
  6
CONTINUOUS
 10
2.2493659927
 20
2.8370213417
 11
2.2493659927
 21
2.7031630739
  0
LINE
  5
47E
100
AcDbEntity
  8
0
100
AcDbLine
 62
7
  6
CONTINUOUS
 10
2.2493659927
 20
2.6559189795
 11
2.2493659927
 21
2.5220607117
  0
LINE
  5
47F
100
AcDbEntity
  8
0
100
AcDbLine
 62
7
  6
CONTINUOUS
 10
2.2493659927
 20
2.4748166172
 11
2.2493659927
 21
2.3409583495
  0
LINE
  5
480
100
AcDbEntity
  8
0
100
AcDbLine
 62
7
  6
CONTINUOUS
 10
2.2493659927
 20
2.293714255
 11
2.2493659927
 21
2.1598559873
  0
LINE
  5
481
100
AcDbEntity
  8
0
100
AcDbLine
 62
7
  6
CONTINUOUS
 10
2.2493659927
 20
2.1126118928
 11
2.2493659927
 21
1.9787536251
  0
LINE
  5
482
100
AcDbEntity
  8
0
100
AcDbLine
 62
7
  6
CONTINUOUS
 10
2.2493659927
 20
1.9315095306
 11
2.2493659927
 21
1.7976512629
  0
LINE
  5
483
100
AcDbEntity
  8
0
100
AcDbLine
 62
7
  6
CONTINUOUS
 10
2.2493659927
 20
4.1047378771
 11
2.115507725
 21
4.1047378771
  0
LINE
  5
484
100
AcDbEntity
  8
0
100
AcDbLine
 62
7
  6
CONTINUOUS
 10
2.0682636305
 20
4.1047378771
 11
1.9344053628
 21
4.1047378771
  0
LINE
  5
485
100
AcDbEntity
  8
0
100
AcDbLine
 62
7
  6
CONTINUOUS
 10
1.8871612683
 20
4.1047378771
 11
1.7533030006
 21
4.1047378771
  0
LINE
  5
486
100
AcDbEntity
  8
0
100
AcDbLine
 62
7
  6
CONTINUOUS
 10
1.7060589061
 20
4.1047378771
 11
1.5722006384
 21
4.1047378771
  0
LINE
  5
487
100
AcDbEntity
  8
0
100
AcDbLine
 62
7
  6
CONTINUOUS
 10
1.5249565439
 20
4.1047378771
 11
1.3910982762
 21
4.1047378771
  0
LINE
  5
488
100
AcDbEntity
  8
0
100
AcDbLine
 62
7
  6
CONTINUOUS
 10
1.3438541817
 20
4.1047378771
 11
1.209995914
 21
4.1047378771
  0
LINE
  5
489
100
AcDbEntity
  8
0
100
AcDbLine
 62
7
  6
CONTINUOUS
 10
1.209995914
 20
4.1519819716
 11
1.3438541817
 21
4.1519819716
  0
LINE
  5
48A
100
AcDbEntity
  8
0
100
AcDbLine
 62
7
  6
CONTINUOUS
 10
1.3910982762
 20
4.1519819716
 11
1.5249565439
 21
4.1519819716
  0
LINE
  5
48B
100
AcDbEntity
  8
0
100
AcDbLine
 62
7
  6
CONTINUOUS
 10
1.5722006384
 20
4.1519819716
 11
1.7060589061
 21
4.1519819716
  0
LINE
  5
48C
100
AcDbEntity
  8
0
100
AcDbLine
 62
7
  6
CONTINUOUS
 10
1.7533030006
 20
4.1519819716
 11
1.8871612683
 21
4.1519819716
  0
LINE
  5
48D
100
AcDbEntity
  8
0
100
AcDbLine
 62
7
  6
CONTINUOUS
 10
1.9344053628
 20
4.1519819716
 11
2.0682636305
 21
4.1519819716
  0
LINE
  5
48E
100
AcDbEntity
  8
0
100
AcDbLine
 62
7
  6
CONTINUOUS
 10
2.115507725
 20
4.1519819716
 11
2.2493659927
 21
4.1519819716
  0
LINE
  5
48F
100
AcDbEntity
  8
0
100
AcDbLine
 62
7
  6
CONTINUOUS
 10
2.3399171738
 20
1.2984386645
 11
2.3399171738
 21
1.7000134676
  0
LINE
  5
490
100
AcDbEntity
  8
0
100
AcDbLine
 62
7
  6
CONTINUOUS
 10
2.3399171738
 20
5.720786534
 11
2.3399171738
 21
6.0787866305
  0
LINE
  5
491
100
AcDbEntity
  8
0
100
AcDbLine
 62
7
  6
CONTINUOUS
 10
2.3596022132
 20
1.7000134676
 11
2.3596022132
 21
6.0693045399
  0
LINE
  5
492
100
AcDbEntity
  8
0
100
AcDbLine
 62
7
  6
CONTINUOUS
 10
2.3694447329
 20
1.856706381
 11
2.3694447329
 21
4.5338620604
  0
LINE
  5
493
100
AcDbEntity
  8
0
100
AcDbLine
 62
7
  6
CONTINUOUS
 10
2.2493659927
 20
4.2858402393
 11
2.115507725
 21
4.2858402393
  0
LINE
  5
494
100
AcDbEntity
  8
0
100
AcDbLine
 62
7
  6
CONTINUOUS
 10
2.0682636305
 20
4.2858402393
 11
1.9344053628
 21
4.2858402393
  0
LINE
  5
495
100
AcDbEntity
  8
0
100
AcDbLine
 62
7
  6
CONTINUOUS
 10
1.8871612683
 20
4.2858402393
 11
1.7533030006
 21
4.2858402393
  0
LINE
  5
496
100
AcDbEntity
  8
0
100
AcDbLine
 62
7
  6
CONTINUOUS
 10
1.7060589061
 20
4.2858402393
 11
1.5722006384
 21
4.2858402393
  0
LINE
  5
497
100
AcDbEntity
  8
0
100
AcDbLine
 62
7
  6
CONTINUOUS
 10
1.5249565439
 20
4.2858402393
 11
1.3910982762
 21
4.2858402393
  0
LINE
  5
498
100
AcDbEntity
  8
0
100
AcDbLine
 62
7
  6
CONTINUOUS
 10
1.3438541817
 20
4.2858402393
 11
1.209995914
 21
4.2858402393
  0
LINE
  5
499
100
AcDbEntity
  8
0
100
AcDbLine
 62
7
  6
CONTINUOUS
 10
1.209995914
 20
4.3330843338
 11
1.3438541817
 21
4.3330843338
  0
LINE
  5
49A
100
AcDbEntity
  8
0
100
AcDbLine
 62
7
  6
CONTINUOUS
 10
1.3910982762
 20
4.3330843338
 11
1.5249565439
 21
4.3330843338
  0
LINE
  5
49B
100
AcDbEntity
  8
0
100
AcDbLine
 62
7
  6
CONTINUOUS
 10
1.5722006384
 20
4.3330843338
 11
1.7060589061
 21
4.3330843338
  0
LINE
  5
49C
100
AcDbEntity
  8
0
100
AcDbLine
 62
7
  6
CONTINUOUS
 10
1.7533030006
 20
4.3330843338
 11
1.8871612683
 21
4.3330843338
  0
LINE
  5
49D
100
AcDbEntity
  8
0
100
AcDbLine
 62
7
  6
CONTINUOUS
 10
1.9344053628
 20
4.3330843338
 11
2.0682636305
 21
4.3330843338
  0
LINE
  5
49E
100
AcDbEntity
  8
0
100
AcDbLine
 62
7
  6
CONTINUOUS
 10
2.115507725
 20
4.3330843338
 11
2.2493659927
 21
4.3330843338
  0
LINE
  5
49F
100
AcDbEntity
  8
0
100
AcDbLine
 62
7
  6
CONTINUOUS
 10
2.2493659927
 20
4.4669426015
 11
2.115507725
 21
4.4669426015
  0
LINE
  5
4A0
100
AcDbEntity
  8
0
100
AcDbLine
 62
7
  6
CONTINUOUS
 10
2.0682636305
 20
4.4669426015
 11
1.9344053628
 21
4.4669426015
  0
LINE
  5
4A1
100
AcDbEntity
  8
0
100
AcDbLine
 62
7
  6
CONTINUOUS
 10
1.8871612683
 20
4.4669426015
 11
1.7533030006
 21
4.4669426015
  0
LINE
  5
4A2
100
AcDbEntity
  8
0
100
AcDbLine
 62
7
  6
CONTINUOUS
 10
1.7060589061
 20
4.4669426015
 11
1.5722006384
 21
4.4669426015
  0
LINE
  5
4A3
100
AcDbEntity
  8
0
100
AcDbLine
 62
7
  6
CONTINUOUS
 10
1.5249565439
 20
4.4669426015
 11
1.3910982762
 21
4.4669426015
  0
LINE
  5
4A4
100
AcDbEntity
  8
0
100
AcDbLine
 62
7
  6
CONTINUOUS
 10
1.3438541817
 20
4.4669426015
 11
1.209995914
 21
4.4669426015
  0
LINE
  5
4A5
100
AcDbEntity
  8
0
100
AcDbLine
 62
7
  6
CONTINUOUS
 10
1.209995914
 20
4.514186696
 11
1.3438541817
 21
4.514186696
  0
LINE
  5
4A6
100
AcDbEntity
  8
0
100
AcDbLine
 62
7
  6
CONTINUOUS
 10
1.3910982762
 20
4.514186696
 11
1.5249565439
 21
4.514186696
  0
LINE
  5
4A7
100
AcDbEntity
  8
0
100
AcDbLine
 62
7
  6
CONTINUOUS
 10
1.5722006384
 20
4.514186696
 11
1.7060589061
 21
4.514186696
  0
LINE
  5
4A8
100
AcDbEntity
  8
0
100
AcDbLine
 62
7
  6
CONTINUOUS
 10
1.7533030006
 20
4.514186696
 11
1.8871612683
 21
4.514186696
  0
LINE
  5
4A9
100
AcDbEntity
  8
0
100
AcDbLine
 62
7
  6
CONTINUOUS
 10
1.9344053628
 20
4.514186696
 11
2.0682636305
 21
4.514186696
  0
LINE
  5
4AA
100
AcDbEntity
  8
0
100
AcDbLine
 62
7
  6
CONTINUOUS
 10
2.115507725
 20
4.514186696
 11
2.2493659927
 21
4.514186696
  0
LINE
  5
4AB
100
AcDbEntity
  8
0
100
AcDbLine
 62
7
  6
CONTINUOUS
 10
2.3596022132
 20
4.5338717354
 11
2.3694447329
 21
4.5338717354
  0
LINE
  5
4AC
100
AcDbEntity
  8
0
100
AcDbLine
 62
7
  6
CONTINUOUS
 10
1.4836179612
 20
5.1145803968
 11
1.4442478825
 21
5.1539504755
  0
LINE
  5
4AD
100
AcDbEntity
  8
0
100
AcDbLine
 62
7
  6
CONTINUOUS
 10
2.2493659927
 20
4.6480449637
 11
2.115507725
 21
4.6480449637
  0
LINE
  5
4AE
100
AcDbEntity
  8
0
100
AcDbLine
 62
7
  6
CONTINUOUS
 10
2.0682636305
 20
4.6480449637
 11
1.9344053628
 21
4.6480449637
  0
LINE
  5
4AF
100
AcDbEntity
  8
0
100
AcDbLine
 62
7
  6
CONTINUOUS
 10
1.8871612683
 20
4.6480449637
 11
1.7533030006
 21
4.6480449637
  0
LINE
  5
4B0
100
AcDbEntity
  8
0
100
AcDbLine
 62
7
  6
CONTINUOUS
 10
1.7060589061
 20
4.6480449637
 11
1.5722006384
 21
4.6480449637
  0
LINE
  5
4B1
100
AcDbEntity
  8
0
100
AcDbLine
 62
7
  6
CONTINUOUS
 10
1.5249565439
 20
4.6480449637
 11
1.3910982762
 21
4.6480449637
  0
LINE
  5
4B2
100
AcDbEntity
  8
0
100
AcDbLine
 62
7
  6
CONTINUOUS
 10
1.3438541817
 20
4.6480449637
 11
1.209995914
 21
4.6480449637
  0
LINE
  5
4B3
100
AcDbEntity
  8
0
100
AcDbLine
 62
7
  6
CONTINUOUS
 10
1.209995914
 20
4.6952890582
 11
1.3438541817
 21
4.6952890582
  0
LINE
  5
4B4
100
AcDbEntity
  8
0
100
AcDbLine
 62
7
  6
CONTINUOUS
 10
1.3910982762
 20
4.6952890582
 11
1.5249565439
 21
4.6952890582
  0
LINE
  5
4B5
100
AcDbEntity
  8
0
100
AcDbLine
 62
7
  6
CONTINUOUS
 10
1.5722006384
 20
4.6952890582
 11
1.7060589061
 21
4.6952890582
  0
LINE
  5
4B6
100
AcDbEntity
  8
0
100
AcDbLine
 62
7
  6
CONTINUOUS
 10
1.7533030006
 20
4.6952890582
 11
1.8871612683
 21
4.6952890582
  0
LINE
  5
4B7
100
AcDbEntity
  8
0
100
AcDbLine
 62
7
  6
CONTINUOUS
 10
1.9344053628
 20
4.6952890582
 11
2.0682636305
 21
4.6952890582
  0
LINE
  5
4B8
100
AcDbEntity
  8
0
100
AcDbLine
 62
7
  6
CONTINUOUS
 10
2.115507725
 20
4.6952890582
 11
2.2493659927
 21
4.6952890582
  0
LINE
  5
4B9
100
AcDbEntity
  8
0
100
AcDbLine
 62
7
  6
CONTINUOUS
 10
1.2966100872
 20
5.4098559873
 11
1.335980166
 21
5.3704859086
  0
LINE
  5
4BA
100
AcDbEntity
  8
0
100
AcDbLine
 62
7
  6
CONTINUOUS
 10
1.7198384337
 20
5.1145803968
 11
1.6804683549
 21
5.1539504755
  0
LINE
  5
4BB
100
AcDbEntity
  8
0
100
AcDbLine
 62
7
  6
CONTINUOUS
 10
1.209995914
 20
4.8291473259
 11
1.3438541817
 21
4.8291473259
  0
LINE
  5
4BC
100
AcDbEntity
  8
0
100
AcDbLine
 62
7
  6
CONTINUOUS
 10
1.3910982762
 20
4.8291473259
 11
1.5249565439
 21
4.8291473259
  0
LINE
  5
4BD
100
AcDbEntity
  8
0
100
AcDbLine
 62
7
  6
CONTINUOUS
 10
1.5722006384
 20
4.8291473259
 11
1.7060589061
 21
4.8291473259
  0
LINE
  5
4BE
100
AcDbEntity
  8
0
100
AcDbLine
 62
7
  6
CONTINUOUS
 10
1.7533030006
 20
4.8291473259
 11
1.8871612683
 21
4.8291473259
  0
LINE
  5
4BF
100
AcDbEntity
  8
0
100
AcDbLine
 62
7
  6
CONTINUOUS
 10
1.9344053628
 20
4.8291473259
 11
2.0682636305
 21
4.8291473259
  0
LINE
  5
4C0
100
AcDbEntity
  8
0
100
AcDbLine
 62
7
  6
CONTINUOUS
 10
2.115507725
 20
4.8291473259
 11
2.2493659927
 21
4.8291473259
  0
LINE
  5
4C1
100
AcDbEntity
  8
0
100
AcDbLine
 62
7
  6
CONTINUOUS
 10
1.5328305597
 20
5.4098559873
 11
1.5722006384
 21
5.3704859086
  0
LINE
  5
4C2
100
AcDbEntity
  8
0
100
AcDbLine
 62
7
  6
CONTINUOUS
 10
1.9560589061
 20
5.1145803968
 11
1.9166888274
 21
5.1539504755
  0
LINE
  5
4C3
100
AcDbEntity
  8
0
100
AcDbLine
 62
7
  6
CONTINUOUS
 10
2.2119644179
 20
5.0063126802
 11
1.2670825282
 21
5.0063126802
  0
LINE
  5
4C4
100
AcDbEntity
  8
0
100
AcDbLine
 62
7
  6
CONTINUOUS
 10
1.7690510321
 20
5.4098559873
 11
1.8084211108
 21
5.3704859086
  0
LINE
  5
4C5
100
AcDbEntity
  8
0
100
AcDbLine
 62
7
  6
CONTINUOUS
 10
2.1824368589
 20
5.1145803968
 11
2.1430667801
 21
5.1539504755
  0
LINE
  5
4C6
100
AcDbEntity
  8
0
100
AcDbLine
 62
7
  6
CONTINUOUS
 10
2.1824368589
 20
5.1145803968
 11
1.9954289849
 21
5.1145803968
  0
LINE
  5
4C7
100
AcDbEntity
  8
0
100
AcDbLine
 62
7
  6
CONTINUOUS
 10
1.9560589061
 20
5.1145803968
 11
1.7690510321
 21
5.1145803968
  0
LINE
  5
4C8
100
AcDbEntity
  8
0
100
AcDbLine
 62
7
  6
CONTINUOUS
 10
1.7198384337
 20
5.1145803968
 11
1.5328305597
 21
5.1145803968
  0
LINE
  5
4C9
100
AcDbEntity
  8
0
100
AcDbLine
 62
7
  6
CONTINUOUS
 10
1.4836179612
 20
5.1145803968
 11
1.2966100872
 21
5.1145803968
  0
LINE
  5
4CA
100
AcDbEntity
  8
0
100
AcDbLine
 62
7
  6
CONTINUOUS
 10
2.1430667801
 20
5.1539504755
 11
2.0347990636
 21
5.1539504755
  0
LINE
  5
4CB
100
AcDbEntity
  8
0
100
AcDbLine
 62
7
  6
CONTINUOUS
 10
1.9166888274
 20
5.1539504755
 11
1.8084211108
 21
5.1539504755
  0
LINE
  5
4CC
100
AcDbEntity
  8
0
100
AcDbLine
 62
7
  6
CONTINUOUS
 10
1.6804683549
 20
5.1539504755
 11
1.5722006384
 21
5.1539504755
  0
LINE
  5
4CD
100
AcDbEntity
  8
0
100
AcDbLine
 62
7
  6
CONTINUOUS
 10
1.4442478825
 20
5.1539504755
 11
1.335980166
 21
5.1539504755
  0
LINE
  5
4CE
100
AcDbEntity
  8
0
100
AcDbLine
 62
7
  6
CONTINUOUS
 10
1.9954289849
 20
5.4098559873
 11
2.0347990636
 21
5.3704859086
  0
LINE
  5
4CF
100
AcDbEntity
  8
0
100
AcDbLine
 62
7
  6
CONTINUOUS
 10
2.1430667801
 20
5.3704859086
 11
2.0347990636
 21
5.3704859086
  0
LINE
  5
4D0
100
AcDbEntity
  8
0
100
AcDbLine
 62
7
  6
CONTINUOUS
 10
1.9166888274
 20
5.3704859086
 11
1.8084211108
 21
5.3704859086
  0
LINE
  5
4D1
100
AcDbEntity
  8
0
100
AcDbLine
 62
7
  6
CONTINUOUS
 10
1.6804683549
 20
5.3704859086
 11
1.5722006384
 21
5.3704859086
  0
LINE
  5
4D2
100
AcDbEntity
  8
0
100
AcDbLine
 62
7
  6
CONTINUOUS
 10
1.4442478825
 20
5.3704859086
 11
1.335980166
 21
5.3704859086
  0
LINE
  5
4D3
100
AcDbEntity
  8
0
100
AcDbLine
 62
7
  6
CONTINUOUS
 10
1.2966100872
 20
5.4098559873
 11
1.4836179612
 21
5.4098559873
  0
LINE
  5
4D4
100
AcDbEntity
  8
0
100
AcDbLine
 62
7
  6
CONTINUOUS
 10
1.5328305597
 20
5.4098559873
 11
1.7198384337
 21
5.4098559873
  0
LINE
  5
4D5
100
AcDbEntity
  8
0
100
AcDbLine
 62
7
  6
CONTINUOUS
 10
1.7690510321
 20
5.4098559873
 11
1.9560589061
 21
5.4098559873
  0
LINE
  5
4D6
100
AcDbEntity
  8
0
100
AcDbLine
 62
7
  6
CONTINUOUS
 10
1.9954289849
 20
5.4098559873
 11
2.1824368589
 21
5.4098559873
  0
LINE
  5
4D7
100
AcDbEntity
  8
0
100
AcDbLine
 62
7
  6
CONTINUOUS
 10
1.2670825282
 20
5.4393835464
 11
2.2119644179
 21
5.4393835464
  0
LINE
  5
4D8
100
AcDbEntity
  8
0
100
AcDbLine
 62
7
  6
CONTINUOUS
 10
2.2119644179
 20
5.6756040188
 11
1.2670825282
 21
5.6756040188
  0
LINE
  5
4D9
100
AcDbEntity
  8
0
100
AcDbLine
 62
7
  6
CONTINUOUS
 10
2.3596022132
 20
5.7149740976
 11
2.2119644179
 21
5.7149740976
  0
LINE
  5
4DA
100
AcDbEntity
  8
0
100
AcDbLine
 62
7
  6
CONTINUOUS
 10
1.2670825282
 20
5.7149740976
 11
1.0997596935
 21
5.7149740976
  0
LINE
  5
4DB
100
AcDbEntity
  8
0
100
AcDbLine
 62
7
  6
CONTINUOUS
 10
1.1194447329
 20
5.720786534
 11
1.2670825282
 21
5.720786534
  0
LINE
  5
4DC
100
AcDbEntity
  8
0
100
AcDbLine
 62
7
  6
CONTINUOUS
 10
2.2119644179
 20
5.720786534
 11
2.3399171738
 21
5.720786534
  0
LINE
  5
4DD
100
AcDbEntity
  8
0
100
AcDbLine
 62
7
  6
CONTINUOUS
 10
2.3399171738
 20
5.731045029
 11
2.2119644179
 21
5.731045029
  0
LINE
  5
4DE
100
AcDbEntity
  8
0
100
AcDbLine
 62
7
  6
CONTINUOUS
 10
1.2670825282
 20
5.731045029
 11
1.1194447329
 21
5.731045029
  0
LINE
  5
4DF
100
AcDbEntity
  8
0
100
AcDbLine
 62
7
  6
CONTINUOUS
 10
1.9767281975
 20
5.8220076967
 11
1.9747596935
 21
5.8220076967
  0
LINE
  5
4E0
100
AcDbEntity
  8
0
100
AcDbLine
 62
7
  6
CONTINUOUS
 10
1.740507725
 20
5.8220076967
 11
1.7385392211
 21
5.8220076967
  0
LINE
  5
4E1
100
AcDbEntity
  8
0
100
AcDbLine
 62
7
  6
CONTINUOUS
 10
1.5042872526
 20
5.8220076967
 11
1.5023187486
 21
5.8220076967
  0
LINE
  5
4E2
100
AcDbEntity
  8
0
100
AcDbLine
 62
7
  6
CONTINUOUS
 10
2.210980166
 20
5.856706381
 11
1.9767281975
 21
5.856706381
  0
LINE
  5
4E3
100
AcDbEntity
  8
0
100
AcDbLine
 62
7
  6
CONTINUOUS
 10
1.9747596935
 20
5.856706381
 11
1.740507725
 21
5.856706381
  0
LINE
  5
4E4
100
AcDbEntity
  8
0
100
AcDbLine
 62
7
  6
CONTINUOUS
 10
1.7385392211
 20
5.856706381
 11
1.5042872526
 21
5.856706381
  0
LINE
  5
4E5
100
AcDbEntity
  8
0
100
AcDbLine
 62
7
  6
CONTINUOUS
 10
1.5023187486
 20
5.856706381
 11
1.2680667801
 21
5.856706381
  0
LINE
  5
4E6
100
AcDbEntity
  8
0
100
AcDbLine
 62
7
  6
CONTINUOUS
 10
1.2572400085
 20
5.933640491
 11
1.6115707171
 21
5.933640491
  0
LINE
  5
4E7
100
AcDbEntity
  8
0
100
AcDbLine
 62
7
  6
CONTINUOUS
 10
1.6115707171
 20
6.0102496881
 11
1.2572400085
 21
6.0102496881
  0
LINE
  5
4E8
100
AcDbEntity
  8
0
100
AcDbLine
 62
7
  6
CONTINUOUS
 10
1.2572400085
 20
6.0594622865
 11
1.6115707171
 21
6.0594622865
  0
LINE
  5
4E9
100
AcDbEntity
  8
0
100
AcDbLine
 62
7
  6
CONTINUOUS
 10
1.1194447329
 20
6.0682295847
 11
1.867476229
 21
6.0682295847
  0
LINE
  5
4EA
100
AcDbEntity
  8
0
100
AcDbLine
 62
7
  6
CONTINUOUS
 10
1.867476229
 20
6.0692001113
 11
1.1194447329
 21
6.0692001113
  0
LINE
  5
4EB
100
AcDbEntity
  8
0
100
AcDbLine
 62
7
  6
CONTINUOUS
 10
1.0997596935
 20
6.0693048062
 11
1.1194447329
 21
6.0693048062
  0
LINE
  5
4EC
100
AcDbEntity
  8
0
100
AcDbLine
 62
7
  6
CONTINUOUS
 10
2.3399171738
 20
6.0693048062
 11
2.3596022132
 21
6.0693048062
  0
LINE
  5
4ED
100
AcDbEntity
  8
0
100
AcDbLine
 62
7
  6
CONTINUOUS
 10
1.1194447329
 20
6.0791473259
 11
2.3340119996
 21
6.0791473259
  0
LINE
  5
4EE
100
AcDbEntity
  8
0
100
AcDbLine
 62
7
  6
CONTINUOUS
 10
11.8758117613
 20
8.8665593261
 11
11.9802074475
 21
8.9268851693
  0
LINE
  5
4EF
100
AcDbEntity
  8
0
100
AcDbLine
 62
7
  6
CONTINUOUS
 10
12.7124168295
 20
9.3499979434
 11
12.7666549502
 21
9.3813398549
  0
LINE
  5
4F0
100
AcDbEntity
  8
0
100
AcDbLine
 62
7
  6
CONTINUOUS
 10
11.903650611
 20
8.8796754174
 11
11.9941268723
 21
8.9319578148
  0
LINE
  5
4F1
100
AcDbEntity
  8
0
100
AcDbLine
 62
7
  6
CONTINUOUS
 10
12.719033207
 20
9.3508504673
 11
12.7666549502
 21
9.3783690547
  0
LINE
  5
4F2
100
AcDbEntity
  8
0
100
AcDbLine
 62
7
  6
CONTINUOUS
 10
12.1067455119
 20
8.9035271873
 11
12.1136311101
 21
8.9075060828
  0
LINE
  5
4F3
100
AcDbEntity
  8
0
100
AcDbLine
 62
7
  6
CONTINUOUS
 10
12.2307570944
 20
8.8694572893
 11
12.898889486
 21
9.2555426859
  0
LINE
  5
4F4
100
AcDbEntity
  8
0
100
AcDbLine
 62
7
  6
CONTINUOUS
 10
13.0172045971
 20
9.0592841604
 11
13.267754244
 21
9.2040661841
  0
LINE
  5
4F5
100
AcDbEntity
  8
0
100
AcDbLine
 62
7
  6
CONTINUOUS
 10
13.4765456163
 20
9.1235787492
 11
13.2259959695
 21
8.9787967254
  0
LINE
  5
4F6
100
AcDbEntity
  8
0
100
AcDbLine
 62
7
  6
CONTINUOUS
 10
13.2259959695
 20
8.9166945669
 11
13.4765456163
 21
9.0614765906
  0
LINE
  5
4F7
100
AcDbEntity
  8
0
100
AcDbLine
 62
7
  6
CONTINUOUS
 10
11.8758117613
 20
5.5897990333
 11
11.8758117613
 21
8.8665593261
  0
LINE
  5
4F8
100
AcDbEntity
  8
0
100
AcDbLine
 62
7
  6
CONTINUOUS
 10
11.903650611
 20
8.8713030739
 11
11.903650611
 21
8.8796754174
  0
LINE
  5
4F9
100
AcDbEntity
  8
0
100
AcDbLine
 62
7
  6
CONTINUOUS
 10
14.1725168577
 20
8.8411700233
 11
13.6435787143
 21
8.5355190843
  0
LINE
  5
4FA
100
AcDbEntity
  8
0
100
AcDbLine
 62
7
  6
CONTINUOUS
 10
13.6435787143
 20
8.5274760053
 11
14.1725168577
 21
8.8331269442
  0
LINE
  5
4FB
100
AcDbEntity
  8
0
100
AcDbLine
 62
7
  6
CONTINUOUS
 10
13.6574981391
 20
8.5282677218
 11
14.1864362825
 21
8.8339186608
  0
LINE
  5
4FC
100
AcDbEntity
  8
0
100
AcDbLine
 62
7
  6
CONTINUOUS
 10
14.2142751322
 20
3.9268467446
 11
14.1168391584
 21
3.9831508649
  0
LINE
  5
4FD
100
AcDbEntity
  8
0
100
AcDbLine
 62
7
  6
CONTINUOUS
 10
13.1981571198
 20
4.5140182853
 11
13.0032851722
 21
4.626626526
  0
LINE
  5
4FE
100
AcDbEntity
  8
0
100
AcDbLine
 62
7
  6
CONTINUOUS
 10
13.0937614336
 20
4.6635087668
 11
13.1494391329
 21
4.6313349838
  0
LINE
  5
4FF
100
AcDbEntity
  8
0
100
AcDbLine
 62
7
  6
CONTINUOUS
 10
12.1136311101
 20
8.9017085122
 11
12.1136311101
 21
8.994297539
  0
LINE
  5
500
100
AcDbEntity
  8
0
100
AcDbLine
 62
7
  6
CONTINUOUS
 10
12.211072055
 20
8.9834374017
 11
12.211072055
 21
8.9414098867
  0
LINE
  5
501
100
AcDbEntity
  8
0
100
AcDbLine
 62
7
  6
CONTINUOUS
 10
12.2504421337
 20
8.9414098867
 11
12.2504421337
 21
8.9834374017
  0
LINE
  5
502
100
AcDbEntity
  8
0
100
AcDbLine
 62
7
  6
CONTINUOUS
 10
12.280664208
 20
9.0550511434
 11
12.280664208
 21
9.0908188882
  0
LINE
  5
503
100
AcDbEntity
  8
0
100
AcDbLine
 62
7
  6
CONTINUOUS
 10
12.3478830786
 20
8.9371394323
 11
12.3478830786
 21
8.994297539
  0
LINE
  5
504
100
AcDbEntity
  8
0
100
AcDbLine
 62
7
  6
CONTINUOUS
 10
14.1168391584
 20
4.1253323152
 11
13.6964650066
 21
4.3682487239
  0
LINE
  5
505
100
AcDbEntity
  8
0
100
AcDbLine
 62
7
  6
CONTINUOUS
 10
13.1494391329
 20
4.6851550807
 11
13.0937614336
 21
4.7173288638
  0
LINE
  5
506
100
AcDbEntity
  8
0
100
AcDbLine
 62
7
  6
CONTINUOUS
 10
13.0937614336
 20
4.7815916662
 11
13.1494391329
 21
4.7494178831
  0
LINE
  5
507
100
AcDbEntity
  8
0
100
AcDbLine
 62
7
  6
CONTINUOUS
 10
13.7549341129
 20
4.414790408
 11
14.0333226094
 21
4.2539214927
  0
LINE
  5
508
100
AcDbEntity
  8
0
100
AcDbLine
 62
7
  6
CONTINUOUS
 10
13.0937614336
 20
4.8217559176
 11
13.6407873073
 21
4.5056528458
  0
LINE
  5
509
100
AcDbEntity
  8
0
100
AcDbLine
 62
7
  6
CONTINUOUS
 10
14.4369859294
 20
4.0616291021
 11
14.2142751322
 21
4.1903242343
  0
LINE
  5
50A
100
AcDbEntity
  8
0
100
AcDbLine
 62
7
  6
CONTINUOUS
 10
13.0032851722
 20
4.8901040157
 11
12.780574375
 21
5.0187991479
  0
LINE
  5
50B
100
AcDbEntity
  8
0
100
AcDbLine
 62
7
  6
CONTINUOUS
 10
15.6758147389
 20
3.3879358785
 11
14.4734771406
 21
4.0827158267
  0
LINE
  5
50C
100
AcDbEntity
  8
0
100
AcDbLine
 62
7
  6
CONTINUOUS
 10
15.3278291183
 20
3.5950244841
 11
11.8758117613
 21
5.5897990333
  0
LINE
  5
50D
100
AcDbEntity
  8
0
100
AcDbLine
 62
7
  6
CONTINUOUS
 10
13.1494391329
 20
4.6313349838
 11
13.1981571198
 21
4.5630186721
  0
LINE
  5
50E
100
AcDbEntity
  8
0
100
AcDbLine
 62
7
  6
CONTINUOUS
 10
12.3781051529
 20
9.0799587508
 11
12.3781051529
 21
9.0379312359
  0
LINE
  5
50F
100
AcDbEntity
  8
0
100
AcDbLine
 62
7
  6
CONTINUOUS
 10
12.4174752317
 20
9.0379312359
 11
12.4174752317
 21
9.0799587508
  0
LINE
  5
510
100
AcDbEntity
  8
0
100
AcDbLine
 62
7
  6
CONTINUOUS
 10
12.447697306
 20
9.1515724926
 11
12.447697306
 21
9.1873402373
  0
LINE
  5
511
100
AcDbEntity
  8
0
100
AcDbLine
 62
7
  6
CONTINUOUS
 10
12.5149161765
 20
9.0336607814
 11
12.5149161765
 21
9.0908188882
  0
LINE
  5
512
100
AcDbEntity
  8
0
100
AcDbLine
 62
7
  6
CONTINUOUS
 10
12.5451382508
 20
9.1764801
 11
12.5451382508
 21
9.134452585
  0
LINE
  5
513
100
AcDbEntity
  8
0
100
AcDbLine
 62
7
  6
CONTINUOUS
 10
12.5845083296
 20
9.134452585
 11
12.5845083296
 21
9.1764801
  0
LINE
  5
514
100
AcDbEntity
  8
0
100
AcDbLine
 62
7
  6
CONTINUOUS
 10
13.0172045971
 20
9.0592841604
 11
13.0138601117
 21
9.0423816805
  0
LINE
  5
515
100
AcDbEntity
  8
0
100
AcDbLine
 62
7
  6
CONTINUOUS
 10
14.0959600211
 20
4.4267089651
 11
13.0937614336
 21
5.00583706
  0
LINE
  5
516
100
AcDbEntity
  8
0
100
AcDbLine
 62
7
  6
CONTINUOUS
 10
15.5004299861
 20
3.7712359464
 11
15.4865105613
 21
3.7792793921
  0
LINE
  5
517
100
AcDbEntity
  8
0
100
AcDbLine
 62
7
  6
CONTINUOUS
 10
15.5784154367
 20
3.7398276988
 11
15.6758147389
 21
3.6835447694
  0
LINE
  5
518
100
AcDbEntity
  8
0
100
AcDbLine
 62
7
  6
CONTINUOUS
 10
12.6147304039
 20
9.2480938417
 11
12.6147304039
 21
9.2838615865
  0
LINE
  5
519
100
AcDbEntity
  8
0
100
AcDbLine
 62
7
  6
CONTINUOUS
 10
12.6819492745
 20
9.1301821306
 11
12.6819492745
 21
9.1873402373
  0
LINE
  5
51A
100
AcDbEntity
  8
0
100
AcDbLine
 62
7
  6
CONTINUOUS
 10
12.7121713488
 20
9.2730014491
 11
12.7121713488
 21
9.2309739342
  0
LINE
  5
51B
100
AcDbEntity
  8
0
100
AcDbLine
 62
7
  6
CONTINUOUS
 10
12.7515414275
 20
9.2309739342
 11
12.7515414275
 21
9.2730014491
  0
LINE
  5
51C
100
AcDbEntity
  8
0
100
AcDbLine
 62
7
  6
CONTINUOUS
 10
12.780574375
 20
5.0187991479
 11
12.780574375
 21
5.0669750587
  0
LINE
  5
51D
100
AcDbEntity
  8
0
100
AcDbLine
 62
7
  6
CONTINUOUS
 10
15.5004299861
 20
3.9190403918
 11
15.4865105613
 21
3.9270838376
  0
LINE
  5
51E
100
AcDbEntity
  8
0
100
AcDbLine
 62
7
  6
CONTINUOUS
 10
15.6284886945
 20
3.8452356474
 11
15.6145692697
 21
3.8532790932
  0
LINE
  5
51F
100
AcDbEntity
  8
0
100
AcDbLine
 62
7
  6
CONTINUOUS
 10
15.5004299861
 20
4.0668448373
 11
15.4865105613
 21
4.074888283
  0
LINE
  5
520
100
AcDbEntity
  8
0
100
AcDbLine
 62
7
  6
CONTINUOUS
 10
15.6284886945
 20
3.9930400929
 11
15.6145692697
 21
4.0010835386
  0
LINE
  5
521
100
AcDbEntity
  8
0
100
AcDbLine
 62
7
  6
CONTINUOUS
 10
15.7565474029
 20
3.9192353484
 11
15.7426279781
 21
3.9272787942
  0
LINE
  5
522
100
AcDbEntity
  8
0
100
AcDbLine
 62
7
  6
CONTINUOUS
 10
13.6964650066
 20
4.3682487239
 11
13.6881133517
 21
4.3835978252
  0
LINE
  5
523
100
AcDbEntity
  8
0
100
AcDbLine
 62
7
  6
CONTINUOUS
 10
13.7039028672
 20
4.3896558204
 11
13.6407873073
 21
4.5056528458
  0
LINE
  5
524
100
AcDbEntity
  8
0
100
AcDbLine
 62
7
  6
CONTINUOUS
 10
12.8489823724
 20
9.2267034797
 11
12.8489823724
 21
9.2838615865
  0
LINE
  5
525
100
AcDbEntity
  8
0
100
AcDbLine
 62
7
  6
CONTINUOUS
 10
13.0032851722
 20
4.626626526
 11
13.0032851722
 21
4.8901040157
  0
LINE
  5
526
100
AcDbEntity
  8
0
100
AcDbLine
 62
7
  6
CONTINUOUS
 10
13.0138518776
 20
8.9803028208
 11
13.0138518776
 21
9.0394269037
  0
LINE
  5
527
100
AcDbEntity
  8
0
100
AcDbLine
 62
7
  6
CONTINUOUS
 10
15.9124816325
 20
3.9328703971
 11
16.0098809348
 21
3.8765874677
  0
LINE
  5
528
100
AcDbEntity
  8
0
100
AcDbLine
 62
7
  6
CONTINUOUS
 10
15.5004299861
 20
4.2146492827
 11
15.4865105613
 21
4.2226927285
  0
LINE
  5
529
100
AcDbEntity
  8
0
100
AcDbLine
 62
7
  6
CONTINUOUS
 10
15.6284886945
 20
4.1408445383
 11
15.6145692697
 21
4.1488879841
  0
LINE
  5
52A
100
AcDbEntity
  8
0
100
AcDbLine
 62
7
  6
CONTINUOUS
 10
15.7565474029
 20
4.0670397939
 11
15.7426279781
 21
4.0750832396
  0
LINE
  5
52B
100
AcDbEntity
  8
0
100
AcDbLine
 62
7
  6
CONTINUOUS
 10
15.8846061113
 20
3.9932350494
 11
15.8706866865
 21
4.0012784952
  0
LINE
  5
52C
100
AcDbEntity
  8
0
100
AcDbLine
 62
7
  6
CONTINUOUS
 10
15.5004299861
 20
4.3624537282
 11
15.4865105613
 21
4.3704971739
  0
LINE
  5
52D
100
AcDbEntity
  8
0
100
AcDbLine
 62
7
  6
CONTINUOUS
 10
15.6284886945
 20
4.2886489837
 11
15.6145692697
 21
4.2966924295
  0
LINE
  5
52E
100
AcDbEntity
  8
0
100
AcDbLine
 62
7
  6
CONTINUOUS
 10
15.7565474029
 20
4.2148442393
 11
15.7426279781
 21
4.2228876851
  0
LINE
  5
52F
100
AcDbEntity
  8
0
100
AcDbLine
 62
7
  6
CONTINUOUS
 10
15.8846061113
 20
4.1410394949
 11
15.8706866865
 21
4.1490829407
  0
LINE
  5
530
100
AcDbEntity
  8
0
100
AcDbLine
 62
7
  6
CONTINUOUS
 10
16.0126648197
 20
4.0672347505
 11
15.9987453949
 21
4.0752781962
  0
LINE
  5
531
100
AcDbEntity
  8
0
100
AcDbLine
 62
7
  6
CONTINUOUS
 10
13.6841850004
 20
4.5448167694
 11
13.7549341129
 21
4.414790408
  0
LINE
  5
532
100
AcDbEntity
  8
0
100
AcDbLine
 62
7
  6
CONTINUOUS
 10
13.0937614336
 20
4.8217559176
 11
13.0937614336
 21
4.7815916662
  0
LINE
  5
533
100
AcDbEntity
  8
0
100
AcDbLine
 62
7
  6
CONTINUOUS
 10
13.0937614336
 20
4.7173288638
 11
13.0937614336
 21
4.6635087668
  0
LINE
  5
534
100
AcDbEntity
  8
0
100
AcDbLine
 62
7
  6
CONTINUOUS
 10
13.0937614336
 20
5.00583706
 11
13.0937614336
 21
7.0240595132
  0
LINE
  5
535
100
AcDbEntity
  8
0
100
AcDbLine
 62
7
  6
CONTINUOUS
 10
13.1494391329
 20
4.7494178831
 11
13.1494391329
 21
4.6851550807
  0
LINE
  5
536
100
AcDbEntity
  8
0
100
AcDbLine
 62
7
  6
CONTINUOUS
 10
13.1981571198
 20
4.5630186721
 11
13.1981571198
 21
4.5140182853
  0
LINE
  5
537
100
AcDbEntity
  8
0
100
AcDbLine
 62
7
  6
CONTINUOUS
 10
13.2259959695
 20
8.9787967254
 11
13.2259959695
 21
8.9166945669
  0
LINE
  5
538
100
AcDbEntity
  8
0
100
AcDbLine
 62
7
  6
CONTINUOUS
 10
15.5004299861
 20
4.5102581736
 11
15.4865105613
 21
4.5183016194
  0
LINE
  5
539
100
AcDbEntity
  8
0
100
AcDbLine
 62
7
  6
CONTINUOUS
 10
15.6284886945
 20
4.4364534292
 11
15.6145692697
 21
4.444496875
  0
LINE
  5
53A
100
AcDbEntity
  8
0
100
AcDbLine
 62
7
  6
CONTINUOUS
 10
15.7565474029
 20
4.3626486848
 11
15.7426279781
 21
4.3706921305
  0
LINE
  5
53B
100
AcDbEntity
  8
0
100
AcDbLine
 62
7
  6
CONTINUOUS
 10
15.8846061113
 20
4.2888439403
 11
15.8706866865
 21
4.2968873861
  0
LINE
  5
53C
100
AcDbEntity
  8
0
100
AcDbLine
 62
7
  6
CONTINUOUS
 10
16.0126648197
 20
4.2150391959
 11
15.9987453949
 21
4.2230826417
  0
LINE
  5
53D
100
AcDbEntity
  8
0
100
AcDbLine
 62
7
  6
CONTINUOUS
 10
16.1268041033
 20
4.1492778972
 11
16.1407235281
 21
4.1412344515
  0
LINE
  5
53E
100
AcDbEntity
  8
0
100
AcDbLine
 62
7
  6
CONTINUOUS
 10
15.5004299861
 20
4.6580626191
 11
15.4865105613
 21
4.6661060648
  0
LINE
  5
53F
100
AcDbEntity
  8
0
100
AcDbLine
 62
7
  6
CONTINUOUS
 10
15.6284886945
 20
4.5842578746
 11
15.6145692697
 21
4.5923013204
  0
LINE
  5
540
100
AcDbEntity
  8
0
100
AcDbLine
 62
7
  6
CONTINUOUS
 10
15.7565474029
 20
4.5104531302
 11
15.7426279781
 21
4.518496576
  0
LINE
  5
541
100
AcDbEntity
  8
0
100
AcDbLine
 62
7
  6
CONTINUOUS
 10
15.8846061113
 20
4.4366483858
 11
15.8706866865
 21
4.4446918316
  0
LINE
  5
542
100
AcDbEntity
  8
0
100
AcDbLine
 62
7
  6
CONTINUOUS
 10
16.0126648197
 20
4.3628436414
 11
15.9987453949
 21
4.3708870871
  0
LINE
  5
543
100
AcDbEntity
  8
0
100
AcDbLine
 62
7
  6
CONTINUOUS
 10
16.1268041033
 20
4.2970823427
 11
16.1407235281
 21
4.2890388969
  0
LINE
  5
544
100
AcDbEntity
  8
0
100
AcDbLine
 62
7
  6
CONTINUOUS
 10
13.4069484922
 20
4.640778388
 11
13.4069484922
 21
4.6346699717
  0
LINE
  5
545
100
AcDbEntity
  8
0
100
AcDbLine
 62
7
  6
CONTINUOUS
 10
13.4765456163
 20
9.0614765906
 11
13.4765456163
 21
9.1235787492
  0
LINE
  5
546
100
AcDbEntity
  8
0
100
AcDbLine
 62
7
  6
CONTINUOUS
 10
13.5600621653
 20
8.1982771764
 11
13.5600621653
 21
8.2063103642
  0
LINE
  5
547
100
AcDbEntity
  8
0
100
AcDbLine
 62
7
  6
CONTINUOUS
 10
15.5004299861
 20
4.8058670645
 11
15.4865105613
 21
4.8139105103
  0
LINE
  5
548
100
AcDbEntity
  8
0
100
AcDbLine
 62
7
  6
CONTINUOUS
 10
15.6284886945
 20
4.7320623201
 11
15.6145692697
 21
4.7401057659
  0
LINE
  5
549
100
AcDbEntity
  8
0
100
AcDbLine
 62
7
  6
CONTINUOUS
 10
15.7565474029
 20
4.6582575757
 11
15.7426279781
 21
4.6663010214
  0
LINE
  5
54A
100
AcDbEntity
  8
0
100
AcDbLine
 62
7
  6
CONTINUOUS
 10
15.8846061113
 20
4.5844528312
 11
15.8706866865
 21
4.592496277
  0
LINE
  5
54B
100
AcDbEntity
  8
0
100
AcDbLine
 62
7
  6
CONTINUOUS
 10
16.0126648197
 20
4.5106480868
 11
15.9987453949
 21
4.5186915326
  0
LINE
  5
54C
100
AcDbEntity
  8
0
100
AcDbLine
 62
7
  6
CONTINUOUS
 10
16.1268041033
 20
4.4448867881
 11
16.1407235281
 21
4.4368433424
  0
LINE
  5
54D
100
AcDbEntity
  8
0
100
AcDbLine
 62
7
  6
CONTINUOUS
 10
15.5004299861
 20
4.95367151
 11
15.4865105613
 21
4.9617149557
  0
LINE
  5
54E
100
AcDbEntity
  8
0
100
AcDbLine
 62
7
  6
CONTINUOUS
 10
15.6284886945
 20
4.8798667655
 11
15.6145692697
 21
4.8879102113
  0
LINE
  5
54F
100
AcDbEntity
  8
0
100
AcDbLine
 62
7
  6
CONTINUOUS
 10
15.7565474029
 20
4.8060620211
 11
15.7426279781
 21
4.8141054669
  0
LINE
  5
550
100
AcDbEntity
  8
0
100
AcDbLine
 62
7
  6
CONTINUOUS
 10
15.8846061113
 20
4.7322572767
 11
15.8706866865
 21
4.7403007224
  0
LINE
  5
551
100
AcDbEntity
  8
0
100
AcDbLine
 62
7
  6
CONTINUOUS
 10
16.0126648197
 20
4.6584525323
 11
15.9987453949
 21
4.666495978
  0
LINE
  5
552
100
AcDbEntity
  8
0
100
AcDbLine
 62
7
  6
CONTINUOUS
 10
16.1268041033
 20
4.5926912336
 11
16.1407235281
 21
4.5846477878
  0
LINE
  5
553
100
AcDbEntity
  8
0
100
AcDbLine
 62
7
  6
CONTINUOUS
 10
13.6435787143
 20
8.5355190843
 11
13.6435787143
 21
8.5274760053
  0
LINE
  5
554
100
AcDbEntity
  8
0
100
AcDbLine
 62
7
  6
CONTINUOUS
 10
15.5004299861
 20
5.1014759554
 11
15.4865105613
 21
5.1095194012
  0
LINE
  5
555
100
AcDbEntity
  8
0
100
AcDbLine
 62
7
  6
CONTINUOUS
 10
15.6284886945
 20
5.027671211
 11
15.6145692697
 21
5.0357146567
  0
LINE
  5
556
100
AcDbEntity
  8
0
100
AcDbLine
 62
7
  6
CONTINUOUS
 10
15.7565474029
 20
4.9538664666
 11
15.7426279781
 21
4.9619099123
  0
LINE
  5
557
100
AcDbEntity
  8
0
100
AcDbLine
 62
7
  6
CONTINUOUS
 10
15.8846061113
 20
4.8800617221
 11
15.8706866865
 21
4.8881051679
  0
LINE
  5
558
100
AcDbEntity
  8
0
100
AcDbLine
 62
7
  6
CONTINUOUS
 10
16.0126648197
 20
4.8062569777
 11
15.9987453949
 21
4.8143004235
  0
LINE
  5
559
100
AcDbEntity
  8
0
100
AcDbLine
 62
7
  6
CONTINUOUS
 10
16.1407235281
 20
4.7324522333
 11
16.1268041033
 21
4.740495679
  0
LINE
  5
55A
100
AcDbEntity
  8
0
100
AcDbLine
 62
7
  6
CONTINUOUS
 10
15.5004299861
 20
5.2492804009
 11
15.4865105613
 21
5.2573238466
  0
LINE
  5
55B
100
AcDbEntity
  8
0
100
AcDbLine
 62
7
  6
CONTINUOUS
 10
15.6284886945
 20
5.1754756564
 11
15.6145692697
 21
5.1835191022
  0
LINE
  5
55C
100
AcDbEntity
  8
0
100
AcDbLine
 62
7
  6
CONTINUOUS
 10
15.7565474029
 20
5.101670912
 11
15.7426279781
 21
5.1097143578
  0
LINE
  5
55D
100
AcDbEntity
  8
0
100
AcDbLine
 62
7
  6
CONTINUOUS
 10
15.8846061113
 20
5.0278661676
 11
15.8706866865
 21
5.0359096133
  0
LINE
  5
55E
100
AcDbEntity
  8
0
100
AcDbLine
 62
7
  6
CONTINUOUS
 10
16.0126648197
 20
4.9540614232
 11
15.9987453949
 21
4.9621048689
  0
LINE
  5
55F
100
AcDbEntity
  8
0
100
AcDbLine
 62
7
  6
CONTINUOUS
 10
16.1407235281
 20
4.8802566787
 11
16.1268041033
 21
4.8883001245
  0
LINE
  5
560
100
AcDbEntity
  8
0
100
AcDbLine
 62
7
  6
CONTINUOUS
 10
14.0333226094
 20
4.2539214927
 11
14.0333226094
 21
4.3430649401
  0
LINE
  5
561
100
AcDbEntity
  8
0
100
AcDbLine
 62
7
  6
CONTINUOUS
 10
15.5863188862
 20
7.3980732512
 11
15.5348913251
 21
7.368355443
  0
LINE
  5
562
100
AcDbEntity
  8
0
100
AcDbLine
 62
7
  6
CONTINUOUS
 10
15.4192857882
 20
7.301551902
 11
15.3678582272
 21
7.2718340938
  0
LINE
  5
563
100
AcDbEntity
  8
0
100
AcDbLine
 62
7
  6
CONTINUOUS
 10
15.2522526903
 20
7.2050305529
 11
15.2025542948
 21
7.1763119561
  0
LINE
  5
564
100
AcDbEntity
  8
0
100
AcDbLine
 62
7
  6
CONTINUOUS
 10
15.5004299861
 20
5.3970848463
 11
15.4865105613
 21
5.4051282921
  0
LINE
  5
565
100
AcDbEntity
  8
0
100
AcDbLine
 62
7
  6
CONTINUOUS
 10
15.6284886945
 20
5.3232801019
 11
15.6145692697
 21
5.3313235476
  0
LINE
  5
566
100
AcDbEntity
  8
0
100
AcDbLine
 62
7
  6
CONTINUOUS
 10
15.7565474029
 20
5.2494753575
 11
15.7426279781
 21
5.2575188032
  0
LINE
  5
567
100
AcDbEntity
  8
0
100
AcDbLine
 62
7
  6
CONTINUOUS
 10
15.8846061113
 20
5.175670613
 11
15.8706866865
 21
5.1837140588
  0
LINE
  5
568
100
AcDbEntity
  8
0
100
AcDbLine
 62
7
  6
CONTINUOUS
 10
16.0126648197
 20
5.1018658686
 11
15.9987453949
 21
5.1099093144
  0
LINE
  5
569
100
AcDbEntity
  8
0
100
AcDbLine
 62
7
  6
CONTINUOUS
 10
16.1407235281
 20
5.0280611242
 11
16.1268041033
 21
5.0361045699
  0
LINE
  5
56A
100
AcDbEntity
  8
0
100
AcDbLine
 62
7
  6
CONTINUOUS
 10
15.5004299861
 20
5.5448892918
 11
15.4865105613
 21
5.5529327375
  0
LINE
  5
56B
100
AcDbEntity
  8
0
100
AcDbLine
 62
7
  6
CONTINUOUS
 10
15.6284886945
 20
5.4710845473
 11
15.6145692697
 21
5.4791279931
  0
LINE
  5
56C
100
AcDbEntity
  8
0
100
AcDbLine
 62
7
  6
CONTINUOUS
 10
15.7565474029
 20
5.3972798029
 11
15.7426279781
 21
5.4053232487
  0
LINE
  5
56D
100
AcDbEntity
  8
0
100
AcDbLine
 62
7
  6
CONTINUOUS
 10
15.8846061113
 20
5.3234750585
 11
15.8706866865
 21
5.3315185042
  0
LINE
  5
56E
100
AcDbEntity
  8
0
100
AcDbLine
 62
7
  6
CONTINUOUS
 10
16.0126648197
 20
5.249670314
 11
15.9987453949
 21
5.2577137598
  0
LINE
  5
56F
100
AcDbEntity
  8
0
100
AcDbLine
 62
7
  6
CONTINUOUS
 10
16.1407235281
 20
5.1758655696
 11
16.1268041033
 21
5.1839090154
  0
LINE
  5
570
100
AcDbEntity
  8
0
100
AcDbLine
 62
7
  6
CONTINUOUS
 10
14.0959600211
 20
6.4449314182
 11
14.0959600211
 21
4.4267089651
  0
LINE
  5
571
100
AcDbEntity
  8
0
100
AcDbLine
 62
7
  6
CONTINUOUS
 10
14.1029197335
 20
6.4489531411
 11
14.1029197335
 21
4.430730688
  0
LINE
  5
572
100
AcDbEntity
  8
0
100
AcDbLine
 62
7
  6
CONTINUOUS
 10
14.1168391584
 20
3.9831508649
 11
14.1168391584
 21
4.1253323152
  0
LINE
  5
573
100
AcDbEntity
  8
0
100
AcDbLine
 62
7
  6
CONTINUOUS
 10
14.1725168577
 20
8.8331269442
 11
14.1725168577
 21
8.8411700233
  0
LINE
  5
574
100
AcDbEntity
  8
0
100
AcDbLine
 62
7
  6
CONTINUOUS
 10
14.2142751322
 20
4.1903242343
 11
14.2142751322
 21
3.9268467446
  0
LINE
  5
575
100
AcDbEntity
  8
0
100
AcDbLine
 62
7
  6
CONTINUOUS
 10
15.8985255362
 20
7.2337822181
 11
15.437879198
 21
6.9675942194
  0
LINE
  5
576
100
AcDbEntity
  8
0
100
AcDbLine
 62
7
  6
CONTINUOUS
 10
16.1908334575
 20
7.399681397
 11
15.9402838106
 21
7.2548993732
  0
LINE
  5
577
100
AcDbEntity
  8
0
100
AcDbLine
 62
7
  6
CONTINUOUS
 10
15.4391845169
 20
6.9653353258
 11
15.3278291183
 21
6.9009877597
  0
LINE
  5
578
100
AcDbEntity
  8
0
100
AcDbLine
 62
7
  6
CONTINUOUS
 10
15.3278291183
 20
6.8926154162
 11
15.4391845169
 21
6.9569629823
  0
LINE
  5
579
100
AcDbEntity
  8
0
100
AcDbLine
 62
7
  6
CONTINUOUS
 10
15.9402838106
 20
7.2465270298
 11
16.1908334575
 21
7.3913090535
  0
LINE
  5
57A
100
AcDbEntity
  8
0
100
AcDbLine
 62
7
  6
CONTINUOUS
 10
16.2186723072
 20
7.3865653057
 11
15.9542032355
 21
7.2337398362
  0
LINE
  5
57B
100
AcDbEntity
  8
0
100
AcDbLine
 62
7
  6
CONTINUOUS
 10
15.4531039417
 20
6.9441757887
 11
15.3278291183
 21
6.8717847769
  0
LINE
  5
57C
100
AcDbEntity
  8
0
100
AcDbLine
 62
7
  6
CONTINUOUS
 10
15.9820420851
 20
6.3028312366
 11
15.9402838106
 21
6.3087853085
  0
LINE
  5
57D
100
AcDbEntity
  8
0
100
AcDbLine
 62
7
  6
CONTINUOUS
 10
15.5004299861
 20
5.6926937372
 11
15.4865105613
 21
5.700737183
  0
LINE
  5
57E
100
AcDbEntity
  8
0
100
AcDbLine
 62
7
  6
CONTINUOUS
 10
15.6284886945
 20
5.6188889928
 11
15.6145692697
 21
5.6269324385
  0
LINE
  5
57F
100
AcDbEntity
  8
0
100
AcDbLine
 62
7
  6
CONTINUOUS
 10
15.7565474029
 20
5.5450842483
 11
15.7426279781
 21
5.5531276941
  0
LINE
  5
580
100
AcDbEntity
  8
0
100
AcDbLine
 62
7
  6
CONTINUOUS
 10
15.8846061113
 20
5.4712795039
 11
15.8706866865
 21
5.4793229497
  0
LINE
  5
581
100
AcDbEntity
  8
0
100
AcDbLine
 62
7
  6
CONTINUOUS
 10
16.0126648197
 20
5.3974747595
 11
15.9987453949
 21
5.4055182053
  0
LINE
  5
582
100
AcDbEntity
  8
0
100
AcDbLine
 62
7
  6
CONTINUOUS
 10
16.1407235281
 20
5.3236700151
 11
16.1268041033
 21
5.3317134608
  0
LINE
  5
583
100
AcDbEntity
  8
0
100
AcDbLine
 62
7
  6
CONTINUOUS
 10
15.5004299861
 20
5.8404981827
 11
15.4865105613
 21
5.8485416284
  0
LINE
  5
584
100
AcDbEntity
  8
0
100
AcDbLine
 62
7
  6
CONTINUOUS
 10
15.6284886945
 20
5.7666934382
 11
15.6145692697
 21
5.774736884
  0
LINE
  5
585
100
AcDbEntity
  8
0
100
AcDbLine
 62
7
  6
CONTINUOUS
 10
15.7565474029
 20
5.6928886938
 11
15.7426279781
 21
5.7009321396
  0
LINE
  5
586
100
AcDbEntity
  8
0
100
AcDbLine
 62
7
  6
CONTINUOUS
 10
15.8846061113
 20
5.6190839494
 11
15.8706866865
 21
5.6271273951
  0
LINE
  5
587
100
AcDbEntity
  8
0
100
AcDbLine
 62
7
  6
CONTINUOUS
 10
16.0126648197
 20
5.5452792049
 11
15.9987453949
 21
5.5533226507
  0
LINE
  5
588
100
AcDbEntity
  8
0
100
AcDbLine
 62
7
  6
CONTINUOUS
 10
16.1407235281
 20
5.4714744605
 11
16.1268041033
 21
5.4795179063
  0
LINE
  5
589
100
AcDbEntity
  8
0
100
AcDbLine
 62
7
  6
CONTINUOUS
 10
14.4230665046
 20
4.0696725479
 11
14.4230665046
 21
4.047498431
  0
LINE
  5
58A
100
AcDbEntity
  8
0
100
AcDbLine
 62
7
  6
CONTINUOUS
 10
14.4369859294
 20
4.1098050129
 11
14.4369859294
 21
4.0616291021
  0
LINE
  5
58B
100
AcDbEntity
  8
0
100
AcDbLine
 62
7
  6
CONTINUOUS
 10
16.0460714393
 20
7.1518746933
 11
16.1407235281
 21
7.2065701245
  0
LINE
  5
58C
100
AcDbEntity
  8
0
100
AcDbLine
 62
7
  6
CONTINUOUS
 10
15.4531039417
 20
6.7192559805
 11
15.9542032355
 21
7.0088200279
  0
LINE
  5
58D
100
AcDbEntity
  8
0
100
AcDbLine
 62
7
  6
CONTINUOUS
 10
16.1268041033
 20
7.1053668062
 11
16.0460714393
 21
7.0587148208
  0
LINE
  5
58E
100
AcDbEntity
  8
0
100
AcDbLine
 62
7
  6
CONTINUOUS
 10
15.4614555966
 20
6.714429913
 11
15.9625548904
 21
7.0039939605
  0
LINE
  5
58F
100
AcDbEntity
  8
0
100
AcDbLine
 62
7
  6
CONTINUOUS
 10
16.1407235281
 20
7.0973233604
 11
16.0460714393
 21
7.0426279292
  0
LINE
  5
590
100
AcDbEntity
  8
0
100
AcDbLine
 62
7
  6
CONTINUOUS
 10
15.4823347338
 20
6.7023965308
 11
15.6145692697
 21
6.7788092655
  0
LINE
  5
591
100
AcDbEntity
  8
0
100
AcDbLine
 62
7
  6
CONTINUOUS
 10
15.6451920043
 20
6.7965048462
 11
15.7774265402
 21
6.8729175809
  0
LINE
  5
592
100
AcDbEntity
  8
0
100
AcDbLine
 62
7
  6
CONTINUOUS
 10
15.8094412173
 20
6.8914175062
 11
15.9416757531
 21
6.9678302409
  0
LINE
  5
593
100
AcDbEntity
  8
0
100
AcDbLine
 62
7
  6
CONTINUOUS
 10
16.0460714393
 20
7.0040702478
 11
16.1407235281
 21
7.058765679
  0
LINE
  5
594
100
AcDbEntity
  8
0
100
AcDbLine
 62
7
  6
CONTINUOUS
 10
16.039364039
 20
6.3441337713
 11
16.0068798434
 21
6.3504807959
  0
LINE
  5
595
100
AcDbEntity
  8
0
100
AcDbLine
 62
7
  6
CONTINUOUS
 10
16.0135381481
 20
6.284678946
 11
15.9560318421
 21
6.2997091633
  0
LINE
  5
596
100
AcDbEntity
  8
0
100
AcDbLine
 62
7
  6
CONTINUOUS
 10
16.039364039
 20
6.267468263
 11
15.9875279051
 21
6.2815568727
  0
LINE
  5
597
100
AcDbEntity
  8
0
100
AcDbLine
 62
7
  6
CONTINUOUS
 10
15.5004299861
 20
5.9883026281
 11
15.4865105613
 21
5.9963460739
  0
LINE
  5
598
100
AcDbEntity
  8
0
100
AcDbLine
 62
7
  6
CONTINUOUS
 10
15.6284886945
 20
5.9144978837
 11
15.6145692697
 21
5.9225413294
  0
LINE
  5
599
100
AcDbEntity
  8
0
100
AcDbLine
 62
7
  6
CONTINUOUS
 10
15.7565474029
 20
5.8406931392
 11
15.7426279781
 21
5.848736585
  0
LINE
  5
59A
100
AcDbEntity
  8
0
100
AcDbLine
 62
7
  6
CONTINUOUS
 10
15.8846061113
 20
5.7668883948
 11
15.8706866865
 21
5.7749318406
  0
LINE
  5
59B
100
AcDbEntity
  8
0
100
AcDbLine
 62
7
  6
CONTINUOUS
 10
16.0126648197
 20
5.6930836504
 11
15.9987453949
 21
5.7011270962
  0
LINE
  5
59C
100
AcDbEntity
  8
0
100
AcDbLine
 62
7
  6
CONTINUOUS
 10
16.1407235281
 20
5.619278906
 11
16.1268041033
 21
5.6273223517
  0
LINE
  5
59D
100
AcDbEntity
  8
0
100
AcDbLine
 62
7
  6
CONTINUOUS
 10
15.5004299861
 20
6.1361070735
 11
15.4865105613
 21
6.1441505193
  0
LINE
  5
59E
100
AcDbEntity
  8
0
100
AcDbLine
 62
7
  6
CONTINUOUS
 10
15.6284886945
 20
6.0623023291
 11
15.6145692697
 21
6.0703457749
  0
LINE
  5
59F
100
AcDbEntity
  8
0
100
AcDbLine
 62
7
  6
CONTINUOUS
 10
15.7565474029
 20
5.9884975847
 11
15.7426279781
 21
5.9965410305
  0
LINE
  5
5A0
100
AcDbEntity
  8
0
100
AcDbLine
 62
7
  6
CONTINUOUS
 10
15.8846061113
 20
5.9146928403
 11
15.8706866865
 21
5.922736286
  0
LINE
  5
5A1
100
AcDbEntity
  8
0
100
AcDbLine
 62
7
  6
CONTINUOUS
 10
16.0126648197
 20
5.8408880958
 11
15.9987453949
 21
5.8489315416
  0
LINE
  5
5A2
100
AcDbEntity
  8
0
100
AcDbLine
 62
7
  6
CONTINUOUS
 10
16.1407235281
 20
5.7670833514
 11
16.1268041033
 21
5.7751267972
  0
LINE
  5
5A3
100
AcDbEntity
  8
0
100
AcDbLine
 62
7
  6
CONTINUOUS
 10
16.1268041033
 20
6.9575623608
 11
16.0460714393
 21
6.9109103753
  0
LINE
  5
5A4
100
AcDbEntity
  8
0
100
AcDbLine
 62
7
  6
CONTINUOUS
 10
16.1407235281
 20
6.949518915
 11
16.0460714393
 21
6.8948234838
  0
LINE
  5
5A5
100
AcDbEntity
  8
0
100
AcDbLine
 62
7
  6
CONTINUOUS
 10
15.8581592042
 20
6.7750630248
 11
15.8094412173
 21
6.7469109646
  0
LINE
  5
5A6
100
AcDbEntity
  8
0
100
AcDbLine
 62
7
  6
CONTINUOUS
 10
15.6939099912
 20
6.6801503648
 11
15.6451920043
 21
6.6519983046
  0
LINE
  5
5A7
100
AcDbEntity
  8
0
100
AcDbLine
 62
7
  6
CONTINUOUS
 10
15.5380124332
 20
6.5900637722
 11
15.4823347338
 21
6.5578899892
  0
LINE
  5
5A8
100
AcDbEntity
  8
0
100
AcDbLine
 62
7
  6
CONTINUOUS
 10
16.0460714393
 20
6.8562658024
 11
16.1407235281
 21
6.9109612336
  0
LINE
  5
5A9
100
AcDbEntity
  8
0
100
AcDbLine
 62
7
  6
CONTINUOUS
 10
15.9416757531
 20
6.7268447321
 11
15.8094412173
 21
6.6504319973
  0
LINE
  5
5AA
100
AcDbEntity
  8
0
100
AcDbLine
 62
7
  6
CONTINUOUS
 10
15.7774265402
 20
6.631932072
 11
15.6451920043
 21
6.5555193373
  0
LINE
  5
5AB
100
AcDbEntity
  8
0
100
AcDbLine
 62
7
  6
CONTINUOUS
 10
15.6145692697
 20
6.5378237566
 11
15.4823347338
 21
6.4614110219
  0
LINE
  5
5AC
100
AcDbEntity
  8
0
100
AcDbLine
 62
7
  6
CONTINUOUS
 10
16.1268041033
 20
6.8097579153
 11
16.0460714393
 21
6.7631059299
  0
LINE
  5
5AD
100
AcDbEntity
  8
0
100
AcDbLine
 62
7
  6
CONTINUOUS
 10
16.1407235281
 20
6.8017144695
 11
16.0460714393
 21
6.7470190384
  0
LINE
  5
5AE
100
AcDbEntity
  8
0
100
AcDbLine
 62
7
  6
CONTINUOUS
 10
15.4531039417
 20
6.3658105674
 11
15.3765471052
 21
6.3215716157
  0
LINE
  5
5AF
100
AcDbEntity
  8
0
100
AcDbLine
 62
7
  6
CONTINUOUS
 10
16.0460714393
 20
6.7084613569
 11
16.1407235281
 21
6.7631567881
  0
LINE
  5
5B0
100
AcDbEntity
  8
0
100
AcDbLine
 62
7
  6
CONTINUOUS
 10
15.9625548904
 20
6.6505485474
 11
15.4614555966
 21
6.3609845
  0
LINE
  5
5B1
100
AcDbEntity
  8
0
100
AcDbLine
 62
7
  6
CONTINUOUS
 10
15.6284886945
 20
6.2101067746
 11
15.6145692697
 21
6.2181502203
  0
LINE
  5
5B2
100
AcDbEntity
  8
0
100
AcDbLine
 62
7
  6
CONTINUOUS
 10
15.7565474029
 20
6.1363020301
 11
15.7426279781
 21
6.1443454759
  0
LINE
  5
5B3
100
AcDbEntity
  8
0
100
AcDbLine
 62
7
  6
CONTINUOUS
 10
16.0126648197
 20
5.9886925413
 11
15.9987453949
 21
5.996735987
  0
LINE
  5
5B4
100
AcDbEntity
  8
0
100
AcDbLine
 62
7
  6
CONTINUOUS
 10
16.1407235281
 20
5.9148877969
 11
16.1268041033
 21
5.9229312426
  0
LINE
  5
5B5
100
AcDbEntity
  8
0
100
AcDbLine
 62
7
  6
CONTINUOUS
 10
15.3765471052
 20
6.4100495191
 11
15.4614555966
 21
6.3609845
  0
LINE
  5
5B6
100
AcDbEntity
  8
0
100
AcDbLine
 62
7
  6
CONTINUOUS
 10
15.8295825047
 20
6.1954313908
 11
15.8643810668
 21
6.1753227764
  0
LINE
  5
5B7
100
AcDbEntity
  8
0
100
AcDbLine
 62
7
  6
CONTINUOUS
 10
15.7565474029
 20
6.2841064756
 11
15.7426279781
 21
6.2921499213
  0
LINE
  5
5B8
100
AcDbEntity
  8
0
100
AcDbLine
 62
7
  6
CONTINUOUS
 10
16.1407235281
 20
6.0626922423
 11
16.1268041033
 21
6.0707356881
  0
LINE
  5
5B9
100
AcDbEntity
  8
0
100
AcDbLine
 62
7
  6
CONTINUOUS
 10
15.4531039417
 20
6.8574210055
 11
15.3765471052
 21
6.7200009904
  0
LINE
  5
5BA
100
AcDbEntity
  8
0
100
AcDbLine
 62
7
  6
CONTINUOUS
 10
16.1268041033
 20
6.6619534699
 11
16.0460714393
 21
6.6153014844
  0
LINE
  5
5BB
100
AcDbEntity
  8
0
100
AcDbLine
 62
7
  6
CONTINUOUS
 10
16.0460714393
 20
6.5992145929
 11
16.1407235281
 21
6.6539100241
  0
LINE
  5
5BC
100
AcDbEntity
  8
0
100
AcDbLine
 62
7
  6
CONTINUOUS
 10
16.1407235281
 20
6.6153523427
 11
16.0460714393
 21
6.5606569115
  0
LINE
  5
5BD
100
AcDbEntity
  8
0
100
AcDbLine
 62
7
  6
CONTINUOUS
 10
15.7565474029
 20
6.3933532396
 11
15.6618953141
 21
6.3386578084
  0
LINE
  5
5BE
100
AcDbEntity
  8
0
100
AcDbLine
 62
7
  6
CONTINUOUS
 10
15.6284886945
 20
6.3193535386
 11
15.5338366057
 21
6.2646581074
  0
LINE
  5
5BF
100
AcDbEntity
  8
0
100
AcDbLine
 62
7
  6
CONTINUOUS
 10
15.5004299861
 20
6.2453538376
 11
15.4057778973
 21
6.1906584064
  0
LINE
  5
5C0
100
AcDbEntity
  8
0
100
AcDbLine
 62
7
  6
CONTINUOUS
 10
13.0937614336
 20
4.7815916662
 11
13.1285141562
 21
4.8016737919
  0
LINE
  5
5C1
100
AcDbEntity
  8
0
100
AcDbLine
 62
7
  6
CONTINUOUS
 10
16.1268041033
 20
6.5141490244
 11
16.0460714393
 21
6.467497039
  0
LINE
  5
5C2
100
AcDbEntity
  8
0
100
AcDbLine
 62
7
  6
CONTINUOUS
 10
15.7426279781
 20
6.2921499213
 11
15.6618953141
 21
6.2454979359
  0
LINE
  5
5C3
100
AcDbEntity
  8
0
100
AcDbLine
 62
7
  6
CONTINUOUS
 10
15.6145692697
 20
6.2181502203
 11
15.5338366057
 21
6.1714982349
  0
LINE
  5
5C4
100
AcDbEntity
  8
0
100
AcDbLine
 62
7
  6
CONTINUOUS
 10
15.4865105613
 20
6.1441505193
 11
15.4057778973
 21
6.0974985339
  0
LINE
  5
5C5
100
AcDbEntity
  8
0
100
AcDbLine
 62
7
  6
CONTINUOUS
 10
15.4057778973
 20
6.0814116424
 11
15.5004299861
 21
6.1361070735
  0
LINE
  5
5C6
100
AcDbEntity
  8
0
100
AcDbLine
 62
7
  6
CONTINUOUS
 10
15.5338366057
 20
6.1554113434
 11
15.6284886945
 21
6.2101067746
  0
LINE
  5
5C7
100
AcDbEntity
  8
0
100
AcDbLine
 62
7
  6
CONTINUOUS
 10
15.6618953141
 20
6.2294110444
 11
15.7565474029
 21
6.2841064756
  0
LINE
  5
5C8
100
AcDbEntity
  8
0
100
AcDbLine
 62
7
  6
CONTINUOUS
 10
16.0460714393
 20
6.4514101475
 11
16.1407235281
 21
6.5061055786
  0
LINE
  5
5C9
100
AcDbEntity
  8
0
100
AcDbLine
 62
7
  6
CONTINUOUS
 10
13.1841918556
 20
4.7695000088
 11
13.1494391329
 21
4.7494178831
  0
LINE
  5
5CA
100
AcDbEntity
  8
0
100
AcDbLine
 62
7
  6
CONTINUOUS
 10
16.1407235281
 20
6.4675478972
 11
16.0460714393
 21
6.412852466
  0
LINE
  5
5CB
100
AcDbEntity
  8
0
100
AcDbLine
 62
7
  6
CONTINUOUS
 10
15.7565474029
 20
6.2455487942
 11
15.6618953141
 21
6.190853363
  0
LINE
  5
5CC
100
AcDbEntity
  8
0
100
AcDbLine
 62
7
  6
CONTINUOUS
 10
15.6284886945
 20
6.1715490931
 11
15.5338366057
 21
6.116853662
  0
LINE
  5
5CD
100
AcDbEntity
  8
0
100
AcDbLine
 62
7
  6
CONTINUOUS
 10
15.5004299861
 20
6.0975493921
 11
15.4057778973
 21
6.0428539609
  0
LINE
  5
5CE
100
AcDbEntity
  8
0
100
AcDbLine
 62
7
  6
CONTINUOUS
 10
13.1403300819
 20
4.6904188153
 11
13.0937614336
 21
4.6635087668
  0
LINE
  5
5CF
100
AcDbEntity
  8
0
100
AcDbLine
 62
7
  6
CONTINUOUS
 10
15.9356555056
 20
6.256860395
 11
15.9505460221
 21
6.2482784658
  0
LINE
  5
5D0
100
AcDbEntity
  8
0
100
AcDbLine
 62
7
  6
CONTINUOUS
 10
15.9820420851
 20
6.2301261752
 11
15.9969326017
 21
6.221544246
  0
LINE
  5
5D1
100
AcDbEntity
  8
0
100
AcDbLine
 62
7
  6
CONTINUOUS
 10
15.9717798736
 20
6.2542804873
 11
15.9402838106
 21
6.2724327779
  0
LINE
  5
5D2
100
AcDbEntity
  8
0
100
AcDbLine
 62
7
  6
CONTINUOUS
 10
15.9245357791
 20
6.2815089231
 11
15.9214963487
 21
6.283260654
  0
LINE
  5
5D3
100
AcDbEntity
  8
0
100
AcDbLine
 62
7
  6
CONTINUOUS
 10
15.9372404731
 20
6.3105392912
 11
15.9402838106
 21
6.3087853085
  0
LINE
  5
5D4
100
AcDbEntity
  8
0
100
AcDbLine
 62
7
  6
CONTINUOUS
 10
15.9560318421
 20
6.2997091633
 11
15.9875279051
 21
6.2815568727
  0
LINE
  5
5D5
100
AcDbEntity
  8
0
100
AcDbLine
 62
7
  6
CONTINUOUS
 10
16.0284286647
 20
6.2760970168
 11
16.0135381481
 21
6.284678946
  0
LINE
  5
5D6
100
AcDbEntity
  8
0
100
AcDbLine
 62
7
  6
CONTINUOUS
 10
15.9820420851
 20
6.3028312366
 11
15.9671515686
 21
6.3114131658
  0
LINE
  5
5D7
100
AcDbEntity
  8
0
100
AcDbLine
 62
7
  6
CONTINUOUS
 10
16.1407235281
 20
6.2104966878
 11
16.1268041033
 21
6.2185401335
  0
LINE
  5
5D8
100
AcDbEntity
  8
0
100
AcDbLine
 62
7
  6
CONTINUOUS
 10
15.4823347338
 20
6.6222375553
 11
15.5380124332
 21
6.5900637722
  0
LINE
  5
5D9
100
AcDbEntity
  8
0
100
AcDbLine
 62
7
  6
CONTINUOUS
 10
15.4614555966
 20
6.714429913
 11
15.4531039417
 21
6.7192559805
  0
LINE
  5
5DA
100
AcDbEntity
  8
0
100
AcDbLine
 62
7
  6
CONTINUOUS
 10
15.9674685676
 20
6.4340473701
 11
16.0022671297
 21
6.4139387557
  0
LINE
  5
5DB
100
AcDbEntity
  8
0
100
AcDbLine
 62
7
  6
CONTINUOUS
 10
15.6145692697
 20
6.5378237566
 11
15.5380124332
 21
6.5900637722
  0
LINE
  5
5DC
100
AcDbEntity
  8
0
100
AcDbLine
 62
7
  6
CONTINUOUS
 10
15.2524614085
 20
7.1326444305
 11
15.2524614085
 21
7.2046308567
  0
LINE
  5
5DD
100
AcDbEntity
  8
0
100
AcDbLine
 62
7
  6
CONTINUOUS
 10
13.2397962118
 20
4.7373686077
 11
13.1494391329
 21
4.6851550807
  0
LINE
  5
5DE
100
AcDbEntity
  8
0
100
AcDbLine
 62
7
  6
CONTINUOUS
 10
16.1268041033
 20
6.366344579
 11
16.0510601969
 21
6.3225753852
  0
LINE
  5
5DF
100
AcDbEntity
  8
0
100
AcDbLine
 62
7
  6
CONTINUOUS
 10
15.7426279781
 20
6.1443454759
 11
15.6618953141
 21
6.0976934905
  0
LINE
  5
5E0
100
AcDbEntity
  8
0
100
AcDbLine
 62
7
  6
CONTINUOUS
 10
15.6145692697
 20
6.0703457749
 11
15.5338366057
 21
6.0236937895
  0
LINE
  5
5E1
100
AcDbEntity
  8
0
100
AcDbLine
 62
7
  6
CONTINUOUS
 10
15.4865105613
 20
5.9963460739
 11
15.4057778973
 21
5.9496940884
  0
LINE
  5
5E2
100
AcDbEntity
  8
0
100
AcDbLine
 62
7
  6
CONTINUOUS
 10
13.1494391329
 20
4.6313349838
 11
13.2863648601
 21
4.7104585592
  0
LINE
  5
5E3
100
AcDbEntity
  8
0
100
AcDbLine
 62
7
  6
CONTINUOUS
 10
15.4057778973
 20
5.9336071969
 11
15.5004299861
 21
5.9883026281
  0
LINE
  5
5E4
100
AcDbEntity
  8
0
100
AcDbLine
 62
7
  6
CONTINUOUS
 10
15.5338366057
 20
6.0076068979
 11
15.6284886945
 21
6.0623023291
  0
LINE
  5
5E5
100
AcDbEntity
  8
0
100
AcDbLine
 62
7
  6
CONTINUOUS
 10
15.6618953141
 20
6.081606599
 11
15.7565474029
 21
6.1363020301
  0
LINE
  5
5E6
100
AcDbEntity
  8
0
100
AcDbLine
 62
7
  6
CONTINUOUS
 10
16.048692464
 20
6.3051202811
 11
16.1407235281
 21
6.3583011332
  0
LINE
  5
5E7
100
AcDbEntity
  8
0
100
AcDbLine
 62
7
  6
CONTINUOUS
 10
16.1407235281
 20
6.3197434518
 11
16.0460714393
 21
6.2650480206
  0
LINE
  5
5E8
100
AcDbEntity
  8
0
100
AcDbLine
 62
7
  6
CONTINUOUS
 10
15.7565474029
 20
6.0977443487
 11
15.6618953141
 21
6.0430489175
  0
LINE
  5
5E9
100
AcDbEntity
  8
0
100
AcDbLine
 62
7
  6
CONTINUOUS
 10
15.6284886945
 20
6.0237446477
 11
15.5338366057
 21
5.9690492165
  0
LINE
  5
5EA
100
AcDbEntity
  8
0
100
AcDbLine
 62
7
  6
CONTINUOUS
 10
15.5004299861
 20
5.9497449467
 11
15.4057778973
 21
5.8950495155
  0
LINE
  5
5EB
100
AcDbEntity
  8
0
100
AcDbLine
 62
7
  6
CONTINUOUS
 10
13.1981571198
 20
4.5630186721
 11
13.3698355696
 21
4.6622243733
  0
LINE
  5
5EC
100
AcDbEntity
  8
0
100
AcDbLine
 62
7
  6
CONTINUOUS
 10
16.1268041033
 20
6.2185401335
 11
16.0460714393
 21
6.1718881481
  0
LINE
  5
5ED
100
AcDbEntity
  8
0
100
AcDbLine
 62
7
  6
CONTINUOUS
 10
15.7426279781
 20
5.9965410305
 11
15.6618953141
 21
5.949889045
  0
LINE
  5
5EE
100
AcDbEntity
  8
0
100
AcDbLine
 62
7
  6
CONTINUOUS
 10
15.6145692697
 20
5.9225413294
 11
15.5338366057
 21
5.875889344
  0
LINE
  5
5EF
100
AcDbEntity
  8
0
100
AcDbLine
 62
7
  6
CONTINUOUS
 10
15.4865105613
 20
5.8485416284
 11
15.4057778973
 21
5.801889643
  0
LINE
  5
5F0
100
AcDbEntity
  8
0
100
AcDbLine
 62
7
  6
CONTINUOUS
 10
13.4069484922
 20
4.6346699717
 11
13.1981571198
 21
4.5140182853
  0
LINE
  5
5F1
100
AcDbEntity
  8
0
100
AcDbLine
 62
7
  6
CONTINUOUS
 10
15.4057778973
 20
5.7858027515
 11
15.5004299861
 21
5.8404981827
  0
LINE
  5
5F2
100
AcDbEntity
  8
0
100
AcDbLine
 62
7
  6
CONTINUOUS
 10
15.5338366057
 20
5.8598024525
 11
15.6284886945
 21
5.9144978837
  0
LINE
  5
5F3
100
AcDbEntity
  8
0
100
AcDbLine
 62
7
  6
CONTINUOUS
 10
15.6618953141
 20
5.9338021535
 11
15.7565474029
 21
5.9884975847
  0
LINE
  5
5F4
100
AcDbEntity
  8
0
100
AcDbLine
 62
7
  6
CONTINUOUS
 10
16.0460714393
 20
6.1558012566
 11
16.1407235281
 21
6.2104966878
  0
LINE
  5
5F5
100
AcDbEntity
  8
0
100
AcDbLine
 62
7
  6
CONTINUOUS
 10
16.1407235281
 20
6.1719390063
 11
16.0460714393
 21
6.1172435751
  0
LINE
  5
5F6
100
AcDbEntity
  8
0
100
AcDbLine
 62
7
  6
CONTINUOUS
 10
16.0126648197
 20
6.0979393053
 11
15.9180127309
 21
6.0432438741
  0
LINE
  5
5F7
100
AcDbEntity
  8
0
100
AcDbLine
 62
7
  6
CONTINUOUS
 10
15.8846061113
 20
6.0239396043
 11
15.7899540225
 21
5.9692441731
  0
LINE
  5
5F8
100
AcDbEntity
  8
0
100
AcDbLine
 62
7
  6
CONTINUOUS
 10
15.7565474029
 20
5.9499399033
 11
15.6618953141
 21
5.8952444721
  0
LINE
  5
5F9
100
AcDbEntity
  8
0
100
AcDbLine
 62
7
  6
CONTINUOUS
 10
15.6284886945
 20
5.8759402023
 11
15.5338366057
 21
5.8212447711
  0
LINE
  5
5FA
100
AcDbEntity
  8
0
100
AcDbLine
 62
7
  6
CONTINUOUS
 10
15.5004299861
 20
5.8019405012
 11
15.4057778973
 21
5.74724507
  0
LINE
  5
5FB
100
AcDbEntity
  8
0
100
AcDbLine
 62
7
  6
CONTINUOUS
 10
16.1407235281
 20
6.3583011332
 11
16.1268041033
 21
6.366344579
  0
LINE
  5
5FC
100
AcDbEntity
  8
0
100
AcDbLine
 62
7
  6
CONTINUOUS
 10
15.6451920043
 20
6.7083024249
 11
15.7774265402
 21
6.631932072
  0
LINE
  5
5FD
100
AcDbEntity
  8
0
100
AcDbLine
 62
7
  6
CONTINUOUS
 10
16.1407235281
 20
6.5061055786
 11
16.1268041033
 21
6.5141490244
  0
LINE
  5
5FE
100
AcDbEntity
  8
0
100
AcDbLine
 62
7
  6
CONTINUOUS
 10
15.8094412173
 20
6.8032150849
 11
15.9416757531
 21
6.7268447321
  0
LINE
  5
5FF
100
AcDbEntity
  8
0
100
AcDbLine
 62
7
  6
CONTINUOUS
 10
16.0098905821
 20
6.216418748
 11
15.9717798736
 21
6.2542804873
  0
LINE
  5
600
100
AcDbEntity
  8
0
100
AcDbLine
 62
7
  6
CONTINUOUS
 10
15.3278291183
 20
6.8717847769
 11
15.3278291183
 21
3.5950244841
  0
LINE
  5
601
100
AcDbEntity
  8
0
100
AcDbLine
 62
7
  6
CONTINUOUS
 10
15.3278291183
 20
6.8926154162
 11
15.3278291183
 21
6.9009877597
  0
LINE
  5
602
100
AcDbEntity
  8
0
100
AcDbLine
 62
7
  6
CONTINUOUS
 10
15.3499023534
 20
7.1937707194
 11
15.3499023534
 21
7.1517432045
  0
LINE
  5
603
100
AcDbEntity
  8
0
100
AcDbLine
 62
7
  6
CONTINUOUS
 10
15.3765471052
 20
6.3215716157
 11
15.3765471052
 21
6.7200009904
  0
LINE
  5
604
100
AcDbEntity
  8
0
100
AcDbLine
 62
7
  6
CONTINUOUS
 10
15.3892724321
 20
7.1517432045
 11
15.3892724321
 21
7.1937707194
  0
LINE
  5
605
100
AcDbEntity
  8
0
100
AcDbLine
 62
7
  6
CONTINUOUS
 10
15.4057778973
 20
3.7165405152
 11
15.4057778973
 21
3.8257872792
  0
LINE
  5
606
100
AcDbEntity
  8
0
100
AcDbLine
 62
7
  6
CONTINUOUS
 10
15.4057778973
 20
3.8643449606
 11
15.4057778973
 21
3.9735917247
  0
LINE
  5
607
100
AcDbEntity
  8
0
100
AcDbLine
 62
7
  6
CONTINUOUS
 10
15.4057778973
 20
4.0121494061
 11
15.4057778973
 21
4.1213961701
  0
LINE
  5
608
100
AcDbEntity
  8
0
100
AcDbLine
 62
7
  6
CONTINUOUS
 10
15.4057778973
 20
4.1599538515
 11
15.4057778973
 21
4.2692006156
  0
LINE
  5
609
100
AcDbEntity
  8
0
100
AcDbLine
 62
7
  6
CONTINUOUS
 10
15.4057778973
 20
4.307758297
 11
15.4057778973
 21
4.417005061
  0
LINE
  5
60A
100
AcDbEntity
  8
0
100
AcDbLine
 62
7
  6
CONTINUOUS
 10
15.4057778973
 20
4.4555627424
 11
15.4057778973
 21
4.5648095065
  0
LINE
  5
60B
100
AcDbEntity
  8
0
100
AcDbLine
 62
7
  6
CONTINUOUS
 10
15.4057778973
 20
4.6033671879
 11
15.4057778973
 21
4.7126139519
  0
LINE
  5
60C
100
AcDbEntity
  8
0
100
AcDbLine
 62
7
  6
CONTINUOUS
 10
15.4057778973
 20
4.7511716333
 11
15.4057778973
 21
4.8604183974
  0
LINE
  5
60D
100
AcDbEntity
  8
0
100
AcDbLine
 62
7
  6
CONTINUOUS
 10
15.4057778973
 20
4.8989760788
 11
15.4057778973
 21
5.0082228428
  0
LINE
  5
60E
100
AcDbEntity
  8
0
100
AcDbLine
 62
7
  6
CONTINUOUS
 10
15.4057778973
 20
5.0467805242
 11
15.4057778973
 21
5.1560272883
  0
LINE
  5
60F
100
AcDbEntity
  8
0
100
AcDbLine
 62
7
  6
CONTINUOUS
 10
15.4057778973
 20
5.1945849697
 11
15.4057778973
 21
5.3038317337
  0
LINE
  5
610
100
AcDbEntity
  8
0
100
AcDbLine
 62
7
  6
CONTINUOUS
 10
15.4057778973
 20
5.3423894151
 11
15.4057778973
 21
5.4516361791
  0
LINE
  5
611
100
AcDbEntity
  8
0
100
AcDbLine
 62
7
  6
CONTINUOUS
 10
15.4057778973
 20
5.4901938606
 11
15.4057778973
 21
5.5994406246
  0
LINE
  5
612
100
AcDbEntity
  8
0
100
AcDbLine
 62
7
  6
CONTINUOUS
 10
15.4057778973
 20
5.637998306
 11
15.4057778973
 21
5.74724507
  0
LINE
  5
613
100
AcDbEntity
  8
0
100
AcDbLine
 62
7
  6
CONTINUOUS
 10
15.4057778973
 20
5.7858027515
 11
15.4057778973
 21
5.8950495155
  0
LINE
  5
614
100
AcDbEntity
  8
0
100
AcDbLine
 62
7
  6
CONTINUOUS
 10
15.4057778973
 20
5.9336071969
 11
15.4057778973
 21
6.0428539609
  0
LINE
  5
615
100
AcDbEntity
  8
0
100
AcDbLine
 62
7
  6
CONTINUOUS
 10
15.4057778973
 20
6.0814116424
 11
15.4057778973
 21
6.1906584064
  0
LINE
  5
616
100
AcDbEntity
  8
0
100
AcDbLine
 62
7
  6
CONTINUOUS
 10
15.4194945064
 20
7.2653844612
 11
15.4194945064
 21
7.3011522059
  0
LINE
  5
617
100
AcDbEntity
  8
0
100
AcDbLine
 62
7
  6
CONTINUOUS
 10
15.4391845169
 20
6.9653353258
 11
15.4391845169
 21
6.9569629823
  0
LINE
  5
618
100
AcDbEntity
  8
0
100
AcDbLine
 62
7
  6
CONTINUOUS
 10
15.4531039417
 20
6.9441757887
 11
15.4531039417
 21
6.8574210055
  0
LINE
  5
619
100
AcDbEntity
  8
0
100
AcDbLine
 62
7
  6
CONTINUOUS
 10
15.4614555966
 20
6.3609845
 11
15.4614555966
 21
6.714429913
  0
LINE
  5
61A
100
AcDbEntity
  8
0
100
AcDbLine
 62
7
  6
CONTINUOUS
 10
15.4823347338
 20
6.4614110219
 11
15.4823347338
 21
6.7023965308
  0
LINE
  5
61B
100
AcDbEntity
  8
0
100
AcDbLine
 62
7
  6
CONTINUOUS
 10
15.4865105613
 20
6.2373103918
 11
15.4865105613
 21
6.1441505193
  0
LINE
  5
61C
100
AcDbEntity
  8
0
100
AcDbLine
 62
7
  6
CONTINUOUS
 10
15.4865105613
 20
6.0895059464
 11
15.4865105613
 21
5.9963460739
  0
LINE
  5
61D
100
AcDbEntity
  8
0
100
AcDbLine
 62
7
  6
CONTINUOUS
 10
15.4865105613
 20
5.9417015009
 11
15.4865105613
 21
5.8485416284
  0
LINE
  5
61E
100
AcDbEntity
  8
0
100
AcDbLine
 62
7
  6
CONTINUOUS
 10
15.4865105613
 20
5.7938970555
 11
15.4865105613
 21
5.700737183
  0
LINE
  5
61F
100
AcDbEntity
  8
0
100
AcDbLine
 62
7
  6
CONTINUOUS
 10
15.4865105613
 20
5.64609261
 11
15.4865105613
 21
5.5529327375
  0
LINE
  5
620
100
AcDbEntity
  8
0
100
AcDbLine
 62
7
  6
CONTINUOUS
 10
15.4865105613
 20
5.4982881646
 11
15.4865105613
 21
5.4051282921
  0
LINE
  5
621
100
AcDbEntity
  8
0
100
AcDbLine
 62
7
  6
CONTINUOUS
 10
15.4865105613
 20
5.3504837191
 11
15.4865105613
 21
5.2573238466
  0
LINE
  5
622
100
AcDbEntity
  8
0
100
AcDbLine
 62
7
  6
CONTINUOUS
 10
15.4865105613
 20
5.2026792737
 11
15.4865105613
 21
5.1095194012
  0
LINE
  5
623
100
AcDbEntity
  8
0
100
AcDbLine
 62
7
  6
CONTINUOUS
 10
15.4865105613
 20
5.0548748282
 11
15.4865105613
 21
4.9617149557
  0
LINE
  5
624
100
AcDbEntity
  8
0
100
AcDbLine
 62
7
  6
CONTINUOUS
 10
15.4865105613
 20
4.9070703828
 11
15.4865105613
 21
4.8139105103
  0
LINE
  5
625
100
AcDbEntity
  8
0
100
AcDbLine
 62
7
  6
CONTINUOUS
 10
15.4865105613
 20
4.7592659373
 11
15.4865105613
 21
4.6661060648
  0
LINE
  5
626
100
AcDbEntity
  8
0
100
AcDbLine
 62
7
  6
CONTINUOUS
 10
15.4865105613
 20
4.6114614919
 11
15.4865105613
 21
4.5183016194
  0
LINE
  5
627
100
AcDbEntity
  8
0
100
AcDbLine
 62
7
  6
CONTINUOUS
 10
15.4865105613
 20
4.4636570464
 11
15.4865105613
 21
4.3704971739
  0
LINE
  5
628
100
AcDbEntity
  8
0
100
AcDbLine
 62
7
  6
CONTINUOUS
 10
15.4865105613
 20
4.315852601
 11
15.4865105613
 21
4.2226927285
  0
LINE
  5
629
100
AcDbEntity
  8
0
100
AcDbLine
 62
7
  6
CONTINUOUS
 10
15.4865105613
 20
4.1680481555
 11
15.4865105613
 21
4.074888283
  0
LINE
  5
62A
100
AcDbEntity
  8
0
100
AcDbLine
 62
7
  6
CONTINUOUS
 10
15.4865105613
 20
4.0202437101
 11
15.4865105613
 21
3.9270838376
  0
LINE
  5
62B
100
AcDbEntity
  8
0
100
AcDbLine
 62
7
  6
CONTINUOUS
 10
15.4865105613
 20
3.8724392646
 11
15.4865105613
 21
3.7792793921
  0
LINE
  5
62C
100
AcDbEntity
  8
0
100
AcDbLine
 62
7
  6
CONTINUOUS
 10
15.486713377
 20
7.0568264113
 11
15.486713377
 21
7.2046308567
  0
LINE
  5
62D
100
AcDbEntity
  8
0
100
AcDbLine
 62
7
  6
CONTINUOUS
 10
15.5004299861
 20
3.7712359464
 11
15.5004299861
 21
3.8804827104
  0
LINE
  5
62E
100
AcDbEntity
  8
0
100
AcDbLine
 62
7
  6
CONTINUOUS
 10
15.5004299861
 20
3.9190403918
 11
15.5004299861
 21
4.0282871559
  0
LINE
  5
62F
100
AcDbEntity
  8
0
100
AcDbLine
 62
7
  6
CONTINUOUS
 10
15.5004299861
 20
4.0668448373
 11
15.5004299861
 21
4.1760916013
  0
LINE
  5
630
100
AcDbEntity
  8
0
100
AcDbLine
 62
7
  6
CONTINUOUS
 10
15.5004299861
 20
4.2146492827
 11
15.5004299861
 21
4.3238960468
  0
LINE
  5
631
100
AcDbEntity
  8
0
100
AcDbLine
 62
7
  6
CONTINUOUS
 10
15.5004299861
 20
4.3624537282
 11
15.5004299861
 21
4.4717004922
  0
LINE
  5
632
100
AcDbEntity
  8
0
100
AcDbLine
 62
7
  6
CONTINUOUS
 10
15.5004299861
 20
4.5102581736
 11
15.5004299861
 21
4.6195049377
  0
LINE
  5
633
100
AcDbEntity
  8
0
100
AcDbLine
 62
7
  6
CONTINUOUS
 10
15.5004299861
 20
4.6580626191
 11
15.5004299861
 21
4.7673093831
  0
LINE
  5
634
100
AcDbEntity
  8
0
100
AcDbLine
 62
7
  6
CONTINUOUS
 10
15.5004299861
 20
4.8058670645
 11
15.5004299861
 21
4.9151138285
  0
LINE
  5
635
100
AcDbEntity
  8
0
100
AcDbLine
 62
7
  6
CONTINUOUS
 10
15.5004299861
 20
4.95367151
 11
15.5004299861
 21
5.062918274
  0
LINE
  5
636
100
AcDbEntity
  8
0
100
AcDbLine
 62
7
  6
CONTINUOUS
 10
15.5004299861
 20
5.1014759554
 11
15.5004299861
 21
5.2107227194
  0
LINE
  5
637
100
AcDbEntity
  8
0
100
AcDbLine
 62
7
  6
CONTINUOUS
 10
15.5004299861
 20
5.2492804009
 11
15.5004299861
 21
5.3585271649
  0
LINE
  5
638
100
AcDbEntity
  8
0
100
AcDbLine
 62
7
  6
CONTINUOUS
 10
15.5004299861
 20
5.3970848463
 11
15.5004299861
 21
5.5063316103
  0
LINE
  5
639
100
AcDbEntity
  8
0
100
AcDbLine
 62
7
  6
CONTINUOUS
 10
15.5004299861
 20
5.5448892918
 11
15.5004299861
 21
5.6541360558
  0
LINE
  5
63A
100
AcDbEntity
  8
0
100
AcDbLine
 62
7
  6
CONTINUOUS
 10
15.5004299861
 20
5.6926937372
 11
15.5004299861
 21
5.8019405012
  0
LINE
  5
63B
100
AcDbEntity
  8
0
100
AcDbLine
 62
7
  6
CONTINUOUS
 10
15.5004299861
 20
5.8404981827
 11
15.5004299861
 21
5.9497449467
  0
LINE
  5
63C
100
AcDbEntity
  8
0
100
AcDbLine
 62
7
  6
CONTINUOUS
 10
15.5004299861
 20
5.9883026281
 11
15.5004299861
 21
6.0975493921
  0
LINE
  5
63D
100
AcDbEntity
  8
0
100
AcDbLine
 62
7
  6
CONTINUOUS
 10
15.5004299861
 20
6.1361070735
 11
15.5004299861
 21
6.2453538376
  0
LINE
  5
63E
100
AcDbEntity
  8
0
100
AcDbLine
 62
7
  6
CONTINUOUS
 10
15.5169354513
 20
7.2902920685
 11
15.5169354513
 21
7.2482645536
  0
LINE
  5
63F
100
AcDbEntity
  8
0
100
AcDbLine
 62
7
  6
CONTINUOUS
 10
15.5338366057
 20
6.2646581074
 11
15.5338366057
 21
6.1554113434
  0
LINE
  5
640
100
AcDbEntity
  8
0
100
AcDbLine
 62
7
  6
CONTINUOUS
 10
15.5338366057
 20
6.116853662
 11
15.5338366057
 21
6.0076068979
  0
LINE
  5
641
100
AcDbEntity
  8
0
100
AcDbLine
 62
7
  6
CONTINUOUS
 10
15.5338366057
 20
5.9690492165
 11
15.5338366057
 21
5.8598024525
  0
LINE
  5
642
100
AcDbEntity
  8
0
100
AcDbLine
 62
7
  6
CONTINUOUS
 10
15.5338366057
 20
5.8212447711
 11
15.5338366057
 21
5.711998007
  0
LINE
  5
643
100
AcDbEntity
  8
0
100
AcDbLine
 62
7
  6
CONTINUOUS
 10
15.5338366057
 20
5.6734403256
 11
15.5338366057
 21
5.5641935616
  0
LINE
  5
644
100
AcDbEntity
  8
0
100
AcDbLine
 62
7
  6
CONTINUOUS
 10
15.5338366057
 20
5.5256358802
 11
15.5338366057
 21
5.4163891161
  0
LINE
  5
645
100
AcDbEntity
  8
0
100
AcDbLine
 62
7
  6
CONTINUOUS
 10
15.5338366057
 20
5.3778314347
 11
15.5338366057
 21
5.2685846707
  0
LINE
  5
646
100
AcDbEntity
  8
0
100
AcDbLine
 62
7
  6
CONTINUOUS
 10
15.5338366057
 20
5.2300269893
 11
15.5338366057
 21
5.1207802252
  0
LINE
  5
647
100
AcDbEntity
  8
0
100
AcDbLine
 62
7
  6
CONTINUOUS
 10
15.5338366057
 20
5.0822225438
 11
15.5338366057
 21
4.9729757798
  0
LINE
  5
648
100
AcDbEntity
  8
0
100
AcDbLine
 62
7
  6
CONTINUOUS
 10
15.5338366057
 20
4.9344180984
 11
15.5338366057
 21
4.8251713343
  0
LINE
  5
649
100
AcDbEntity
  8
0
100
AcDbLine
 62
7
  6
CONTINUOUS
 10
15.5338366057
 20
4.7866136529
 11
15.5338366057
 21
4.6773668889
  0
LINE
  5
64A
100
AcDbEntity
  8
0
100
AcDbLine
 62
7
  6
CONTINUOUS
 10
15.5338366057
 20
4.6388092075
 11
15.5338366057
 21
4.5295624435
  0
LINE
  5
64B
100
AcDbEntity
  8
0
100
AcDbLine
 62
7
  6
CONTINUOUS
 10
15.5338366057
 20
4.491004762
 11
15.5338366057
 21
4.381757998
  0
LINE
  5
64C
100
AcDbEntity
  8
0
100
AcDbLine
 62
7
  6
CONTINUOUS
 10
15.5338366057
 20
4.3432003166
 11
15.5338366057
 21
4.2339535526
  0
LINE
  5
64D
100
AcDbEntity
  8
0
100
AcDbLine
 62
7
  6
CONTINUOUS
 10
15.5338366057
 20
4.1953958711
 11
15.5338366057
 21
4.0861491071
  0
LINE
  5
64E
100
AcDbEntity
  8
0
100
AcDbLine
 62
7
  6
CONTINUOUS
 10
15.5338366057
 20
4.0475914257
 11
15.5338366057
 21
3.9383446617
  0
LINE
  5
64F
100
AcDbEntity
  8
0
100
AcDbLine
 62
7
  6
CONTINUOUS
 10
15.5338366057
 20
3.8997869802
 11
15.5338366057
 21
3.7905402162
  0
LINE
  5
650
100
AcDbEntity
  8
0
100
AcDbLine
 62
7
  6
CONTINUOUS
 10
15.5380124332
 20
6.7345703138
 11
15.5380124332
 21
6.5900637722
  0
LINE
  5
651
100
AcDbEntity
  8
0
100
AcDbLine
 62
7
  6
CONTINUOUS
 10
15.55630553
 20
7.2482645536
 11
15.55630553
 21
7.2902920685
  0
LINE
  5
652
100
AcDbEntity
  8
0
100
AcDbLine
 62
7
  6
CONTINUOUS
 10
16.1268041033
 20
6.0707356881
 11
16.0460714393
 21
6.0240837026
  0
LINE
  5
653
100
AcDbEntity
  8
0
100
AcDbLine
 62
7
  6
CONTINUOUS
 10
15.9987453949
 20
5.996735987
 11
15.9180127309
 21
5.9500840016
  0
LINE
  5
654
100
AcDbEntity
  8
0
100
AcDbLine
 62
7
  6
CONTINUOUS
 10
15.8706866865
 20
5.922736286
 11
15.7899540225
 21
5.8760843006
  0
LINE
  5
655
100
AcDbEntity
  8
0
100
AcDbLine
 62
7
  6
CONTINUOUS
 10
15.7426279781
 20
5.848736585
 11
15.6618953141
 21
5.8020845996
  0
LINE
  5
656
100
AcDbEntity
  8
0
100
AcDbLine
 62
7
  6
CONTINUOUS
 10
15.6145692697
 20
5.774736884
 11
15.5338366057
 21
5.7280848986
  0
LINE
  5
657
100
AcDbEntity
  8
0
100
AcDbLine
 62
7
  6
CONTINUOUS
 10
15.4865105613
 20
5.700737183
 11
15.4057778973
 21
5.6540851975
  0
LINE
  5
658
100
AcDbEntity
  8
0
100
AcDbLine
 62
7
  6
CONTINUOUS
 10
15.4057778973
 20
5.637998306
 11
15.5004299861
 21
5.6926937372
  0
LINE
  5
659
100
AcDbEntity
  8
0
100
AcDbLine
 62
7
  6
CONTINUOUS
 10
15.5338366057
 20
5.711998007
 11
15.6284886945
 21
5.7666934382
  0
LINE
  5
65A
100
AcDbEntity
  8
0
100
AcDbLine
 62
7
  6
CONTINUOUS
 10
15.6618953141
 20
5.7859977081
 11
15.7565474029
 21
5.8406931392
  0
LINE
  5
65B
100
AcDbEntity
  8
0
100
AcDbLine
 62
7
  6
CONTINUOUS
 10
15.7899540225
 20
5.8599974091
 11
15.8846061113
 21
5.9146928403
  0
LINE
  5
65C
100
AcDbEntity
  8
0
100
AcDbLine
 62
7
  6
CONTINUOUS
 10
15.9180127309
 20
5.9339971101
 11
16.0126648197
 21
5.9886925413
  0
LINE
  5
65D
100
AcDbEntity
  8
0
100
AcDbLine
 62
7
  6
CONTINUOUS
 10
16.0460714393
 20
6.0079968111
 11
16.1407235281
 21
6.0626922423
  0
LINE
  5
65E
100
AcDbEntity
  8
0
100
AcDbLine
 62
7
  6
CONTINUOUS
 10
16.1407235281
 20
6.0241345609
 11
16.0460714393
 21
5.9694391297
  0
LINE
  5
65F
100
AcDbEntity
  8
0
100
AcDbLine
 62
7
  6
CONTINUOUS
 10
16.0126648197
 20
5.9501348599
 11
15.9180127309
 21
5.8954394287
  0
LINE
  5
660
100
AcDbEntity
  8
0
100
AcDbLine
 62
7
  6
CONTINUOUS
 10
15.8846061113
 20
5.8761351588
 11
15.7899540225
 21
5.8214397277
  0
LINE
  5
661
100
AcDbEntity
  8
0
100
AcDbLine
 62
7
  6
CONTINUOUS
 10
15.7565474029
 20
5.8021354578
 11
15.6618953141
 21
5.7474400266
  0
LINE
  5
662
100
AcDbEntity
  8
0
100
AcDbLine
 62
7
  6
CONTINUOUS
 10
15.6284886945
 20
5.7281357568
 11
15.5338366057
 21
5.6734403256
  0
LINE
  5
663
100
AcDbEntity
  8
0
100
AcDbLine
 62
7
  6
CONTINUOUS
 10
15.5004299861
 20
5.6541360558
 11
15.4057778973
 21
5.5994406246
  0
LINE
  5
664
100
AcDbEntity
  8
0
100
AcDbLine
 62
7
  6
CONTINUOUS
 10
16.1268041033
 20
5.9229312426
 11
16.0460714393
 21
5.8762792572
  0
LINE
  5
665
100
AcDbEntity
  8
0
100
AcDbLine
 62
7
  6
CONTINUOUS
 10
15.9987453949
 20
5.8489315416
 11
15.9180127309
 21
5.8022795562
  0
LINE
  5
666
100
AcDbEntity
  8
0
100
AcDbLine
 62
7
  6
CONTINUOUS
 10
15.8706866865
 20
5.7749318406
 11
15.7899540225
 21
5.7282798552
  0
LINE
  5
667
100
AcDbEntity
  8
0
100
AcDbLine
 62
7
  6
CONTINUOUS
 10
15.7426279781
 20
5.7009321396
 11
15.6618953141
 21
5.6542801541
  0
LINE
  5
668
100
AcDbEntity
  8
0
100
AcDbLine
 62
7
  6
CONTINUOUS
 10
15.6145692697
 20
5.6269324385
 11
15.5338366057
 21
5.5802804531
  0
LINE
  5
669
100
AcDbEntity
  8
0
100
AcDbLine
 62
7
  6
CONTINUOUS
 10
15.4865105613
 20
5.5529327375
 11
15.4057778973
 21
5.5062807521
  0
LINE
  5
66A
100
AcDbEntity
  8
0
100
AcDbLine
 62
7
  6
CONTINUOUS
 10
15.4057778973
 20
5.4901938606
 11
15.5004299861
 21
5.5448892918
  0
LINE
  5
66B
100
AcDbEntity
  8
0
100
AcDbLine
 62
7
  6
CONTINUOUS
 10
15.5338366057
 20
5.5641935616
 11
15.6284886945
 21
5.6188889928
  0
LINE
  5
66C
100
AcDbEntity
  8
0
100
AcDbLine
 62
7
  6
CONTINUOUS
 10
15.6618953141
 20
5.6381932626
 11
15.7565474029
 21
5.6928886938
  0
LINE
  5
66D
100
AcDbEntity
  8
0
100
AcDbLine
 62
7
  6
CONTINUOUS
 10
15.7899540225
 20
5.7121929636
 11
15.8846061113
 21
5.7668883948
  0
LINE
  5
66E
100
AcDbEntity
  8
0
100
AcDbLine
 62
7
  6
CONTINUOUS
 10
15.9180127309
 20
5.7861926646
 11
16.0126648197
 21
5.8408880958
  0
LINE
  5
66F
100
AcDbEntity
  8
0
100
AcDbLine
 62
7
  6
CONTINUOUS
 10
16.0460714393
 20
5.8601923657
 11
16.1407235281
 21
5.9148877969
  0
LINE
  5
670
100
AcDbEntity
  8
0
100
AcDbLine
 62
7
  6
CONTINUOUS
 10
16.1407235281
 20
5.8763301154
 11
16.0460714393
 21
5.8216346842
  0
LINE
  5
671
100
AcDbEntity
  8
0
100
AcDbLine
 62
7
  6
CONTINUOUS
 10
16.0126648197
 20
5.8023304144
 11
15.9180127309
 21
5.7476349832
  0
LINE
  5
672
100
AcDbEntity
  8
0
100
AcDbLine
 62
7
  6
CONTINUOUS
 10
15.8846061113
 20
5.7283307134
 11
15.7899540225
 21
5.6736352822
  0
LINE
  5
673
100
AcDbEntity
  8
0
100
AcDbLine
 62
7
  6
CONTINUOUS
 10
15.7565474029
 20
5.6543310124
 11
15.6618953141
 21
5.5996355812
  0
LINE
  5
674
100
AcDbEntity
  8
0
100
AcDbLine
 62
7
  6
CONTINUOUS
 10
15.6284886945
 20
5.5803313114
 11
15.5338366057
 21
5.5256358802
  0
LINE
  5
675
100
AcDbEntity
  8
0
100
AcDbLine
 62
7
  6
CONTINUOUS
 10
15.5004299861
 20
5.5063316103
 11
15.4057778973
 21
5.4516361791
  0
LINE
  5
676
100
AcDbEntity
  8
0
100
AcDbLine
 62
7
  6
CONTINUOUS
 10
16.1407235281
 20
6.6539100241
 11
16.1268041033
 21
6.6619534699
  0
LINE
  5
677
100
AcDbEntity
  8
0
100
AcDbLine
 62
7
  6
CONTINUOUS
 10
16.1268041033
 20
6.8097579153
 11
16.1407235281
 21
6.8017144695
  0
LINE
  5
678
100
AcDbEntity
  8
0
100
AcDbLine
 62
7
  6
CONTINUOUS
 10
15.9625548904
 20
7.0039939605
 11
15.9542032355
 21
7.0088200279
  0
LINE
  5
679
100
AcDbEntity
  8
0
100
AcDbLine
 62
7
  6
CONTINUOUS
 10
15.9820420851
 20
6.2301261752
 11
15.9402838106
 21
6.2724327779
  0
LINE
  5
67A
100
AcDbEntity
  8
0
100
AcDbLine
 62
7
  6
CONTINUOUS
 10
15.9434670997
 20
6.1780354322
 11
15.9217484348
 21
6.2029889252
  0
LINE
  5
67B
100
AcDbEntity
  8
0
100
AcDbLine
 62
7
  6
CONTINUOUS
 10
15.9505460221
 20
6.2482784658
 11
15.9245357791
 21
6.2815089231
  0
LINE
  5
67C
100
AcDbEntity
  8
0
100
AcDbLine
 62
7
  6
CONTINUOUS
 10
15.4294270702
 20
6.8149208685
 11
15.4531039417
 21
6.7192559805
  0
LINE
  5
67D
100
AcDbEntity
  8
0
100
AcDbLine
 62
7
  6
CONTINUOUS
 10
15.5865276043
 20
7.3619058103
 11
15.5865276043
 21
7.3976735551
  0
LINE
  5
67E
100
AcDbEntity
  8
0
100
AcDbLine
 62
7
  6
CONTINUOUS
 10
15.6145692697
 20
6.7788092655
 11
15.6145692697
 21
6.5378237566
  0
LINE
  5
67F
100
AcDbEntity
  8
0
100
AcDbLine
 62
7
  6
CONTINUOUS
 10
15.6145692697
 20
6.3113100928
 11
15.6145692697
 21
6.2181502203
  0
LINE
  5
680
100
AcDbEntity
  8
0
100
AcDbLine
 62
7
  6
CONTINUOUS
 10
15.6145692697
 20
6.1635056474
 11
15.6145692697
 21
6.0703457749
  0
LINE
  5
681
100
AcDbEntity
  8
0
100
AcDbLine
 62
7
  6
CONTINUOUS
 10
15.6145692697
 20
6.0157012019
 11
15.6145692697
 21
5.9225413294
  0
LINE
  5
682
100
AcDbEntity
  8
0
100
AcDbLine
 62
7
  6
CONTINUOUS
 10
15.6145692697
 20
5.8678967565
 11
15.6145692697
 21
5.774736884
  0
LINE
  5
683
100
AcDbEntity
  8
0
100
AcDbLine
 62
7
  6
CONTINUOUS
 10
15.6145692697
 20
5.720092311
 11
15.6145692697
 21
5.6269324385
  0
LINE
  5
684
100
AcDbEntity
  8
0
100
AcDbLine
 62
7
  6
CONTINUOUS
 10
15.6145692697
 20
5.5722878656
 11
15.6145692697
 21
5.4791279931
  0
LINE
  5
685
100
AcDbEntity
  8
0
100
AcDbLine
 62
7
  6
CONTINUOUS
 10
15.6145692697
 20
5.4244834201
 11
15.6145692697
 21
5.3313235476
  0
LINE
  5
686
100
AcDbEntity
  8
0
100
AcDbLine
 62
7
  6
CONTINUOUS
 10
15.6145692697
 20
5.2766789747
 11
15.6145692697
 21
5.1835191022
  0
LINE
  5
687
100
AcDbEntity
  8
0
100
AcDbLine
 62
7
  6
CONTINUOUS
 10
15.6145692697
 20
5.1288745292
 11
15.6145692697
 21
5.0357146567
  0
LINE
  5
688
100
AcDbEntity
  8
0
100
AcDbLine
 62
7
  6
CONTINUOUS
 10
15.6145692697
 20
4.9810700838
 11
15.6145692697
 21
4.8879102113
  0
LINE
  5
689
100
AcDbEntity
  8
0
100
AcDbLine
 62
7
  6
CONTINUOUS
 10
15.6145692697
 20
4.8332656384
 11
15.6145692697
 21
4.7401057659
  0
LINE
  5
68A
100
AcDbEntity
  8
0
100
AcDbLine
 62
7
  6
CONTINUOUS
 10
15.6145692697
 20
4.6854611929
 11
15.6145692697
 21
4.5923013204
  0
LINE
  5
68B
100
AcDbEntity
  8
0
100
AcDbLine
 62
7
  6
CONTINUOUS
 10
15.6145692697
 20
4.5376567475
 11
15.6145692697
 21
4.444496875
  0
LINE
  5
68C
100
AcDbEntity
  8
0
100
AcDbLine
 62
7
  6
CONTINUOUS
 10
15.6145692697
 20
4.389852302
 11
15.6145692697
 21
4.2966924295
  0
LINE
  5
68D
100
AcDbEntity
  8
0
100
AcDbLine
 62
7
  6
CONTINUOUS
 10
15.6145692697
 20
4.2420478566
 11
15.6145692697
 21
4.1488879841
  0
LINE
  5
68E
100
AcDbEntity
  8
0
100
AcDbLine
 62
7
  6
CONTINUOUS
 10
15.6145692697
 20
4.0942434111
 11
15.6145692697
 21
4.0010835386
  0
LINE
  5
68F
100
AcDbEntity
  8
0
100
AcDbLine
 62
7
  6
CONTINUOUS
 10
15.6145692697
 20
3.9464389657
 11
15.6145692697
 21
3.8532790932
  0
LINE
  5
690
100
AcDbEntity
  8
0
100
AcDbLine
 62
7
  6
CONTINUOUS
 10
15.6284886945
 20
3.8452356474
 11
15.6284886945
 21
3.9544824114
  0
LINE
  5
691
100
AcDbEntity
  8
0
100
AcDbLine
 62
7
  6
CONTINUOUS
 10
15.6284886945
 20
3.9930400929
 11
15.6284886945
 21
4.1022868569
  0
LINE
  5
692
100
AcDbEntity
  8
0
100
AcDbLine
 62
7
  6
CONTINUOUS
 10
15.6284886945
 20
4.1408445383
 11
15.6284886945
 21
4.2500913023
  0
LINE
  5
693
100
AcDbEntity
  8
0
100
AcDbLine
 62
7
  6
CONTINUOUS
 10
15.6284886945
 20
4.2886489837
 11
15.6284886945
 21
4.3978957478
  0
LINE
  5
694
100
AcDbEntity
  8
0
100
AcDbLine
 62
7
  6
CONTINUOUS
 10
15.6284886945
 20
4.4364534292
 11
15.6284886945
 21
4.5457001932
  0
LINE
  5
695
100
AcDbEntity
  8
0
100
AcDbLine
 62
7
  6
CONTINUOUS
 10
15.6284886945
 20
4.5842578746
 11
15.6284886945
 21
4.6935046387
  0
LINE
  5
696
100
AcDbEntity
  8
0
100
AcDbLine
 62
7
  6
CONTINUOUS
 10
15.6284886945
 20
4.7320623201
 11
15.6284886945
 21
4.8413090841
  0
LINE
  5
697
100
AcDbEntity
  8
0
100
AcDbLine
 62
7
  6
CONTINUOUS
 10
15.6284886945
 20
4.8798667655
 11
15.6284886945
 21
4.9891135296
  0
LINE
  5
698
100
AcDbEntity
  8
0
100
AcDbLine
 62
7
  6
CONTINUOUS
 10
15.6284886945
 20
5.027671211
 11
15.6284886945
 21
5.136917975
  0
LINE
  5
699
100
AcDbEntity
  8
0
100
AcDbLine
 62
7
  6
CONTINUOUS
 10
15.6284886945
 20
5.1754756564
 11
15.6284886945
 21
5.2847224205
  0
LINE
  5
69A
100
AcDbEntity
  8
0
100
AcDbLine
 62
7
  6
CONTINUOUS
 10
15.6284886945
 20
5.3232801019
 11
15.6284886945
 21
5.4325268659
  0
LINE
  5
69B
100
AcDbEntity
  8
0
100
AcDbLine
 62
7
  6
CONTINUOUS
 10
15.6284886945
 20
5.4710845473
 11
15.6284886945
 21
5.5803313114
  0
LINE
  5
69C
100
AcDbEntity
  8
0
100
AcDbLine
 62
7
  6
CONTINUOUS
 10
15.6284886945
 20
5.6188889928
 11
15.6284886945
 21
5.7281357568
  0
LINE
  5
69D
100
AcDbEntity
  8
0
100
AcDbLine
 62
7
  6
CONTINUOUS
 10
15.6284886945
 20
5.7666934382
 11
15.6284886945
 21
5.8759402023
  0
LINE
  5
69E
100
AcDbEntity
  8
0
100
AcDbLine
 62
7
  6
CONTINUOUS
 10
15.6284886945
 20
5.9144978837
 11
15.6284886945
 21
6.0237446477
  0
LINE
  5
69F
100
AcDbEntity
  8
0
100
AcDbLine
 62
7
  6
CONTINUOUS
 10
15.6284886945
 20
6.0623023291
 11
15.6284886945
 21
6.1715490931
  0
LINE
  5
6A0
100
AcDbEntity
  8
0
100
AcDbLine
 62
7
  6
CONTINUOUS
 10
15.6284886945
 20
6.2101067746
 11
15.6284886945
 21
6.3193535386
  0
LINE
  5
6A1
100
AcDbEntity
  8
0
100
AcDbLine
 62
7
  6
CONTINUOUS
 10
15.6451920043
 20
6.5555193373
 11
15.6451920043
 21
6.7965048462
  0
LINE
  5
6A2
100
AcDbEntity
  8
0
100
AcDbLine
 62
7
  6
CONTINUOUS
 10
15.6537464749
 20
7.1533477605
 11
15.6537464749
 21
7.3011522059
  0
LINE
  5
6A3
100
AcDbEntity
  8
0
100
AcDbLine
 62
7
  6
CONTINUOUS
 10
15.6618953141
 20
6.3386578084
 11
15.6618953141
 21
6.2294110444
  0
LINE
  5
6A4
100
AcDbEntity
  8
0
100
AcDbLine
 62
7
  6
CONTINUOUS
 10
15.6618953141
 20
6.190853363
 11
15.6618953141
 21
6.081606599
  0
LINE
  5
6A5
100
AcDbEntity
  8
0
100
AcDbLine
 62
7
  6
CONTINUOUS
 10
15.6618953141
 20
6.0430489175
 11
15.6618953141
 21
5.9338021535
  0
LINE
  5
6A6
100
AcDbEntity
  8
0
100
AcDbLine
 62
7
  6
CONTINUOUS
 10
15.6618953141
 20
5.8952444721
 11
15.6618953141
 21
5.7859977081
  0
LINE
  5
6A7
100
AcDbEntity
  8
0
100
AcDbLine
 62
7
  6
CONTINUOUS
 10
15.6618953141
 20
5.7474400266
 11
15.6618953141
 21
5.6381932626
  0
LINE
  5
6A8
100
AcDbEntity
  8
0
100
AcDbLine
 62
7
  6
CONTINUOUS
 10
15.6618953141
 20
5.5996355812
 11
15.6618953141
 21
5.4903888172
  0
LINE
  5
6A9
100
AcDbEntity
  8
0
100
AcDbLine
 62
7
  6
CONTINUOUS
 10
15.6618953141
 20
5.4518311357
 11
15.6618953141
 21
5.3425843717
  0
LINE
  5
6AA
100
AcDbEntity
  8
0
100
AcDbLine
 62
7
  6
CONTINUOUS
 10
15.6618953141
 20
5.3040266903
 11
15.6618953141
 21
5.1947799263
  0
LINE
  5
6AB
100
AcDbEntity
  8
0
100
AcDbLine
 62
7
  6
CONTINUOUS
 10
15.6618953141
 20
5.1562222448
 11
15.6618953141
 21
5.0469754808
  0
LINE
  5
6AC
100
AcDbEntity
  8
0
100
AcDbLine
 62
7
  6
CONTINUOUS
 10
15.6618953141
 20
5.0084177994
 11
15.6618953141
 21
4.8991710354
  0
LINE
  5
6AD
100
AcDbEntity
  8
0
100
AcDbLine
 62
7
  6
CONTINUOUS
 10
15.6618953141
 20
4.8606133539
 11
15.6618953141
 21
4.7513665899
  0
LINE
  5
6AE
100
AcDbEntity
  8
0
100
AcDbLine
 62
7
  6
CONTINUOUS
 10
15.6618953141
 20
4.7128089085
 11
15.6618953141
 21
4.6035621445
  0
LINE
  5
6AF
100
AcDbEntity
  8
0
100
AcDbLine
 62
7
  6
CONTINUOUS
 10
15.6618953141
 20
4.5650044631
 11
15.6618953141
 21
4.455757699
  0
LINE
  5
6B0
100
AcDbEntity
  8
0
100
AcDbLine
 62
7
  6
CONTINUOUS
 10
15.6618953141
 20
4.4172000176
 11
15.6618953141
 21
4.3079532536
  0
LINE
  5
6B1
100
AcDbEntity
  8
0
100
AcDbLine
 62
7
  6
CONTINUOUS
 10
15.6618953141
 20
4.2693955722
 11
15.6618953141
 21
4.1601488081
  0
LINE
  5
6B2
100
AcDbEntity
  8
0
100
AcDbLine
 62
7
  6
CONTINUOUS
 10
15.6618953141
 20
4.1215911267
 11
15.6618953141
 21
4.0123443627
  0
LINE
  5
6B3
100
AcDbEntity
  8
0
100
AcDbLine
 62
7
  6
CONTINUOUS
 10
15.6618953141
 20
3.9737866813
 11
15.6618953141
 21
3.8645399172
  0
LINE
  5
6B4
100
AcDbEntity
  8
0
100
AcDbLine
 62
7
  6
CONTINUOUS
 10
15.6758147389
 20
3.6835447694
 11
15.6758147389
 21
3.3879358785
  0
LINE
  5
6B5
100
AcDbEntity
  8
0
100
AcDbLine
 62
7
  6
CONTINUOUS
 10
15.6839685492
 20
7.3868134177
 11
15.6839685492
 21
7.3447859028
  0
LINE
  5
6B6
100
AcDbEntity
  8
0
100
AcDbLine
 62
7
  6
CONTINUOUS
 10
15.6939099912
 20
6.8246569064
 11
15.6939099912
 21
6.6801503648
  0
LINE
  5
6B7
100
AcDbEntity
  8
0
100
AcDbLine
 62
7
  6
CONTINUOUS
 10
15.723338628
 20
7.3447859028
 11
15.723338628
 21
7.3868134177
  0
LINE
  5
6B8
100
AcDbEntity
  8
0
100
AcDbLine
 62
7
  6
CONTINUOUS
 10
15.7426279781
 20
6.3853097939
 11
15.7426279781
 21
6.2921499213
  0
LINE
  5
6B9
100
AcDbEntity
  8
0
100
AcDbLine
 62
7
  6
CONTINUOUS
 10
15.7426279781
 20
6.2375053484
 11
15.7426279781
 21
6.1443454759
  0
LINE
  5
6BA
100
AcDbEntity
  8
0
100
AcDbLine
 62
7
  6
CONTINUOUS
 10
15.7426279781
 20
6.089700903
 11
15.7426279781
 21
5.9965410305
  0
LINE
  5
6BB
100
AcDbEntity
  8
0
100
AcDbLine
 62
7
  6
CONTINUOUS
 10
15.7426279781
 20
5.9418964575
 11
15.7426279781
 21
5.848736585
  0
LINE
  5
6BC
100
AcDbEntity
  8
0
100
AcDbLine
 62
7
  6
CONTINUOUS
 10
15.7426279781
 20
5.7940920121
 11
15.7426279781
 21
5.7009321396
  0
LINE
  5
6BD
100
AcDbEntity
  8
0
100
AcDbLine
 62
7
  6
CONTINUOUS
 10
15.7426279781
 20
5.6462875666
 11
15.7426279781
 21
5.5531276941
  0
LINE
  5
6BE
100
AcDbEntity
  8
0
100
AcDbLine
 62
7
  6
CONTINUOUS
 10
15.7426279781
 20
5.4984831212
 11
15.7426279781
 21
5.4053232487
  0
LINE
  5
6BF
100
AcDbEntity
  8
0
100
AcDbLine
 62
7
  6
CONTINUOUS
 10
15.7426279781
 20
5.3506786757
 11
15.7426279781
 21
5.2575188032
  0
LINE
  5
6C0
100
AcDbEntity
  8
0
100
AcDbLine
 62
7
  6
CONTINUOUS
 10
15.7426279781
 20
5.2028742303
 11
15.7426279781
 21
5.1097143578
  0
LINE
  5
6C1
100
AcDbEntity
  8
0
100
AcDbLine
 62
7
  6
CONTINUOUS
 10
15.7426279781
 20
5.0550697848
 11
15.7426279781
 21
4.9619099123
  0
LINE
  5
6C2
100
AcDbEntity
  8
0
100
AcDbLine
 62
7
  6
CONTINUOUS
 10
15.7426279781
 20
4.9072653394
 11
15.7426279781
 21
4.8141054669
  0
LINE
  5
6C3
100
AcDbEntity
  8
0
100
AcDbLine
 62
7
  6
CONTINUOUS
 10
15.7426279781
 20
4.7594608939
 11
15.7426279781
 21
4.6663010214
  0
LINE
  5
6C4
100
AcDbEntity
  8
0
100
AcDbLine
 62
7
  6
CONTINUOUS
 10
15.7426279781
 20
4.6116564485
 11
15.7426279781
 21
4.518496576
  0
LINE
  5
6C5
100
AcDbEntity
  8
0
100
AcDbLine
 62
7
  6
CONTINUOUS
 10
15.7426279781
 20
4.463852003
 11
15.7426279781
 21
4.3706921305
  0
LINE
  5
6C6
100
AcDbEntity
  8
0
100
AcDbLine
 62
7
  6
CONTINUOUS
 10
15.7426279781
 20
4.3160475576
 11
15.7426279781
 21
4.2228876851
  0
LINE
  5
6C7
100
AcDbEntity
  8
0
100
AcDbLine
 62
7
  6
CONTINUOUS
 10
15.7426279781
 20
4.1682431121
 11
15.7426279781
 21
4.0750832396
  0
LINE
  5
6C8
100
AcDbEntity
  8
0
100
AcDbLine
 62
7
  6
CONTINUOUS
 10
15.7426279781
 20
4.0204386667
 11
15.7426279781
 21
3.9272787942
  0
LINE
  5
6C9
100
AcDbEntity
  8
0
100
AcDbLine
 62
7
  6
CONTINUOUS
 10
15.7565474029
 20
3.9192353484
 11
15.7565474029
 21
4.0284821125
  0
LINE
  5
6CA
100
AcDbEntity
  8
0
100
AcDbLine
 62
7
  6
CONTINUOUS
 10
15.7565474029
 20
4.0670397939
 11
15.7565474029
 21
4.1762865579
  0
LINE
  5
6CB
100
AcDbEntity
  8
0
100
AcDbLine
 62
7
  6
CONTINUOUS
 10
15.7565474029
 20
4.2148442393
 11
15.7565474029
 21
4.3240910033
  0
LINE
  5
6CC
100
AcDbEntity
  8
0
100
AcDbLine
 62
7
  6
CONTINUOUS
 10
15.7565474029
 20
4.3626486848
 11
15.7565474029
 21
4.4718954488
  0
LINE
  5
6CD
100
AcDbEntity
  8
0
100
AcDbLine
 62
7
  6
CONTINUOUS
 10
15.7565474029
 20
4.5104531302
 11
15.7565474029
 21
4.6196998942
  0
LINE
  5
6CE
100
AcDbEntity
  8
0
100
AcDbLine
 62
7
  6
CONTINUOUS
 10
15.7565474029
 20
4.6582575757
 11
15.7565474029
 21
4.7675043397
  0
LINE
  5
6CF
100
AcDbEntity
  8
0
100
AcDbLine
 62
7
  6
CONTINUOUS
 10
15.7565474029
 20
4.8060620211
 11
15.7565474029
 21
4.9153087851
  0
LINE
  5
6D0
100
AcDbEntity
  8
0
100
AcDbLine
 62
7
  6
CONTINUOUS
 10
15.7565474029
 20
4.9538664666
 11
15.7565474029
 21
5.0631132306
  0
LINE
  5
6D1
100
AcDbEntity
  8
0
100
AcDbLine
 62
7
  6
CONTINUOUS
 10
15.7565474029
 20
5.101670912
 11
15.7565474029
 21
5.210917676
  0
LINE
  5
6D2
100
AcDbEntity
  8
0
100
AcDbLine
 62
7
  6
CONTINUOUS
 10
15.7565474029
 20
5.2494753575
 11
15.7565474029
 21
5.3587221215
  0
LINE
  5
6D3
100
AcDbEntity
  8
0
100
AcDbLine
 62
7
  6
CONTINUOUS
 10
15.7565474029
 20
5.3972798029
 11
15.7565474029
 21
5.5065265669
  0
LINE
  5
6D4
100
AcDbEntity
  8
0
100
AcDbLine
 62
7
  6
CONTINUOUS
 10
15.7565474029
 20
5.5450842483
 11
15.7565474029
 21
5.6543310124
  0
LINE
  5
6D5
100
AcDbEntity
  8
0
100
AcDbLine
 62
7
  6
CONTINUOUS
 10
15.7565474029
 20
5.6928886938
 11
15.7565474029
 21
5.8021354578
  0
LINE
  5
6D6
100
AcDbEntity
  8
0
100
AcDbLine
 62
7
  6
CONTINUOUS
 10
15.7565474029
 20
5.8406931392
 11
15.7565474029
 21
5.9499399033
  0
LINE
  5
6D7
100
AcDbEntity
  8
0
100
AcDbLine
 62
7
  6
CONTINUOUS
 10
15.7565474029
 20
5.9884975847
 11
15.7565474029
 21
6.0977443487
  0
LINE
  5
6D8
100
AcDbEntity
  8
0
100
AcDbLine
 62
7
  6
CONTINUOUS
 10
15.7565474029
 20
6.1363020301
 11
15.7565474029
 21
6.2455487942
  0
LINE
  5
6D9
100
AcDbEntity
  8
0
100
AcDbLine
 62
7
  6
CONTINUOUS
 10
15.7565474029
 20
6.2841064756
 11
15.7565474029
 21
6.3933532396
  0
LINE
  5
6DA
100
AcDbEntity
  8
0
100
AcDbLine
 62
7
  6
CONTINUOUS
 10
15.7774265402
 20
6.8729175809
 11
15.7774265402
 21
6.631932072
  0
LINE
  5
6DB
100
AcDbEntity
  8
0
100
AcDbLine
 62
7
  6
CONTINUOUS
 10
15.7899540225
 20
5.9692441731
 11
15.7899540225
 21
5.8599974091
  0
LINE
  5
6DC
100
AcDbEntity
  8
0
100
AcDbLine
 62
7
  6
CONTINUOUS
 10
15.7899540225
 20
5.8214397277
 11
15.7899540225
 21
5.7121929636
  0
LINE
  5
6DD
100
AcDbEntity
  8
0
100
AcDbLine
 62
7
  6
CONTINUOUS
 10
15.7899540225
 20
5.6736352822
 11
15.7899540225
 21
5.5643885182
  0
LINE
  5
6DE
100
AcDbEntity
  8
0
100
AcDbLine
 62
7
  6
CONTINUOUS
 10
15.7899540225
 20
5.5258308368
 11
15.7899540225
 21
5.4165840727
  0
LINE
  5
6DF
100
AcDbEntity
  8
0
100
AcDbLine
 62
7
  6
CONTINUOUS
 10
15.7899540225
 20
5.3780263913
 11
15.7899540225
 21
5.2687796273
  0
LINE
  5
6E0
100
AcDbEntity
  8
0
100
AcDbLine
 62
7
  6
CONTINUOUS
 10
15.7899540225
 20
5.2302219459
 11
15.7899540225
 21
5.1209751818
  0
LINE
  5
6E1
100
AcDbEntity
  8
0
100
AcDbLine
 62
7
  6
CONTINUOUS
 10
15.7899540225
 20
5.0824175004
 11
15.7899540225
 21
4.9731707364
  0
LINE
  5
6E2
100
AcDbEntity
  8
0
100
AcDbLine
 62
7
  6
CONTINUOUS
 10
15.7899540225
 20
4.934613055
 11
15.7899540225
 21
4.8253662909
  0
LINE
  5
6E3
100
AcDbEntity
  8
0
100
AcDbLine
 62
7
  6
CONTINUOUS
 10
15.7899540225
 20
4.7868086095
 11
15.7899540225
 21
4.6775618455
  0
LINE
  5
6E4
100
AcDbEntity
  8
0
100
AcDbLine
 62
7
  6
CONTINUOUS
 10
15.7899540225
 20
4.6390041641
 11
15.7899540225
 21
4.5297574
  0
LINE
  5
6E5
100
AcDbEntity
  8
0
100
AcDbLine
 62
7
  6
CONTINUOUS
 10
15.7899540225
 20
4.4911997186
 11
15.7899540225
 21
4.3819529546
  0
LINE
  5
6E6
100
AcDbEntity
  8
0
100
AcDbLine
 62
7
  6
CONTINUOUS
 10
15.7899540225
 20
4.3433952732
 11
15.7899540225
 21
4.2341485092
  0
LINE
  5
6E7
100
AcDbEntity
  8
0
100
AcDbLine
 62
7
  6
CONTINUOUS
 10
15.7899540225
 20
4.1955908277
 11
15.7899540225
 21
4.0863440637
  0
LINE
  5
6E8
100
AcDbEntity
  8
0
100
AcDbLine
 62
7
  6
CONTINUOUS
 10
15.7899540225
 20
4.0477863823
 11
15.7899540225
 21
3.9385396183
  0
LINE
  5
6E9
100
AcDbEntity
  8
0
100
AcDbLine
 62
7
  6
CONTINUOUS
 10
15.9596756049
 20
6.3060203442
 11
15.9560318421
 21
6.2997091633
  0
LINE
  5
6EA
100
AcDbEntity
  8
0
100
AcDbLine
 62
7
  6
CONTINUOUS
 10
15.9402838106
 20
6.2724327779
 11
15.9366144698
 21
6.2660772943
  0
LINE
  5
6EB
100
AcDbEntity
  8
0
100
AcDbLine
 62
7
  6
CONTINUOUS
 10
15.9969326017
 20
6.3286223628
 11
15.9820420851
 21
6.3028312366
  0
LINE
  5
6EC
100
AcDbEntity
  8
0
100
AcDbLine
 62
7
  6
CONTINUOUS
 10
15.9505460221
 20
6.2482784658
 11
15.9356555056
 21
6.2224873395
  0
LINE
  5
6ED
100
AcDbEntity
  8
0
100
AcDbLine
 62
7
  6
CONTINUOUS
 10
15.9875279051
 20
6.2815568727
 11
15.9717798736
 21
6.2542804873
  0
LINE
  5
6EE
100
AcDbEntity
  8
0
100
AcDbLine
 62
7
  6
CONTINUOUS
 10
15.9671515686
 20
6.204335049
 11
15.9820420851
 21
6.2301261752
  0
LINE
  5
6EF
100
AcDbEntity
  8
0
100
AcDbLine
 62
7
  6
CONTINUOUS
 10
16.0135381481
 20
6.284678946
 11
16.0284286647
 21
6.3104700723
  0
LINE
  5
6F0
100
AcDbEntity
  8
0
100
AcDbLine
 62
7
  6
CONTINUOUS
 10
13.7025746255
 20
4.3919543826
 11
13.6881133517
 21
4.3835978252
  0
LINE
  5
6F1
100
AcDbEntity
  8
0
100
AcDbLine
 62
7
  6
CONTINUOUS
 10
13.7549341129
 20
4.414790408
 11
13.8320668213
 21
4.4593621317
  0
LINE
  5
6F2
100
AcDbEntity
  8
0
100
AcDbLine
 62
7
  6
CONTINUOUS
 10
16.1268041033
 20
5.7751267972
 11
16.0460714393
 21
5.7284748117
  0
LINE
  5
6F3
100
AcDbEntity
  8
0
100
AcDbLine
 62
7
  6
CONTINUOUS
 10
15.9987453949
 20
5.7011270962
 11
15.9180127309
 21
5.6544751107
  0
LINE
  5
6F4
100
AcDbEntity
  8
0
100
AcDbLine
 62
7
  6
CONTINUOUS
 10
15.8706866865
 20
5.6271273951
 11
15.7899540225
 21
5.5804754097
  0
LINE
  5
6F5
100
AcDbEntity
  8
0
100
AcDbLine
 62
7
  6
CONTINUOUS
 10
15.7426279781
 20
5.5531276941
 11
15.6618953141
 21
5.5064757087
  0
LINE
  5
6F6
100
AcDbEntity
  8
0
100
AcDbLine
 62
7
  6
CONTINUOUS
 10
15.6145692697
 20
5.4791279931
 11
15.5338366057
 21
5.4324760077
  0
LINE
  5
6F7
100
AcDbEntity
  8
0
100
AcDbLine
 62
7
  6
CONTINUOUS
 10
15.4865105613
 20
5.4051282921
 11
15.4057778973
 21
5.3584763066
  0
LINE
  5
6F8
100
AcDbEntity
  8
0
100
AcDbLine
 62
7
  6
CONTINUOUS
 10
15.4057778973
 20
5.3423894151
 11
15.5004299861
 21
5.3970848463
  0
LINE
  5
6F9
100
AcDbEntity
  8
0
100
AcDbLine
 62
7
  6
CONTINUOUS
 10
15.5338366057
 20
5.4163891161
 11
15.6284886945
 21
5.4710845473
  0
LINE
  5
6FA
100
AcDbEntity
  8
0
100
AcDbLine
 62
7
  6
CONTINUOUS
 10
15.6618953141
 20
5.4903888172
 11
15.7565474029
 21
5.5450842483
  0
LINE
  5
6FB
100
AcDbEntity
  8
0
100
AcDbLine
 62
7
  6
CONTINUOUS
 10
15.7899540225
 20
5.5643885182
 11
15.8846061113
 21
5.6190839494
  0
LINE
  5
6FC
100
AcDbEntity
  8
0
100
AcDbLine
 62
7
  6
CONTINUOUS
 10
15.9180127309
 20
5.6383882192
 11
16.0126648197
 21
5.6930836504
  0
LINE
  5
6FD
100
AcDbEntity
  8
0
100
AcDbLine
 62
7
  6
CONTINUOUS
 10
16.0460714393
 20
5.7123879202
 11
16.1407235281
 21
5.7670833514
  0
LINE
  5
6FE
100
AcDbEntity
  8
0
100
AcDbLine
 62
7
  6
CONTINUOUS
 10
16.1407235281
 20
5.72852567
 11
16.0460714393
 21
5.6738302388
  0
LINE
  5
6FF
100
AcDbEntity
  8
0
100
AcDbLine
 62
7
  6
CONTINUOUS
 10
16.0126648197
 20
5.654525969
 11
15.9180127309
 21
5.5998305378
  0
LINE
  5
700
100
AcDbEntity
  8
0
100
AcDbLine
 62
7
  6
CONTINUOUS
 10
15.8846061113
 20
5.5805262679
 11
15.7899540225
 21
5.5258308368
  0
LINE
  5
701
100
AcDbEntity
  8
0
100
AcDbLine
 62
7
  6
CONTINUOUS
 10
15.7565474029
 20
5.5065265669
 11
15.6618953141
 21
5.4518311357
  0
LINE
  5
702
100
AcDbEntity
  8
0
100
AcDbLine
 62
7
  6
CONTINUOUS
 10
15.6284886945
 20
5.4325268659
 11
15.5338366057
 21
5.3778314347
  0
LINE
  5
703
100
AcDbEntity
  8
0
100
AcDbLine
 62
7
  6
CONTINUOUS
 10
15.5004299861
 20
5.3585271649
 11
15.4057778973
 21
5.3038317337
  0
LINE
  5
704
100
AcDbEntity
  8
0
100
AcDbLine
 62
7
  6
CONTINUOUS
 10
16.1268041033
 20
5.6273223517
 11
16.0460714393
 21
5.5806703663
  0
LINE
  5
705
100
AcDbEntity
  8
0
100
AcDbLine
 62
7
  6
CONTINUOUS
 10
15.9987453949
 20
5.5533226507
 11
15.9180127309
 21
5.5066706653
  0
LINE
  5
706
100
AcDbEntity
  8
0
100
AcDbLine
 62
7
  6
CONTINUOUS
 10
15.8706866865
 20
5.4793229497
 11
15.7899540225
 21
5.4326709643
  0
LINE
  5
707
100
AcDbEntity
  8
0
100
AcDbLine
 62
7
  6
CONTINUOUS
 10
15.7426279781
 20
5.4053232487
 11
15.6618953141
 21
5.3586712632
  0
LINE
  5
708
100
AcDbEntity
  8
0
100
AcDbLine
 62
7
  6
CONTINUOUS
 10
15.6145692697
 20
5.3313235476
 11
15.5338366057
 21
5.2846715622
  0
LINE
  5
709
100
AcDbEntity
  8
0
100
AcDbLine
 62
7
  6
CONTINUOUS
 10
15.4865105613
 20
5.2573238466
 11
15.4057778973
 21
5.2106718612
  0
LINE
  5
70A
100
AcDbEntity
  8
0
100
AcDbLine
 62
7
  6
CONTINUOUS
 10
15.4057778973
 20
5.1945849697
 11
15.5004299861
 21
5.2492804009
  0
LINE
  5
70B
100
AcDbEntity
  8
0
100
AcDbLine
 62
7
  6
CONTINUOUS
 10
15.5338366057
 20
5.2685846707
 11
15.6284886945
 21
5.3232801019
  0
LINE
  5
70C
100
AcDbEntity
  8
0
100
AcDbLine
 62
7
  6
CONTINUOUS
 10
15.6618953141
 20
5.3425843717
 11
15.7565474029
 21
5.3972798029
  0
LINE
  5
70D
100
AcDbEntity
  8
0
100
AcDbLine
 62
7
  6
CONTINUOUS
 10
15.7899540225
 20
5.4165840727
 11
15.8846061113
 21
5.4712795039
  0
LINE
  5
70E
100
AcDbEntity
  8
0
100
AcDbLine
 62
7
  6
CONTINUOUS
 10
15.9180127309
 20
5.4905837738
 11
16.0126648197
 21
5.5452792049
  0
LINE
  5
70F
100
AcDbEntity
  8
0
100
AcDbLine
 62
7
  6
CONTINUOUS
 10
16.0460714393
 20
5.5645834748
 11
16.1407235281
 21
5.619278906
  0
LINE
  5
710
100
AcDbEntity
  8
0
100
AcDbLine
 62
7
  6
CONTINUOUS
 10
14.0959600211
 20
4.4267089651
 11
14.1029197335
 21
4.430730688
  0
LINE
  5
711
100
AcDbEntity
  8
0
100
AcDbLine
 62
7
  6
CONTINUOUS
 10
16.1407235281
 20
5.5807212245
 11
16.0460714393
 21
5.5260257934
  0
LINE
  5
712
100
AcDbEntity
  8
0
100
AcDbLine
 62
7
  6
CONTINUOUS
 10
16.0126648197
 20
5.5067215235
 11
15.9180127309
 21
5.4520260923
  0
LINE
  5
713
100
AcDbEntity
  8
0
100
AcDbLine
 62
7
  6
CONTINUOUS
 10
15.8846061113
 20
5.4327218225
 11
15.7899540225
 21
5.3780263913
  0
LINE
  5
714
100
AcDbEntity
  8
0
100
AcDbLine
 62
7
  6
CONTINUOUS
 10
15.7565474029
 20
5.3587221215
 11
15.6618953141
 21
5.3040266903
  0
LINE
  5
715
100
AcDbEntity
  8
0
100
AcDbLine
 62
7
  6
CONTINUOUS
 10
15.6284886945
 20
5.2847224205
 11
15.5338366057
 21
5.2300269893
  0
LINE
  5
716
100
AcDbEntity
  8
0
100
AcDbLine
 62
7
  6
CONTINUOUS
 10
15.5004299861
 20
5.2107227194
 11
15.4057778973
 21
5.1560272883
  0
LINE
  5
717
100
AcDbEntity
  8
0
100
AcDbLine
 62
7
  6
CONTINUOUS
 10
13.6881133517
 20
4.3835978252
 11
13.7039028672
 21
4.3896558204
  0
LINE
  5
718
100
AcDbEntity
  8
0
100
AcDbLine
 62
7
  6
CONTINUOUS
 10
16.1268041033
 20
6.9575623608
 11
16.1407235281
 21
6.949518915
  0
LINE
  5
719
100
AcDbEntity
  8
0
100
AcDbLine
 62
7
  6
CONTINUOUS
 10
15.8207795728
 20
7.2787083157
 11
15.8985255362
 21
7.2337822181
  0
LINE
  5
71A
100
AcDbEntity
  8
0
100
AcDbLine
 62
7
  6
CONTINUOUS
 10
16.1268041033
 20
7.1053668062
 11
16.1407235281
 21
7.0973233604
  0
LINE
  5
71B
100
AcDbEntity
  8
0
100
AcDbLine
 62
7
  6
CONTINUOUS
 10
15.8094412173
 20
6.6504319973
 11
15.8094412173
 21
6.8914175062
  0
LINE
  5
71C
100
AcDbEntity
  8
0
100
AcDbLine
 62
7
  6
CONTINUOUS
 10
15.8207795728
 20
7.2498691096
 11
15.8207795728
 21
7.3976735551
  0
LINE
  5
71D
100
AcDbEntity
  8
0
100
AcDbLine
 62
7
  6
CONTINUOUS
 10
15.8581592042
 20
6.9195695664
 11
15.8581592042
 21
6.7750630248
  0
LINE
  5
71E
100
AcDbEntity
  8
0
100
AcDbLine
 62
7
  6
CONTINUOUS
 10
15.8706866865
 20
6.0158961585
 11
15.8706866865
 21
5.922736286
  0
LINE
  5
71F
100
AcDbEntity
  8
0
100
AcDbLine
 62
7
  6
CONTINUOUS
 10
15.8706866865
 20
5.8680917131
 11
15.8706866865
 21
5.7749318406
  0
LINE
  5
720
100
AcDbEntity
  8
0
100
AcDbLine
 62
7
  6
CONTINUOUS
 10
15.8706866865
 20
5.7202872676
 11
15.8706866865
 21
5.6271273951
  0
LINE
  5
721
100
AcDbEntity
  8
0
100
AcDbLine
 62
7
  6
CONTINUOUS
 10
15.8706866865
 20
5.5724828222
 11
15.8706866865
 21
5.4793229497
  0
LINE
  5
722
100
AcDbEntity
  8
0
100
AcDbLine
 62
7
  6
CONTINUOUS
 10
15.8706866865
 20
5.4246783767
 11
15.8706866865
 21
5.3315185042
  0
LINE
  5
723
100
AcDbEntity
  8
0
100
AcDbLine
 62
7
  6
CONTINUOUS
 10
15.8706866865
 20
5.2768739313
 11
15.8706866865
 21
5.1837140588
  0
LINE
  5
724
100
AcDbEntity
  8
0
100
AcDbLine
 62
7
  6
CONTINUOUS
 10
15.8706866865
 20
5.1290694858
 11
15.8706866865
 21
5.0359096133
  0
LINE
  5
725
100
AcDbEntity
  8
0
100
AcDbLine
 62
7
  6
CONTINUOUS
 10
15.8706866865
 20
4.9812650404
 11
15.8706866865
 21
4.8881051679
  0
LINE
  5
726
100
AcDbEntity
  8
0
100
AcDbLine
 62
7
  6
CONTINUOUS
 10
15.8706866865
 20
4.8334605949
 11
15.8706866865
 21
4.7403007224
  0
LINE
  5
727
100
AcDbEntity
  8
0
100
AcDbLine
 62
7
  6
CONTINUOUS
 10
15.8706866865
 20
4.6856561495
 11
15.8706866865
 21
4.592496277
  0
LINE
  5
728
100
AcDbEntity
  8
0
100
AcDbLine
 62
7
  6
CONTINUOUS
 10
15.8706866865
 20
4.5378517041
 11
15.8706866865
 21
4.4446918316
  0
LINE
  5
729
100
AcDbEntity
  8
0
100
AcDbLine
 62
7
  6
CONTINUOUS
 10
15.8706866865
 20
4.3900472586
 11
15.8706866865
 21
4.2968873861
  0
LINE
  5
72A
100
AcDbEntity
  8
0
100
AcDbLine
 62
7
  6
CONTINUOUS
 10
15.8706866865
 20
4.2422428132
 11
15.8706866865
 21
4.1490829407
  0
LINE
  5
72B
100
AcDbEntity
  8
0
100
AcDbLine
 62
7
  6
CONTINUOUS
 10
15.8706866865
 20
4.0944383677
 11
15.8706866865
 21
4.0012784952
  0
LINE
  5
72C
100
AcDbEntity
  8
0
100
AcDbLine
 62
7
  6
CONTINUOUS
 10
15.8846061113
 20
3.9932350494
 11
15.8846061113
 21
4.1024818135
  0
LINE
  5
72D
100
AcDbEntity
  8
0
100
AcDbLine
 62
7
  6
CONTINUOUS
 10
15.8846061113
 20
4.1410394949
 11
15.8846061113
 21
4.2502862589
  0
LINE
  5
72E
100
AcDbEntity
  8
0
100
AcDbLine
 62
7
  6
CONTINUOUS
 10
15.8846061113
 20
4.2888439403
 11
15.8846061113
 21
4.3980907044
  0
LINE
  5
72F
100
AcDbEntity
  8
0
100
AcDbLine
 62
7
  6
CONTINUOUS
 10
15.8846061113
 20
4.4366483858
 11
15.8846061113
 21
4.5458951498
  0
LINE
  5
730
100
AcDbEntity
  8
0
100
AcDbLine
 62
7
  6
CONTINUOUS
 10
15.8846061113
 20
4.5844528312
 11
15.8846061113
 21
4.6936995953
  0
LINE
  5
731
100
AcDbEntity
  8
0
100
AcDbLine
 62
7
  6
CONTINUOUS
 10
15.8846061113
 20
4.7322572767
 11
15.8846061113
 21
4.8415040407
  0
LINE
  5
732
100
AcDbEntity
  8
0
100
AcDbLine
 62
7
  6
CONTINUOUS
 10
15.8846061113
 20
4.8800617221
 11
15.8846061113
 21
4.9893084862
  0
LINE
  5
733
100
AcDbEntity
  8
0
100
AcDbLine
 62
7
  6
CONTINUOUS
 10
15.8846061113
 20
5.0278661676
 11
15.8846061113
 21
5.1371129316
  0
LINE
  5
734
100
AcDbEntity
  8
0
100
AcDbLine
 62
7
  6
CONTINUOUS
 10
15.8846061113
 20
5.175670613
 11
15.8846061113
 21
5.2849173771
  0
LINE
  5
735
100
AcDbEntity
  8
0
100
AcDbLine
 62
7
  6
CONTINUOUS
 10
15.8846061113
 20
5.3234750585
 11
15.8846061113
 21
5.4327218225
  0
LINE
  5
736
100
AcDbEntity
  8
0
100
AcDbLine
 62
7
  6
CONTINUOUS
 10
15.8846061113
 20
5.4712795039
 11
15.8846061113
 21
5.5805262679
  0
LINE
  5
737
100
AcDbEntity
  8
0
100
AcDbLine
 62
7
  6
CONTINUOUS
 10
15.8846061113
 20
5.6190839494
 11
15.8846061113
 21
5.7283307134
  0
LINE
  5
738
100
AcDbEntity
  8
0
100
AcDbLine
 62
7
  6
CONTINUOUS
 10
15.8846061113
 20
5.7668883948
 11
15.8846061113
 21
5.8761351588
  0
LINE
  5
739
100
AcDbEntity
  8
0
100
AcDbLine
 62
7
  6
CONTINUOUS
 10
15.8846061113
 20
5.9146928403
 11
15.8846061113
 21
6.0239396043
  0
LINE
  5
73A
100
AcDbEntity
  8
0
100
AcDbLine
 62
7
  6
CONTINUOUS
 10
15.9180127309
 20
6.0432438741
 11
15.9180127309
 21
5.9339971101
  0
LINE
  5
73B
100
AcDbEntity
  8
0
100
AcDbLine
 62
7
  6
CONTINUOUS
 10
15.9180127309
 20
5.8954394287
 11
15.9180127309
 21
5.7861926646
  0
LINE
  5
73C
100
AcDbEntity
  8
0
100
AcDbLine
 62
7
  6
CONTINUOUS
 10
15.9180127309
 20
5.7476349832
 11
15.9180127309
 21
5.6383882192
  0
LINE
  5
73D
100
AcDbEntity
  8
0
100
AcDbLine
 62
7
  6
CONTINUOUS
 10
15.9180127309
 20
5.5998305378
 11
15.9180127309
 21
5.4905837738
  0
LINE
  5
73E
100
AcDbEntity
  8
0
100
AcDbLine
 62
7
  6
CONTINUOUS
 10
15.9180127309
 20
5.4520260923
 11
15.9180127309
 21
5.3427793283
  0
LINE
  5
73F
100
AcDbEntity
  8
0
100
AcDbLine
 62
7
  6
CONTINUOUS
 10
15.9180127309
 20
5.3042216469
 11
15.9180127309
 21
5.1949748829
  0
LINE
  5
740
100
AcDbEntity
  8
0
100
AcDbLine
 62
7
  6
CONTINUOUS
 10
15.9180127309
 20
5.1564172014
 11
15.9180127309
 21
5.0471704374
  0
LINE
  5
741
100
AcDbEntity
  8
0
100
AcDbLine
 62
7
  6
CONTINUOUS
 10
15.9180127309
 20
5.008612756
 11
15.9180127309
 21
4.899365992
  0
LINE
  5
742
100
AcDbEntity
  8
0
100
AcDbLine
 62
7
  6
CONTINUOUS
 10
15.9180127309
 20
4.8608083105
 11
15.9180127309
 21
4.7515615465
  0
LINE
  5
743
100
AcDbEntity
  8
0
100
AcDbLine
 62
7
  6
CONTINUOUS
 10
15.9180127309
 20
4.7130038651
 11
15.9180127309
 21
4.6037571011
  0
LINE
  5
744
100
AcDbEntity
  8
0
100
AcDbLine
 62
7
  6
CONTINUOUS
 10
15.9180127309
 20
4.5651994196
 11
15.9180127309
 21
4.4559526556
  0
LINE
  5
745
100
AcDbEntity
  8
0
100
AcDbLine
 62
7
  6
CONTINUOUS
 10
15.9180127309
 20
4.4173949742
 11
15.9180127309
 21
4.3081482102
  0
LINE
  5
746
100
AcDbEntity
  8
0
100
AcDbLine
 62
7
  6
CONTINUOUS
 10
15.9180127309
 20
4.2695905288
 11
15.9180127309
 21
4.1603437647
  0
LINE
  5
747
100
AcDbEntity
  8
0
100
AcDbLine
 62
7
  6
CONTINUOUS
 10
15.9180127309
 20
4.1217860833
 11
15.9180127309
 21
4.0125393193
  0
LINE
  5
748
100
AcDbEntity
  8
0
100
AcDbLine
 62
7
  6
CONTINUOUS
 10
15.9402838106
 20
7.2548993732
 11
15.9402838106
 21
7.2465270298
  0
LINE
  5
749
100
AcDbEntity
  8
0
100
AcDbLine
 62
7
  6
CONTINUOUS
 10
15.9416757531
 20
6.9678302409
 11
15.9416757531
 21
6.7268447321
  0
LINE
  5
74A
100
AcDbEntity
  8
0
100
AcDbLine
 62
7
  6
CONTINUOUS
 10
15.9542032355
 20
7.0088200279
 11
15.9542032355
 21
7.2337398362
  0
LINE
  5
74B
100
AcDbEntity
  8
0
100
AcDbLine
 62
7
  6
CONTINUOUS
 10
15.9625548904
 20
7.0039939605
 11
15.9625548904
 21
6.6505485474
  0
LINE
  5
74C
100
AcDbEntity
  8
0
100
AcDbLine
 62
7
  6
CONTINUOUS
 10
15.9987453949
 20
6.0898958595
 11
15.9987453949
 21
5.996735987
  0
LINE
  5
74D
100
AcDbEntity
  8
0
100
AcDbLine
 62
7
  6
CONTINUOUS
 10
15.9987453949
 20
5.9420914141
 11
15.9987453949
 21
5.8489315416
  0
LINE
  5
74E
100
AcDbEntity
  8
0
100
AcDbLine
 62
7
  6
CONTINUOUS
 10
15.9987453949
 20
5.7942869687
 11
15.9987453949
 21
5.7011270962
  0
LINE
  5
74F
100
AcDbEntity
  8
0
100
AcDbLine
 62
7
  6
CONTINUOUS
 10
15.9987453949
 20
5.6464825232
 11
15.9987453949
 21
5.5533226507
  0
LINE
  5
750
100
AcDbEntity
  8
0
100
AcDbLine
 62
7
  6
CONTINUOUS
 10
15.9987453949
 20
5.4986780778
 11
15.9987453949
 21
5.4055182053
  0
LINE
  5
751
100
AcDbEntity
  8
0
100
AcDbLine
 62
7
  6
CONTINUOUS
 10
15.9987453949
 20
5.3508736323
 11
15.9987453949
 21
5.2577137598
  0
LINE
  5
752
100
AcDbEntity
  8
0
100
AcDbLine
 62
7
  6
CONTINUOUS
 10
15.9987453949
 20
5.2030691869
 11
15.9987453949
 21
5.1099093144
  0
LINE
  5
753
100
AcDbEntity
  8
0
100
AcDbLine
 62
7
  6
CONTINUOUS
 10
15.9987453949
 20
5.0552647414
 11
15.9987453949
 21
4.9621048689
  0
LINE
  5
754
100
AcDbEntity
  8
0
100
AcDbLine
 62
7
  6
CONTINUOUS
 10
15.9987453949
 20
4.907460296
 11
15.9987453949
 21
4.8143004235
  0
LINE
  5
755
100
AcDbEntity
  8
0
100
AcDbLine
 62
7
  6
CONTINUOUS
 10
15.9987453949
 20
4.7596558505
 11
15.9987453949
 21
4.666495978
  0
LINE
  5
756
100
AcDbEntity
  8
0
100
AcDbLine
 62
7
  6
CONTINUOUS
 10
15.9987453949
 20
4.6118514051
 11
15.9987453949
 21
4.5186915326
  0
LINE
  5
757
100
AcDbEntity
  8
0
100
AcDbLine
 62
7
  6
CONTINUOUS
 10
15.9987453949
 20
4.4640469596
 11
15.9987453949
 21
4.3708870871
  0
LINE
  5
758
100
AcDbEntity
  8
0
100
AcDbLine
 62
7
  6
CONTINUOUS
 10
15.9987453949
 20
4.3162425142
 11
15.9987453949
 21
4.2230826417
  0
LINE
  5
759
100
AcDbEntity
  8
0
100
AcDbLine
 62
7
  6
CONTINUOUS
 10
15.9987453949
 20
4.1684380687
 11
15.9987453949
 21
4.0752781962
  0
LINE
  5
75A
100
AcDbEntity
  8
0
100
AcDbLine
 62
7
  6
CONTINUOUS
 10
16.0098809348
 20
3.8765874677
 11
16.0098809348
 21
3.5809785768
  0
LINE
  5
75B
100
AcDbEntity
  8
0
100
AcDbLine
 62
7
  6
CONTINUOUS
 10
16.0126648197
 20
4.0672347505
 11
16.0126648197
 21
4.1764815145
  0
LINE
  5
75C
100
AcDbEntity
  8
0
100
AcDbLine
 62
7
  6
CONTINUOUS
 10
16.0126648197
 20
4.2150391959
 11
16.0126648197
 21
4.3242859599
  0
LINE
  5
75D
100
AcDbEntity
  8
0
100
AcDbLine
 62
7
  6
CONTINUOUS
 10
16.0126648197
 20
4.3628436414
 11
16.0126648197
 21
4.4720904054
  0
LINE
  5
75E
100
AcDbEntity
  8
0
100
AcDbLine
 62
7
  6
CONTINUOUS
 10
16.0126648197
 20
4.5106480868
 11
16.0126648197
 21
4.6198948508
  0
LINE
  5
75F
100
AcDbEntity
  8
0
100
AcDbLine
 62
7
  6
CONTINUOUS
 10
16.0126648197
 20
4.6584525323
 11
16.0126648197
 21
4.7676992963
  0
LINE
  5
760
100
AcDbEntity
  8
0
100
AcDbLine
 62
7
  6
CONTINUOUS
 10
16.0126648197
 20
4.8062569777
 11
16.0126648197
 21
4.9155037417
  0
LINE
  5
761
100
AcDbEntity
  8
0
100
AcDbLine
 62
7
  6
CONTINUOUS
 10
16.0126648197
 20
4.9540614232
 11
16.0126648197
 21
5.0633081872
  0
LINE
  5
762
100
AcDbEntity
  8
0
100
AcDbLine
 62
7
  6
CONTINUOUS
 10
16.0126648197
 20
5.1018658686
 11
16.0126648197
 21
5.2111126326
  0
LINE
  5
763
100
AcDbEntity
  8
0
100
AcDbLine
 62
7
  6
CONTINUOUS
 10
16.0126648197
 20
5.249670314
 11
16.0126648197
 21
5.3589170781
  0
LINE
  5
764
100
AcDbEntity
  8
0
100
AcDbLine
 62
7
  6
CONTINUOUS
 10
16.0126648197
 20
5.3974747595
 11
16.0126648197
 21
5.5067215235
  0
LINE
  5
765
100
AcDbEntity
  8
0
100
AcDbLine
 62
7
  6
CONTINUOUS
 10
16.0126648197
 20
5.5452792049
 11
16.0126648197
 21
5.654525969
  0
LINE
  5
766
100
AcDbEntity
  8
0
100
AcDbLine
 62
7
  6
CONTINUOUS
 10
16.0126648197
 20
5.6930836504
 11
16.0126648197
 21
5.8023304144
  0
LINE
  5
767
100
AcDbEntity
  8
0
100
AcDbLine
 62
7
  6
CONTINUOUS
 10
16.0126648197
 20
5.8408880958
 11
16.0126648197
 21
5.9501348599
  0
LINE
  5
768
100
AcDbEntity
  8
0
100
AcDbLine
 62
7
  6
CONTINUOUS
 10
16.0126648197
 20
5.9886925413
 11
16.0126648197
 21
6.0979393053
  0
LINE
  5
769
100
AcDbEntity
  8
0
100
AcDbLine
 62
7
  6
CONTINUOUS
 10
16.0460714393
 20
6.7084613569
 11
16.0460714393
 21
6.5992145929
  0
LINE
  5
76A
100
AcDbEntity
  8
0
100
AcDbLine
 62
7
  6
CONTINUOUS
 10
16.0460714393
 20
6.5606569115
 11
16.0460714393
 21
6.4514101475
  0
LINE
  5
76B
100
AcDbEntity
  8
0
100
AcDbLine
 62
7
  6
CONTINUOUS
 10
16.0460714393
 20
6.412852466
 11
16.0460714393
 21
6.3559187026
  0
LINE
  5
76C
100
AcDbEntity
  8
0
100
AcDbLine
 62
7
  6
CONTINUOUS
 10
16.0460714393
 20
6.2650480206
 11
16.0460714393
 21
6.1558012566
  0
LINE
  5
76D
100
AcDbEntity
  8
0
100
AcDbLine
 62
7
  6
CONTINUOUS
 10
16.0460714393
 20
6.1172435751
 11
16.0460714393
 21
6.0079968111
  0
LINE
  5
76E
100
AcDbEntity
  8
0
100
AcDbLine
 62
7
  6
CONTINUOUS
 10
16.0460714393
 20
5.9694391297
 11
16.0460714393
 21
5.8601923657
  0
LINE
  5
76F
100
AcDbEntity
  8
0
100
AcDbLine
 62
7
  6
CONTINUOUS
 10
16.0460714393
 20
5.8216346842
 11
16.0460714393
 21
5.7123879202
  0
LINE
  5
770
100
AcDbEntity
  8
0
100
AcDbLine
 62
7
  6
CONTINUOUS
 10
16.0460714393
 20
5.6738302388
 11
16.0460714393
 21
5.5645834748
  0
LINE
  5
771
100
AcDbEntity
  8
0
100
AcDbLine
 62
7
  6
CONTINUOUS
 10
16.0460714393
 20
5.5260257934
 11
16.0460714393
 21
5.4167790293
  0
LINE
  5
772
100
AcDbEntity
  8
0
100
AcDbLine
 62
7
  6
CONTINUOUS
 10
16.0460714393
 20
5.3782213479
 11
16.0460714393
 21
5.2689745839
  0
LINE
  5
773
100
AcDbEntity
  8
0
100
AcDbLine
 62
7
  6
CONTINUOUS
 10
16.0460714393
 20
5.2304169025
 11
16.0460714393
 21
5.1211701384
  0
LINE
  5
774
100
AcDbEntity
  8
0
100
AcDbLine
 62
7
  6
CONTINUOUS
 10
16.0460714393
 20
5.082612457
 11
16.0460714393
 21
4.973365693
  0
LINE
  5
775
100
AcDbEntity
  8
0
100
AcDbLine
 62
7
  6
CONTINUOUS
 10
16.0460714393
 20
4.9348080116
 11
16.0460714393
 21
4.8255612475
  0
LINE
  5
776
100
AcDbEntity
  8
0
100
AcDbLine
 62
7
  6
CONTINUOUS
 10
16.0460714393
 20
4.7870035661
 11
16.0460714393
 21
4.6777568021
  0
LINE
  5
777
100
AcDbEntity
  8
0
100
AcDbLine
 62
7
  6
CONTINUOUS
 10
16.0460714393
 20
4.6391991207
 11
16.0460714393
 21
4.5299523566
  0
LINE
  5
778
100
AcDbEntity
  8
0
100
AcDbLine
 62
7
  6
CONTINUOUS
 10
16.0460714393
 20
4.4913946752
 11
16.0460714393
 21
4.3821479112
  0
LINE
  5
779
100
AcDbEntity
  8
0
100
AcDbLine
 62
7
  6
CONTINUOUS
 10
16.0460714393
 20
4.3435902298
 11
16.0460714393
 21
4.2343434657
  0
LINE
  5
77A
100
AcDbEntity
  8
0
100
AcDbLine
 62
7
  6
CONTINUOUS
 10
16.0460714393
 20
4.1957857843
 11
16.0460714393
 21
4.0865390203
  0
LINE
  5
77B
100
AcDbEntity
  8
0
100
AcDbLine
 62
7
  6
CONTINUOUS
 10
16.0460714393
 20
6.7470190384
 11
16.0460714393
 21
6.8562658024
  0
LINE
  5
77C
100
AcDbEntity
  8
0
100
AcDbLine
 62
7
  6
CONTINUOUS
 10
16.0460714393
 20
6.8948234838
 11
16.0460714393
 21
7.0040702478
  0
LINE
  5
77D
100
AcDbEntity
  8
0
100
AcDbLine
 62
7
  6
CONTINUOUS
 10
16.0460714393
 20
7.0426279292
 11
16.0460714393
 21
7.1518746933
  0
LINE
  5
77E
100
AcDbEntity
  8
0
100
AcDbLine
 62
7
  6
CONTINUOUS
 10
16.1268041033
 20
5.4795179063
 11
16.0460714393
 21
5.4328659209
  0
LINE
  5
77F
100
AcDbEntity
  8
0
100
AcDbLine
 62
7
  6
CONTINUOUS
 10
15.9987453949
 20
5.4055182053
 11
15.9180127309
 21
5.3588662198
  0
LINE
  5
780
100
AcDbEntity
  8
0
100
AcDbLine
 62
7
  6
CONTINUOUS
 10
15.8706866865
 20
5.3315185042
 11
15.7899540225
 21
5.2848665188
  0
LINE
  5
781
100
AcDbEntity
  8
0
100
AcDbLine
 62
7
  6
CONTINUOUS
 10
15.7426279781
 20
5.2575188032
 11
15.6618953141
 21
5.2108668178
  0
LINE
  5
782
100
AcDbEntity
  8
0
100
AcDbLine
 62
7
  6
CONTINUOUS
 10
15.6145692697
 20
5.1835191022
 11
15.5338366057
 21
5.1368671168
  0
LINE
  5
783
100
AcDbEntity
  8
0
100
AcDbLine
 62
7
  6
CONTINUOUS
 10
15.4865105613
 20
5.1095194012
 11
15.4057778973
 21
5.0628674158
  0
LINE
  5
784
100
AcDbEntity
  8
0
100
AcDbLine
 62
7
  6
CONTINUOUS
 10
15.4057778973
 20
5.0467805242
 11
15.5004299861
 21
5.1014759554
  0
LINE
  5
785
100
AcDbEntity
  8
0
100
AcDbLine
 62
7
  6
CONTINUOUS
 10
15.5338366057
 20
5.1207802252
 11
15.6284886945
 21
5.1754756564
  0
LINE
  5
786
100
AcDbEntity
  8
0
100
AcDbLine
 62
7
  6
CONTINUOUS
 10
15.6618953141
 20
5.1947799263
 11
15.7565474029
 21
5.2494753575
  0
LINE
  5
787
100
AcDbEntity
  8
0
100
AcDbLine
 62
7
  6
CONTINUOUS
 10
15.7899540225
 20
5.2687796273
 11
15.8846061113
 21
5.3234750585
  0
LINE
  5
788
100
AcDbEntity
  8
0
100
AcDbLine
 62
7
  6
CONTINUOUS
 10
15.9180127309
 20
5.3427793283
 11
16.0126648197
 21
5.3974747595
  0
LINE
  5
789
100
AcDbEntity
  8
0
100
AcDbLine
 62
7
  6
CONTINUOUS
 10
16.0460714393
 20
5.4167790293
 11
16.1407235281
 21
5.4714744605
  0
LINE
  5
78A
100
AcDbEntity
  8
0
100
AcDbLine
 62
7
  6
CONTINUOUS
 10
16.1407235281
 20
5.4329167791
 11
16.0460714393
 21
5.3782213479
  0
LINE
  5
78B
100
AcDbEntity
  8
0
100
AcDbLine
 62
7
  6
CONTINUOUS
 10
16.0126648197
 20
5.3589170781
 11
15.9180127309
 21
5.3042216469
  0
LINE
  5
78C
100
AcDbEntity
  8
0
100
AcDbLine
 62
7
  6
CONTINUOUS
 10
15.8846061113
 20
5.2849173771
 11
15.7899540225
 21
5.2302219459
  0
LINE
  5
78D
100
AcDbEntity
  8
0
100
AcDbLine
 62
7
  6
CONTINUOUS
 10
15.7565474029
 20
5.210917676
 11
15.6618953141
 21
5.1562222448
  0
LINE
  5
78E
100
AcDbEntity
  8
0
100
AcDbLine
 62
7
  6
CONTINUOUS
 10
15.6284886945
 20
5.136917975
 11
15.5338366057
 21
5.0822225438
  0
LINE
  5
78F
100
AcDbEntity
  8
0
100
AcDbLine
 62
7
  6
CONTINUOUS
 10
15.5004299861
 20
5.062918274
 11
15.4057778973
 21
5.0082228428
  0
LINE
  5
790
100
AcDbEntity
  8
0
100
AcDbLine
 62
7
  6
CONTINUOUS
 10
16.1268041033
 20
5.3317134608
 11
16.0460714393
 21
5.2850614754
  0
LINE
  5
791
100
AcDbEntity
  8
0
100
AcDbLine
 62
7
  6
CONTINUOUS
 10
15.9987453949
 20
5.2577137598
 11
15.9180127309
 21
5.2110617744
  0
LINE
  5
792
100
AcDbEntity
  8
0
100
AcDbLine
 62
7
  6
CONTINUOUS
 10
15.8706866865
 20
5.1837140588
 11
15.7899540225
 21
5.1370620734
  0
LINE
  5
793
100
AcDbEntity
  8
0
100
AcDbLine
 62
7
  6
CONTINUOUS
 10
15.7426279781
 20
5.1097143578
 11
15.6618953141
 21
5.0630623723
  0
LINE
  5
794
100
AcDbEntity
  8
0
100
AcDbLine
 62
7
  6
CONTINUOUS
 10
15.6145692697
 20
5.0357146567
 11
15.5338366057
 21
4.9890626713
  0
LINE
  5
795
100
AcDbEntity
  8
0
100
AcDbLine
 62
7
  6
CONTINUOUS
 10
15.4865105613
 20
4.9617149557
 11
15.4057778973
 21
4.9150629703
  0
LINE
  5
796
100
AcDbEntity
  8
0
100
AcDbLine
 62
7
  6
CONTINUOUS
 10
15.4057778973
 20
4.8989760788
 11
15.5004299861
 21
4.95367151
  0
LINE
  5
797
100
AcDbEntity
  8
0
100
AcDbLine
 62
7
  6
CONTINUOUS
 10
15.5338366057
 20
4.9729757798
 11
15.6284886945
 21
5.027671211
  0
LINE
  5
798
100
AcDbEntity
  8
0
100
AcDbLine
 62
7
  6
CONTINUOUS
 10
15.6618953141
 20
5.0469754808
 11
15.7565474029
 21
5.101670912
  0
LINE
  5
799
100
AcDbEntity
  8
0
100
AcDbLine
 62
7
  6
CONTINUOUS
 10
15.7899540225
 20
5.1209751818
 11
15.8846061113
 21
5.175670613
  0
LINE
  5
79A
100
AcDbEntity
  8
0
100
AcDbLine
 62
7
  6
CONTINUOUS
 10
15.9180127309
 20
5.1949748829
 11
16.0126648197
 21
5.249670314
  0
LINE
  5
79B
100
AcDbEntity
  8
0
100
AcDbLine
 62
7
  6
CONTINUOUS
 10
16.0460714393
 20
5.2689745839
 11
16.1407235281
 21
5.3236700151
  0
LINE
  5
79C
100
AcDbEntity
  8
0
100
AcDbLine
 62
7
  6
CONTINUOUS
 10
16.1407235281
 20
5.2851123336
 11
16.0460714393
 21
5.2304169025
  0
LINE
  5
79D
100
AcDbEntity
  8
0
100
AcDbLine
 62
7
  6
CONTINUOUS
 10
16.0126648197
 20
5.2111126326
 11
15.9180127309
 21
5.1564172014
  0
LINE
  5
79E
100
AcDbEntity
  8
0
100
AcDbLine
 62
7
  6
CONTINUOUS
 10
15.8846061113
 20
5.1371129316
 11
15.7899540225
 21
5.0824175004
  0
LINE
  5
79F
100
AcDbEntity
  8
0
100
AcDbLine
 62
7
  6
CONTINUOUS
 10
15.7565474029
 20
5.0631132306
 11
15.6618953141
 21
5.0084177994
  0
LINE
  5
7A0
100
AcDbEntity
  8
0
100
AcDbLine
 62
7
  6
CONTINUOUS
 10
15.6284886945
 20
4.9891135296
 11
15.5338366057
 21
4.9344180984
  0
LINE
  5
7A1
100
AcDbEntity
  8
0
100
AcDbLine
 62
7
  6
CONTINUOUS
 10
15.5004299861
 20
4.9151138285
 11
15.4057778973
 21
4.8604183974
  0
LINE
  5
7A2
100
AcDbEntity
  8
0
100
AcDbLine
 62
7
  6
CONTINUOUS
 10
15.9542032355
 20
7.0088200279
 11
15.8985255362
 21
7.2337822181
  0
LINE
  5
7A3
100
AcDbEntity
  8
0
100
AcDbLine
 62
7
  6
CONTINUOUS
 10
16.1268041033
 20
7.1985266787
 11
16.1268041033
 21
7.1053668062
  0
LINE
  5
7A4
100
AcDbEntity
  8
0
100
AcDbLine
 62
7
  6
CONTINUOUS
 10
16.1268041033
 20
7.0507222333
 11
16.1268041033
 21
6.9575623608
  0
LINE
  5
7A5
100
AcDbEntity
  8
0
100
AcDbLine
 62
7
  6
CONTINUOUS
 10
16.1268041033
 20
6.9029177878
 11
16.1268041033
 21
6.8097579153
  0
LINE
  5
7A6
100
AcDbEntity
  8
0
100
AcDbLine
 62
7
  6
CONTINUOUS
 10
16.1268041033
 20
6.7551133424
 11
16.1268041033
 21
6.6619534699
  0
LINE
  5
7A7
100
AcDbEntity
  8
0
100
AcDbLine
 62
7
  6
CONTINUOUS
 10
16.1268041033
 20
6.6073088969
 11
16.1268041033
 21
6.5141490244
  0
LINE
  5
7A8
100
AcDbEntity
  8
0
100
AcDbLine
 62
7
  6
CONTINUOUS
 10
16.1268041033
 20
6.4595044515
 11
16.1268041033
 21
6.366344579
  0
LINE
  5
7A9
100
AcDbEntity
  8
0
100
AcDbLine
 62
7
  6
CONTINUOUS
 10
16.1268041033
 20
6.311700006
 11
16.1268041033
 21
6.2185401335
  0
LINE
  5
7AA
100
AcDbEntity
  8
0
100
AcDbLine
 62
7
  6
CONTINUOUS
 10
16.1268041033
 20
6.1638955606
 11
16.1268041033
 21
6.0707356881
  0
LINE
  5
7AB
100
AcDbEntity
  8
0
100
AcDbLine
 62
7
  6
CONTINUOUS
 10
16.1268041033
 20
6.0160911151
 11
16.1268041033
 21
5.9229312426
  0
LINE
  5
7AC
100
AcDbEntity
  8
0
100
AcDbLine
 62
7
  6
CONTINUOUS
 10
16.1268041033
 20
5.8682866697
 11
16.1268041033
 21
5.7751267972
  0
LINE
  5
7AD
100
AcDbEntity
  8
0
100
AcDbLine
 62
7
  6
CONTINUOUS
 10
16.1268041033
 20
5.7204822242
 11
16.1268041033
 21
5.6273223517
  0
LINE
  5
7AE
100
AcDbEntity
  8
0
100
AcDbLine
 62
7
  6
CONTINUOUS
 10
16.1268041033
 20
5.5726777788
 11
16.1268041033
 21
5.4795179063
  0
LINE
  5
7AF
100
AcDbEntity
  8
0
100
AcDbLine
 62
7
  6
CONTINUOUS
 10
16.1268041033
 20
5.4248733333
 11
16.1268041033
 21
5.3317134608
  0
LINE
  5
7B0
100
AcDbEntity
  8
0
100
AcDbLine
 62
7
  6
CONTINUOUS
 10
16.1268041033
 20
5.2770688879
 11
16.1268041033
 21
5.1839090154
  0
LINE
  5
7B1
100
AcDbEntity
  8
0
100
AcDbLine
 62
7
  6
CONTINUOUS
 10
16.1268041033
 20
5.1292644424
 11
16.1268041033
 21
5.0361045699
  0
LINE
  5
7B2
100
AcDbEntity
  8
0
100
AcDbLine
 62
7
  6
CONTINUOUS
 10
16.1268041033
 20
4.981459997
 11
16.1268041033
 21
4.8883001245
  0
LINE
  5
7B3
100
AcDbEntity
  8
0
100
AcDbLine
 62
7
  6
CONTINUOUS
 10
16.1268041033
 20
4.8336555515
 11
16.1268041033
 21
4.740495679
  0
LINE
  5
7B4
100
AcDbEntity
  8
0
100
AcDbLine
 62
7
  6
CONTINUOUS
 10
16.1268041033
 20
4.6858511061
 11
16.1268041033
 21
4.5926912336
  0
LINE
  5
7B5
100
AcDbEntity
  8
0
100
AcDbLine
 62
7
  6
CONTINUOUS
 10
16.1268041033
 20
4.5380466606
 11
16.1268041033
 21
4.4448867881
  0
LINE
  5
7B6
100
AcDbEntity
  8
0
100
AcDbLine
 62
7
  6
CONTINUOUS
 10
16.1268041033
 20
4.3902422152
 11
16.1268041033
 21
4.2970823427
  0
LINE
  5
7B7
100
AcDbEntity
  8
0
100
AcDbLine
 62
7
  6
CONTINUOUS
 10
16.1268041033
 20
4.2424377697
 11
16.1268041033
 21
4.1492778972
  0
LINE
  5
7B8
100
AcDbEntity
  8
0
100
AcDbLine
 62
7
  6
CONTINUOUS
 10
16.1407235281
 20
7.2065701245
 11
16.1407235281
 21
7.0973233604
  0
LINE
  5
7B9
100
AcDbEntity
  8
0
100
AcDbLine
 62
7
  6
CONTINUOUS
 10
16.1407235281
 20
7.058765679
 11
16.1407235281
 21
6.949518915
  0
LINE
  5
7BA
100
AcDbEntity
  8
0
100
AcDbLine
 62
7
  6
CONTINUOUS
 10
16.1407235281
 20
6.9109612336
 11
16.1407235281
 21
6.8017144695
  0
LINE
  5
7BB
100
AcDbEntity
  8
0
100
AcDbLine
 62
7
  6
CONTINUOUS
 10
16.1407235281
 20
6.7631567881
 11
16.1407235281
 21
6.6539100241
  0
LINE
  5
7BC
100
AcDbEntity
  8
0
100
AcDbLine
 62
7
  6
CONTINUOUS
 10
16.1407235281
 20
6.6153523427
 11
16.1407235281
 21
6.5061055786
  0
LINE
  5
7BD
100
AcDbEntity
  8
0
100
AcDbLine
 62
7
  6
CONTINUOUS
 10
16.1407235281
 20
6.4675478972
 11
16.1407235281
 21
6.3583011332
  0
LINE
  5
7BE
100
AcDbEntity
  8
0
100
AcDbLine
 62
7
  6
CONTINUOUS
 10
16.1407235281
 20
6.3197434518
 11
16.1407235281
 21
6.2104966878
  0
LINE
  5
7BF
100
AcDbEntity
  8
0
100
AcDbLine
 62
7
  6
CONTINUOUS
 10
16.1407235281
 20
6.1719390063
 11
16.1407235281
 21
6.0626922423
  0
LINE
  5
7C0
100
AcDbEntity
  8
0
100
AcDbLine
 62
7
  6
CONTINUOUS
 10
16.1407235281
 20
6.0241345609
 11
16.1407235281
 21
5.9148877969
  0
LINE
  5
7C1
100
AcDbEntity
  8
0
100
AcDbLine
 62
7
  6
CONTINUOUS
 10
16.1407235281
 20
5.8763301154
 11
16.1407235281
 21
5.7670833514
  0
LINE
  5
7C2
100
AcDbEntity
  8
0
100
AcDbLine
 62
7
  6
CONTINUOUS
 10
16.1407235281
 20
5.72852567
 11
16.1407235281
 21
5.619278906
  0
LINE
  5
7C3
100
AcDbEntity
  8
0
100
AcDbLine
 62
7
  6
CONTINUOUS
 10
16.1407235281
 20
5.5807212245
 11
16.1407235281
 21
5.4714744605
  0
LINE
  5
7C4
100
AcDbEntity
  8
0
100
AcDbLine
 62
7
  6
CONTINUOUS
 10
16.1407235281
 20
5.4329167791
 11
16.1407235281
 21
5.3236700151
  0
LINE
  5
7C5
100
AcDbEntity
  8
0
100
AcDbLine
 62
7
  6
CONTINUOUS
 10
16.1407235281
 20
5.2851123336
 11
16.1407235281
 21
5.1758655696
  0
LINE
  5
7C6
100
AcDbEntity
  8
0
100
AcDbLine
 62
7
  6
CONTINUOUS
 10
16.1407235281
 20
5.1373078882
 11
16.1407235281
 21
5.0280611242
  0
LINE
  5
7C7
100
AcDbEntity
  8
0
100
AcDbLine
 62
7
  6
CONTINUOUS
 10
16.1407235281
 20
4.9895034427
 11
16.1407235281
 21
4.8802566787
  0
LINE
  5
7C8
100
AcDbEntity
  8
0
100
AcDbLine
 62
7
  6
CONTINUOUS
 10
16.1407235281
 20
4.8416989973
 11
16.1407235281
 21
4.7324522333
  0
LINE
  5
7C9
100
AcDbEntity
  8
0
100
AcDbLine
 62
7
  6
CONTINUOUS
 10
16.1407235281
 20
4.6938945519
 11
16.1407235281
 21
4.5846477878
  0
LINE
  5
7CA
100
AcDbEntity
  8
0
100
AcDbLine
 62
7
  6
CONTINUOUS
 10
16.1407235281
 20
4.5460901064
 11
16.1407235281
 21
4.4368433424
  0
LINE
  5
7CB
100
AcDbEntity
  8
0
100
AcDbLine
 62
7
  6
CONTINUOUS
 10
16.1407235281
 20
4.398285661
 11
16.1407235281
 21
4.2890388969
  0
LINE
  5
7CC
100
AcDbEntity
  8
0
100
AcDbLine
 62
7
  6
CONTINUOUS
 10
16.1407235281
 20
4.2504812155
 11
16.1407235281
 21
4.1412344515
  0
LINE
  5
7CD
100
AcDbEntity
  8
0
100
AcDbLine
 62
7
  6
CONTINUOUS
 10
16.1908334575
 20
7.3913090535
 11
16.1908334575
 21
7.399681397
  0
LINE
  5
7CE
100
AcDbEntity
  8
0
100
AcDbLine
 62
7
  6
CONTINUOUS
 10
16.2186723072
 20
7.3865653057
 11
16.2186723072
 21
4.1098050129
  0
LINE
  5
7CF
100
AcDbEntity
  8
0
100
AcDbLine
 62
7
  6
CONTINUOUS
 10
16.1268041033
 20
5.1839090154
 11
16.0460714393
 21
5.13725703
  0
LINE
  5
7D0
100
AcDbEntity
  8
0
100
AcDbLine
 62
7
  6
CONTINUOUS
 10
15.9987453949
 20
5.1099093144
 11
15.9180127309
 21
5.0632573289
  0
LINE
  5
7D1
100
AcDbEntity
  8
0
100
AcDbLine
 62
7
  6
CONTINUOUS
 10
15.8706866865
 20
5.0359096133
 11
15.7899540225
 21
4.9892576279
  0
LINE
  5
7D2
100
AcDbEntity
  8
0
100
AcDbLine
 62
7
  6
CONTINUOUS
 10
15.7426279781
 20
4.9619099123
 11
15.6618953141
 21
4.9152579269
  0
LINE
  5
7D3
100
AcDbEntity
  8
0
100
AcDbLine
 62
7
  6
CONTINUOUS
 10
15.6145692697
 20
4.8879102113
 11
15.5338366057
 21
4.8412582259
  0
LINE
  5
7D4
100
AcDbEntity
  8
0
100
AcDbLine
 62
7
  6
CONTINUOUS
 10
15.4865105613
 20
4.8139105103
 11
15.4057778973
 21
4.7672585249
  0
LINE
  5
7D5
100
AcDbEntity
  8
0
100
AcDbLine
 62
7
  6
CONTINUOUS
 10
15.4057778973
 20
4.7511716333
 11
15.5004299861
 21
4.8058670645
  0
LINE
  5
7D6
100
AcDbEntity
  8
0
100
AcDbLine
 62
7
  6
CONTINUOUS
 10
15.5338366057
 20
4.8251713343
 11
15.6284886945
 21
4.8798667655
  0
LINE
  5
7D7
100
AcDbEntity
  8
0
100
AcDbLine
 62
7
  6
CONTINUOUS
 10
15.6618953141
 20
4.8991710354
 11
15.7565474029
 21
4.9538664666
  0
LINE
  5
7D8
100
AcDbEntity
  8
0
100
AcDbLine
 62
7
  6
CONTINUOUS
 10
15.7899540225
 20
4.9731707364
 11
15.8846061113
 21
5.0278661676
  0
LINE
  5
7D9
100
AcDbEntity
  8
0
100
AcDbLine
 62
7
  6
CONTINUOUS
 10
15.9180127309
 20
5.0471704374
 11
16.0126648197
 21
5.1018658686
  0
LINE
  5
7DA
100
AcDbEntity
  8
0
100
AcDbLine
 62
7
  6
CONTINUOUS
 10
16.0460714393
 20
5.1211701384
 11
16.1407235281
 21
5.1758655696
  0
LINE
  5
7DB
100
AcDbEntity
  8
0
100
AcDbLine
 62
7
  6
CONTINUOUS
 10
16.1407235281
 20
5.1373078882
 11
16.0460714393
 21
5.082612457
  0
LINE
  5
7DC
100
AcDbEntity
  8
0
100
AcDbLine
 62
7
  6
CONTINUOUS
 10
16.0126648197
 20
5.0633081872
 11
15.9180127309
 21
5.008612756
  0
LINE
  5
7DD
100
AcDbEntity
  8
0
100
AcDbLine
 62
7
  6
CONTINUOUS
 10
15.8846061113
 20
4.9893084862
 11
15.7899540225
 21
4.934613055
  0
LINE
  5
7DE
100
AcDbEntity
  8
0
100
AcDbLine
 62
7
  6
CONTINUOUS
 10
15.7565474029
 20
4.9153087851
 11
15.6618953141
 21
4.8606133539
  0
LINE
  5
7DF
100
AcDbEntity
  8
0
100
AcDbLine
 62
7
  6
CONTINUOUS
 10
15.6284886945
 20
4.8413090841
 11
15.5338366057
 21
4.7866136529
  0
LINE
  5
7E0
100
AcDbEntity
  8
0
100
AcDbLine
 62
7
  6
CONTINUOUS
 10
15.5004299861
 20
4.7673093831
 11
15.4057778973
 21
4.7126139519
  0
LINE
  5
7E1
100
AcDbEntity
  8
0
100
AcDbLine
 62
7
  6
CONTINUOUS
 10
14.4786708608
 20
4.0857170575
 11
14.4369859294
 21
4.0616291021
  0
LINE
  5
7E2
100
AcDbEntity
  8
0
100
AcDbLine
 62
7
  6
CONTINUOUS
 10
16.1268041033
 20
5.0361045699
 11
16.0460714393
 21
4.9894525845
  0
LINE
  5
7E3
100
AcDbEntity
  8
0
100
AcDbLine
 62
7
  6
CONTINUOUS
 10
15.9987453949
 20
4.9621048689
 11
15.9180127309
 21
4.9154528835
  0
LINE
  5
7E4
100
AcDbEntity
  8
0
100
AcDbLine
 62
7
  6
CONTINUOUS
 10
15.8706866865
 20
4.8881051679
 11
15.7899540225
 21
4.8414531825
  0
LINE
  5
7E5
100
AcDbEntity
  8
0
100
AcDbLine
 62
7
  6
CONTINUOUS
 10
15.7426279781
 20
4.8141054669
 11
15.6618953141
 21
4.7674534814
  0
LINE
  5
7E6
100
AcDbEntity
  8
0
100
AcDbLine
 62
7
  6
CONTINUOUS
 10
15.6145692697
 20
4.7401057659
 11
15.5338366057
 21
4.6934537804
  0
LINE
  5
7E7
100
AcDbEntity
  8
0
100
AcDbLine
 62
7
  6
CONTINUOUS
 10
15.4865105613
 20
4.6661060648
 11
15.4057778973
 21
4.6194540794
  0
LINE
  5
7E8
100
AcDbEntity
  8
0
100
AcDbLine
 62
7
  6
CONTINUOUS
 10
14.4230665046
 20
4.047498431
 11
14.2142751322
 21
3.9268467446
  0
LINE
  5
7E9
100
AcDbEntity
  8
0
100
AcDbLine
 62
7
  6
CONTINUOUS
 10
15.4057778973
 20
4.6033671879
 11
15.5004299861
 21
4.6580626191
  0
LINE
  5
7EA
100
AcDbEntity
  8
0
100
AcDbLine
 62
7
  6
CONTINUOUS
 10
15.5338366057
 20
4.6773668889
 11
15.6284886945
 21
4.7320623201
  0
LINE
  5
7EB
100
AcDbEntity
  8
0
100
AcDbLine
 62
7
  6
CONTINUOUS
 10
15.6618953141
 20
4.7513665899
 11
15.7565474029
 21
4.8060620211
  0
LINE
  5
7EC
100
AcDbEntity
  8
0
100
AcDbLine
 62
7
  6
CONTINUOUS
 10
15.7899540225
 20
4.8253662909
 11
15.8846061113
 21
4.8800617221
  0
LINE
  5
7ED
100
AcDbEntity
  8
0
100
AcDbLine
 62
7
  6
CONTINUOUS
 10
15.9180127309
 20
4.899365992
 11
16.0126648197
 21
4.9540614232
  0
LINE
  5
7EE
100
AcDbEntity
  8
0
100
AcDbLine
 62
7
  6
CONTINUOUS
 10
16.0460714393
 20
4.973365693
 11
16.1407235281
 21
5.0280611242
  0
LINE
  5
7EF
100
AcDbEntity
  8
0
100
AcDbLine
 62
7
  6
CONTINUOUS
 10
16.1407235281
 20
4.9895034427
 11
16.0460714393
 21
4.9348080116
  0
LINE
  5
7F0
100
AcDbEntity
  8
0
100
AcDbLine
 62
7
  6
CONTINUOUS
 10
16.0126648197
 20
4.9155037417
 11
15.9180127309
 21
4.8608083105
  0
LINE
  5
7F1
100
AcDbEntity
  8
0
100
AcDbLine
 62
7
  6
CONTINUOUS
 10
15.8846061113
 20
4.8415040407
 11
15.7899540225
 21
4.7868086095
  0
LINE
  5
7F2
100
AcDbEntity
  8
0
100
AcDbLine
 62
7
  6
CONTINUOUS
 10
15.7565474029
 20
4.7675043397
 11
15.6618953141
 21
4.7128089085
  0
LINE
  5
7F3
100
AcDbEntity
  8
0
100
AcDbLine
 62
7
  6
CONTINUOUS
 10
15.6284886945
 20
4.6935046387
 11
15.5338366057
 21
4.6388092075
  0
LINE
  5
7F4
100
AcDbEntity
  8
0
100
AcDbLine
 62
7
  6
CONTINUOUS
 10
15.5004299861
 20
4.6195049377
 11
15.4057778973
 21
4.5648095065
  0
LINE
  5
7F5
100
AcDbEntity
  8
0
100
AcDbLine
 62
7
  6
CONTINUOUS
 10
16.1268041033
 20
4.8883001245
 11
16.0460714393
 21
4.8416481391
  0
LINE
  5
7F6
100
AcDbEntity
  8
0
100
AcDbLine
 62
7
  6
CONTINUOUS
 10
15.9987453949
 20
4.8143004235
 11
15.9180127309
 21
4.767648438
  0
LINE
  5
7F7
100
AcDbEntity
  8
0
100
AcDbLine
 62
7
  6
CONTINUOUS
 10
15.8706866865
 20
4.7403007224
 11
15.7899540225
 21
4.693648737
  0
LINE
  5
7F8
100
AcDbEntity
  8
0
100
AcDbLine
 62
7
  6
CONTINUOUS
 10
15.7426279781
 20
4.6663010214
 11
15.6618953141
 21
4.619649036
  0
LINE
  5
7F9
100
AcDbEntity
  8
0
100
AcDbLine
 62
7
  6
CONTINUOUS
 10
15.6145692697
 20
4.5923013204
 11
15.5338366057
 21
4.545649335
  0
LINE
  5
7FA
100
AcDbEntity
  8
0
100
AcDbLine
 62
7
  6
CONTINUOUS
 10
15.4865105613
 20
4.5183016194
 11
15.4057778973
 21
4.471649634
  0
LINE
  5
7FB
100
AcDbEntity
  8
0
100
AcDbLine
 62
7
  6
CONTINUOUS
 10
15.4057778973
 20
4.4555627424
 11
15.5004299861
 21
4.5102581736
  0
LINE
  5
7FC
100
AcDbEntity
  8
0
100
AcDbLine
 62
7
  6
CONTINUOUS
 10
15.5338366057
 20
4.5295624435
 11
15.6284886945
 21
4.5842578746
  0
LINE
  5
7FD
100
AcDbEntity
  8
0
100
AcDbLine
 62
7
  6
CONTINUOUS
 10
15.6618953141
 20
4.6035621445
 11
15.7565474029
 21
4.6582575757
  0
LINE
  5
7FE
100
AcDbEntity
  8
0
100
AcDbLine
 62
7
  6
CONTINUOUS
 10
15.7899540225
 20
4.6775618455
 11
15.8846061113
 21
4.7322572767
  0
LINE
  5
7FF
100
AcDbEntity
  8
0
100
AcDbLine
 62
7
  6
CONTINUOUS
 10
15.9180127309
 20
4.7515615465
 11
16.0126648197
 21
4.8062569777
  0
LINE
  5
800
100
AcDbEntity
  8
0
100
AcDbLine
 62
7
  6
CONTINUOUS
 10
16.0460714393
 20
4.8255612475
 11
16.1407235281
 21
4.8802566787
  0
LINE
  5
801
100
AcDbEntity
  8
0
100
AcDbLine
 62
7
  6
CONTINUOUS
 10
16.1407235281
 20
4.8416989973
 11
16.0460714393
 21
4.7870035661
  0
LINE
  5
802
100
AcDbEntity
  8
0
100
AcDbLine
 62
7
  6
CONTINUOUS
 10
16.0126648197
 20
4.7676992963
 11
15.9180127309
 21
4.7130038651
  0
LINE
  5
803
100
AcDbEntity
  8
0
100
AcDbLine
 62
7
  6
CONTINUOUS
 10
15.8846061113
 20
4.6936995953
 11
15.7899540225
 21
4.6390041641
  0
LINE
  5
804
100
AcDbEntity
  8
0
100
AcDbLine
 62
7
  6
CONTINUOUS
 10
15.7565474029
 20
4.6196998942
 11
15.6618953141
 21
4.5650044631
  0
LINE
  5
805
100
AcDbEntity
  8
0
100
AcDbLine
 62
7
  6
CONTINUOUS
 10
15.6284886945
 20
4.5457001932
 11
15.5338366057
 21
4.491004762
  0
LINE
  5
806
100
AcDbEntity
  8
0
100
AcDbLine
 62
7
  6
CONTINUOUS
 10
15.5004299861
 20
4.4717004922
 11
15.4057778973
 21
4.417005061
  0
LINE
  5
807
100
AcDbEntity
  8
0
100
AcDbLine
 62
7
  6
CONTINUOUS
 10
16.1268041033
 20
4.740495679
 11
16.0460714393
 21
4.6938436936
  0
LINE
  5
808
100
AcDbEntity
  8
0
100
AcDbLine
 62
7
  6
CONTINUOUS
 10
15.9987453949
 20
4.666495978
 11
15.9180127309
 21
4.6198439926
  0
LINE
  5
809
100
AcDbEntity
  8
0
100
AcDbLine
 62
7
  6
CONTINUOUS
 10
15.8706866865
 20
4.592496277
 11
15.7899540225
 21
4.5458442916
  0
LINE
  5
80A
100
AcDbEntity
  8
0
100
AcDbLine
 62
7
  6
CONTINUOUS
 10
15.7426279781
 20
4.518496576
 11
15.6618953141
 21
4.4718445906
  0
LINE
  5
80B
100
AcDbEntity
  8
0
100
AcDbLine
 62
7
  6
CONTINUOUS
 10
15.6145692697
 20
4.444496875
 11
15.5338366057
 21
4.3978448895
  0
LINE
  5
80C
100
AcDbEntity
  8
0
100
AcDbLine
 62
7
  6
CONTINUOUS
 10
15.4865105613
 20
4.3704971739
 11
15.4057778973
 21
4.3238451885
  0
LINE
  5
80D
100
AcDbEntity
  8
0
100
AcDbLine
 62
7
  6
CONTINUOUS
 10
15.4057778973
 20
4.307758297
 11
15.5004299861
 21
4.3624537282
  0
LINE
  5
80E
100
AcDbEntity
  8
0
100
AcDbLine
 62
7
  6
CONTINUOUS
 10
15.5338366057
 20
4.381757998
 11
15.6284886945
 21
4.4364534292
  0
LINE
  5
80F
100
AcDbEntity
  8
0
100
AcDbLine
 62
7
  6
CONTINUOUS
 10
15.6618953141
 20
4.455757699
 11
15.7565474029
 21
4.5104531302
  0
LINE
  5
810
100
AcDbEntity
  8
0
100
AcDbLine
 62
7
  6
CONTINUOUS
 10
15.7899540225
 20
4.5297574
 11
15.8846061113
 21
4.5844528312
  0
LINE
  5
811
100
AcDbEntity
  8
0
100
AcDbLine
 62
7
  6
CONTINUOUS
 10
15.9180127309
 20
4.6037571011
 11
16.0126648197
 21
4.6584525323
  0
LINE
  5
812
100
AcDbEntity
  8
0
100
AcDbLine
 62
7
  6
CONTINUOUS
 10
16.0460714393
 20
4.6777568021
 11
16.1407235281
 21
4.7324522333
  0
LINE
  5
813
100
AcDbEntity
  8
0
100
AcDbLine
 62
7
  6
CONTINUOUS
 10
13.4765456163
 20
9.1235787492
 11
13.267754244
 21
9.2040661841
  0
LINE
  5
814
100
AcDbEntity
  8
0
100
AcDbLine
 62
7
  6
CONTINUOUS
 10
16.1407235281
 20
4.6938945519
 11
16.0460714393
 21
4.6391991207
  0
LINE
  5
815
100
AcDbEntity
  8
0
100
AcDbLine
 62
7
  6
CONTINUOUS
 10
16.0126648197
 20
4.6198948508
 11
15.9180127309
 21
4.5651994196
  0
LINE
  5
816
100
AcDbEntity
  8
0
100
AcDbLine
 62
7
  6
CONTINUOUS
 10
15.8846061113
 20
4.5458951498
 11
15.7899540225
 21
4.4911997186
  0
LINE
  5
817
100
AcDbEntity
  8
0
100
AcDbLine
 62
7
  6
CONTINUOUS
 10
15.7565474029
 20
4.4718954488
 11
15.6618953141
 21
4.4172000176
  0
LINE
  5
818
100
AcDbEntity
  8
0
100
AcDbLine
 62
7
  6
CONTINUOUS
 10
15.6284886945
 20
4.3978957478
 11
15.5338366057
 21
4.3432003166
  0
LINE
  5
819
100
AcDbEntity
  8
0
100
AcDbLine
 62
7
  6
CONTINUOUS
 10
15.5004299861
 20
4.3238960468
 11
15.4057778973
 21
4.2692006156
  0
LINE
  5
81A
100
AcDbEntity
  8
0
100
AcDbLine
 62
7
  6
CONTINUOUS
 10
16.1268041033
 20
4.5926912336
 11
16.0460714393
 21
4.5460392482
  0
LINE
  5
81B
100
AcDbEntity
  8
0
100
AcDbLine
 62
7
  6
CONTINUOUS
 10
15.9987453949
 20
4.5186915326
 11
15.9180127309
 21
4.4720395471
  0
LINE
  5
81C
100
AcDbEntity
  8
0
100
AcDbLine
 62
7
  6
CONTINUOUS
 10
15.8706866865
 20
4.4446918316
 11
15.7899540225
 21
4.3980398461
  0
LINE
  5
81D
100
AcDbEntity
  8
0
100
AcDbLine
 62
7
  6
CONTINUOUS
 10
15.7426279781
 20
4.3706921305
 11
15.6618953141
 21
4.3240401451
  0
LINE
  5
81E
100
AcDbEntity
  8
0
100
AcDbLine
 62
7
  6
CONTINUOUS
 10
15.6145692697
 20
4.2966924295
 11
15.5338366057
 21
4.2500404441
  0
LINE
  5
81F
100
AcDbEntity
  8
0
100
AcDbLine
 62
7
  6
CONTINUOUS
 10
15.4865105613
 20
4.2226927285
 11
15.4057778973
 21
4.1760407431
  0
LINE
  5
820
100
AcDbEntity
  8
0
100
AcDbLine
 62
7
  6
CONTINUOUS
 10
16.1407235281
 20
4.5846477878
 11
16.0460714393
 21
4.5299523566
  0
LINE
  5
821
100
AcDbEntity
  8
0
100
AcDbLine
 62
7
  6
CONTINUOUS
 10
16.0126648197
 20
4.5106480868
 11
15.9180127309
 21
4.4559526556
  0
LINE
  5
822
100
AcDbEntity
  8
0
100
AcDbLine
 62
7
  6
CONTINUOUS
 10
15.8846061113
 20
4.4366483858
 11
15.7899540225
 21
4.3819529546
  0
LINE
  5
823
100
AcDbEntity
  8
0
100
AcDbLine
 62
7
  6
CONTINUOUS
 10
15.7565474029
 20
4.3626486848
 11
15.6618953141
 21
4.3079532536
  0
LINE
  5
824
100
AcDbEntity
  8
0
100
AcDbLine
 62
7
  6
CONTINUOUS
 10
15.6284886945
 20
4.2886489837
 11
15.5338366057
 21
4.2339535526
  0
LINE
  5
825
100
AcDbEntity
  8
0
100
AcDbLine
 62
7
  6
CONTINUOUS
 10
15.5004299861
 20
4.2146492827
 11
15.4057778973
 21
4.1599538515
  0
LINE
  5
826
100
AcDbEntity
  8
0
100
AcDbLine
 62
7
  6
CONTINUOUS
 10
15.4057778973
 20
4.1213961701
 11
15.5004299861
 21
4.1760916013
  0
LINE
  5
827
100
AcDbEntity
  8
0
100
AcDbLine
 62
7
  6
CONTINUOUS
 10
15.5338366057
 20
4.1953958711
 11
15.6284886945
 21
4.2500913023
  0
LINE
  5
828
100
AcDbEntity
  8
0
100
AcDbLine
 62
7
  6
CONTINUOUS
 10
15.6618953141
 20
4.2693955722
 11
15.7565474029
 21
4.3240910033
  0
LINE
  5
829
100
AcDbEntity
  8
0
100
AcDbLine
 62
7
  6
CONTINUOUS
 10
15.7899540225
 20
4.3433952732
 11
15.8846061113
 21
4.3980907044
  0
LINE
  5
82A
100
AcDbEntity
  8
0
100
AcDbLine
 62
7
  6
CONTINUOUS
 10
15.9180127309
 20
4.4173949742
 11
16.0126648197
 21
4.4720904054
  0
LINE
  5
82B
100
AcDbEntity
  8
0
100
AcDbLine
 62
7
  6
CONTINUOUS
 10
16.0460714393
 20
4.4913946752
 11
16.1407235281
 21
4.5460901064
  0
LINE
  5
82C
100
AcDbEntity
  8
0
100
AcDbLine
 62
7
  6
CONTINUOUS
 10
16.1268041033
 20
4.4448867881
 11
16.0460714393
 21
4.3982348027
  0
LINE
  5
82D
100
AcDbEntity
  8
0
100
AcDbLine
 62
7
  6
CONTINUOUS
 10
15.9987453949
 20
4.3708870871
 11
15.9180127309
 21
4.3242351017
  0
LINE
  5
82E
100
AcDbEntity
  8
0
100
AcDbLine
 62
7
  6
CONTINUOUS
 10
15.8706866865
 20
4.2968873861
 11
15.7899540225
 21
4.2502354007
  0
LINE
  5
82F
100
AcDbEntity
  8
0
100
AcDbLine
 62
7
  6
CONTINUOUS
 10
15.7426279781
 20
4.2228876851
 11
15.6618953141
 21
4.1762356997
  0
LINE
  5
830
100
AcDbEntity
  8
0
100
AcDbLine
 62
7
  6
CONTINUOUS
 10
15.6145692697
 20
4.1488879841
 11
15.5338366057
 21
4.1022359986
  0
LINE
  5
831
100
AcDbEntity
  8
0
100
AcDbLine
 62
7
  6
CONTINUOUS
 10
15.4865105613
 20
4.074888283
 11
15.4057778973
 21
4.0282362976
  0
LINE
  5
832
100
AcDbEntity
  8
0
100
AcDbLine
 62
7
  6
CONTINUOUS
 10
16.1407235281
 20
4.4368433424
 11
16.0460714393
 21
4.3821479112
  0
LINE
  5
833
100
AcDbEntity
  8
0
100
AcDbLine
 62
7
  6
CONTINUOUS
 10
16.0126648197
 20
4.3628436414
 11
15.9180127309
 21
4.3081482102
  0
LINE
  5
834
100
AcDbEntity
  8
0
100
AcDbLine
 62
7
  6
CONTINUOUS
 10
15.8846061113
 20
4.2888439403
 11
15.7899540225
 21
4.2341485092
  0
LINE
  5
835
100
AcDbEntity
  8
0
100
AcDbLine
 62
7
  6
CONTINUOUS
 10
15.7565474029
 20
4.2148442393
 11
15.6618953141
 21
4.1601488081
  0
LINE
  5
836
100
AcDbEntity
  8
0
100
AcDbLine
 62
7
  6
CONTINUOUS
 10
15.6284886945
 20
4.1408445383
 11
15.5338366057
 21
4.0861491071
  0
LINE
  5
837
100
AcDbEntity
  8
0
100
AcDbLine
 62
7
  6
CONTINUOUS
 10
15.5004299861
 20
4.0668448373
 11
15.4057778973
 21
4.0121494061
  0
LINE
  5
838
100
AcDbEntity
  8
0
100
AcDbLine
 62
7
  6
CONTINUOUS
 10
15.4057778973
 20
3.9735917247
 11
15.5004299861
 21
4.0282871559
  0
LINE
  5
839
100
AcDbEntity
  8
0
100
AcDbLine
 62
7
  6
CONTINUOUS
 10
15.5338366057
 20
4.0475914257
 11
15.6284886945
 21
4.1022868569
  0
LINE
  5
83A
100
AcDbEntity
  8
0
100
AcDbLine
 62
7
  6
CONTINUOUS
 10
15.6618953141
 20
4.1215911267
 11
15.7565474029
 21
4.1762865579
  0
LINE
  5
83B
100
AcDbEntity
  8
0
100
AcDbLine
 62
7
  6
CONTINUOUS
 10
15.7899540225
 20
4.1955908277
 11
15.8846061113
 21
4.2502862589
  0
LINE
  5
83C
100
AcDbEntity
  8
0
100
AcDbLine
 62
7
  6
CONTINUOUS
 10
15.9180127309
 20
4.2695905288
 11
16.0126648197
 21
4.3242859599
  0
LINE
  5
83D
100
AcDbEntity
  8
0
100
AcDbLine
 62
7
  6
CONTINUOUS
 10
16.0460714393
 20
4.3435902298
 11
16.1407235281
 21
4.398285661
  0
LINE
  5
83E
100
AcDbEntity
  8
0
100
AcDbLine
 62
7
  6
CONTINUOUS
 10
16.1268041033
 20
4.2970823427
 11
16.0460714393
 21
4.2504303573
  0
LINE
  5
83F
100
AcDbEntity
  8
0
100
AcDbLine
 62
7
  6
CONTINUOUS
 10
15.9987453949
 20
4.2230826417
 11
15.9180127309
 21
4.1764306563
  0
LINE
  5
840
100
AcDbEntity
  8
0
100
AcDbLine
 62
7
  6
CONTINUOUS
 10
15.8706866865
 20
4.1490829407
 11
15.7899540225
 21
4.1024309552
  0
LINE
  5
841
100
AcDbEntity
  8
0
100
AcDbLine
 62
7
  6
CONTINUOUS
 10
15.7426279781
 20
4.0750832396
 11
15.6618953141
 21
4.0284312542
  0
LINE
  5
842
100
AcDbEntity
  8
0
100
AcDbLine
 62
7
  6
CONTINUOUS
 10
15.6145692697
 20
4.0010835386
 11
15.5338366057
 21
3.9544315532
  0
LINE
  5
843
100
AcDbEntity
  8
0
100
AcDbLine
 62
7
  6
CONTINUOUS
 10
15.4865105613
 20
3.9270838376
 11
15.4057778973
 21
3.8804318522
  0
LINE
  5
844
100
AcDbEntity
  8
0
100
AcDbLine
 62
7
  6
CONTINUOUS
 10
16.1407235281
 20
4.2890388969
 11
16.0460714393
 21
4.2343434657
  0
LINE
  5
845
100
AcDbEntity
  8
0
100
AcDbLine
 62
7
  6
CONTINUOUS
 10
16.0126648197
 20
4.2150391959
 11
15.9180127309
 21
4.1603437647
  0
LINE
  5
846
100
AcDbEntity
  8
0
100
AcDbLine
 62
7
  6
CONTINUOUS
 10
15.8846061113
 20
4.1410394949
 11
15.7899540225
 21
4.0863440637
  0
LINE
  5
847
100
AcDbEntity
  8
0
100
AcDbLine
 62
7
  6
CONTINUOUS
 10
15.7565474029
 20
4.0670397939
 11
15.6618953141
 21
4.0123443627
  0
LINE
  5
848
100
AcDbEntity
  8
0
100
AcDbLine
 62
7
  6
CONTINUOUS
 10
15.6284886945
 20
3.9930400929
 11
15.5338366057
 21
3.9383446617
  0
LINE
  5
849
100
AcDbEntity
  8
0
100
AcDbLine
 62
7
  6
CONTINUOUS
 10
15.5004299861
 20
3.9190403918
 11
15.4057778973
 21
3.8643449606
  0
LINE
  5
84A
100
AcDbEntity
  8
0
100
AcDbLine
 62
7
  6
CONTINUOUS
 10
15.4057778973
 20
3.8257872792
 11
15.5004299861
 21
3.8804827104
  0
LINE
  5
84B
100
AcDbEntity
  8
0
100
AcDbLine
 62
7
  6
CONTINUOUS
 10
15.5338366057
 20
3.8997869802
 11
15.6284886945
 21
3.9544824114
  0
LINE
  5
84C
100
AcDbEntity
  8
0
100
AcDbLine
 62
7
  6
CONTINUOUS
 10
15.6618953141
 20
3.9737866813
 11
15.7565474029
 21
4.0284821125
  0
LINE
  5
84D
100
AcDbEntity
  8
0
100
AcDbLine
 62
7
  6
CONTINUOUS
 10
15.7899540225
 20
4.0477863823
 11
15.8846061113
 21
4.1024818135
  0
LINE
  5
84E
100
AcDbEntity
  8
0
100
AcDbLine
 62
7
  6
CONTINUOUS
 10
15.9180127309
 20
4.1217860833
 11
16.0126648197
 21
4.1764815145
  0
LINE
  5
84F
100
AcDbEntity
  8
0
100
AcDbLine
 62
7
  6
CONTINUOUS
 10
16.0460714393
 20
4.1957857843
 11
16.1407235281
 21
4.2504812155
  0
LINE
  5
850
100
AcDbEntity
  8
0
100
AcDbLine
 62
7
  6
CONTINUOUS
 10
16.1268041033
 20
4.1492778972
 11
16.0460714393
 21
4.1026259118
  0
LINE
  5
851
100
AcDbEntity
  8
0
100
AcDbLine
 62
7
  6
CONTINUOUS
 10
15.9987453949
 20
4.0752781962
 11
15.9180127309
 21
4.0286262108
  0
LINE
  5
852
100
AcDbEntity
  8
0
100
AcDbLine
 62
7
  6
CONTINUOUS
 10
15.8706866865
 20
4.0012784952
 11
15.7899540225
 21
3.9546265098
  0
LINE
  5
853
100
AcDbEntity
  8
0
100
AcDbLine
 62
7
  6
CONTINUOUS
 10
15.7426279781
 20
3.9272787942
 11
15.6618953141
 21
3.8806268088
  0
LINE
  5
854
100
AcDbEntity
  8
0
100
AcDbLine
 62
7
  6
CONTINUOUS
 10
15.6145692697
 20
3.8532790932
 11
15.5338366057
 21
3.8066271077
  0
LINE
  5
855
100
AcDbEntity
  8
0
100
AcDbLine
 62
7
  6
CONTINUOUS
 10
15.4865105613
 20
3.7792793921
 11
15.4057778973
 21
3.7326274067
  0
LINE
  5
856
100
AcDbEntity
  8
0
100
AcDbLine
 62
7
  6
CONTINUOUS
 10
16.1407235281
 20
4.1412344515
 11
16.0460714393
 21
4.0865390203
  0
LINE
  5
857
100
AcDbEntity
  8
0
100
AcDbLine
 62
7
  6
CONTINUOUS
 10
16.0126648197
 20
4.0672347505
 11
15.9180127309
 21
4.0125393193
  0
LINE
  5
858
100
AcDbEntity
  8
0
100
AcDbLine
 62
7
  6
CONTINUOUS
 10
15.8846061113
 20
3.9932350494
 11
15.7899540225
 21
3.9385396183
  0
LINE
  5
859
100
AcDbEntity
  8
0
100
AcDbLine
 62
7
  6
CONTINUOUS
 10
15.7565474029
 20
3.9192353484
 11
15.6618953141
 21
3.8645399172
  0
LINE
  5
85A
100
AcDbEntity
  8
0
100
AcDbLine
 62
7
  6
CONTINUOUS
 10
15.6284886945
 20
3.8452356474
 11
15.5338366057
 21
3.7905402162
  0
LINE
  5
85B
100
AcDbEntity
  8
0
100
AcDbLine
 62
7
  6
CONTINUOUS
 10
15.5004299861
 20
3.7712359464
 11
15.4057778973
 21
3.7165405152
  0
LINE
  5
85C
100
AcDbEntity
  8
0
100
AcDbLine
 62
7
  6
CONTINUOUS
 10
16.2186723072
 20
4.1098050129
 11
15.3278291183
 21
3.5950244841
  0
LINE
  5
85D
100
AcDbEntity
  8
0
100
AcDbLine
 62
7
  6
CONTINUOUS
 10
16.0098809348
 20
3.8765874677
 11
15.6758147389
 21
3.6835447694
  0
LINE
  5
85E
100
AcDbEntity
  8
0
100
AcDbLine
 62
7
  6
CONTINUOUS
 10
16.0098809348
 20
3.5809785768
 11
15.6758147389
 21
3.3879358785
  0
ARC
  5
85F
100
AcDbEntity
  8
0
100
AcDbCircle
 62
7
  6
CONTINUOUS
 10
6.9377532192
 20
-2.5155595857
 40
8.5947069116
100
AcDbArc
 50
73.6373982433
 51
106.3626017567
  0
ARC
  5
860
100
AcDbEntity
  8
0
100
AcDbCircle
 62
7
  6
CONTINUOUS
 10
6.9377532192
 20
-2.5155595857
 40
8.584864392
100
AcDbArc
 50
73.4811240402
 51
106.5188759598
  0
ARC
  5
861
100
AcDbEntity
  8
0
100
AcDbCircle
 62
7
  6
CONTINUOUS
 10
6.9377532192
 20
2.3488323653
 40
2.1850393701
100
AcDbArc
 50
73.398450401
 51
106.601549599
  0
ARC
  5
862
100
AcDbEntity
  8
0
100
AcDbCircle
 62
7
  6
CONTINUOUS
 10
7.5283044003
 20
4.329601243
 40
0.1181102362
100
AcDbArc
 50
0.0
 51
73.3984504005
  0
ARC
  5
863
100
AcDbEntity
  8
0
100
AcDbCircle
 62
7
  6
CONTINUOUS
 10
6.3472020381
 20
4.329601243
 40
0.1181102362
100
AcDbArc
 50
106.6015495995
 51
180.0
  0
ARC
  5
864
100
AcDbEntity
  8
0
100
AcDbCircle
 62
7
  6
CONTINUOUS
 10
9.4279106995
 20
4.6972575621
 40
0.0688976378
100
AcDbArc
 50
0.0000462967
 51
89.9999999999
  0
ARC
  5
865
100
AcDbEntity
  8
0
100
AcDbCircle
 62
7
  6
CONTINUOUS
 10
9.4279106995
 20
4.5594622865
 40
0.0688976378
100
AcDbArc
 50
270.0000000001
 51
359.9999537033
  0
ARC
  5
866
100
AcDbEntity
  8
0
100
AcDbCircle
 62
7
  6
CONTINUOUS
 10
9.4544577577
 20
4.5627506102
 40
0.0423505805
100
AcDbArc
 50
356.4793788875
 51
0.011884025
  0
ARC
  5
867
100
AcDbEntity
  8
0
100
AcDbCircle
 62
7
  6
CONTINUOUS
 10
9.4555877525
 20
4.5626897865
 40
0.0412189841
100
AcDbArc
 50
355.4952717527
 51
356.4673113652
  0
ARC
  5
868
100
AcDbEntity
  8
0
100
AcDbCircle
 62
7
  6
CONTINUOUS
 10
9.460118221
 20
4.6947893845
 40
0.0366180946
100
AcDbArc
 50
11.9981949246
 51
37.3603253498
  0
ARC
  5
869
100
AcDbEntity
  8
0
100
AcDbCircle
 62
7
  6
CONTINUOUS
 10
6.9968083373
 20
8.5811821955
 40
0.4921259843
100
AcDbArc
 50
180.0
 51
253.7397952917
  0
ARC
  5
86A
100
AcDbEntity
  8
0
100
AcDbCircle
 62
7
  6
CONTINUOUS
 10
6.9968083373
 20
8.5811821955
 40
0.4724409449
100
AcDbArc
 50
180.0
 51
270.0
  0
ARC
  5
86B
100
AcDbEntity
  8
0
100
AcDbCircle
 62
7
  6
CONTINUOUS
 10
5.5105878649
 20
8.9361280616
 40
0.1777805118
100
AcDbArc
 50
213.8550261283
 51
326.1449738717
  0
CIRCLE
  5
86C
100
AcDbEntity
  8
0
100
AcDbCircle
 62
7
  6
CONTINUOUS
 10
9.1424776286
 20
8.8567727467
 40
0.1171259843
  0
CIRCLE
  5
86D
100
AcDbEntity
  8
0
100
AcDbCircle
 62
7
  6
CONTINUOUS
 10
9.1424776286
 20
8.6205522742
 40
0.1171259843
  0
CIRCLE
  5
86E
100
AcDbEntity
  8
0
100
AcDbCircle
 62
7
  6
CONTINUOUS
 10
9.1424776286
 20
8.3843318018
 40
0.1171259843
  0
CIRCLE
  5
86F
100
AcDbEntity
  8
0
100
AcDbCircle
 62
7
  6
CONTINUOUS
 10
4.7330288097
 20
8.3548042427
 40
0.1171259843
  0
CIRCLE
  5
870
100
AcDbEntity
  8
0
100
AcDbCircle
 62
7
  6
CONTINUOUS
 10
4.7330288097
 20
8.5910247152
 40
0.1171259843
  0
CIRCLE
  5
871
100
AcDbEntity
  8
0
100
AcDbCircle
 62
7
  6
CONTINUOUS
 10
4.7330288097
 20
8.8272451876
 40
0.1171259843
  0
CIRCLE
  5
872
100
AcDbEntity
  8
0
100
AcDbCircle
 62
7
  6
CONTINUOUS
 10
4.7330288097
 20
9.06346566
 40
0.1171259843
  0
CIRCLE
  5
873
100
AcDbEntity
  8
0
100
AcDbCircle
 62
7
  6
CONTINUOUS
 10
9.1424776286
 20
8.8567727467
 40
0.094488189
  0
CIRCLE
  5
874
100
AcDbEntity
  8
0
100
AcDbCircle
 62
7
  6
CONTINUOUS
 10
9.1424776286
 20
8.6205522742
 40
0.094488189
  0
CIRCLE
  5
875
100
AcDbEntity
  8
0
100
AcDbCircle
 62
7
  6
CONTINUOUS
 10
9.1424776286
 20
8.3843318018
 40
0.094488189
  0
CIRCLE
  5
876
100
AcDbEntity
  8
0
100
AcDbCircle
 62
7
  6
CONTINUOUS
 10
4.7330288097
 20
8.3548042427
 40
0.094488189
  0
CIRCLE
  5
877
100
AcDbEntity
  8
0
100
AcDbCircle
 62
7
  6
CONTINUOUS
 10
4.7330288097
 20
8.5910247152
 40
0.094488189
  0
CIRCLE
  5
878
100
AcDbEntity
  8
0
100
AcDbCircle
 62
7
  6
CONTINUOUS
 10
4.7330288097
 20
8.8272451876
 40
0.094488189
  0
CIRCLE
  5
879
100
AcDbEntity
  8
0
100
AcDbCircle
 62
7
  6
CONTINUOUS
 10
4.7330288097
 20
9.06346566
 40
0.094488189
  0
CIRCLE
  5
87A
100
AcDbEntity
  8
0
100
AcDbCircle
 62
7
  6
CONTINUOUS
 10
6.0322414082
 20
9.0733081797
 40
0.0738188976
  0
ARC
  5
87B
100
AcDbEntity
  8
0
100
AcDbCircle
 62
7
  6
CONTINUOUS
 10
9.4279106995
 20
8.9650404632
 40
0.0688976378
100
AcDbArc
 50
0.0000066921
 51
90.0000000001
  0
ARC
  5
87C
100
AcDbEntity
  8
0
100
AcDbCircle
 62
7
  6
CONTINUOUS
 10
9.4279106995
 20
8.8272451876
 40
0.0688976378
100
AcDbArc
 50
269.9999999999
 51
359.9999933079
  0
ARC
  5
87D
100
AcDbEntity
  8
0
100
AcDbCircle
 62
7
  6
CONTINUOUS
 10
8.361146643
 20
-1.1527412148
 40
11.6043295978
100
AcDbArc
 50
47.3809889866
 51
47.5011834017
  0
ARC
  5
87E
100
AcDbEntity
  8
0
100
AcDbCircle
 62
7
  6
CONTINUOUS
 10
7.6438146232
 20
-1.5379317823
 40
11.5357419914
100
AcDbArc
 50
47.4869593371
 51
48.1139857484
  0
ARC
  5
87F
100
AcDbEntity
  8
0
100
AcDbCircle
 62
7
  6
CONTINUOUS
 10
8.1860139133
 20
-1.2030459873
 40
11.4745606174
100
AcDbArc
 50
47.4853077676
 51
48.2894620282
  0
ARC
  5
880
100
AcDbEntity
  8
0
100
AcDbCircle
 62
7
  6
CONTINUOUS
 10
7.7496382856
 20
-1.4202372848
 40
11.377468178
100
AcDbArc
 50
48.1150140336
 51
48.4494234103
  0
ARC
  5
881
100
AcDbEntity
  8
0
100
AcDbCircle
 62
7
  6
CONTINUOUS
 10
7.805642892
 20
-1.3570848435
 40
11.2930599664
100
AcDbArc
 50
48.4495471398
 51
48.6837663083
  0
ARC
  5
882
100
AcDbEntity
  8
0
100
AcDbCircle
 62
7
  6
CONTINUOUS
 10
7.8677334233
 20
-1.2863794581
 40
11.1989617014
100
AcDbArc
 50
48.6835312505
 51
49.08372885
  0
ARC
  5
883
100
AcDbEntity
  8
0
100
AcDbCircle
 62
7
  6
CONTINUOUS
 10
10.7299941745
 20
3.6765747119
 40
5.405397192
100
AcDbArc
 50
73.8805039366
 51
74.1025913203
  0
ARC
  5
884
100
AcDbEntity
  8
0
100
AcDbCircle
 62
7
  6
CONTINUOUS
 10
10.7417516998
 20
3.7179443191
 40
5.3623892345
100
AcDbArc
 50
74.1309666865
 51
74.4550479927
  0
ARC
  5
885
100
AcDbEntity
  8
0
100
AcDbCircle
 62
7
  6
CONTINUOUS
 10
10.6696748401
 20
3.7535302667
 40
5.2533639161
100
AcDbArc
 50
72.667482298
 51
76.7268738407
  0
ARC
  5
886
100
AcDbEntity
  8
0
100
AcDbCircle
 62
7
  6
CONTINUOUS
 10
11.404615576
 20
4.0853039411
 40
5.3818419891
100
AcDbArc
 50
73.8799399434
 51
74.4325973001
  0
ARC
  5
887
100
AcDbEntity
  8
0
100
AcDbCircle
 62
7
  6
CONTINUOUS
 10
10.7854648151
 20
3.8785773232
 40
5.1959139902
100
AcDbArc
 50
74.7563778973
 51
76.5266702137
  0
ARC
  5
888
100
AcDbEntity
  8
0
100
AcDbCircle
 62
7
  6
CONTINUOUS
 10
10.7098399038
 20
3.8852293782
 40
5.1351413048
100
AcDbArc
 50
75.1051961547
 51
76.5321241707
  0
ARC
  5
889
100
AcDbEntity
  8
0
100
AcDbCircle
 62
7
  6
CONTINUOUS
 10
13.1999555393
 20
7.024089739
 40
0.1061941099
100
AcDbArc
 50
177.2770956535
 51
180.016307998
  0
ARC
  5
88A
100
AcDbEntity
  8
0
100
AcDbCircle
 62
7
  6
CONTINUOUS
 10
13.1382751042
 20
7.0430916531
 40
0.040336848
100
AcDbArc
 50
108.7995259325
 51
113.7666388557
  0
ARC
  5
88B
100
AcDbEntity
  8
0
100
AcDbCircle
 62
7
  6
CONTINUOUS
 10
13.1379295026
 20
7.0438876915
 40
0.0394690365
100
AcDbArc
 50
113.7732013711
 51
120.0334943103
  0
ARC
  5
88C
100
AcDbEntity
  8
0
100
AcDbCircle
 62
7
  6
CONTINUOUS
 10
13.884644838
 20
8.118333246
 40
0.4818266282
100
AcDbArc
 50
120.0209844603
 51
120.5883550031
  0
ARC
  5
88D
100
AcDbEntity
  8
0
100
AcDbCircle
 62
7
  6
CONTINUOUS
 10
13.8878727808
 20
8.1295827804
 40
0.4604586388
100
AcDbArc
 50
120.0208823583
 51
120.6293278785
  0
ARC
  5
88E
100
AcDbEntity
  8
0
100
AcDbCircle
 62
7
  6
CONTINUOUS
 10
13.882421532
 20
8.138768322
 40
0.4497773388
100
AcDbArc
 50
120.6279482174
 51
121.5831028845
  0
ARC
  5
88F
100
AcDbEntity
  8
0
100
AcDbCircle
 62
7
  6
CONTINUOUS
 10
13.7693158884
 20
8.3997433395
 40
0.290475017
100
AcDbArc
 50
222.5940041988
 51
223.9137588112
  0
ARC
  5
890
100
AcDbEntity
  8
0
100
AcDbCircle
 62
7
  6
CONTINUOUS
 10
13.7761028476
 20
8.4030885779
 40
0.2758568837
100
AcDbArc
 50
222.0857067109
 51
223.3104352276
  0
ARC
  5
891
100
AcDbEntity
  8
0
100
AcDbCircle
 62
7
  6
CONTINUOUS
 10
13.7690079003
 20
8.3886619543
 40
0.2663056587
100
AcDbArc
 50
220.814201385
 51
222.0557979413
  0
ARC
  5
892
100
AcDbEntity
  8
0
100
AcDbCircle
 62
7
  6
CONTINUOUS
 10
12.2307570944
 20
8.790773475
 40
0.1617349452
100
AcDbArc
 50
83.0090985314
 51
96.990901469
  0
ARC
  5
893
100
AcDbEntity
  8
0
100
AcDbCircle
 62
7
  6
CONTINUOUS
 10
12.3977901923
 20
8.8872948242
 40
0.1617349452
100
AcDbArc
 50
83.0090985314
 51
96.9909014689
  0
ARC
  5
894
100
AcDbEntity
  8
0
100
AcDbCircle
 62
7
  6
CONTINUOUS
 10
12.5648232902
 20
8.9838161733
 40
0.1617349452
100
AcDbArc
 50
83.0090985314
 51
96.9909014689
  0
ARC
  5
895
100
AcDbEntity
  8
0
100
AcDbCircle
 62
7
  6
CONTINUOUS
 10
12.7318563881
 20
9.0803375225
 40
0.1617349452
100
AcDbArc
 50
83.0090985314
 51
96.9909014689
  0
ARC
  5
896
100
AcDbEntity
  8
0
100
AcDbCircle
 62
7
  6
CONTINUOUS
 10
13.6533388722
 20
8.339400003
 40
0.1538991273
100
AcDbArc
 50
180.0079303673
 51
182.9621046113
  0
ARC
  5
897
100
AcDbEntity
  8
0
100
AcDbCircle
 62
7
  6
CONTINUOUS
 10
13.6669821428
 20
8.3397607365
 40
0.14785895
100
AcDbArc
 50
181.5601833213
 51
182.9967259251
  0
ARC
  5
898
100
AcDbEntity
  8
0
100
AcDbCircle
 62
7
  6
CONTINUOUS
 10
13.6666116473
 20
8.3397494154
 40
0.1474882835
100
AcDbArc
 50
179.9866936689
 51
181.5597056995
  0
ARC
  5
899
100
AcDbEntity
  8
0
100
AcDbCircle
 62
7
  6
CONTINUOUS
 10
12.7040863964
 20
9.1900024194
 40
0.0785823187
100
AcDbArc
 50
122.0441163421
 51
126.2204791434
  0
ARC
  5
89A
100
AcDbEntity
  8
0
100
AcDbCircle
 62
7
  6
CONTINUOUS
 10
12.5370532984
 20
9.0934810702
 40
0.0785823187
100
AcDbArc
 50
122.0441163421
 51
126.2204791434
  0
ARC
  5
89B
100
AcDbEntity
  8
0
100
AcDbCircle
 62
7
  6
CONTINUOUS
 10
12.3700202005
 20
8.996959721
 40
0.0785823187
100
AcDbArc
 50
122.0441163421
 51
126.2204791435
  0
ARC
  5
89C
100
AcDbEntity
  8
0
100
AcDbCircle
 62
7
  6
CONTINUOUS
 10
12.2029871026
 20
8.9004383719
 40
0.0785823187
100
AcDbArc
 50
122.044116342
 51
126.2204791435
  0
ARC
  5
89D
100
AcDbEntity
  8
0
100
AcDbCircle
 62
7
  6
CONTINUOUS
 10
12.5333712838
 20
9.0985801582
 40
0.0722929656
100
AcDbArc
 50
126.2542089198
 51
128.0117264708
  0
ARC
  5
89E
100
AcDbEntity
  8
0
100
AcDbCircle
 62
7
  6
CONTINUOUS
 10
12.3663381859
 20
9.002058809
 40
0.0722929656
100
AcDbArc
 50
126.2542089197
 51
128.0117264709
  0
ARC
  5
89F
100
AcDbEntity
  8
0
100
AcDbCircle
 62
7
  6
CONTINUOUS
 10
12.7004043817
 20
9.1951015073
 40
0.0722929656
100
AcDbArc
 50
126.2542089195
 51
128.0117264711
  0
ARC
  5
8A0
100
AcDbEntity
  8
0
100
AcDbCircle
 62
7
  6
CONTINUOUS
 10
12.1993050879
 20
8.9055374599
 40
0.0722929656
100
AcDbArc
 50
126.2542089196
 51
128.0117264711
  0
ARC
  5
8A1
100
AcDbEntity
  8
0
100
AcDbCircle
 62
7
  6
CONTINUOUS
 10
15.703616137
 20
7.2635289916
 40
0.2018252891
100
AcDbArc
 50
90.0009687723
 51
92.5447740213
  0
ARC
  5
8A2
100
AcDbEntity
  8
0
100
AcDbCircle
 62
7
  6
CONTINUOUS
 10
15.8649696232
 20
6.3341536346
 40
0.1876158756
100
AcDbArc
 50
322.3964846141
 51
333.939636362
  0
ARC
  5
8A3
100
AcDbEntity
  8
0
100
AcDbCircle
 62
7
  6
CONTINUOUS
 10
15.868993801
 20
6.3322885003
 40
0.1831814657
100
AcDbArc
 50
333.9107404383
 51
339.2023983657
  0
ARC
  5
8A4
100
AcDbEntity
  8
0
100
AcDbCircle
 62
7
  6
CONTINUOUS
 10
15.8705977792
 20
6.3299724057
 40
0.1806056377
100
AcDbArc
 50
320.7858993672
 51
322.3578832125
  0
ARC
  5
8A5
100
AcDbEntity
  8
0
100
AcDbCircle
 62
7
  6
CONTINUOUS
 10
15.8728750861
 20
6.3281118129
 40
0.1776649016
100
AcDbArc
 50
319.0564705946
 51
320.7864823389
  0
ARC
  5
8A6
100
AcDbEntity
  8
0
100
AcDbCircle
 62
7
  6
CONTINUOUS
 10
15.8742321952
 20
6.330236031
 40
0.1775556463
100
AcDbArc
 50
339.221355313
 51
340.6308304702
  0
ARC
  5
8A7
100
AcDbEntity
  8
0
100
AcDbCircle
 62
7
  6
CONTINUOUS
 10
15.7036818426
 20
7.5059153561
 40
0.1628415524
100
AcDbArc
 50
269.9472686602
 51
272.3158849306
  0
ARC
  5
8A8
100
AcDbEntity
  8
0
100
AcDbCircle
 62
7
  6
CONTINUOUS
 10
15.3695873928
 20
7.0011067927
 40
0.1617349452
100
AcDbArc
 50
83.0090985312
 51
96.9909014688
  0
ARC
  5
8A9
100
AcDbEntity
  8
0
100
AcDbCircle
 62
7
  6
CONTINUOUS
 10
15.5366204907
 20
7.0976281419
 40
0.1617349452
100
AcDbArc
 50
83.0090985312
 51
96.9909014687
  0
ARC
  5
8AA
100
AcDbEntity
  8
0
100
AcDbCircle
 62
7
  6
CONTINUOUS
 10
15.7036535886
 20
7.1941494911
 40
0.1617349452
100
AcDbArc
 50
83.0090985312
 51
96.9909014687
  0
ARC
  5
8AB
100
AcDbEntity
  8
0
100
AcDbCircle
 62
7
  6
CONTINUOUS
 10
15.9071214941
 20
6.2818181448
 40
0.1195567337
100
AcDbArc
 50
288.9789469565
 51
293.5607479555
  0
ARC
  5
8AC
100
AcDbEntity
  8
0
100
AcDbCircle
 62
7
  6
CONTINUOUS
 10
15.6758835968
 20
7.3038143879
 40
0.0785823187
100
AcDbArc
 50
122.0441163421
 51
126.2204791434
  0
ARC
  5
8AD
100
AcDbEntity
  8
0
100
AcDbCircle
 62
7
  6
CONTINUOUS
 10
15.5088504989
 20
7.2072930388
 40
0.0785823187
100
AcDbArc
 50
122.0441163421
 51
126.2204791434
  0
ARC
  5
8AE
100
AcDbEntity
  8
0
100
AcDbCircle
 62
7
  6
CONTINUOUS
 10
15.341817401
 20
7.1107716896
 40
0.0785823187
100
AcDbArc
 50
122.0441163421
 51
126.2204791433
  0
ARC
  5
8AF
100
AcDbEntity
  8
0
100
AcDbCircle
 62
7
  6
CONTINUOUS
 10
15.6722015821
 20
7.3089134759
 40
0.0722929656
100
AcDbArc
 50
126.2542089196
 51
128.011726471
  0
ARC
  5
8B0
100
AcDbEntity
  8
0
100
AcDbCircle
 62
7
  6
CONTINUOUS
 10
15.5051684842
 20
7.2123921267
 40
0.0722929656
100
AcDbArc
 50
126.2542089198
 51
128.0117264708
  0
ARC
  5
8B1
100
AcDbEntity
  8
0
100
AcDbCircle
 62
7
  6
CONTINUOUS
 10
15.3381353863
 20
7.1158707776
 40
0.0722929656
100
AcDbArc
 50
126.2542089198
 51
128.0117264708
  0
SPLINE
  5
8B2
100
AcDbEntity
  8
0
100
AcDbSpline
 62
7
  6
CONTINUOUS
 70
0
 71
3
 72
9
 73
5
 74
0
 42
0.0000001
 43
0.0000001
 44
0.0000000001
 40
0.0
 40
0.0
 40
0.0
 40
0.0
 40
0.4898140293
 40
1.0
 40
1.0
 40
1.0
 40
1.0
 10
9.4892235646
 20
4.7170101817
 30
0.0
 10
9.4905070752
 20
4.7103006395
 30
0.0
 10
9.4915960975
 20
4.6963058487
 30
0.0
 10
9.4904533834
 20
4.6823366541
 30
0.0
 10
9.4892235646
 20
4.6753284191
 30
0.0
  0
SPLINE
  5
8B3
100
AcDbEntity
  8
0
100
AcDbSpline
 62
7
  6
CONTINUOUS
 70
0
 71
3
 72
9
 73
5
 74
0
 42
0.0000001
 43
0.0000001
 44
0.0000000001
 40
0.0
 40
0.0
 40
0.0
 40
0.0
 40
0.5209815559
 40
1.0
 40
1.0
 40
1.0
 40
1.0
 10
9.4892235646
 20
4.6753284191
 30
0.0
 10
9.4916330003
 20
4.671257037
 30
0.0
 10
9.4954144847
 20
4.6628844646
 30
0.0
 10
9.4968083186
 20
4.65376815
 30
0.0
 10
9.4968083373
 20
4.6494182948
 30
0.0
  0
SPLINE
  5
8B4
100
AcDbEntity
  8
0
100
AcDbSpline
 62
7
  6
CONTINUOUS
 70
0
 71
3
 72
9
 73
5
 74
0
 42
0.0000001
 43
0.0000001
 44
0.0000000001
 40
0.0
 40
0.0
 40
0.0
 40
0.0
 40
0.5101851392
 40
1.0
 40
1.0
 40
1.0
 40
1.0
 10
9.4892235646
 20
4.5813914295
 30
0.0
 10
9.4904533812
 20
4.5743832068
 30
0.0
 10
9.4915960396
 20
4.5604140121
 30
0.0
 10
9.4905070772
 20
4.5464192197
 30
0.0
 10
9.4892235646
 20
4.539709667
 30
0.0
  0
SPLINE
  5
8B5
100
AcDbEntity
  8
0
100
AcDbSpline
 62
7
  6
CONTINUOUS
 70
0
 71
3
 72
9
 73
5
 74
0
 42
0.0000001
 43
0.0000001
 44
0.0000000001
 40
0.0
 40
0.0
 40
0.0
 40
0.0
 40
0.4790210303
 40
1.0
 40
1.0
 40
1.0
 40
1.0
 10
9.4968083373
 20
4.6073015539
 30
0.0
 10
9.4968083186
 20
4.6029516752
 30
0.0
 10
9.4954144756
 20
4.5938353604
 30
0.0
 10
9.4916329884
 20
4.5854627914
 30
0.0
 10
9.4892235646
 20
4.5813914295
 30
0.0
  0
SPLINE
  5
8B6
100
AcDbEntity
  8
0
100
AcDbSpline
 62
7
  6
CONTINUOUS
 70
0
 71
3
 72
9
 73
5
 74
0
 42
0.0000001
 43
0.0000001
 44
0.0000000001
 40
0.0
 40
0.0
 40
0.0
 40
0.0
 40
0.499975643
 40
1.0
 40
1.0
 40
1.0
 40
1.0
 10
9.4892235646
 20
4.539709667
 30
0.0
 10
9.4913774814
 20
4.5425370749
 30
0.0
 10
9.494895786
 20
4.5488505659
 30
0.0
 10
9.4964001553
 20
4.5559086539
 30
0.0
 10
9.4966794052
 20
4.5594523912
 30
0.0
  0
SPLINE
  5
8B7
100
AcDbEntity
  8
0
100
AcDbSpline
 62
7
  6
CONTINUOUS
 70
0
 71
3
 72
8
 73
4
 74
0
 42
0.0000001
 43
0.0000001
 44
0.0000000001
 40
0.0
 40
0.0
 40
0.0
 40
0.0
 40
1.0
 40
1.0
 40
1.0
 40
1.0
 10
9.4968083373
 20
4.6939604543
 30
0.0
 10
9.4968083249
 20
4.6967891376
 30
0.0
 10
9.49652762
 20
4.6996353858
 30
0.0
 10
9.4959363622
 20
4.702401586
 30
0.0
  0
SPLINE
  5
8B8
100
AcDbEntity
  8
0
100
AcDbSpline
 62
7
  6
CONTINUOUS
 70
0
 71
3
 72
9
 73
5
 74
0
 42
0.0000001
 43
0.0000001
 44
0.0000000001
 40
0.0
 40
0.0
 40
0.0
 40
0.0
 40
0.5101854476
 40
1.0
 40
1.0
 40
1.0
 40
1.0
 10
9.4892235646
 20
8.8491743306
 30
0.0
 10
9.4904533181
 20
8.8421660916
 30
0.0
 10
9.4915960904
 20
8.8281969212
 30
0.0
 10
9.4905071489
 20
8.8142021035
 30
0.0
 10
9.4892235646
 20
8.8074925681
 30
0.0
  0
SPLINE
  5
8B9
100
AcDbEntity
  8
0
100
AcDbSpline
 62
7
  6
CONTINUOUS
 70
0
 71
3
 72
9
 73
5
 74
0
 42
0.0000001
 43
0.0000001
 44
0.0000000001
 40
0.0
 40
0.0
 40
0.0
 40
0.0
 40
0.4790203729
 40
1.0
 40
1.0
 40
1.0
 40
1.0
 10
9.4968083373
 20
8.8750844549
 30
0.0
 10
9.4968083183
 20
8.8707345814
 30
0.0
 10
9.4954145326
 20
8.8616182462
 30
0.0
 10
9.4916329498
 20
8.8532457232
 30
0.0
 10
9.4892235646
 20
8.8491743306
 30
0.0
  0
SPLINE
  5
8BA
100
AcDbEntity
  8
0
100
AcDbSpline
 62
7
  6
CONTINUOUS
 70
0
 71
3
 72
9
 73
5
 74
0
 42
0.0000001
 43
0.0000001
 44
0.0000000001
 40
0.0
 40
0.0
 40
0.0
 40
0.0
 40
0.520981709
 40
1.0
 40
1.0
 40
1.0
 40
1.0
 10
9.4892235646
 20
8.9431113202
 30
0.0
 10
9.4916329591
 20
8.9390399119
 30
0.0
 10
9.4954145116
 20
8.9306673777
 30
0.0
 10
9.4968083183
 20
8.9215510499
 30
0.0
 10
9.4968083373
 20
8.9172011959
 30
0.0
  0
SPLINE
  5
8BB
100
AcDbEntity
  8
0
100
AcDbSpline
 62
7
  6
CONTINUOUS
 70
0
 71
3
 72
9
 73
5
 74
0
 42
0.0000001
 43
0.0000001
 44
0.0000000001
 40
0.0
 40
0.0
 40
0.0
 40
0.0
 40
0.4898140406
 40
1.0
 40
1.0
 40
1.0
 40
1.0
 10
9.4892235646
 20
8.9847930827
 30
0.0
 10
9.4905071474
 20
8.9780835551
 30
0.0
 10
9.4915960328
 20
8.9640887368
 30
0.0
 10
9.4904533192
 20
8.9501195654
 30
0.0
 10
9.4892235646
 20
8.9431113202
 30
0.0
  0
SPLINE
  5
8BC
100
AcDbEntity
  8
0
100
AcDbSpline
 62
7
  6
CONTINUOUS
 70
0
 71
3
 72
9
 73
5
 74
0
 42
0.0000001
 43
0.0000001
 44
0.0000000001
 40
0.0
 40
0.0
 40
0.0
 40
0.0
 40
0.501893795
 40
1.0
 40
1.0
 40
1.0
 40
1.0
 10
9.4968083373
 20
8.9617433553
 30
0.0
 10
9.4968083196
 20
8.9658591146
 30
0.0
 10
9.4956159361
 20
8.9741314504
 30
0.0
 10
9.4916988992
 20
8.9815438541
 30
0.0
 10
9.4892235646
 20
8.9847930827
 30
0.0
  0
SPLINE
  5
8BD
100
AcDbEntity
  8
0
100
AcDbSpline
 62
7
  6
CONTINUOUS
 70
0
 71
3
 72
9
 73
5
 74
0
 42
0.0000001
 43
0.0000001
 44
0.0000000001
 40
0.0
 40
0.0
 40
0.0
 40
0.0
 40
0.4981087616
 40
1.0
 40
1.0
 40
1.0
 40
1.0
 10
9.4892235646
 20
8.8074925681
 30
0.0
 10
9.4916989119
 20
8.8107418134
 30
0.0
 10
9.4956159444
 20
8.8181542222
 30
0.0
 10
9.4968083196
 20
8.8264265571
 30
0.0
 10
9.4968083373
 20
8.8305422955
 30
0.0
  0
LINE
  5
8BE
100
AcDbEntity
  8
0
100
AcDbLine
 62
7
  6
CONTINUOUS
 10
2.3399171738
 20
6.0787866305
 11
2.3369758465
 21
6.0786921375
  0
SPLINE
  5
8BF
100
AcDbEntity
  8
0
100
AcDbSpline
 62
7
  6
CONTINUOUS
 70
0
 71
3
 72
11
 73
7
 74
0
 42
0.0000001
 43
0.0000001
 44
0.0000000001
 40
0.0
 40
0.0
 40
0.0
 40
0.0
 40
0.1475830336
 40
0.3798592376
 40
0.6737139793
 40
1.0
 40
1.0
 40
1.0
 40
1.0
 10
2.3369758465
 20
6.0786921375
 30
0.0
 10
2.3138843164
 20
6.0779352368
 30
0.0
 10
2.2544651726
 20
6.0755495334
 30
0.0
 10
2.1490542349
 20
6.0720142739
 30
0.0
 10
2.0156399738
 20
6.0689919259
 30
0.0
 10
1.9185558805
 20
6.0682295847
 30
0.0
 10
1.867476229
 20
6.0682295847
 30
0.0
  0
SPLINE
  5
8C0
100
AcDbEntity
  8
0
100
AcDbSpline
 62
7
  6
CONTINUOUS
 70
0
 71
3
 72
13
 73
9
 74
0
 42
0.0000001
 43
0.0000001
 44
0.0000000001
 40
0.0
 40
0.0
 40
0.0
 40
0.0
 40
0.1060492424
 40
0.1935351994
 40
0.3068061175
 40
0.4456257691
 40
0.6088094422
 40
1.0
 40
1.0
 40
1.0
 40
1.0
 10
1.6903108747
 20
5.9598274783
 30
0.0
 10
1.6903108776
 20
5.9568101999
 30
0.0
 10
1.6854599419
 20
5.9522702344
 30
0.0
 10
1.6779678505
 20
5.9484490823
 30
0.0
 10
1.6688218494
 20
5.9449554868
 30
0.0
 10
1.6574877397
 20
5.9417282221
 30
0.0
 10
1.6382220617
 20
5.9373940653
 30
0.0
 10
1.6226147507
 20
5.9350213618
 30
0.0
 10
1.6115707171
 20
5.933640491
 30
0.0
  0
SPLINE
  5
8C1
100
AcDbEntity
  8
0
100
AcDbSpline
 62
7
  6
CONTINUOUS
 70
0
 71
3
 72
13
 73
9
 74
0
 42
0.0000001
 43
0.0000001
 44
0.0000000001
 40
0.0
 40
0.0
 40
0.0
 40
0.0
 40
0.343008977
 40
0.6459881887
 40
0.7712171934
 40
0.8738552317
 40
0.9508623744
 40
1.0
 40
1.0
 40
1.0
 40
1.0
 10
1.867476229
 20
6.0692001113
 30
0.0
 10
1.920438838
 20
6.0692001113
 30
0.0
 10
2.0201851733
 20
6.0700098378
 30
0.0
 10
2.1392373492
 20
6.0727599834
 30
0.0
 10
2.2211621361
 20
6.0753561126
 30
0.0
 10
2.2682073616
 20
6.077019202
 30
0.0
 10
2.303509754
 20
6.0782805417
 30
0.0
 10
2.3229773543
 20
6.0789276049
 30
0.0
 10
2.330563002
 20
6.0790780408
 30
0.0
  0
LINE
  5
8C2
100
AcDbEntity
  8
0
100
AcDbLine
 62
7
  6
CONTINUOUS
 10
15.4531039417
 20
6.9441757887
 11
15.4391845169
 21
6.9569629823
  0
LINE
  5
8C3
100
AcDbEntity
  8
0
100
AcDbLine
 62
7
  6
CONTINUOUS
 10
12.2106174473
 20
8.8752354556
 11
12.2080401183
 21
8.8759688029
  0
LINE
  5
8C4
100
AcDbEntity
  8
0
100
AcDbLine
 62
7
  6
CONTINUOUS
 10
12.1788415572
 20
8.8841799935
 11
12.1630906992
 21
8.888535337
  0
LINE
  5
8C5
100
AcDbEntity
  8
0
100
AcDbLine
 62
7
  6
CONTINUOUS
 10
12.1630906992
 20
8.888535337
 11
12.1515943554
 21
8.8916813789
  0
LINE
  5
8C6
100
AcDbEntity
  8
0
100
AcDbLine
 62
7
  6
CONTINUOUS
 10
11.9960749323
 20
8.9314918621
 11
11.9941268723
 21
8.9319578148
  0
LINE
  5
8C7
100
AcDbEntity
  8
0
100
AcDbLine
 62
7
  6
CONTINUOUS
 10
11.9838573713
 20
8.9260239692
 11
11.9802074475
 21
8.9268851693
  0
SPLINE
  5
8C8
100
AcDbEntity
  8
0
100
AcDbSpline
 62
7
  6
CONTINUOUS
 70
0
 71
3
 72
11
 73
7
 74
0
 42
0.0000001
 43
0.0000001
 44
0.0000000001
 40
0.0
 40
0.0
 40
0.0
 40
0.0
 40
0.2997813619
 40
0.5634906089
 40
0.7931952319
 40
1.0
 40
1.0
 40
1.0
 40
1.0
 10
13.7096959822
 20
8.8754762355
 30
0.0
 10
13.7129172256
 20
8.8773376555
 30
0.0
 10
13.7187375527
 20
8.8812819501
 30
0.0
 10
13.7257510073
 20
8.8882977681
 30
0.0
 10
13.7302254171
 20
8.895884179
 30
0.0
 10
13.7313128536
 20
8.9013341526
 30
0.0
 10
13.7313133146
 20
8.9039006702
 30
0.0
  0
SPLINE
  5
8C9
100
AcDbEntity
  8
0
100
AcDbSpline
 62
7
  6
CONTINUOUS
 70
0
 71
3
 72
9
 73
5
 74
0
 42
0.0000001
 43
0.0000001
 44
0.0000000001
 40
0.0
 40
0.0
 40
0.0
 40
0.0
 40
0.5165534796
 40
1.0
 40
1.0
 40
1.0
 40
1.0
 10
14.1725168577
 20
8.8411700233
 30
0.0
 10
13.9424870737
 20
8.9606994983
 30
0.0
 10
13.4848097992
 20
9.1693644805
 30
0.0
 10
13.0048005042
 20
9.3213451879
 30
0.0
 10
12.7688536158
 20
9.3778431003
 30
0.0
  0
LINE
  5
8CA
100
AcDbEntity
  8
0
100
AcDbLine
 62
7
  6
CONTINUOUS
 10
12.7688536158
 20
9.3778431003
 11
12.7666549502
 21
9.3783690547
  0
LINE
  5
8CB
100
AcDbEntity
  8
0
100
AcDbLine
 62
7
  6
CONTINUOUS
 10
14.1648552586
 20
8.8371019897
 11
14.1693974917
 21
8.8347467097
  0
LINE
  5
8CC
100
AcDbEntity
  8
0
100
AcDbLine
 62
7
  6
CONTINUOUS
 10
14.1693974917
 20
8.8347467097
 11
14.1725168577
 21
8.8331269442
  0
SPLINE
  5
8CD
100
AcDbEntity
  8
0
100
AcDbSpline
 62
7
  6
CONTINUOUS
 70
0
 71
3
 72
11
 73
7
 74
0
 42
0.0000001
 43
0.0000001
 44
0.0000000001
 40
0.0
 40
0.0
 40
0.0
 40
0.0
 40
0.2737566146
 40
0.5288121374
 40
0.7689184121
 40
1.0
 40
1.0
 40
1.0
 40
1.0
 10
13.5600621653
 20
8.2063103642
 30
0.0
 10
13.5510873432
 20
8.2156335135
 30
0.0
 10
13.5348930587
 20
8.2348105504
 30
0.0
 10
13.5159948272
 20
8.2660600362
 30
0.0
 10
13.5037614444
 20
8.2983554406
 30
0.0
 10
13.5002096835
 20
8.3205381432
 30
0.0
 10
13.4996453647
 20
8.3314471961
 30
0.0
  0
SPLINE
  5
8CE
100
AcDbEntity
  8
0
100
AcDbSpline
 62
7
  6
CONTINUOUS
 70
0
 71
3
 72
11
 73
7
 74
0
 42
0.0000001
 43
0.0000001
 44
0.0000000001
 40
0.0
 40
0.0
 40
0.0
 40
0.0
 40
0.2895788086
 40
0.5490236357
 40
0.7821692774
 40
1.0
 40
1.0
 40
1.0
 40
1.0
 10
12.3135776721
 20
9.0421560413
 30
0.0
 10
12.3187186991
 20
9.0391852597
 30
0.0
 10
12.3280467274
 20
9.032751516
 30
0.0
 10
12.3391949455
 20
9.0210245903
 30
0.0
 10
12.3462453151
 20
9.0080485518
 30
0.0
 10
12.3478821754
 20
8.9987378878
 30
0.0
 10
12.3478809854
 20
8.994271391
 30
0.0
  0
SPLINE
  5
8CF
100
AcDbEntity
  8
0
100
AcDbSpline
 62
7
  6
CONTINUOUS
 70
0
 71
3
 72
15
 73
11
 74
0
 42
0.0000001
 43
0.0000001
 44
0.0000000001
 40
0.0
 40
0.0
 40
0.0
 40
0.0
 40
0.1288107934
 40
0.2705209757
 40
0.4177943892
 40
0.5622633255
 40
0.696072018
 40
0.8134834915
 40
0.9130046062
 40
1.0
 40
1.0
 40
1.0
 40
1.0
 10
12.1639438552
 20
8.9556889994
 30
0.0
 10
12.1709360732
 20
8.9516484929
 30
0.0
 10
12.1867682058
 20
8.9451097002
 30
0.0
 10
12.2125724291
 20
8.9399403508
 30
0.0
 10
12.2398678935
 20
8.9391825131
 30
0.0
 10
12.2664180112
 20
8.9429116548
 30
0.0
 10
12.2901049216
 20
8.9508278276
 30
0.0
 10
12.3090820624
 20
8.9623943755
 30
0.0
 10
12.3219404617
 20
8.9770189479
 30
0.0
 10
12.3252408663
 20
8.9888167716
 30
0.0
 10
12.3252433021
 20
8.9942708794
 30
0.0
  0
SPLINE
  5
8D0
100
AcDbEntity
  8
0
100
AcDbSpline
 62
7
  6
CONTINUOUS
 70
0
 71
3
 72
9
 73
5
 74
0
 42
0.0000001
 43
0.0000001
 44
0.0000000001
 40
0.0
 40
0.0
 40
0.0
 40
0.0
 40
0.2519410007
 40
1.0
 40
1.0
 40
1.0
 40
1.0
 10
16.0509397229
 20
6.3227838691
 30
0.0
 10
16.0509397031
 20
6.3253301488
 30
0.0
 10
16.0506544148
 20
6.3354333625
 30
0.0
 10
16.0491564525
 20
6.345513604
 30
0.0
 10
16.047289691
 20
6.3528398865
 30
0.0
  0
SPLINE
  5
8D1
100
AcDbEntity
  8
0
100
AcDbSpline
 62
7
  6
CONTINUOUS
 70
0
 71
3
 72
9
 73
5
 74
0
 42
0.0000001
 43
0.0000001
 44
0.0000000001
 40
0.0
 40
0.0
 40
0.0
 40
0.0
 40
0.4989277258
 40
1.0
 40
1.0
 40
1.0
 40
1.0
 10
16.047289691
 20
6.3528398865
 30
0.0
 10
16.0441091679
 20
6.3653221514
 30
0.0
 10
16.0332439122
 20
6.3895057483
 30
0.0
 10
16.0134679748
 20
6.4074662619
 30
0.0
 10
16.0022671297
 20
6.4139387557
 30
0.0
  0
SPLINE
  5
8D2
100
AcDbEntity
  8
0
100
AcDbSpline
 62
7
  6
CONTINUOUS
 70
0
 71
3
 72
11
 73
7
 74
0
 42
0.0000001
 43
0.0000001
 44
0.0000000001
 40
0.0
 40
0.0
 40
0.0
 40
0.0
 40
0.251224187
 40
0.5012225596
 40
0.7508868049
 40
1.0
 40
1.0
 40
1.0
 40
1.0
 10
15.8643810668
 20
6.1753227764
 30
0.0
 10
15.8704941317
 20
6.1717902953
 30
0.0
 10
15.8835562189
 20
6.1661292964
 30
0.0
 10
15.904488975
 20
6.1623499062
 30
0.0
 10
15.9256703649
 20
6.1631206945
 30
0.0
 10
15.9393825689
 20
6.1664863542
 30
0.0
 10
15.9460038195
 20
6.1687607375
 30
0.0
  0
SPLINE
  5
8D3
100
AcDbEntity
  8
0
100
AcDbSpline
 62
7
  6
CONTINUOUS
 70
0
 71
3
 72
9
 73
5
 74
0
 42
0.0000001
 43
0.0000001
 44
0.0000000001
 40
0.0
 40
0.0
 40
0.0
 40
0.0
 40
0.2486602929
 40
1.0
 40
1.0
 40
1.0
 40
1.0
 10
15.9549108503
 20
6.1722280449
 30
0.0
 10
15.9569860172
 20
6.1731321239
 30
0.0
 10
15.9652302115
 20
6.1769980661
 30
0.0
 10
15.9730521043
 20
6.1817478232
 30
0.0
 10
15.978632144
 20
6.1857027117
 30
0.0
  0
SPLINE
  5
8D4
100
AcDbEntity
  8
0
100
AcDbSpline
 62
7
  6
CONTINUOUS
 70
0
 71
3
 72
9
 73
5
 74
0
 42
0.0000001
 43
0.0000001
 44
0.0000000001
 40
0.0
 40
0.0
 40
0.0
 40
0.0
 40
0.2470859653
 40
1.0
 40
1.0
 40
1.0
 40
1.0
 10
15.978632144
 20
6.1857027117
 30
0.0
 10
15.9812243647
 20
6.1875399645
 30
0.0
 10
15.9914697442
 20
6.1953194289
 30
0.0
 10
16.0007303867
 20
6.2043725079
 30
0.0
 10
16.0070753042
 20
6.2116853609
 30
0.0
  0
SPLINE
  5
8D5
100
AcDbEntity
  8
0
100
AcDbSpline
 62
7
  6
CONTINUOUS
 70
0
 71
3
 72
9
 73
5
 74
0
 42
0.0000001
 43
0.0000001
 44
0.0000000001
 40
0.0
 40
0.0
 40
0.0
 40
0.0
 40
0.2548360332
 40
1.0
 40
1.0
 40
1.0
 40
1.0
 10
16.0417384147
 20
6.2713490719
 30
0.0
 10
16.0432140534
 20
6.2755469918
 30
0.0
 10
16.0483782538
 20
6.2922258748
 30
0.0
 10
16.0509396215
 20
6.3097703826
 30
0.0
 10
16.0509397229
 20
6.3227817834
 30
0.0
  0
SPLINE
  5
8D6
100
AcDbEntity
  8
0
100
AcDbSpline
 62
7
  6
CONTINUOUS
 70
0
 71
3
 72
11
 73
7
 74
0
 42
0.0000001
 43
0.0000001
 44
0.0000000001
 40
0.0
 40
0.0
 40
0.0
 40
0.0
 40
0.2895788086
 40
0.5490236357
 40
0.7821692774
 40
1.0
 40
1.0
 40
1.0
 40
1.0
 10
12.48061077
 20
9.1386773905
 30
0.0
 10
12.485751797
 20
9.1357066088
 30
0.0
 10
12.4950798253
 20
9.1292728652
 30
0.0
 10
12.5062280434
 20
9.1175459395
 30
0.0
 10
12.513278413
 20
9.1045699009
 30
0.0
 10
12.5149152734
 20
9.0952592369
 30
0.0
 10
12.5149140833
 20
9.0907927402
 30
0.0
  0
SPLINE
  5
8D7
100
AcDbEntity
  8
0
100
AcDbSpline
 62
7
  6
CONTINUOUS
 70
0
 71
3
 72
15
 73
11
 74
0
 42
0.0000001
 43
0.0000001
 44
0.0000000001
 40
0.0
 40
0.0
 40
0.0
 40
0.0
 40
0.1288107934
 40
0.2705209757
 40
0.4177943892
 40
0.5622633255
 40
0.696072018
 40
0.8134834915
 40
0.9130046062
 40
1.0
 40
1.0
 40
1.0
 40
1.0
 10
12.3309769531
 20
9.0522103485
 30
0.0
 10
12.3379691711
 20
9.048169842
 30
0.0
 10
12.3538013038
 20
9.0416310493
 30
0.0
 10
12.379605527
 20
9.0364616999
 30
0.0
 10
12.4069009914
 20
9.0357038623
 30
0.0
 10
12.4334511091
 20
9.0394330039
 30
0.0
 10
12.4571380196
 20
9.0473491768
 30
0.0
 10
12.4761151603
 20
9.0589157247
 30
0.0
 10
12.4889735597
 20
9.073540297
 30
0.0
 10
12.4922739642
 20
9.0853381208
 30
0.0
 10
12.4922764001
 20
9.0907922286
 30
0.0
  0
SPLINE
  5
8D8
100
AcDbEntity
  8
0
100
AcDbSpline
 62
7
  6
CONTINUOUS
 70
0
 71
3
 72
11
 73
7
 74
0
 42
0.0000001
 43
0.0000001
 44
0.0000000001
 40
0.0
 40
0.0
 40
0.0
 40
0.0
 40
0.2178326871
 40
0.45098157
 40
0.710429148
 40
1.0
 40
1.0
 40
1.0
 40
1.0
 10
15.6091673808
 20
7.3977002146
 30
0.0
 10
15.6091657714
 20
7.394096564
 30
0.0
 10
15.6104848645
 20
7.386584191
 30
0.0
 10
15.6161726673
 20
7.3761144004
 30
0.0
 10
15.6251667771
 20
7.3666526668
 30
0.0
 10
15.6326926266
 20
7.3614618086
 30
0.0
 10
15.6368403494
 20
7.3590650154
 30
0.0
  0
SPLINE
  5
8D9
100
AcDbEntity
  8
0
100
AcDbSpline
 62
7
  6
CONTINUOUS
 70
0
 71
3
 72
11
 73
7
 74
0
 42
0.0000001
 43
0.0000001
 44
0.0000000001
 40
0.0
 40
0.0
 40
0.0
 40
0.0
 40
0.2895788086
 40
0.5490236357
 40
0.7821692774
 40
1.0
 40
1.0
 40
1.0
 40
1.0
 10
12.6476438679
 20
9.2351987396
 30
0.0
 10
12.6527848949
 20
9.232227958
 30
0.0
 10
12.6621129233
 20
9.2257942143
 30
0.0
 10
12.6732611414
 20
9.2140672887
 30
0.0
 10
12.6803115109
 20
9.2010912501
 30
0.0
 10
12.6819483713
 20
9.1917805861
 30
0.0
 10
12.6819471812
 20
9.1873140893
 30
0.0
  0
SPLINE
  5
8DA
100
AcDbEntity
  8
0
100
AcDbSpline
 62
7
  6
CONTINUOUS
 70
0
 71
3
 72
15
 73
11
 74
0
 42
0.0000001
 43
0.0000001
 44
0.0000000001
 40
0.0
 40
0.0
 40
0.0
 40
0.0
 40
0.1288107934
 40
0.2705209757
 40
0.4177943892
 40
0.5622633255
 40
0.696072018
 40
0.8134834915
 40
0.9130046062
 40
1.0
 40
1.0
 40
1.0
 40
1.0
 10
12.498010051
 20
9.1487316977
 30
0.0
 10
12.505002269
 20
9.1446911912
 30
0.0
 10
12.5208344017
 20
9.1381523985
 30
0.0
 10
12.5466386249
 20
9.1329830491
 30
0.0
 10
12.5739340893
 20
9.1322252114
 30
0.0
 10
12.6004842071
 20
9.1359543531
 30
0.0
 10
12.6241711175
 20
9.1438705259
 30
0.0
 10
12.6431482582
 20
9.1554370738
 30
0.0
 10
12.6560066576
 20
9.1700616462
 30
0.0
 10
12.6593070621
 20
9.1818594699
 30
0.0
 10
12.659309498
 20
9.1873135777
 30
0.0
  0
SPLINE
  5
8DB
100
AcDbEntity
  8
0
100
AcDbSpline
 62
7
  6
CONTINUOUS
 70
0
 71
3
 72
13
 73
9
 74
0
 42
0.0000001
 43
0.0000001
 44
0.0000000001
 40
0.0
 40
0.0
 40
0.0
 40
0.0
 40
0.0919843447
 40
0.1898910833
 40
0.2979715251
 40
0.4181898914
 40
0.6929370806
 40
1.0
 40
1.0
 40
1.0
 40
1.0
 10
15.5865296976
 20
7.3976997031
 30
0.0
 10
15.5865308278
 20
7.4019418268
 30
0.0
 10
15.5880161292
 20
7.4107529826
 30
0.0
 10
15.5943821984
 20
7.4231264023
 30
0.0
 10
15.6045032963
 20
7.4344360279
 30
0.0
 10
15.6232676991
 20
7.4482890503
 30
0.0
 10
15.6537480832
 20
7.4605535579
 30
0.0
 10
15.6805079844
 20
7.4645256826
 30
0.0
 10
15.6946550772
 20
7.4651552467
 30
0.0
  0
SPLINE
  5
8DC
100
AcDbEntity
  8
0
100
AcDbSpline
 62
7
  6
CONTINUOUS
 70
0
 71
3
 72
9
 73
5
 74
0
 42
0.0000001
 43
0.0000001
 44
0.0000000001
 40
0.0
 40
0.0
 40
0.0
 40
0.0
 40
0.5254793168
 40
1.0
 40
1.0
 40
1.0
 40
1.0
 10
15.7036127245
 20
7.4653542807
 30
0.0
 10
15.7186572256
 20
7.4653553144
 30
0.0
 10
15.747365094
 20
7.4622489237
 30
0.0
 10
15.7747113176
 20
7.4523293092
 30
0.0
 10
15.7864741663
 20
7.4455320573
 30
0.0
  0
SPLINE
  5
8DD
100
AcDbEntity
  8
0
100
AcDbSpline
 62
7
  6
CONTINUOUS
 70
0
 71
3
 72
11
 73
7
 74
0
 42
0.0000001
 43
0.0000001
 44
0.0000000001
 40
0.0
 40
0.0
 40
0.0
 40
0.0
 40
0.2178326871
 40
0.45098157
 40
0.710429148
 40
1.0
 40
1.0
 40
1.0
 40
1.0
 10
15.4421342829
 20
7.3011788655
 30
0.0
 10
15.4421326735
 20
7.2975752148
 30
0.0
 10
15.4434517666
 20
7.2900628418
 30
0.0
 10
15.4491395694
 20
7.2795930513
 30
0.0
 10
15.4581336791
 20
7.2701313177
 30
0.0
 10
15.4656595287
 20
7.2649404595
 30
0.0
 10
15.4698072515
 20
7.2625436662
 30
0.0
  0
SPLINE
  5
8DE
100
AcDbEntity
  8
0
100
AcDbSpline
 62
7
  6
CONTINUOUS
 70
0
 71
3
 72
11
 73
7
 74
0
 42
0.0000001
 43
0.0000001
 44
0.0000000001
 40
0.0
 40
0.0
 40
0.0
 40
0.0
 40
0.2895788086
 40
0.5490236357
 40
0.7821692774
 40
1.0
 40
1.0
 40
1.0
 40
1.0
 10
12.8146769658
 20
9.3317200888
 30
0.0
 10
12.8198179928
 20
9.3287493071
 30
0.0
 10
12.8291460212
 20
9.3223155635
 30
0.0
 10
12.8402942393
 20
9.3105886378
 30
0.0
 10
12.8473446088
 20
9.2976125993
 30
0.0
 10
12.8489814692
 20
9.2883019352
 30
0.0
 10
12.8489802791
 20
9.2838354385
 30
0.0
  0
SPLINE
  5
8DF
100
AcDbEntity
  8
0
100
AcDbSpline
 62
7
  6
CONTINUOUS
 70
0
 71
3
 72
9
 73
5
 74
0
 42
0.0000001
 43
0.0000001
 44
0.0000000001
 40
0.0
 40
0.0
 40
0.0
 40
0.0
 40
0.2339019087
 40
1.0
 40
1.0
 40
1.0
 40
1.0
 10
12.665043149
 20
9.2452530468
 30
0.0
 10
12.6675838025
 20
9.2437849108
 30
0.0
 10
12.678757957
 20
9.238051575
 30
0.0
 10
12.690898838
 20
9.2343197948
 30
0.0
 10
12.7003145586
 20
9.232393077
 30
0.0
  0
SPLINE
  5
8E0
100
AcDbEntity
  8
0
100
AcDbSpline
 62
7
  6
CONTINUOUS
 70
0
 71
3
 72
13
 73
9
 74
0
 42
0.0000001
 43
0.0000001
 44
0.0000000001
 40
0.0
 40
0.0
 40
0.0
 40
0.0
 40
0.2962439825
 40
0.5798621813
 40
0.7051979651
 40
0.8156966358
 40
0.9122603092
 40
1.0
 40
1.0
 40
1.0
 40
1.0
 10
12.7003145586
 20
9.232393077
 30
0.0
 10
12.7148627257
 20
9.2294161182
 30
0.0
 10
12.7442777346
 20
9.2278077995
 30
0.0
 10
12.7794368176
 20
9.2351819243
 30
0.0
 10
12.8027984392
 20
9.2470231192
 30
0.0
 10
12.8158129707
 20
9.2576990586
 30
0.0
 10
12.8242857557
 20
9.2701213841
 30
0.0
 10
12.8263406317
 20
9.2794368574
 30
0.0
 10
12.8263425959
 20
9.2838349269
 30
0.0
  0
SPLINE
  5
8E1
100
AcDbEntity
  8
0
100
AcDbSpline
 62
7
  6
CONTINUOUS
 70
0
 71
3
 72
16
 73
12
 74
0
 42
0.0000001
 43
0.0000001
 44
0.0000000001
 40
0.0
 40
0.0
 40
0.0
 40
0.0
 40
0.0429051285
 40
0.0875809506
 40
0.1870314806
 40
0.3043607839
 40
0.4380769905
 40
0.5824538427
 40
0.729640519
 40
0.8712695593
 40
1.0
 40
1.0
 40
1.0
 40
1.0
 10
15.4194965997
 20
7.3011783539
 30
0.0
 10
15.4194974887
 20
7.3045149788
 30
0.0
 10
15.4203945154
 20
7.3113543375
 30
0.0
 10
15.4258120113
 20
7.3249887271
 30
0.0
 10
15.4395198753
 20
7.3407339049
 30
0.0
 10
15.4630464599
 20
7.3550194091
 30
0.0
 10
15.492406508
 20
7.3648514755
 30
0.0
 10
15.5253192186
 20
7.3694703354
 30
0.0
 10
15.5591568416
 20
7.3685335506
 30
0.0
 10
15.5911462075
 20
7.3621253052
 30
0.0
 10
15.6107731531
 20
7.3540195291
 30
0.0
 10
15.6194410684
 20
7.3490107082
 30
0.0
  0
SPLINE
  5
8E2
100
AcDbEntity
  8
0
100
AcDbSpline
 62
7
  6
CONTINUOUS
 70
0
 71
3
 72
11
 73
7
 74
0
 42
0.0000001
 43
0.0000001
 44
0.0000000001
 40
0.0
 40
0.0
 40
0.0
 40
0.0
 40
0.2178326871
 40
0.45098157
 40
0.710429148
 40
1.0
 40
1.0
 40
1.0
 40
1.0
 10
15.275101185
 20
7.2046575163
 30
0.0
 10
15.2750995756
 20
7.2010538657
 30
0.0
 10
15.2764186687
 20
7.1935414927
 30
0.0
 10
15.2821064714
 20
7.1830717021
 30
0.0
 10
15.2911005812
 20
7.1736099685
 30
0.0
 10
15.2986264308
 20
7.1684191103
 30
0.0
 10
15.3027741536
 20
7.1660223171
 30
0.0
  0
LINE
  5
8E3
100
AcDbEntity
  8
0
100
AcDbLine
 62
7
  6
CONTINUOUS
 10
16.2007413738
 20
7.4030299294
 11
16.1966307897
 21
7.4067946071
  0
SPLINE
  5
8E4
100
AcDbEntity
  8
0
100
AcDbSpline
 62
7
  6
CONTINUOUS
 70
0
 71
3
 72
11
 73
7
 74
0
 42
0.0000001
 43
0.0000001
 44
0.0000000001
 40
0.0
 40
0.0
 40
0.0
 40
0.0
 40
0.2632260987
 40
0.5181213856
 40
0.7639149087
 40
1.0
 40
1.0
 40
1.0
 40
1.0
 10
16.1966307897
 20
7.4067946071
 30
0.0
 10
16.0367180741
 20
7.5531799007
 30
0.0
 10
15.7137941931
 20
7.8325768822
 30
0.0
 10
15.2137230751
 20
8.2150513718
 30
0.0
 10
14.708585513
 20
8.5520728252
 30
0.0
 10
14.3635278257
 20
8.749006072
 30
0.0
 10
14.1910460921
 20
8.8387727891
 30
0.0
  0
LINE
  5
8E5
100
AcDbEntity
  8
0
100
AcDbLine
 62
7
  6
CONTINUOUS
 10
14.1910460921
 20
8.8387727891
 11
14.1876971631
 21
8.840514642
  0
LINE
  5
8E6
100
AcDbEntity
  8
0
100
AcDbLine
 62
7
  6
CONTINUOUS
 10
14.1876971631
 20
8.840514642
 11
14.1772186528
 21
8.845950923
  0
LINE
  5
8E7
100
AcDbEntity
  8
0
100
AcDbLine
 62
7
  6
CONTINUOUS
 10
14.1772186528
 20
8.845950923
 11
14.1738699658
 21
8.8476838121
  0
SPLINE
  5
8E8
100
AcDbEntity
  8
0
100
AcDbSpline
 62
7
  6
CONTINUOUS
 70
0
 71
3
 72
9
 73
5
 74
0
 42
0.0000001
 43
0.0000001
 44
0.0000000001
 40
0.0
 40
0.0
 40
0.0
 40
0.0
 40
0.5166010197
 40
1.0
 40
1.0
 40
1.0
 40
1.0
 10
14.1738699658
 20
8.8476838121
 30
0.0
 10
13.9436946891
 20
8.9667220708
 30
0.0
 10
13.4857725396
 20
9.1743068358
 30
0.0
 10
13.0055595433
 20
9.3249147721
 30
0.0
 10
12.7695723593
 20
9.3806517215
 30
0.0
  0
LINE
  5
8E9
100
AcDbEntity
  8
0
100
AcDbLine
 62
7
  6
CONTINUOUS
 10
12.7695723593
 20
9.3806517215
 11
12.7674189755
 21
9.3811598208
  0
LINE
  5
8EA
100
AcDbEntity
  8
0
100
AcDbLine
 62
7
  6
CONTINUOUS
 10
12.7674189755
 20
9.3811598208
 11
12.7666549502
 21
9.3813398549
  0
SPLINE
  5
8EB
100
AcDbEntity
  8
0
100
AcDbSpline
 62
7
  6
CONTINUOUS
 70
0
 71
3
 72
11
 73
7
 74
0
 42
0.0000001
 43
0.0000001
 44
0.0000000001
 40
0.0
 40
0.0
 40
0.0
 40
0.0
 40
0.2917112982
 40
0.5513451808
 40
0.7836773986
 40
1.0
 40
1.0
 40
1.0
 40
1.0
 10
13.6468575323
 20
8.5219252828
 30
0.0
 10
13.6276600743
 20
8.5101216616
 30
0.0
 10
13.5929305898
 20
8.485027759
 30
0.0
 10
13.5514758855
 20
8.4402237782
 30
0.0
 10
13.5252552593
 20
8.3913815658
 30
0.0
 10
13.5191272721
 20
8.3564954977
 30
0.0
 10
13.5191233677
 20
8.3397836679
 30
0.0
  0
SPLINE
  5
8EC
100
AcDbEntity
  8
0
100
AcDbSpline
 62
7
  6
CONTINUOUS
 70
0
 71
3
 72
11
 73
7
 74
0
 42
0.0000001
 43
0.0000001
 44
0.0000000001
 40
0.0
 40
0.0
 40
0.0
 40
0.0
 40
0.2631515123
 40
0.5180225721
 40
0.7638385514
 40
1.0
 40
1.0
 40
1.0
 40
1.0
 10
16.1908334575
 20
7.399681397
 30
0.0
 10
16.0313014141
 20
7.5459302576
 30
0.0
 10
15.7091359478
 20
7.8251380215
 30
0.0
 10
15.2102520898
 20
8.2075657702
 30
0.0
 10
14.7062611327
 20
8.5448357715
 30
0.0
 10
14.361975726
 20
8.7421244867
 30
0.0
 10
14.189862009
 20
8.8321283558
 30
0.0
  0
LINE
  5
8ED
100
AcDbEntity
  8
0
100
AcDbLine
 62
7
  6
CONTINUOUS
 10
14.189862009
 20
8.8321283558
 11
14.1864362825
 21
8.8339186608
  0
SPLINE
  5
8EE
100
AcDbEntity
  8
0
100
AcDbSpline
 62
7
  6
CONTINUOUS
 70
0
 71
3
 72
11
 73
7
 74
0
 42
0.0000001
 43
0.0000001
 44
0.0000000001
 40
0.0
 40
0.0
 40
0.0
 40
0.0
 40
0.2895788086
 40
0.5490236357
 40
0.7821692774
 40
1.0
 40
1.0
 40
1.0
 40
1.0
 10
15.4524079705
 20
7.252489359
 30
0.0
 10
15.4575489974
 20
7.2495185774
 30
0.0
 10
15.4668770258
 20
7.2430848338
 30
0.0
 10
15.4780252439
 20
7.2313579081
 30
0.0
 10
15.4850756135
 20
7.2183818695
 30
0.0
 10
15.4867124738
 20
7.2090712055
 30
0.0
 10
15.4867112838
 20
7.2046047087
 30
0.0
  0
SPLINE
  5
8EF
100
AcDbEntity
  8
0
100
AcDbSpline
 62
7
  6
CONTINUOUS
 70
0
 71
3
 72
15
 73
11
 74
0
 42
0.0000001
 43
0.0000001
 44
0.0000000001
 40
0.0
 40
0.0
 40
0.0
 40
0.0
 40
0.1288107934
 40
0.2705209757
 40
0.4177943892
 40
0.5622633255
 40
0.696072018
 40
0.8134834915
 40
0.9130046062
 40
1.0
 40
1.0
 40
1.0
 40
1.0
 10
15.3027741536
 20
7.1660223171
 30
0.0
 10
15.3097663716
 20
7.1619818106
 30
0.0
 10
15.3255985042
 20
7.1554430179
 30
0.0
 10
15.3514027275
 20
7.1502736685
 30
0.0
 10
15.3786981919
 20
7.1495158309
 30
0.0
 10
15.4052483096
 20
7.1532449725
 30
0.0
 10
15.42893522
 20
7.1611611453
 30
0.0
 10
15.4479123608
 20
7.1727276933
 30
0.0
 10
15.4607707601
 20
7.1873522656
 30
0.0
 10
15.4640711647
 20
7.1991500894
 30
0.0
 10
15.4640736005
 20
7.2046041972
 30
0.0
  0
SPLINE
  5
8F0
100
AcDbEntity
  8
0
100
AcDbSpline
 62
7
  6
CONTINUOUS
 70
0
 71
3
 72
16
 73
12
 74
0
 42
0.0000001
 43
0.0000001
 44
0.0000000001
 40
0.0
 40
0.0
 40
0.0
 40
0.0
 40
0.0429051285
 40
0.0875809506
 40
0.1870314806
 40
0.3043607839
 40
0.4380769905
 40
0.5824538427
 40
0.729640519
 40
0.8712695593
 40
1.0
 40
1.0
 40
1.0
 40
1.0
 10
15.2524635017
 20
7.2046570047
 30
0.0
 10
15.2524643907
 20
7.2079936297
 30
0.0
 10
15.2533614175
 20
7.2148329884
 30
0.0
 10
15.2587789134
 20
7.2284673779
 30
0.0
 10
15.2724867774
 20
7.2442125557
 30
0.0
 10
15.296013362
 20
7.25849806
 30
0.0
 10
15.3253734101
 20
7.2683301264
 30
0.0
 10
15.3582861207
 20
7.2729489863
 30
0.0
 10
15.3921237437
 20
7.2720122015
 30
0.0
 10
15.4241131096
 20
7.2656039561
 30
0.0
 10
15.4437400552
 20
7.25749818
 30
0.0
 10
15.4524079705
 20
7.252489359
 30
0.0
  0
SPLINE
  5
8F1
100
AcDbEntity
  8
0
100
AcDbSpline
 62
7
  6
CONTINUOUS
 70
0
 71
3
 72
11
 73
7
 74
0
 42
0.0000001
 43
0.0000001
 44
0.0000000001
 40
0.0
 40
0.0
 40
0.0
 40
0.0
 40
0.2178326871
 40
0.45098157
 40
0.710429148
 40
1.0
 40
1.0
 40
1.0
 40
1.0
 10
12.6373701804
 20
9.2838882461
 30
0.0
 10
12.637368571
 20
9.2802845954
 30
0.0
 10
12.6386876641
 20
9.2727722224
 30
0.0
 10
12.6443754668
 20
9.2623024319
 30
0.0
 10
12.6533695766
 20
9.2528406983
 30
0.0
 10
12.6608954262
 20
9.2476498401
 30
0.0
 10
12.665043149
 20
9.2452530468
 30
0.0
  0
SPLINE
  5
8F2
100
AcDbEntity
  8
0
100
AcDbSpline
 62
7
  6
CONTINUOUS
 70
0
 71
3
 72
11
 73
7
 74
0
 42
0.0000001
 43
0.0000001
 44
0.0000000001
 40
0.0
 40
0.0
 40
0.0
 40
0.0
 40
0.2895788086
 40
0.5490236357
 40
0.7821692774
 40
1.0
 40
1.0
 40
1.0
 40
1.0
 10
15.6194410684
 20
7.3490107082
 30
0.0
 10
15.6245820954
 20
7.3460399266
 30
0.0
 10
15.6339101237
 20
7.3396061829
 30
0.0
 10
15.6450583418
 20
7.3278792572
 30
0.0
 10
15.6521087114
 20
7.3149032187
 30
0.0
 10
15.6537455717
 20
7.3055925546
 30
0.0
 10
15.6537443817
 20
7.3011260579
 30
0.0
  0
SPLINE
  5
8F3
100
AcDbEntity
  8
0
100
AcDbSpline
 62
7
  6
CONTINUOUS
 70
0
 71
3
 72
15
 73
11
 74
0
 42
0.0000001
 43
0.0000001
 44
0.0000000001
 40
0.0
 40
0.0
 40
0.0
 40
0.0
 40
0.1288107934
 40
0.2705209757
 40
0.4177943892
 40
0.5622633255
 40
0.696072018
 40
0.8134834915
 40
0.9130046062
 40
1.0
 40
1.0
 40
1.0
 40
1.0
 10
15.4698072515
 20
7.2625436662
 30
0.0
 10
15.4767994695
 20
7.2585031598
 30
0.0
 10
15.4926316021
 20
7.2519643671
 30
0.0
 10
15.5184358254
 20
7.2467950177
 30
0.0
 10
15.5457312898
 20
7.24603718
 30
0.0
 10
15.5722814075
 20
7.2497663216
 30
0.0
 10
15.5959683179
 20
7.2576824945
 30
0.0
 10
15.6149454587
 20
7.2692490424
 30
0.0
 10
15.627803858
 20
7.2838736148
 30
0.0
 10
15.6311042626
 20
7.2956714385
 30
0.0
 10
15.6311066984
 20
7.3011255463
 30
0.0
  0
SPLINE
  5
8F4
100
AcDbEntity
  8
0
100
AcDbSpline
 62
7
  6
CONTINUOUS
 70
0
 71
3
 72
16
 73
12
 74
0
 42
0.0000001
 43
0.0000001
 44
0.0000000001
 40
0.0
 40
0.0
 40
0.0
 40
0.0
 40
0.0429051285
 40
0.0875809506
 40
0.1870314806
 40
0.3043607839
 40
0.4380769905
 40
0.5824538427
 40
0.729640519
 40
0.8712695593
 40
1.0
 40
1.0
 40
1.0
 40
1.0
 10
12.6147324971
 20
9.2838877345
 30
0.0
 10
12.6147333861
 20
9.2872243594
 30
0.0
 10
12.6156304128
 20
9.2940637181
 30
0.0
 10
12.6210479088
 20
9.3076981077
 30
0.0
 10
12.6347557727
 20
9.3234432855
 30
0.0
 10
12.6582823574
 20
9.3377287897
 30
0.0
 10
12.6876424055
 20
9.3475608561
 30
0.0
 10
12.720555116
 20
9.352179716
 30
0.0
 10
12.754392739
 20
9.3512429312
 30
0.0
 10
12.786382105
 20
9.3448346858
 30
0.0
 10
12.8060090506
 20
9.3367289097
 30
0.0
 10
12.8146769658
 20
9.3317200888
 30
0.0
  0
SPLINE
  5
8F5
100
AcDbEntity
  8
0
100
AcDbSpline
 62
7
  6
CONTINUOUS
 70
0
 71
3
 72
11
 73
7
 74
0
 42
0.0000001
 43
0.0000001
 44
0.0000000001
 40
0.0
 40
0.0
 40
0.0
 40
0.0
 40
0.2178326871
 40
0.45098157
 40
0.710429148
 40
1.0
 40
1.0
 40
1.0
 40
1.0
 10
12.4703370825
 20
9.1873668969
 30
0.0
 10
12.470335473
 20
9.1837632463
 30
0.0
 10
12.4716545662
 20
9.1762508733
 30
0.0
 10
12.4773423689
 20
9.1657810827
 30
0.0
 10
12.4863364787
 20
9.1563193491
 30
0.0
 10
12.4938623283
 20
9.1511284909
 30
0.0
 10
12.498010051
 20
9.1487316977
 30
0.0
  0
SPLINE
  5
8F6
100
AcDbEntity
  8
0
100
AcDbSpline
 62
7
  6
CONTINUOUS
 70
0
 71
3
 72
11
 73
7
 74
0
 42
0.0000001
 43
0.0000001
 44
0.0000000001
 40
0.0
 40
0.0
 40
0.0
 40
0.0
 40
0.2895788086
 40
0.5490236357
 40
0.7821692774
 40
1.0
 40
1.0
 40
1.0
 40
1.0
 10
15.7864741663
 20
7.4455320573
 30
0.0
 10
15.7916151933
 20
7.4425612757
 30
0.0
 10
15.8009432216
 20
7.4361275321
 30
0.0
 10
15.8120914397
 20
7.4244006064
 30
0.0
 10
15.8191418093
 20
7.4114245678
 30
0.0
 10
15.8207786696
 20
7.4021139038
 30
0.0
 10
15.8207774796
 20
7.397647407
 30
0.0
  0
SPLINE
  5
8F7
100
AcDbEntity
  8
0
100
AcDbSpline
 62
7
  6
CONTINUOUS
 70
0
 71
3
 72
9
 73
5
 74
0
 42
0.0000001
 43
0.0000001
 44
0.0000000001
 40
0.0
 40
0.0
 40
0.0
 40
0.0
 40
0.4745288905
 40
1.0
 40
1.0
 40
1.0
 40
1.0
 10
15.6368403494
 20
7.3590650154
 30
0.0
 10
15.6463088585
 20
7.3535935652
 30
0.0
 10
15.6683167417
 20
7.3456014776
 30
0.0
 10
15.6914223007
 20
7.3430844934
 30
0.0
 10
15.7035319737
 20
7.3430738727
 30
0.0
  0
SPLINE
  5
8F8
100
AcDbEntity
  8
0
100
AcDbSpline
 62
7
  6
CONTINUOUS
 70
0
 71
3
 72
13
 73
9
 74
0
 42
0.0000001
 43
0.0000001
 44
0.0000000001
 40
0.0
 40
0.0
 40
0.0
 40
0.0
 40
0.3069934743
 40
0.5818964258
 40
0.7021733261
 40
0.8102607351
 40
0.90811374
 40
1.0
 40
1.0
 40
1.0
 40
1.0
 10
15.7102620762
 20
7.3432068078
 30
0.0
 10
15.721739933
 20
7.3436715421
 30
0.0
 10
15.7434675194
 20
7.3468181705
 30
0.0
 10
15.7682365602
 20
7.3566902105
 30
0.0
 10
15.7835029296
 20
7.3678879905
 30
0.0
 10
15.7917416118
 20
7.3770413196
 30
0.0
 10
15.7969271422
 20
7.3870651583
 30
0.0
 10
15.7981382608
 20
7.394208642
 30
0.0
 10
15.7981397963
 20
7.3976468955
 30
0.0
  0
SPLINE
  5
8F9
100
AcDbEntity
  8
0
100
AcDbSpline
 62
7
  6
CONTINUOUS
 70
0
 71
3
 72
16
 73
12
 74
0
 42
0.0000001
 43
0.0000001
 44
0.0000000001
 40
0.0
 40
0.0
 40
0.0
 40
0.0
 40
0.0429051285
 40
0.0875809506
 40
0.1870314806
 40
0.3043607839
 40
0.4380769905
 40
0.5824538427
 40
0.729640519
 40
0.8712695593
 40
1.0
 40
1.0
 40
1.0
 40
1.0
 10
12.4476993992
 20
9.1873663853
 30
0.0
 10
12.4477002882
 20
9.1907030103
 30
0.0
 10
12.4485973149
 20
9.197542369
 30
0.0
 10
12.4540148109
 20
9.2111767585
 30
0.0
 10
12.4677226748
 20
9.2269219363
 30
0.0
 10
12.4912492595
 20
9.2412074406
 30
0.0
 10
12.5206093076
 20
9.251039507
 30
0.0
 10
12.5535220181
 20
9.2556583669
 30
0.0
 10
12.5873596411
 20
9.254721582
 30
0.0
 10
12.6193490071
 20
9.2483133366
 30
0.0
 10
12.6389759527
 20
9.2402075605
 30
0.0
 10
12.6476438679
 20
9.2351987396
 30
0.0
  0
SPLINE
  5
8FA
100
AcDbEntity
  8
0
100
AcDbSpline
 62
7
  6
CONTINUOUS
 70
0
 71
3
 72
11
 73
7
 74
0
 42
0.0000001
 43
0.0000001
 44
0.0000000001
 40
0.0
 40
0.0
 40
0.0
 40
0.0
 40
0.2178326871
 40
0.45098157
 40
0.710429148
 40
1.0
 40
1.0
 40
1.0
 40
1.0
 10
12.3033039845
 20
9.0908455478
 30
0.0
 10
12.3033023751
 20
9.0872418971
 30
0.0
 10
12.3046214682
 20
9.0797295241
 30
0.0
 10
12.310309271
 20
9.0692597335
 30
0.0
 10
12.3193033808
 20
9.0597979999
 30
0.0
 10
12.3268292304
 20
9.0546071417
 30
0.0
 10
12.3309769531
 20
9.0522103485
 30
0.0
  0
SPLINE
  5
8FB
100
AcDbEntity
  8
0
100
AcDbSpline
 62
7
  6
CONTINUOUS
 70
0
 71
3
 72
9
 73
5
 74
0
 42
0.0000001
 43
0.0000001
 44
0.0000000001
 40
0.0
 40
0.0
 40
0.0
 40
0.0
 40
0.2549984398
 40
1.0
 40
1.0
 40
1.0
 40
1.0
 10
15.9356555056
 20
6.2224873395
 30
0.0
 10
15.9341658141
 20
6.2199071306
 30
0.0
 10
15.9279831979
 20
6.2099937537
 30
0.0
 10
15.9203949442
 20
6.2009204866
 30
0.0
 10
15.9139936428
 20
6.1950220237
 30
0.0
  0
SPLINE
  5
8FC
100
AcDbEntity
  8
0
100
AcDbSpline
 62
7
  6
CONTINUOUS
 70
0
 71
3
 72
9
 73
5
 74
0
 42
0.0000001
 43
0.0000001
 44
0.0000000001
 40
0.0
 40
0.0
 40
0.0
 40
0.0
 40
0.2437928044
 40
1.0
 40
1.0
 40
1.0
 40
1.0
 10
16.0098905821
 20
6.3611203627
 30
0.0
 10
16.0092658161
 20
6.3583403551
 30
0.0
 10
16.0062112061
 20
6.34704988
 30
0.0
 10
16.0013517003
 20
6.3362765008
 30
0.0
 10
15.9969326017
 20
6.3286223628
 30
0.0
  0
SPLINE
  5
8FD
100
AcDbEntity
  8
0
100
AcDbSpline
 62
7
  6
CONTINUOUS
 70
0
 71
3
 72
9
 73
5
 74
0
 42
0.0000001
 43
0.0000001
 44
0.0000000001
 40
0.0
 40
0.0
 40
0.0
 40
0.0
 40
0.5000137912
 40
1.0
 40
1.0
 40
1.0
 40
1.0
 10
15.9434670997
 20
6.322737047
 30
0.0
 10
15.9392528238
 20
6.3138540097
 30
0.0
 10
15.93000697
 20
6.2964749362
 30
0.0
 10
15.9195792472
 20
6.2797781951
 30
0.0
 10
15.9139936428
 20
6.271687532
 30
0.0
  0
SPLINE
  5
8FE
100
AcDbEntity
  8
0
100
AcDbSpline
 62
7
  6
CONTINUOUS
 70
0
 71
3
 72
11
 73
7
 74
0
 42
0.0000001
 43
0.0000001
 44
0.0000000001
 40
0.0
 40
0.0
 40
0.0
 40
0.0
 40
0.2867312238
 40
0.5448771642
 40
0.7792694422
 40
1.0
 40
1.0
 40
1.0
 40
1.0
 10
13.0938813263
 20
7.0291345709
 30
0.0
 10
13.0941409478
 20
7.0345601283
 30
0.0
 10
13.0954428834
 20
7.0448658769
 30
0.0
 10
13.1002524738
 20
7.0589544617
 30
0.0
 10
13.1077605446
 20
7.0703880607
 30
0.0
 10
13.1145553574
 20
7.0759638245
 30
0.0
 10
13.1181750059
 20
7.0780573374
 30
0.0
  0
SPLINE
  5
8FF
100
AcDbEntity
  8
0
100
AcDbSpline
 62
7
  6
CONTINUOUS
 70
0
 71
3
 72
16
 73
12
 74
0
 42
0.0000001
 43
0.0000001
 44
0.0000000001
 40
0.0
 40
0.0
 40
0.0
 40
0.0
 40
0.0389473588
 40
0.0795283246
 40
0.1721910854
 40
0.2860521526
 40
0.4197636204
 40
0.5670389707
 40
0.7190980205
 40
0.8663858015
 40
1.0
 40
1.0
 40
1.0
 40
1.0
 10
13.5836829305
 20
8.894875263
 30
0.0
 10
13.5836825
 20
8.8930198378
 30
0.0
 10
13.5842370906
 20
8.8892081358
 30
0.0
 10
13.5877189736
 20
8.8816745785
 30
0.0
 10
13.5965294209
 20
8.8733260396
 30
0.0
 10
13.6112832433
 20
8.8662886535
 30
0.0
 10
13.6296860398
 20
8.8618778613
 30
0.0
 10
13.6503497774
 20
8.8604785738
 30
0.0
 10
13.6716368916
 20
8.8622207823
 30
0.0
 10
13.6917817079
 20
8.866988033
 30
0.0
 10
13.7041846923
 20
8.8722914946
 30
0.0
 10
13.7096959822
 20
8.8754762355
 30
0.0
  0
SPLINE
  5
900
100
AcDbEntity
  8
0
100
AcDbSpline
 62
7
  6
CONTINUOUS
 70
0
 71
3
 72
16
 73
12
 74
0
 42
0.0000001
 43
0.0000001
 44
0.0000000001
 40
0.0
 40
0.0
 40
0.0
 40
0.0
 40
0.0429051285
 40
0.0875809506
 40
0.1870314806
 40
0.3043607839
 40
0.4380769905
 40
0.5824538427
 40
0.729640519
 40
0.8712695593
 40
1.0
 40
1.0
 40
1.0
 40
1.0
 10
12.1136332034
 20
8.994323687
 30
0.0
 10
12.1136340924
 20
8.997660312
 30
0.0
 10
12.1145311191
 20
9.0044996706
 30
0.0
 10
12.119948615
 20
9.0181340602
 30
0.0
 10
12.133656479
 20
9.033879238
 30
0.0
 10
12.1571830636
 20
9.0481647422
 30
0.0
 10
12.1865431117
 20
9.0579968087
 30
0.0
 10
12.2194558223
 20
9.0626156686
 30
0.0
 10
12.2532934453
 20
9.0616788837
 30
0.0
 10
12.2852828112
 20
9.0552706383
 30
0.0
 10
12.3049097568
 20
9.0471648622
 30
0.0
 10
12.3135776721
 20
9.0421560413
 30
0.0
  0
SPLINE
  5
901
100
AcDbEntity
  8
0
100
AcDbSpline
 62
7
  6
CONTINUOUS
 70
0
 71
3
 72
11
 73
7
 74
0
 42
0.0000001
 43
0.0000001
 44
0.0000000001
 40
0.0
 40
0.0
 40
0.0
 40
0.0
 40
0.2178326871
 40
0.45098157
 40
0.710429148
 40
1.0
 40
1.0
 40
1.0
 40
1.0
 10
12.1362708866
 20
8.9943241986
 30
0.0
 10
12.1362692772
 20
8.9907205479
 30
0.0
 10
12.1375883703
 20
8.9832081749
 30
0.0
 10
12.1432761731
 20
8.9727383844
 30
0.0
 10
12.1522702828
 20
8.9632766508
 30
0.0
 10
12.1597961324
 20
8.9580857926
 30
0.0
 10
12.1639438552
 20
8.9556889994
 30
0.0
  0
SPLINE
  5
902
100
AcDbEntity
  8
0
100
AcDbSpline
 62
7
  6
CONTINUOUS
 70
0
 71
3
 72
16
 73
12
 74
0
 42
0.0000001
 43
0.0000001
 44
0.0000000001
 40
0.0
 40
0.0
 40
0.0
 40
0.0
 40
0.0429051285
 40
0.0875809506
 40
0.1870314806
 40
0.3043607839
 40
0.4380769905
 40
0.5824538427
 40
0.729640519
 40
0.8712695593
 40
1.0
 40
1.0
 40
1.0
 40
1.0
 10
12.2806663013
 20
9.0908450362
 30
0.0
 10
12.2806671903
 20
9.0941816611
 30
0.0
 10
12.281564217
 20
9.1010210198
 30
0.0
 10
12.286981713
 20
9.1146554094
 30
0.0
 10
12.3006895769
 20
9.1304005872
 30
0.0
 10
12.3242161615
 20
9.1446860914
 30
0.0
 10
12.3535762097
 20
9.1545181578
 30
0.0
 10
12.3864889202
 20
9.1591370177
 30
0.0
 10
12.4203265432
 20
9.1582002329
 30
0.0
 10
12.4523159092
 20
9.1517919875
 30
0.0
 10
12.4719428548
 20
9.1436862114
 30
0.0
 10
12.48061077
 20
9.1386773905
 30
0.0
  0
SPLINE
  5
903
100
AcDbEntity
  8
0
100
AcDbSpline
 62
7
  6
CONTINUOUS
 70
0
 71
3
 72
11
 73
7
 74
0
 42
0.0000001
 43
0.0000001
 44
0.0000000001
 40
0.0
 40
0.0
 40
0.0
 40
0.0
 40
0.2895788086
 40
0.5490236357
 40
0.7821692774
 40
1.0
 40
1.0
 40
1.0
 40
1.0
 10
12.1479365167
 20
8.9464390367
 30
0.0
 10
12.1427954897
 20
8.9494098184
 30
0.0
 10
12.1334674613
 20
8.955843562
 30
0.0
 10
12.1223192432
 20
8.9675704877
 30
0.0
 10
12.1152688737
 20
8.9805465262
 30
0.0
 10
12.1136320133
 20
8.9898571903
 30
0.0
 10
12.1136332034
 20
8.994323687
 30
0.0
  0
SPLINE
  5
904
100
AcDbEntity
  8
0
100
AcDbSpline
 62
7
  6
CONTINUOUS
 70
0
 71
3
 72
15
 73
11
 74
0
 42
0.0000001
 43
0.0000001
 44
0.0000000001
 40
0.0
 40
0.0
 40
0.0
 40
0.0
 40
0.1288107934
 40
0.2705209757
 40
0.4177943892
 40
0.5622633255
 40
0.696072018
 40
0.8134834915
 40
0.9130046062
 40
1.0
 40
1.0
 40
1.0
 40
1.0
 10
12.2975703335
 20
9.0329060787
 30
0.0
 10
12.2905781156
 20
9.0369465851
 30
0.0
 10
12.2747459829
 20
9.0434853778
 30
0.0
 10
12.2489417597
 20
9.0486547272
 30
0.0
 10
12.2216462952
 20
9.0494125649
 30
0.0
 10
12.1950961775
 20
9.0456834233
 30
0.0
 10
12.1714092671
 20
9.0377672504
 30
0.0
 10
12.1524321263
 20
9.0262007025
 30
0.0
 10
12.139573727
 20
9.0115761302
 30
0.0
 10
12.1362733225
 20
8.9997783064
 30
0.0
 10
12.1362708866
 20
8.9943241986
 30
0.0
  0
SPLINE
  5
905
100
AcDbEntity
  8
0
100
AcDbSpline
 62
7
  6
CONTINUOUS
 70
0
 71
3
 72
9
 73
5
 74
0
 42
0.0000001
 43
0.0000001
 44
0.0000000001
 40
0.0
 40
0.0
 40
0.0
 40
0.0
 40
0.4773579615
 40
1.0
 40
1.0
 40
1.0
 40
1.0
 10
13.1252762378
 20
7.0812766079
 30
0.0
 10
13.1295577473
 20
7.0827349515
 30
0.0
 10
13.1390824525
 20
7.0842702947
 30
0.0
 10
13.1485939541
 20
7.0830907486
 30
0.0
 10
13.1534161114
 20
7.0819635992
 30
0.0
  0
SPLINE
  5
906
100
AcDbEntity
  8
0
100
AcDbSpline
 62
7
  6
CONTINUOUS
 70
0
 71
3
 72
9
 73
5
 74
0
 42
0.0000001
 43
0.0000001
 44
0.0000000001
 40
0.0
 40
0.0
 40
0.0
 40
0.0
 40
0.2668414048
 40
1.0
 40
1.0
 40
1.0
 40
1.0
 10
12.2504421337
 20
8.9834374017
 30
0.0
 10
12.254818037
 20
8.9828987813
 30
0.0
 10
12.2711037995
 20
8.9801878928
 30
0.0
 10
12.287081846
 20
8.9747041288
 30
0.0
 10
12.2975703335
 20
8.9686432763
 30
0.0
  0
SPLINE
  5
907
100
AcDbEntity
  8
0
100
AcDbSpline
 62
7
  6
CONTINUOUS
 70
0
 71
3
 72
9
 73
5
 74
0
 42
0.0000001
 43
0.0000001
 44
0.0000000001
 40
0.0
 40
0.0
 40
0.0
 40
0.0
 40
0.2575604967
 40
1.0
 40
1.0
 40
1.0
 40
1.0
 10
12.2975703335
 20
8.9686432763
 30
0.0
 10
12.2984459742
 20
8.9681372807
 30
0.0
 10
12.3018112355
 20
8.9661141196
 30
0.0
 10
12.3050353939
 20
8.9638524815
 30
0.0
 10
12.3073129147
 20
8.9620327413
 30
0.0
  0
SPLINE
  5
908
100
AcDbEntity
  8
0
100
AcDbSpline
 62
7
  6
CONTINUOUS
 70
0
 71
3
 72
11
 73
7
 74
0
 42
0.0000001
 43
0.0000001
 44
0.0000000001
 40
0.0
 40
0.0
 40
0.0
 40
0.0
 40
0.2895788086
 40
0.5490236357
 40
0.7821692774
 40
1.0
 40
1.0
 40
1.0
 40
1.0
 10
12.3149696146
 20
9.0429603859
 30
0.0
 10
12.3098285876
 20
9.0459311675
 30
0.0
 10
12.3005005592
 20
9.0523649112
 30
0.0
 10
12.2893523411
 20
9.0640918368
 30
0.0
 10
12.2823019716
 20
9.0770678754
 30
0.0
 10
12.2806651112
 20
9.0863785394
 30
0.0
 10
12.2806663013
 20
9.0908450362
 30
0.0
  0
SPLINE
  5
909
100
AcDbEntity
  8
0
100
AcDbSpline
 62
7
  6
CONTINUOUS
 70
0
 71
3
 72
15
 73
11
 74
0
 42
0.0000001
 43
0.0000001
 44
0.0000000001
 40
0.0
 40
0.0
 40
0.0
 40
0.0
 40
0.1288107934
 40
0.2705209757
 40
0.4177943892
 40
0.5622633255
 40
0.696072018
 40
0.8134834915
 40
0.9130046062
 40
1.0
 40
1.0
 40
1.0
 40
1.0
 10
12.4646034315
 20
9.1294274278
 30
0.0
 10
12.4576112135
 20
9.1334679343
 30
0.0
 10
12.4417790808
 20
9.140006727
 30
0.0
 10
12.4159748576
 20
9.1451760764
 30
0.0
 10
12.3886793932
 20
9.1459339141
 30
0.0
 10
12.3621292755
 20
9.1422047724
 30
0.0
 10
12.338442365
 20
9.1342885996
 30
0.0
 10
12.3194652243
 20
9.1227220517
 30
0.0
 10
12.3066068249
 20
9.1080974793
 30
0.0
 10
12.3033064204
 20
9.0962996556
 30
0.0
 10
12.3033039845
 20
9.0908455478
 30
0.0
  0
SPLINE
  5
90A
100
AcDbEntity
  8
0
100
AcDbSpline
 62
7
  6
CONTINUOUS
 70
0
 71
3
 72
16
 73
12
 74
0
 42
0.0000001
 43
0.0000001
 44
0.0000000001
 40
0.0
 40
0.0
 40
0.0
 40
0.0
 40
0.0428630198
 40
0.087502814
 40
0.1869119103
 40
0.3042430108
 40
0.4379905024
 40
0.5824144756
 40
0.7296446551
 40
0.8712922331
 40
1.0
 40
1.0
 40
1.0
 40
1.0
 10
15.9674368674
 20
6.4340629526
 30
0.0
 10
15.9640408847
 20
6.4360238639
 30
0.0
 10
15.9565519398
 20
6.4391312879
 30
0.0
 10
15.9394840328
 20
6.4416252907
 30
0.0
 10
15.9153886643
 20
6.4369078283
 30
0.0
 10
15.8870042763
 20
6.4213288789
 30
0.0
 10
15.8597174261
 20
6.3971888423
 30
0.0
 10
15.8356461944
 20
6.3663642949
 30
0.0
 10
15.816687186
 20
6.3313329791
 30
0.0
 10
15.8043869191
 20
6.2949729408
 30
0.0
 10
15.8010895624
 20
6.2702105094
 30
0.0
 10
15.8010895624
 20
6.2584352601
 30
0.0
  0
SPLINE
  5
90B
100
AcDbEntity
  8
0
100
AcDbSpline
 62
7
  6
CONTINUOUS
 70
0
 71
3
 72
9
 73
5
 74
0
 42
0.0000001
 43
0.0000001
 44
0.0000000001
 40
0.0
 40
0.0
 40
0.0
 40
0.0
 40
0.2668414048
 40
1.0
 40
1.0
 40
1.0
 40
1.0
 10
12.4174752317
 20
9.0799587508
 30
0.0
 10
12.4218511349
 20
9.0794201305
 30
0.0
 10
12.4381368974
 20
9.0767092419
 30
0.0
 10
12.4541149439
 20
9.071225478
 30
0.0
 10
12.4646034315
 20
9.0651646255
 30
0.0
  0
SPLINE
  5
90C
100
AcDbEntity
  8
0
100
AcDbSpline
 62
7
  6
CONTINUOUS
 70
0
 71
3
 72
9
 73
5
 74
0
 42
0.0000001
 43
0.0000001
 44
0.0000000001
 40
0.0
 40
0.0
 40
0.0
 40
0.0
 40
0.2575604967
 40
1.0
 40
1.0
 40
1.0
 40
1.0
 10
12.4646034315
 20
9.0651646255
 30
0.0
 10
12.4654790722
 20
9.0646586298
 30
0.0
 10
12.4688443334
 20
9.0626354688
 30
0.0
 10
12.4720684919
 20
9.0603738307
 30
0.0
 10
12.4743460126
 20
9.0585540904
 30
0.0
  0
SPLINE
  5
90D
100
AcDbEntity
  8
0
100
AcDbSpline
 62
7
  6
CONTINUOUS
 70
0
 71
3
 72
11
 73
7
 74
0
 42
0.0000001
 43
0.0000001
 44
0.0000000001
 40
0.0
 40
0.0
 40
0.0
 40
0.0
 40
0.2304567985
 40
0.4848087056
 40
0.7471847354
 40
1.0
 40
1.0
 40
1.0
 40
1.0
 10
14.1029197335
 20
6.4489531411
 30
0.0
 10
14.1029197335
 20
6.4599788054
 30
0.0
 10
14.0995555854
 20
6.483198271
 30
0.0
 10
14.0872169688
 20
6.5169547898
 30
0.0
 10
14.0684501796
 20
6.5488510829
 30
0.0
 10
14.0521576605
 20
6.5676023203
 30
0.0
 10
14.0432650557
 20
6.575801048
 30
0.0
  0
SPLINE
  5
90E
100
AcDbEntity
  8
0
100
AcDbSpline
 62
7
  6
CONTINUOUS
 70
0
 71
3
 72
11
 73
7
 74
0
 42
0.0000001
 43
0.0000001
 44
0.0000000001
 40
0.0
 40
0.0
 40
0.0
 40
0.0
 40
0.2178326871
 40
0.45098157
 40
0.710429148
 40
1.0
 40
1.0
 40
1.0
 40
1.0
 10
15.7981397963
 20
7.3976468955
 30
0.0
 10
15.7981414058
 20
7.4012505461
 30
0.0
 10
15.7968223126
 20
7.4087629191
 30
0.0
 10
15.7911345099
 20
7.4192327097
 30
0.0
 10
15.7821404001
 20
7.4286944433
 30
0.0
 10
15.7746145505
 20
7.4338853015
 30
0.0
 10
15.7704668278
 20
7.4362820947
 30
0.0
  0
SPLINE
  5
90F
100
AcDbEntity
  8
0
100
AcDbSpline
 62
7
  6
CONTINUOUS
 70
0
 71
3
 72
9
 73
5
 74
0
 42
0.0000001
 43
0.0000001
 44
0.0000000001
 40
0.0
 40
0.0
 40
0.0
 40
0.0
 40
0.4737102843
 40
1.0
 40
1.0
 40
1.0
 40
1.0
 10
15.6341900123
 20
7.3704238904
 30
0.0
 10
15.6412417315
 20
7.374844619
 30
0.0
 10
15.6575001335
 20
7.3820127454
 30
0.0
 10
15.6747911817
 20
7.3856837956
 30
0.0
 10
15.6839685492
 20
7.3868134177
 30
0.0
  0
SPLINE
  5
910
100
AcDbEntity
  8
0
100
AcDbSpline
 62
7
  6
CONTINUOUS
 70
0
 71
3
 72
11
 73
7
 74
0
 42
0.0000001
 43
0.0000001
 44
0.0000000001
 40
0.0
 40
0.0
 40
0.0
 40
0.0
 40
0.2191838473
 40
0.4529677202
 40
0.7117015847
 40
1.0
 40
1.0
 40
1.0
 40
1.0
 10
15.8207774796
 20
7.397647407
 30
0.0
 10
15.820776328
 20
7.3933253171
 30
0.0
 10
15.8192311262
 20
7.384337023
 30
0.0
 10
15.812620863
 20
7.3717503831
 30
0.0
 10
15.802137037
 20
7.3602921038
 30
0.0
 10
15.7933276419
 20
7.3539461895
 30
0.0
 10
15.7884671904
 20
7.3509974951
 30
0.0
  0
SPLINE
  5
911
100
AcDbEntity
  8
0
100
AcDbSpline
 62
7
  6
CONTINUOUS
 70
0
 71
3
 72
11
 73
7
 74
0
 42
0.0000001
 43
0.0000001
 44
0.0000000001
 40
0.0
 40
0.0
 40
0.0
 40
0.0
 40
0.2356933295
 40
0.4984207127
 40
0.7619892772
 40
1.0
 40
1.0
 40
1.0
 40
1.0
 10
15.7884671904
 20
7.3509974951
 30
0.0
 10
15.776780317
 20
7.343907409
 30
0.0
 10
15.7492741625
 20
7.3334922743
 30
0.0
 10
15.7050467042
 20
7.3283138588
 30
0.0
 10
15.6606184763
 20
7.332898976
 30
0.0
 10
15.6327848212
 20
7.342908608
 30
0.0
 10
15.6208330109
 20
7.3498150528
 30
0.0
  0
SPLINE
  5
912
100
AcDbEntity
  8
0
100
AcDbSpline
 62
7
  6
CONTINUOUS
 70
0
 71
3
 72
11
 73
7
 74
0
 42
0.0000001
 43
0.0000001
 44
0.0000000001
 40
0.0
 40
0.0
 40
0.0
 40
0.0
 40
0.2895788086
 40
0.5490236357
 40
0.7821692774
 40
1.0
 40
1.0
 40
1.0
 40
1.0
 10
12.4820027125
 20
9.139481735
 30
0.0
 10
12.4768616855
 20
9.1424525167
 30
0.0
 10
12.4675336572
 20
9.1488862603
 30
0.0
 10
12.4563854391
 20
9.160613186
 30
0.0
 10
12.4493350695
 20
9.1735892246
 30
0.0
 10
12.4476982092
 20
9.1828998886
 30
0.0
 10
12.4476993992
 20
9.1873663853
 30
0.0
  0
SPLINE
  5
913
100
AcDbEntity
  8
0
100
AcDbSpline
 62
7
  6
CONTINUOUS
 70
0
 71
3
 72
15
 73
11
 74
0
 42
0.0000001
 43
0.0000001
 44
0.0000000001
 40
0.0
 40
0.0
 40
0.0
 40
0.0
 40
0.1288107934
 40
0.2705209757
 40
0.4177943892
 40
0.5622633255
 40
0.696072018
 40
0.8134834915
 40
0.9130046062
 40
1.0
 40
1.0
 40
1.0
 40
1.0
 10
12.6316365294
 20
9.225948777
 30
0.0
 10
12.6246443114
 20
9.2299892835
 30
0.0
 10
12.6088121788
 20
9.2365280762
 30
0.0
 10
12.5830079555
 20
9.2416974256
 30
0.0
 10
12.5557124911
 20
9.2424552632
 30
0.0
 10
12.5291623734
 20
9.2387261216
 30
0.0
 10
12.5054754629
 20
9.2308099487
 30
0.0
 10
12.4864983222
 20
9.2192434008
 30
0.0
 10
12.4736399228
 20
9.2046188285
 30
0.0
 10
12.4703395183
 20
9.1928210047
 30
0.0
 10
12.4703370825
 20
9.1873668969
 30
0.0
  0
LINE
  5
914
100
AcDbEntity
  8
0
100
AcDbLine
 62
7
  6
CONTINUOUS
 10
15.9402838106
 20
7.2465270298
 11
15.9542032355
 21
7.2337398362
  0
SPLINE
  5
915
100
AcDbEntity
  8
0
100
AcDbSpline
 62
7
  6
CONTINUOUS
 70
0
 71
3
 72
9
 73
5
 74
0
 42
0.0000001
 43
0.0000001
 44
0.0000000001
 40
0.0
 40
0.0
 40
0.0
 40
0.0
 40
0.2668414048
 40
1.0
 40
1.0
 40
1.0
 40
1.0
 10
12.5845083296
 20
9.1764801
 30
0.0
 10
12.5888842329
 20
9.1759414796
 30
0.0
 10
12.6051699953
 20
9.1732305911
 30
0.0
 10
12.6211480418
 20
9.1677468271
 30
0.0
 10
12.6316365294
 20
9.1616859746
 30
0.0
  0
SPLINE
  5
916
100
AcDbEntity
  8
0
100
AcDbSpline
 62
7
  6
CONTINUOUS
 70
0
 71
3
 72
9
 73
5
 74
0
 42
0.0000001
 43
0.0000001
 44
0.0000000001
 40
0.0
 40
0.0
 40
0.0
 40
0.0
 40
0.2575604967
 40
1.0
 40
1.0
 40
1.0
 40
1.0
 10
12.6316365294
 20
9.1616859746
 30
0.0
 10
12.6325121701
 20
9.161179979
 30
0.0
 10
12.6358774313
 20
9.1591568179
 30
0.0
 10
12.6391015898
 20
9.1568951798
 30
0.0
 10
12.6413791105
 20
9.1550754396
 30
0.0
  0
SPLINE
  5
917
100
AcDbEntity
  8
0
100
AcDbSpline
 62
7
  6
CONTINUOUS
 70
0
 71
3
 72
11
 73
7
 74
0
 42
0.0000001
 43
0.0000001
 44
0.0000000001
 40
0.0
 40
0.0
 40
0.0
 40
0.0
 40
0.2178326871
 40
0.45098157
 40
0.710429148
 40
1.0
 40
1.0
 40
1.0
 40
1.0
 10
15.6311066984
 20
7.3011255463
 30
0.0
 10
15.6311083078
 20
7.304729197
 30
0.0
 10
15.6297892147
 20
7.31224157
 30
0.0
 10
15.624101412
 20
7.3227113605
 30
0.0
 10
15.6151073022
 20
7.3321730941
 30
0.0
 10
15.6075814526
 20
7.3373639523
 30
0.0
 10
15.6034337298
 20
7.3397607456
 30
0.0
  0
SPLINE
  5
918
100
AcDbEntity
  8
0
100
AcDbSpline
 62
7
  6
CONTINUOUS
 70
0
 71
3
 72
9
 73
5
 74
0
 42
0.0000001
 43
0.0000001
 44
0.0000000001
 40
0.0
 40
0.0
 40
0.0
 40
0.0
 40
0.4737102843
 40
1.0
 40
1.0
 40
1.0
 40
1.0
 10
15.4671569144
 20
7.2739025412
 30
0.0
 10
15.4742086336
 20
7.2783232698
 30
0.0
 10
15.4904670356
 20
7.2854913962
 30
0.0
 10
15.5077580838
 20
7.2891624464
 30
0.0
 10
15.5169354513
 20
7.2902920685
 30
0.0
  0
SPLINE
  5
919
100
AcDbEntity
  8
0
100
AcDbSpline
 62
7
  6
CONTINUOUS
 70
0
 71
3
 72
11
 73
7
 74
0
 42
0.0000001
 43
0.0000001
 44
0.0000000001
 40
0.0
 40
0.0
 40
0.0
 40
0.0
 40
0.2191838473
 40
0.4529677202
 40
0.7117015847
 40
1.0
 40
1.0
 40
1.0
 40
1.0
 10
15.6537443817
 20
7.3011260579
 30
0.0
 10
15.6537432301
 20
7.2968039679
 30
0.0
 10
15.6521980283
 20
7.2878156739
 30
0.0
 10
15.6455877651
 20
7.2752290339
 30
0.0
 10
15.635103939
 20
7.2637707547
 30
0.0
 10
15.626294544
 20
7.2574248404
 30
0.0
 10
15.6214340925
 20
7.2544761459
 30
0.0
  0
SPLINE
  5
91A
100
AcDbEntity
  8
0
100
AcDbSpline
 62
7
  6
CONTINUOUS
 70
0
 71
3
 72
11
 73
7
 74
0
 42
0.0000001
 43
0.0000001
 44
0.0000000001
 40
0.0
 40
0.0
 40
0.0
 40
0.0
 40
0.2356933295
 40
0.4984207127
 40
0.7619892772
 40
1.0
 40
1.0
 40
1.0
 40
1.0
 10
15.6214340925
 20
7.2544761459
 30
0.0
 10
15.609747219
 20
7.2473860599
 30
0.0
 10
15.5822410646
 20
7.2369709252
 30
0.0
 10
15.5380136063
 20
7.2317925096
 30
0.0
 10
15.4935853783
 20
7.2363776268
 30
0.0
 10
15.4657517233
 20
7.2463872589
 30
0.0
 10
15.453799913
 20
7.2532937036
 30
0.0
  0
SPLINE
  5
91B
100
AcDbEntity
  8
0
100
AcDbSpline
 62
7
  6
CONTINUOUS
 70
0
 71
3
 72
11
 73
7
 74
0
 42
0.0000001
 43
0.0000001
 44
0.0000000001
 40
0.0
 40
0.0
 40
0.0
 40
0.0
 40
0.2895788086
 40
0.5490236357
 40
0.7821692774
 40
1.0
 40
1.0
 40
1.0
 40
1.0
 10
12.6490358104
 20
9.2360030842
 30
0.0
 10
12.6438947834
 20
9.2389738658
 30
0.0
 10
12.6345667551
 20
9.2454076095
 30
0.0
 10
12.623418537
 20
9.2571345352
 30
0.0
 10
12.6163681674
 20
9.2701105737
 30
0.0
 10
12.6147313071
 20
9.2794212377
 30
0.0
 10
12.6147324971
 20
9.2838877345
 30
0.0
  0
SPLINE
  5
91C
100
AcDbEntity
  8
0
100
AcDbSpline
 62
7
  6
CONTINUOUS
 70
0
 71
3
 72
15
 73
11
 74
0
 42
0.0000001
 43
0.0000001
 44
0.0000000001
 40
0.0
 40
0.0
 40
0.0
 40
0.0
 40
0.1288107934
 40
0.2705209757
 40
0.4177943892
 40
0.5622633255
 40
0.696072018
 40
0.8134834915
 40
0.9130046062
 40
1.0
 40
1.0
 40
1.0
 40
1.0
 10
12.7986696273
 20
9.3224701261
 30
0.0
 10
12.7916774093
 20
9.3265106326
 30
0.0
 10
12.7758452767
 20
9.3330494253
 30
0.0
 10
12.7500410534
 20
9.3382187747
 30
0.0
 10
12.722745589
 20
9.3389766124
 30
0.0
 10
12.6961954713
 20
9.3352474707
 30
0.0
 10
12.6725085609
 20
9.3273312979
 30
0.0
 10
12.6535314201
 20
9.31576475
 30
0.0
 10
12.6406730208
 20
9.3011401776
 30
0.0
 10
12.6373726162
 20
9.2893423539
 30
0.0
 10
12.6373701804
 20
9.2838882461
 30
0.0
  0
SPLINE
  5
91D
100
AcDbEntity
  8
0
100
AcDbSpline
 62
7
  6
CONTINUOUS
 70
0
 71
3
 72
12
 73
8
 74
0
 42
0.0000001
 43
0.0000001
 44
0.0000000001
 40
0.0
 40
0.0
 40
0.0
 40
0.0
 40
0.3062479736
 40
0.5752907191
 40
0.8020387311
 40
0.9031893592
 40
1.0
 40
1.0
 40
1.0
 40
1.0
 10
15.4086486928
 20
6.9930195019
 30
0.0
 10
15.4194550619
 20
6.995228177
 30
0.0
 10
15.4394655631
 20
7.0012382874
 30
0.0
 10
15.4648299193
 20
7.0156220579
 30
0.0
 10
15.4797873516
 20
7.0318931996
 30
0.0
 10
15.4857256371
 20
7.0461449585
 30
0.0
 10
15.4867093639
 20
7.0533066504
 30
0.0
 10
15.4867109211
 20
7.0567933645
 30
0.0
  0
SPLINE
  5
91E
100
AcDbEntity
  8
0
100
AcDbSpline
 62
7
  6
CONTINUOUS
 70
0
 71
3
 72
14
 73
10
 74
0
 42
0.0000001
 43
0.0000001
 44
0.0000000001
 40
0.0
 40
0.0
 40
0.0
 40
0.0
 40
0.2911556654
 40
0.438002318
 40
0.5773830196
 40
0.7043500301
 40
0.8160029069
 40
0.9128079776
 40
1.0
 40
1.0
 40
1.0
 40
1.0
 10
15.4863919285
 20
7.0922048552
 30
0.0
 10
15.5049165742
 20
7.0871238327
 30
0.0
 10
15.5342328262
 20
7.0840961859
 30
0.0
 10
15.5721871801
 20
7.0881291121
 30
0.0
 10
15.5986695578
 20
7.0951229297
 30
0.0
 10
15.6214404483
 20
7.1056607669
 30
0.0
 10
15.639207215
 20
7.1192361644
 30
0.0
 10
15.6508774839
 20
7.1353179211
 30
0.0
 10
15.65374145
 20
7.1475622689
 30
0.0
 10
15.653744019
 20
7.1533147137
 30
0.0
  0
SPLINE
  5
91F
100
AcDbEntity
  8
0
100
AcDbSpline
 62
7
  6
CONTINUOUS
 70
0
 71
3
 72
14
 73
10
 74
0
 42
0.0000001
 43
0.0000001
 44
0.0000000001
 40
0.0
 40
0.0
 40
0.0
 40
0.0
 40
0.2911556654
 40
0.438002318
 40
0.5773830196
 40
0.7043500301
 40
0.8160029069
 40
0.9128079776
 40
1.0
 40
1.0
 40
1.0
 40
1.0
 10
15.6534250264
 20
7.1887262044
 30
0.0
 10
15.6719496721
 20
7.1836451818
 30
0.0
 10
15.7012659241
 20
7.180617535
 30
0.0
 10
15.7392202781
 20
7.1846504612
 30
0.0
 10
15.7657026557
 20
7.1916442789
 30
0.0
 10
15.7884735462
 20
7.202182116
 30
0.0
 10
15.806240313
 20
7.2157575136
 30
0.0
 10
15.8179105818
 20
7.2318392703
 30
0.0
 10
15.8207745479
 20
7.2440836181
 30
0.0
 10
15.820777117
 20
7.2498360628
 30
0.0
  0
SPLINE
  5
920
100
AcDbEntity
  8
0
100
AcDbSpline
 62
7
  6
CONTINUOUS
 70
0
 71
3
 72
9
 73
5
 74
0
 42
0.0000001
 43
0.0000001
 44
0.0000000001
 40
0.0
 40
0.0
 40
0.0
 40
0.0
 40
0.4854441459
 40
1.0
 40
1.0
 40
1.0
 40
1.0
 10
13.6574981391
 20
8.1501350353
 30
0.0
 10
13.949122625
 20
7.9793047973
 30
0.0
 10
14.5285235877
 20
7.590241469
 30
0.0
 10
15.0637571112
 20
7.1430722295
 30
0.0
 10
15.3278291183
 20
6.9009877597
 30
0.0
  0
SPLINE
  5
921
100
AcDbEntity
  8
0
100
AcDbSpline
 62
7
  6
CONTINUOUS
 70
0
 71
3
 72
9
 73
5
 74
0
 42
0.0000001
 43
0.0000001
 44
0.0000000001
 40
0.0
 40
0.0
 40
0.0
 40
0.0
 40
0.5145693759
 40
1.0
 40
1.0
 40
1.0
 40
1.0
 10
15.3278291183
 20
6.8926154162
 30
0.0
 10
15.0637791992
 20
7.134791087
 30
0.0
 10
14.5285736779
 20
7.582106612
 30
0.0
 10
13.9491426025
 20
7.9712574026
 30
0.0
 10
13.6574981391
 20
8.1421019952
 30
0.0
  0
SPLINE
  5
922
100
AcDbEntity
  8
0
100
AcDbSpline
 62
7
  6
CONTINUOUS
 70
0
 71
3
 72
9
 73
5
 74
0
 42
0.0000001
 43
0.0000001
 44
0.0000000001
 40
0.0
 40
0.0
 40
0.0
 40
0.0
 40
0.2674999392
 40
1.0
 40
1.0
 40
1.0
 40
1.0
 10
13.6574981391
 20
8.1421019952
 30
0.0
 10
13.6490238772
 20
8.1470661965
 30
0.0
 10
13.6179535279
 20
8.1665970284
 30
0.0
 10
13.5892914209
 20
8.1903065863
 30
0.0
 10
13.5712778568
 20
8.210276042
 30
0.0
  0
SPLINE
  5
923
100
AcDbEntity
  8
0
100
AcDbSpline
 62
7
  6
CONTINUOUS
 70
0
 71
3
 72
10
 73
6
 74
0
 42
0.0000001
 43
0.0000001
 44
0.0000000001
 40
0.0
 40
0.0
 40
0.0
 40
0.0
 40
0.5241494135
 40
0.7655617198
 40
1.0
 40
1.0
 40
1.0
 40
1.0
 10
13.5674589698
 20
8.2146023885
 30
0.0
 10
13.5527124809
 20
8.2316799774
 30
0.0
 10
13.5341299467
 20
8.2598376854
 30
0.0
 10
13.5212480272
 20
8.3011408363
 30
0.0
 10
13.5191206413
 20
8.3216868993
 30
0.0
 10
13.5191237005
 20
8.3317788756
 30
0.0
  0
SPLINE
  5
924
100
AcDbEntity
  8
0
100
AcDbSpline
 62
7
  6
CONTINUOUS
 70
0
 71
3
 72
11
 73
7
 74
0
 42
0.0000001
 43
0.0000001
 44
0.0000000001
 40
0.0
 40
0.0
 40
0.0
 40
0.0
 40
0.2895788086
 40
0.5490236357
 40
0.7821692774
 40
1.0
 40
1.0
 40
1.0
 40
1.0
 10
15.286766815
 20
7.1567723545
 30
0.0
 10
15.2816257881
 20
7.1597431361
 30
0.0
 10
15.2722977597
 20
7.1661768797
 30
0.0
 10
15.2611495416
 20
7.1779038054
 30
0.0
 10
15.254099172
 20
7.190879844
 30
0.0
 10
15.2524623117
 20
7.200190508
 30
0.0
 10
15.2524635017
 20
7.2046570047
 30
0.0
  0
SPLINE
  5
925
100
AcDbEntity
  8
0
100
AcDbSpline
 62
7
  6
CONTINUOUS
 70
0
 71
3
 72
15
 73
11
 74
0
 42
0.0000001
 43
0.0000001
 44
0.0000000001
 40
0.0
 40
0.0
 40
0.0
 40
0.0
 40
0.1288107934
 40
0.2705209757
 40
0.4177943892
 40
0.5622633255
 40
0.696072018
 40
0.8134834915
 40
0.9130046062
 40
1.0
 40
1.0
 40
1.0
 40
1.0
 10
15.4364006319
 20
7.2432393964
 30
0.0
 10
15.4294084139
 20
7.2472799029
 30
0.0
 10
15.4135762813
 20
7.2538186956
 30
0.0
 10
15.387772058
 20
7.258988045
 30
0.0
 10
15.3604765936
 20
7.2597458826
 30
0.0
 10
15.3339264759
 20
7.256016741
 30
0.0
 10
15.3102395655
 20
7.2481005681
 30
0.0
 10
15.2912624247
 20
7.2365340202
 30
0.0
 10
15.2784040254
 20
7.2219094479
 30
0.0
 10
15.2751036208
 20
7.2101116241
 30
0.0
 10
15.275101185
 20
7.2046575163
 30
0.0
  0
SPLINE
  5
926
100
AcDbEntity
  8
0
100
AcDbSpline
 62
7
  6
CONTINUOUS
 70
0
 71
3
 72
9
 73
5
 74
0
 42
0.0000001
 43
0.0000001
 44
0.0000000001
 40
0.0
 40
0.0
 40
0.0
 40
0.0
 40
0.2668414048
 40
1.0
 40
1.0
 40
1.0
 40
1.0
 10
12.7515414275
 20
9.2730014491
 30
0.0
 10
12.7559173308
 20
9.2724628288
 30
0.0
 10
12.7722030932
 20
9.2697519402
 30
0.0
 10
12.7881811398
 20
9.2642681763
 30
0.0
 10
12.7986696273
 20
9.2582073238
 30
0.0
  0
SPLINE
  5
927
100
AcDbEntity
  8
0
100
AcDbSpline
 62
7
  6
CONTINUOUS
 70
0
 71
3
 72
9
 73
5
 74
0
 42
0.0000001
 43
0.0000001
 44
0.0000000001
 40
0.0
 40
0.0
 40
0.0
 40
0.0
 40
0.2575604967
 40
1.0
 40
1.0
 40
1.0
 40
1.0
 10
12.7986696273
 20
9.2582073238
 30
0.0
 10
12.799545268
 20
9.2577013281
 30
0.0
 10
12.8029105293
 20
9.2556781671
 30
0.0
 10
12.8061346877
 20
9.253416529
 30
0.0
 10
12.8084122084
 20
9.2515967887
 30
0.0
  0
SPLINE
  5
928
100
AcDbEntity
  8
0
100
AcDbSpline
 62
7
  6
CONTINUOUS
 70
0
 71
3
 72
9
 73
5
 74
0
 42
0.0000001
 43
0.0000001
 44
0.0000000001
 40
0.0
 40
0.0
 40
0.0
 40
0.0
 40
0.2668414048
 40
1.0
 40
1.0
 40
1.0
 40
1.0
 10
15.3892724321
 20
7.1937707194
 30
0.0
 10
15.3936483354
 20
7.193232099
 30
0.0
 10
15.4099340979
 20
7.1905212105
 30
0.0
 10
15.4259121444
 20
7.1850374465
 30
0.0
 10
15.4364006319
 20
7.178976594
 30
0.0
  0
SPLINE
  5
929
100
AcDbEntity
  8
0
100
AcDbSpline
 62
7
  6
CONTINUOUS
 70
0
 71
3
 72
9
 73
5
 74
0
 42
0.0000001
 43
0.0000001
 44
0.0000000001
 40
0.0
 40
0.0
 40
0.0
 40
0.0
 40
0.2575604967
 40
1.0
 40
1.0
 40
1.0
 40
1.0
 10
15.4364006319
 20
7.178976594
 30
0.0
 10
15.4372762726
 20
7.1784705984
 30
0.0
 10
15.4406415339
 20
7.1764474373
 30
0.0
 10
15.4438656923
 20
7.1741857993
 30
0.0
 10
15.4461432131
 20
7.172366059
 30
0.0
  0
SPLINE
  5
92A
100
AcDbEntity
  8
0
100
AcDbSpline
 62
7
  6
CONTINUOUS
 70
0
 71
3
 72
11
 73
7
 74
0
 42
0.0000001
 43
0.0000001
 44
0.0000000001
 40
0.0
 40
0.0
 40
0.0
 40
0.0
 40
0.2178326871
 40
0.45098157
 40
0.710429148
 40
1.0
 40
1.0
 40
1.0
 40
1.0
 10
15.4640736005
 20
7.2046041972
 30
0.0
 10
15.4640752099
 20
7.2082078478
 30
0.0
 10
15.4627561168
 20
7.2157202208
 30
0.0
 10
15.4570683141
 20
7.2261900114
 30
0.0
 10
15.4480742043
 20
7.235651745
 30
0.0
 10
15.4405483547
 20
7.2408426032
 30
0.0
 10
15.4364006319
 20
7.2432393964
 30
0.0
  0
SPLINE
  5
92B
100
AcDbEntity
  8
0
100
AcDbSpline
 62
7
  6
CONTINUOUS
 70
0
 71
3
 72
9
 73
5
 74
0
 42
0.0000001
 43
0.0000001
 44
0.0000000001
 40
0.0
 40
0.0
 40
0.0
 40
0.0
 40
0.4737102843
 40
1.0
 40
1.0
 40
1.0
 40
1.0
 10
15.3001238165
 20
7.1773811921
 30
0.0
 10
15.3071755357
 20
7.1818019207
 30
0.0
 10
15.3234339377
 20
7.1889700471
 30
0.0
 10
15.3407249858
 20
7.1926410973
 30
0.0
 10
15.3499023534
 20
7.1937707194
 30
0.0
  0
SPLINE
  5
92C
100
AcDbEntity
  8
0
100
AcDbSpline
 62
7
  6
CONTINUOUS
 70
0
 71
3
 72
10
 73
6
 74
0
 42
0.0000001
 43
0.0000001
 44
0.0000000001
 40
0.0
 40
0.0
 40
0.0
 40
0.0
 40
0.2331784199
 40
0.4745372047
 40
1.0
 40
1.0
 40
1.0
 40
1.0
 10
13.5193253865
 20
8.3320308346
 30
0.0
 10
13.5198426594
 20
8.3221484654
 30
0.0
 10
13.522939469
 20
8.3020892544
 30
0.0
 10
13.5373391559
 20
8.2619603831
 30
0.0
 10
13.5564320805
 20
8.2347487152
 30
0.0
 10
13.5713775742
 20
8.2181978461
 30
0.0
  0
SPLINE
  5
92D
100
AcDbEntity
  8
0
100
AcDbSpline
 62
7
  6
CONTINUOUS
 70
0
 71
3
 72
9
 73
5
 74
0
 42
0.0000001
 43
0.0000001
 44
0.0000000001
 40
0.0
 40
0.0
 40
0.0
 40
0.0
 40
0.2340568174
 40
1.0
 40
1.0
 40
1.0
 40
1.0
 10
13.5753761825
 20
8.213864303
 30
0.0
 10
13.5809498372
 20
8.2079511138
 30
0.0
 10
13.6058620017
 20
8.1837241195
 30
0.0
 10
13.6345531064
 20
8.1635759691
 30
0.0
 10
13.6574981391
 20
8.1501350353
 30
0.0
  0
SPLINE
  5
92E
100
AcDbEntity
  8
0
100
AcDbSpline
 62
7
  6
CONTINUOUS
 70
0
 71
3
 72
11
 73
7
 74
0
 42
0.0000001
 43
0.0000001
 44
0.0000000001
 40
0.0
 40
0.0
 40
0.0
 40
0.0
 40
0.2191838473
 40
0.4529677202
 40
0.7117015847
 40
1.0
 40
1.0
 40
1.0
 40
1.0
 10
15.4867112838
 20
7.2046047087
 30
0.0
 10
15.4867101322
 20
7.2002826188
 30
0.0
 10
15.4851649304
 20
7.1912943247
 30
0.0
 10
15.4785546672
 20
7.1787076848
 30
0.0
 10
15.4680708411
 20
7.1672494055
 30
0.0
 10
15.459261446
 20
7.1609034912
 30
0.0
 10
15.4544009946
 20
7.1579547968
 30
0.0
  0
SPLINE
  5
92F
100
AcDbEntity
  8
0
100
AcDbSpline
 62
7
  6
CONTINUOUS
 70
0
 71
3
 72
11
 73
7
 74
0
 42
0.0000001
 43
0.0000001
 44
0.0000000001
 40
0.0
 40
0.0
 40
0.0
 40
0.0
 40
0.2356933295
 40
0.4984207127
 40
0.7619892772
 40
1.0
 40
1.0
 40
1.0
 40
1.0
 10
15.4544009946
 20
7.1579547968
 30
0.0
 10
15.4427141211
 20
7.1508647107
 30
0.0
 10
15.4152079667
 20
7.140449576
 30
0.0
 10
15.3709805084
 20
7.1352711605
 30
0.0
 10
15.3265522804
 20
7.1398562777
 30
0.0
 10
15.2987186254
 20
7.1498659097
 30
0.0
 10
15.286766815
 20
7.1567723545
 30
0.0
  0
SPLINE
  5
930
100
AcDbEntity
  8
0
100
AcDbSpline
 62
7
  6
CONTINUOUS
 70
0
 71
3
 72
9
 73
5
 74
0
 42
0.0000001
 43
0.0000001
 44
0.0000000001
 40
0.0
 40
0.0
 40
0.0
 40
0.0
 40
0.4737102843
 40
1.0
 40
1.0
 40
1.0
 40
1.0
 10
12.6623928118
 20
9.2566119218
 30
0.0
 10
12.669444531
 20
9.2610326504
 30
0.0
 10
12.6857029331
 20
9.2682007768
 30
0.0
 10
12.7029939812
 20
9.271871827
 30
0.0
 10
12.7121713488
 20
9.2730014491
 30
0.0
  0
SPLINE
  5
931
100
AcDbEntity
  8
0
100
AcDbSpline
 62
7
  6
CONTINUOUS
 70
0
 71
3
 72
11
 73
7
 74
0
 42
0.0000001
 43
0.0000001
 44
0.0000000001
 40
0.0
 40
0.0
 40
0.0
 40
0.0
 40
0.2178326871
 40
0.45098157
 40
0.710429148
 40
1.0
 40
1.0
 40
1.0
 40
1.0
 10
12.8263425959
 20
9.2838349269
 30
0.0
 10
12.8263442053
 20
9.2874385776
 30
0.0
 10
12.8250251122
 20
9.2949509506
 30
0.0
 10
12.8193373094
 20
9.3054207411
 30
0.0
 10
12.8103431997
 20
9.3148824747
 30
0.0
 10
12.8028173501
 20
9.3200733329
 30
0.0
 10
12.7986696273
 20
9.3224701261
 30
0.0
  0
SPLINE
  5
932
100
AcDbEntity
  8
0
100
AcDbSpline
 62
7
  6
CONTINUOUS
 70
0
 71
3
 72
11
 73
7
 74
0
 42
0.0000001
 43
0.0000001
 44
0.0000000001
 40
0.0
 40
0.0
 40
0.0
 40
0.0
 40
0.2895788086
 40
0.5490236357
 40
0.7821692774
 40
1.0
 40
1.0
 40
1.0
 40
1.0
 10
15.453799913
 20
7.2532937036
 30
0.0
 10
15.448658886
 20
7.2562644852
 30
0.0
 10
15.4393308576
 20
7.2626982289
 30
0.0
 10
15.4281826395
 20
7.2744251546
 30
0.0
 10
15.42113227
 20
7.2874011931
 30
0.0
 10
15.4194954096
 20
7.2967118572
 30
0.0
 10
15.4194965997
 20
7.3011783539
 30
0.0
  0
SPLINE
  5
933
100
AcDbEntity
  8
0
100
AcDbSpline
 62
7
  6
CONTINUOUS
 70
0
 71
3
 72
15
 73
11
 74
0
 42
0.0000001
 43
0.0000001
 44
0.0000000001
 40
0.0
 40
0.0
 40
0.0
 40
0.0
 40
0.1288107934
 40
0.2705209757
 40
0.4177943892
 40
0.5622633255
 40
0.696072018
 40
0.8134834915
 40
0.9130046062
 40
1.0
 40
1.0
 40
1.0
 40
1.0
 10
15.6034337298
 20
7.3397607456
 30
0.0
 10
15.5964415119
 20
7.343801252
 30
0.0
 10
15.5806093792
 20
7.3503400447
 30
0.0
 10
15.554805156
 20
7.3555093941
 30
0.0
 10
15.5275096915
 20
7.3562672318
 30
0.0
 10
15.5009595738
 20
7.3525380901
 30
0.0
 10
15.4772726634
 20
7.3446219173
 30
0.0
 10
15.4582955226
 20
7.3330553694
 30
0.0
 10
15.4454371233
 20
7.318430797
 30
0.0
 10
15.4421367188
 20
7.3066329733
 30
0.0
 10
15.4421342829
 20
7.3011788655
 30
0.0
  0
SPLINE
  5
934
100
AcDbEntity
  8
0
100
AcDbSpline
 62
7
  6
CONTINUOUS
 70
0
 71
3
 72
9
 73
5
 74
0
 42
0.0000001
 43
0.0000001
 44
0.0000000001
 40
0.0
 40
0.0
 40
0.0
 40
0.0
 40
0.2668414048
 40
1.0
 40
1.0
 40
1.0
 40
1.0
 10
15.55630553
 20
7.2902920685
 30
0.0
 10
15.5606814333
 20
7.2897534482
 30
0.0
 10
15.5769671958
 20
7.2870425596
 30
0.0
 10
15.5929452423
 20
7.2815587957
 30
0.0
 10
15.6034337298
 20
7.2754979432
 30
0.0
  0
SPLINE
  5
935
100
AcDbEntity
  8
0
100
AcDbSpline
 62
7
  6
CONTINUOUS
 70
0
 71
3
 72
9
 73
5
 74
0
 42
0.0000001
 43
0.0000001
 44
0.0000000001
 40
0.0
 40
0.0
 40
0.0
 40
0.0
 40
0.2575604967
 40
1.0
 40
1.0
 40
1.0
 40
1.0
 10
15.6034337298
 20
7.2754979432
 30
0.0
 10
15.6043093705
 20
7.2749919475
 30
0.0
 10
15.6076746318
 20
7.2729687865
 30
0.0
 10
15.6108987902
 20
7.2707071484
 30
0.0
 10
15.613176311
 20
7.2688874081
 30
0.0
  0
SPLINE
  5
936
100
AcDbEntity
  8
0
100
AcDbSpline
 62
7
  6
CONTINUOUS
 70
0
 71
3
 72
11
 73
7
 74
0
 42
0.0000001
 43
0.0000001
 44
0.0000000001
 40
0.0
 40
0.0
 40
0.0
 40
0.0
 40
0.2191838473
 40
0.4529677202
 40
0.7117015847
 40
1.0
 40
1.0
 40
1.0
 40
1.0
 10
12.8489802791
 20
9.2838354385
 30
0.0
 10
12.8489791276
 20
9.2795133485
 30
0.0
 10
12.8474339257
 20
9.2705250545
 30
0.0
 10
12.8408236626
 20
9.2579384145
 30
0.0
 10
12.8303398365
 20
9.2464801353
 30
0.0
 10
12.8215304414
 20
9.240134221
 30
0.0
 10
12.81666999
 20
9.2371855265
 30
0.0
  0
SPLINE
  5
937
100
AcDbEntity
  8
0
100
AcDbSpline
 62
7
  6
CONTINUOUS
 70
0
 71
3
 72
11
 73
7
 74
0
 42
0.0000001
 43
0.0000001
 44
0.0000000001
 40
0.0
 40
0.0
 40
0.0
 40
0.0
 40
0.2356933295
 40
0.4984207127
 40
0.7619892772
 40
1.0
 40
1.0
 40
1.0
 40
1.0
 10
12.81666999
 20
9.2371855265
 30
0.0
 10
12.8049831165
 20
9.2300954405
 30
0.0
 10
12.7774769621
 20
9.2196803058
 30
0.0
 10
12.7332495037
 20
9.2145018902
 30
0.0
 10
12.6888212758
 20
9.2190870074
 30
0.0
 10
12.6609876207
 20
9.2290966395
 30
0.0
 10
12.6490358104
 20
9.2360030842
 30
0.0
  0
SPLINE
  5
938
100
AcDbEntity
  8
0
100
AcDbSpline
 62
7
  6
CONTINUOUS
 70
0
 71
3
 72
9
 73
5
 74
0
 42
0.0000001
 43
0.0000001
 44
0.0000000001
 40
0.0
 40
0.0
 40
0.0
 40
0.0
 40
0.4737102843
 40
1.0
 40
1.0
 40
1.0
 40
1.0
 10
12.4953597139
 20
9.1600905726
 30
0.0
 10
12.5024114331
 20
9.1645113013
 30
0.0
 10
12.5186698351
 20
9.1716794276
 30
0.0
 10
12.5359608833
 20
9.1753504779
 30
0.0
 10
12.5451382508
 20
9.1764801
 30
0.0
  0
SPLINE
  5
939
100
AcDbEntity
  8
0
100
AcDbSpline
 62
7
  6
CONTINUOUS
 70
0
 71
3
 72
11
 73
7
 74
0
 42
0.0000001
 43
0.0000001
 44
0.0000000001
 40
0.0
 40
0.0
 40
0.0
 40
0.0
 40
0.2178326871
 40
0.45098157
 40
0.710429148
 40
1.0
 40
1.0
 40
1.0
 40
1.0
 10
12.659309498
 20
9.1873135777
 30
0.0
 10
12.6593111074
 20
9.1909172284
 30
0.0
 10
12.6579920143
 20
9.1984296014
 30
0.0
 10
12.6523042115
 20
9.208899392
 30
0.0
 10
12.6433101017
 20
9.2183611256
 30
0.0
 10
12.6357842522
 20
9.2235519838
 30
0.0
 10
12.6316365294
 20
9.225948777
 30
0.0
  0
SPLINE
  5
93A
100
AcDbEntity
  8
0
100
AcDbSpline
 62
7
  6
CONTINUOUS
 70
0
 71
3
 72
11
 73
7
 74
0
 42
0.0000001
 43
0.0000001
 44
0.0000000001
 40
0.0
 40
0.0
 40
0.0
 40
0.0
 40
0.2895788086
 40
0.5490236357
 40
0.7821692774
 40
1.0
 40
1.0
 40
1.0
 40
1.0
 10
15.6208330109
 20
7.3498150528
 30
0.0
 10
15.6156919839
 20
7.3527858344
 30
0.0
 10
15.6063639555
 20
7.359219578
 30
0.0
 10
15.5952157374
 20
7.3709465037
 30
0.0
 10
15.5881653679
 20
7.3839225423
 30
0.0
 10
15.5865285075
 20
7.3932332063
 30
0.0
 10
15.5865296976
 20
7.3976997031
 30
0.0
  0
SPLINE
  5
93B
100
AcDbEntity
  8
0
100
AcDbSpline
 62
7
  6
CONTINUOUS
 70
0
 71
3
 72
15
 73
11
 74
0
 42
0.0000001
 43
0.0000001
 44
0.0000000001
 40
0.0
 40
0.0
 40
0.0
 40
0.0
 40
0.1288107934
 40
0.2705209757
 40
0.4177943892
 40
0.5622633255
 40
0.696072018
 40
0.8134834915
 40
0.9130046062
 40
1.0
 40
1.0
 40
1.0
 40
1.0
 10
15.7704668278
 20
7.4362820947
 30
0.0
 10
15.7634746098
 20
7.4403226012
 30
0.0
 10
15.7476424771
 20
7.4468613939
 30
0.0
 10
15.7218382539
 20
7.4520307433
 30
0.0
 10
15.6945427895
 20
7.4527885809
 30
0.0
 10
15.6679926717
 20
7.4490594393
 30
0.0
 10
15.6443057613
 20
7.4411432664
 30
0.0
 10
15.6253286206
 20
7.4295767185
 30
0.0
 10
15.6124702212
 20
7.4149521462
 30
0.0
 10
15.6091698167
 20
7.4031543224
 30
0.0
 10
15.6091673808
 20
7.3977002146
 30
0.0
  0
SPLINE
  5
93C
100
AcDbEntity
  8
0
100
AcDbSpline
 62
7
  6
CONTINUOUS
 70
0
 71
3
 72
9
 73
5
 74
0
 42
0.0000001
 43
0.0000001
 44
0.0000000001
 40
0.0
 40
0.0
 40
0.0
 40
0.0
 40
0.2668414048
 40
1.0
 40
1.0
 40
1.0
 40
1.0
 10
15.723338628
 20
7.3868134177
 30
0.0
 10
15.7277145312
 20
7.3862747973
 30
0.0
 10
15.7440002937
 20
7.3835639088
 30
0.0
 10
15.7599783402
 20
7.3780801448
 30
0.0
 10
15.7704668278
 20
7.3720192923
 30
0.0
  0
SPLINE
  5
93D
100
AcDbEntity
  8
0
100
AcDbSpline
 62
7
  6
CONTINUOUS
 70
0
 71
3
 72
9
 73
5
 74
0
 42
0.0000001
 43
0.0000001
 44
0.0000000001
 40
0.0
 40
0.0
 40
0.0
 40
0.0
 40
0.2575604967
 40
1.0
 40
1.0
 40
1.0
 40
1.0
 10
15.7704668278
 20
7.3720192923
 30
0.0
 10
15.7713424685
 20
7.3715132967
 30
0.0
 10
15.7747077297
 20
7.3694901356
 30
0.0
 10
15.7779318882
 20
7.3672284976
 30
0.0
 10
15.7802094089
 20
7.3654087573
 30
0.0
  0
SPLINE
  5
93E
100
AcDbEntity
  8
0
100
AcDbSpline
 62
7
  6
CONTINUOUS
 70
0
 71
3
 72
11
 73
7
 74
0
 42
0.0000001
 43
0.0000001
 44
0.0000000001
 40
0.0
 40
0.0
 40
0.0
 40
0.0
 40
0.2191838473
 40
0.4529677202
 40
0.7117015847
 40
1.0
 40
1.0
 40
1.0
 40
1.0
 10
12.6819471812
 20
9.1873140893
 30
0.0
 10
12.6819460297
 20
9.1829919993
 30
0.0
 10
12.6804008278
 20
9.1740037053
 30
0.0
 10
12.6737905646
 20
9.1614170654
 30
0.0
 10
12.6633067386
 20
9.1499587861
 30
0.0
 10
12.6544973435
 20
9.1436128718
 30
0.0
 10
12.649636892
 20
9.1406641773
 30
0.0
  0
SPLINE
  5
93F
100
AcDbEntity
  8
0
100
AcDbSpline
 62
7
  6
CONTINUOUS
 70
0
 71
3
 72
11
 73
7
 74
0
 42
0.0000001
 43
0.0000001
 44
0.0000000001
 40
0.0
 40
0.0
 40
0.0
 40
0.0
 40
0.2356933295
 40
0.4984207127
 40
0.7619892772
 40
1.0
 40
1.0
 40
1.0
 40
1.0
 10
12.649636892
 20
9.1406641773
 30
0.0
 10
12.6379500186
 20
9.1335740913
 30
0.0
 10
12.6104438642
 20
9.1231589566
 30
0.0
 10
12.5662164058
 20
9.117980541
 30
0.0
 10
12.5217881779
 20
9.1225656583
 30
0.0
 10
12.4939545228
 20
9.1325752903
 30
0.0
 10
12.4820027125
 20
9.139481735
 30
0.0
  0
SPLINE
  5
940
100
AcDbEntity
  8
0
100
AcDbSpline
 62
7
  6
CONTINUOUS
 70
0
 71
3
 72
9
 73
5
 74
0
 42
0.0000001
 43
0.0000001
 44
0.0000000001
 40
0.0
 40
0.0
 40
0.0
 40
0.0
 40
0.4737102843
 40
1.0
 40
1.0
 40
1.0
 40
1.0
 10
12.328326616
 20
9.0635692235
 30
0.0
 10
12.3353783352
 20
9.0679899521
 30
0.0
 10
12.3516367372
 20
9.0751580785
 30
0.0
 10
12.3689277854
 20
9.0788291287
 30
0.0
 10
12.3781051529
 20
9.0799587508
 30
0.0
  0
SPLINE
  5
941
100
AcDbEntity
  8
0
100
AcDbSpline
 62
7
  6
CONTINUOUS
 70
0
 71
3
 72
11
 73
7
 74
0
 42
0.0000001
 43
0.0000001
 44
0.0000000001
 40
0.0
 40
0.0
 40
0.0
 40
0.0
 40
0.2178326871
 40
0.45098157
 40
0.710429148
 40
1.0
 40
1.0
 40
1.0
 40
1.0
 10
12.4922764001
 20
9.0907922286
 30
0.0
 10
12.4922780095
 20
9.0943958792
 30
0.0
 10
12.4909589163
 20
9.1019082522
 30
0.0
 10
12.4852711136
 20
9.1123780428
 30
0.0
 10
12.4762770038
 20
9.1218397764
 30
0.0
 10
12.4687511542
 20
9.1270306346
 30
0.0
 10
12.4646034315
 20
9.1294274278
 30
0.0
  0
SPLINE
  5
942
100
AcDbEntity
  8
0
100
AcDbSpline
 62
7
  6
CONTINUOUS
 70
0
 71
3
 72
9
 73
5
 74
0
 42
0.0000001
 43
0.0000001
 44
0.0000000001
 40
0.0
 40
0.0
 40
0.0
 40
0.0
 40
0.4849883885
 40
1.0
 40
1.0
 40
1.0
 40
1.0
 10
12.23473964
 20
8.7683487686
 30
0.0
 10
12.4568682179
 20
8.6992517385
 30
0.0
 10
12.9062587211
 20
8.5281613434
 30
0.0
 10
13.3345937561
 20
8.3103705396
 30
0.0
 10
13.5494011592
 20
8.1883840161
 30
0.0
  0
LINE
  5
943
100
AcDbEntity
  8
0
100
AcDbLine
 62
7
  6
CONTINUOUS
 10
13.5494011592
 20
8.1883840161
 11
13.5527484999
 21
8.1864820364
  0
SPLINE
  5
944
100
AcDbEntity
  8
0
100
AcDbSpline
 62
7
  6
CONTINUOUS
 70
0
 71
3
 72
9
 73
5
 74
0
 42
0.0000001
 43
0.0000001
 44
0.0000000001
 40
0.0
 40
0.0
 40
0.0
 40
0.0
 40
0.4843875845
 40
1.0
 40
1.0
 40
1.0
 40
1.0
 10
13.5527484999
 20
8.1864820364
 30
0.0
 10
13.8632954698
 20
8.0099284761
 30
0.0
 10
14.4805265061
 20
7.602554836
 30
0.0
 10
15.0480106008
 20
7.1292622404
 30
0.0
 10
15.3278291183
 20
6.8717847769
 30
0.0
  0
SPLINE
  5
945
100
AcDbEntity
  8
0
100
AcDbSpline
 62
7
  6
CONTINUOUS
 70
0
 71
3
 72
11
 73
7
 74
0
 42
0.0000001
 43
0.0000001
 44
0.0000000001
 40
0.0
 40
0.0
 40
0.0
 40
0.0
 40
0.2896511071
 40
0.5491106448
 40
0.782227315
 40
1.0
 40
1.0
 40
1.0
 40
1.0
 10
15.8010895624
 20
6.2584352601
 30
0.0
 10
15.8010895624
 20
6.2514605513
 30
0.0
 10
15.8021498263
 20
6.2381933967
 30
0.0
 10
15.8075212859
 20
6.2199654396
 30
0.0
 10
15.816569294
 20
6.2051720712
 30
0.0
 10
15.8250729943
 20
6.1980379982
 30
0.0
 10
15.8296142049
 20
6.1954158083
 30
0.0
  0
SPLINE
  5
946
100
AcDbEntity
  8
0
100
AcDbSpline
 62
7
  6
CONTINUOUS
 70
0
 71
3
 72
11
 73
7
 74
0
 42
0.0000001
 43
0.0000001
 44
0.0000000001
 40
0.0
 40
0.0
 40
0.0
 40
0.0
 40
0.275928726
 40
0.5356069341
 40
0.7771725681
 40
1.0
 40
1.0
 40
1.0
 40
1.0
 10
14.0432650557
 20
6.575801048
 30
0.0
 10
13.9736184963
 20
6.6400131872
 30
0.0
 10
13.8323585523
 20
6.7583197076
 30
0.0
 10
13.6099100161
 20
6.9067226112
 30
0.0
 10
13.3870239328
 20
7.0183269107
 30
0.0
 10
13.2348678214
 20
7.0685732794
 30
0.0
 10
13.1603758239
 20
7.0859853221
 30
0.0
  0
SPLINE
  5
947
100
AcDbEntity
  8
0
100
AcDbSpline
 62
7
  6
CONTINUOUS
 70
0
 71
3
 72
10
 73
6
 74
0
 42
0.0000001
 43
0.0000001
 44
0.0000000001
 40
0.0
 40
0.0
 40
0.0
 40
0.0
 40
0.6209935801
 40
0.8408842497
 40
1.0
 40
1.0
 40
1.0
 40
1.0
 10
15.9969326017
 20
6.221544246
 30
0.0
 10
15.9994526758
 20
6.2200918434
 30
0.0
 10
16.002942166
 20
6.2182097155
 30
0.0
 10
16.0073649203
 20
6.2166670048
 30
0.0
 10
16.009146508
 20
6.2163764246
 30
0.0
 10
16.0098905821
 20
6.216418748
 30
0.0
  0
SPLINE
  5
948
100
AcDbEntity
  8
0
100
AcDbSpline
 62
7
  6
CONTINUOUS
 70
0
 71
3
 72
9
 73
5
 74
0
 42
0.0000001
 43
0.0000001
 44
0.0000000001
 40
0.0
 40
0.0
 40
0.0
 40
0.0
 40
0.4999947045
 40
1.0
 40
1.0
 40
1.0
 40
1.0
 10
16.0098905821
 20
6.216418748
 30
0.0
 10
16.0158747678
 20
6.2242341557
 30
0.0
 10
16.0266952158
 20
6.2407494761
 30
0.0
 10
16.0355877244
 20
6.2583779038
 30
0.0
 10
16.039364039
 20
6.267468263
 30
0.0
  0
SPLINE
  5
949
100
AcDbEntity
  8
0
100
AcDbSpline
 62
7
  6
CONTINUOUS
 70
0
 71
3
 72
10
 73
6
 74
0
 42
0.0000001
 43
0.0000001
 44
0.0000000001
 40
0.0
 40
0.0
 40
0.0
 40
0.0
 40
0.1589263567
 40
0.3787902423
 40
1.0
 40
1.0
 40
1.0
 40
1.0
 10
16.039364039
 20
6.267468263
 30
0.0
 10
16.0390263998
 20
6.2681312875
 30
0.0
 10
16.0378798276
 20
6.2695228633
 30
0.0
 10
16.0343257982
 20
6.2725704298
 30
0.0
 10
16.0309484419
 20
6.2746447758
 30
0.0
 10
16.0284286647
 20
6.2760970168
 30
0.0
  0
SPLINE
  5
94A
100
AcDbEntity
  8
0
100
AcDbSpline
 62
7
  6
CONTINUOUS
 70
0
 71
3
 72
9
 73
5
 74
0
 42
0.0000001
 43
0.0000001
 44
0.0000000001
 40
0.0
 40
0.0
 40
0.0
 40
0.0
 40
0.5435004301
 40
1.0
 40
1.0
 40
1.0
 40
1.0
 10
15.9139936428
 20
6.1950220237
 30
0.0
 10
15.9191312332
 20
6.1916109036
 30
0.0
 10
15.9287666616
 20
6.1856110285
 30
0.0
 10
15.9387617594
 20
6.1802009233
 30
0.0
 10
15.9434670997
 20
6.1780354322
 30
0.0
  0
SPLINE
  5
94B
100
AcDbEntity
  8
0
100
AcDbSpline
 62
7
  6
CONTINUOUS
 70
0
 71
3
 72
9
 73
5
 74
0
 42
0.0000001
 43
0.0000001
 44
0.0000000001
 40
0.0
 40
0.0
 40
0.0
 40
0.0
 40
0.7483490745
 40
1.0
 40
1.0
 40
1.0
 40
1.0
 10
15.9434670997
 20
6.1780354322
 30
0.0
 10
15.9506913915
 20
6.1831752497
 30
0.0
 10
15.9592357555
 20
6.1917937339
 30
0.0
 10
15.965660834
 20
6.2017530393
 30
0.0
 10
15.9671515686
 20
6.204335049
 30
0.0
  0
SPLINE
  5
94C
100
AcDbEntity
  8
0
100
AcDbSpline
 62
7
  6
CONTINUOUS
 70
0
 71
3
 72
9
 73
5
 74
0
 42
0.0000001
 43
0.0000001
 44
0.0000000001
 40
0.0
 40
0.0
 40
0.0
 40
0.0
 40
0.2868532259
 40
1.0
 40
1.0
 40
1.0
 40
1.0
 10
15.9139936428
 20
6.271687532
 30
0.0
 10
15.9159876695
 20
6.2701616862
 30
0.0
 10
15.922999925
 20
6.2649265606
 30
0.0
 10
15.9302472109
 20
6.2599773958
 30
0.0
 10
15.9356555056
 20
6.256860395
 30
0.0
  0
SPLINE
  5
94D
100
AcDbEntity
  8
0
100
AcDbSpline
 62
7
  6
CONTINUOUS
 70
0
 71
3
 72
9
 73
5
 74
0
 42
0.0000001
 43
0.0000001
 44
0.0000000001
 40
0.0
 40
0.0
 40
0.0
 40
0.0
 40
0.2516354252
 40
1.0
 40
1.0
 40
1.0
 40
1.0
 10
16.0284286647
 20
6.3104700723
 30
0.0
 10
16.0299194117
 20
6.313052139
 30
0.0
 10
16.0353324564
 20
6.3235968595
 30
0.0
 10
16.0385243666
 20
6.3353066005
 30
0.0
 10
16.039364039
 20
6.3441337713
 30
0.0
  0
SPLINE
  5
94E
100
AcDbEntity
  8
0
100
AcDbSpline
 62
7
  6
CONTINUOUS
 70
0
 71
3
 72
9
 73
5
 74
0
 42
0.0000001
 43
0.0000001
 44
0.0000000001
 40
0.0
 40
0.0
 40
0.0
 40
0.0
 40
0.4564710679
 40
1.0
 40
1.0
 40
1.0
 40
1.0
 10
16.039364039
 20
6.3441337713
 30
0.0
 10
16.0351302804
 20
6.3471172483
 30
0.0
 10
16.0254376791
 20
6.353051756
 30
0.0
 10
16.0154169289
 20
6.3583829344
 30
0.0
 10
16.0098905821
 20
6.3611203627
 30
0.0
  0
SPLINE
  5
94F
100
AcDbEntity
  8
0
100
AcDbSpline
 62
7
  6
CONTINUOUS
 70
0
 71
3
 72
9
 73
5
 74
0
 42
0.0000001
 43
0.0000001
 44
0.0000000001
 40
0.0
 40
0.0
 40
0.0
 40
0.0
 40
0.2108619801
 40
1.0
 40
1.0
 40
1.0
 40
1.0
 10
15.9671515686
 20
6.3114131658
 30
0.0
 10
15.9655522368
 20
6.3123349139
 30
0.0
 10
15.9578565677
 20
6.316513467
 30
0.0
 10
15.9498475891
 20
6.3200886472
 30
0.0
 10
15.9434670997
 20
6.322737047
 30
0.0
  0
SPLINE
  5
950
100
AcDbEntity
  8
0
100
AcDbSpline
 62
7
  6
CONTINUOUS
 70
0
 71
3
 72
11
 73
7
 74
0
 42
0.0000001
 43
0.0000001
 44
0.0000000001
 40
0.0
 40
0.0
 40
0.0
 40
0.0
 40
0.3013701972
 40
0.5656017138
 40
0.7946679175
 40
1.0
 40
1.0
 40
1.0
 40
1.0
 10
13.605300296
 20
8.9230358039
 30
0.0
 10
13.6020816546
 20
8.9211758874
 30
0.0
 10
13.5962701248
 20
8.9172505072
 30
0.0
 10
13.5892574024
 20
8.9102959524
 30
0.0
 10
13.584776736
 20
8.9027984278
 30
0.0
 10
13.5836835181
 20
8.8974080221
 30
0.0
 10
13.5836829305
 20
8.894875263
 30
0.0
  0
SPLINE
  5
951
100
AcDbEntity
  8
0
100
AcDbSpline
 62
7
  6
CONTINUOUS
 70
0
 71
3
 72
9
 73
5
 74
0
 42
0.0000001
 43
0.0000001
 44
0.0000000001
 40
0.0
 40
0.0
 40
0.0
 40
0.0
 40
0.525563497
 40
1.0
 40
1.0
 40
1.0
 40
1.0
 10
13.1603758239
 20
7.0859853221
 30
0.0
 10
13.1542154529
 20
7.0874252707
 30
0.0
 10
13.1419748084
 20
7.0886060256
 30
0.0
 10
13.1300783481
 20
7.0849383354
 30
0.0
 10
13.1251346855
 20
7.0820790414
 30
0.0
  0
SPLINE
  5
952
100
AcDbEntity
  8
0
100
AcDbSpline
 62
7
  6
CONTINUOUS
 70
0
 71
3
 72
11
 73
7
 74
0
 42
0.0000001
 43
0.0000001
 44
0.0000000001
 40
0.0
 40
0.0
 40
0.0
 40
0.0
 40
0.2917220812
 40
0.5525082841
 40
0.7855612773
 40
1.0
 40
1.0
 40
1.0
 40
1.0
 10
13.6435787143
 20
8.5274760053
 30
0.0
 10
13.6233309876
 20
8.515775702
 30
0.0
 10
13.5864487598
 20
8.4908389046
 30
0.0
 10
13.5413244713
 20
8.4462795708
 30
0.0
 10
13.510969413
 20
8.3975517527
 30
0.0
 10
13.5015859423
 20
8.3621889509
 30
0.0
 10
13.5000527299
 20
8.3450674983
 30
0.0
  0
LINE
  5
953
100
AcDbEntity
  8
0
100
AcDbLine
 62
7
  6
CONTINUOUS
 10
11.903650611
 20
8.8796754174
 11
11.9058150638
 21
8.8791576554
  0
SPLINE
  5
954
100
AcDbEntity
  8
0
100
AcDbSpline
 62
7
  6
CONTINUOUS
 70
0
 71
3
 72
9
 73
5
 74
0
 42
0.0000001
 43
0.0000001
 44
0.0000000001
 40
0.0
 40
0.0
 40
0.0
 40
0.0
 40
0.48242409
 40
1.0
 40
1.0
 40
1.0
 40
1.0
 10
12.0298030782
 20
8.847826827
 30
0.0
 10
12.286350372
 20
8.7796218098
 30
0.0
 10
12.8078397689
 20
8.5979106266
 30
0.0
 10
13.3017739368
 20
8.3523344338
 30
0.0
 10
13.5497013809
 20
8.2121776595
 30
0.0
  0
LINE
  5
955
100
AcDbEntity
  8
0
100
AcDbLine
 62
7
  6
CONTINUOUS
 10
13.5497013809
 20
8.2121776595
 11
13.5600621653
 21
8.2063103642
  0
LINE
  5
956
100
AcDbEntity
  8
0
100
AcDbLine
 62
7
  6
CONTINUOUS
 10
13.5600621653
 20
8.1982771764
 11
13.5567466589
 21
8.2001569209
  0
SPLINE
  5
957
100
AcDbEntity
  8
0
100
AcDbSpline
 62
7
  6
CONTINUOUS
 70
0
 71
3
 72
9
 73
5
 74
0
 42
0.0000001
 43
0.0000001
 44
0.0000000001
 40
0.0
 40
0.0
 40
0.0
 40
0.0
 40
0.5192739607
 40
1.0
 40
1.0
 40
1.0
 40
1.0
 10
13.5567466589
 20
8.2001569209
 30
0.0
 10
13.2874043863
 20
8.3527770253
 30
0.0
 10
12.7510773161
 20
8.6170976836
 30
0.0
 10
12.1824241049
 20
8.8047998211
 30
0.0
 10
11.903650611
 20
8.8713030739
 30
0.0
  0
SPLINE
  5
958
100
AcDbEntity
  8
0
100
AcDbSpline
 62
7
  6
CONTINUOUS
 70
0
 71
3
 72
11
 73
7
 74
0
 42
0.0000001
 43
0.0000001
 44
0.0000000001
 40
0.0
 40
0.0
 40
0.0
 40
0.0
 40
0.2228274319
 40
0.4643930659
 40
0.724071274
 40
1.0
 40
1.0
 40
1.0
 40
1.0
 10
13.1534161114
 20
7.0819635992
 30
0.0
 10
13.227908109
 20
7.0645515565
 30
0.0
 10
13.3800642204
 20
7.0143051878
 30
0.0
 10
13.6029503036
 20
6.9027008883
 30
0.0
 10
13.8253988399
 20
6.7542979847
 30
0.0
 10
13.9666587838
 20
6.6359914643
 30
0.0
 10
14.0363053433
 20
6.5717793251
 30
0.0
  0
SPLINE
  5
959
100
AcDbEntity
  8
0
100
AcDbSpline
 62
7
  6
CONTINUOUS
 70
0
 71
3
 72
11
 73
7
 74
0
 42
0.0000001
 43
0.0000001
 44
0.0000000001
 40
0.0
 40
0.0
 40
0.0
 40
0.0
 40
0.2528153762
 40
0.5151914386
 40
0.7695433062
 40
1.0
 40
1.0
 40
1.0
 40
1.0
 10
14.0363053433
 20
6.5717793251
 30
0.0
 10
14.045197952
 20
6.5635805938
 30
0.0
 10
14.061490475
 20
6.5448293502
 30
0.0
 10
14.0802572639
 20
6.5129330511
 30
0.0
 10
14.0925958754
 20
6.4791765362
 30
0.0
 10
14.0959600211
 20
6.4559570775
 30
0.0
 10
14.0959600211
 20
6.4449314182
 30
0.0
  0
SPLINE
  5
95A
100
AcDbEntity
  8
0
100
AcDbSpline
 62
7
  6
CONTINUOUS
 70
0
 71
3
 72
11
 73
7
 74
0
 42
0.0000001
 43
0.0000001
 44
0.0000000001
 40
0.0
 40
0.0
 40
0.0
 40
0.0
 40
0.2149673164
 40
0.4467679724
 40
0.7069268355
 40
1.0
 40
1.0
 40
1.0
 40
1.0
 10
13.4994397464
 20
8.3393787017
 30
0.0
 10
13.4994376971
 20
8.3572453813
 30
0.0
 10
13.5062080014
 20
8.394630611
 30
0.0
 10
13.5350703676
 20
8.446723703
 30
0.0
 10
13.580538086
 20
8.4942743047
 30
0.0
 10
13.6184908454
 20
8.5207160807
 30
0.0
 10
13.639459425
 20
8.5331115156
 30
0.0
  0
SPLINE
  5
95B
100
AcDbEntity
  8
0
100
AcDbSpline
 62
7
  6
CONTINUOUS
 70
0
 71
3
 72
16
 73
12
 74
0
 42
0.0000001
 43
0.0000001
 44
0.0000000001
 40
0.0
 40
0.0
 40
0.0
 40
0.0
 40
0.0394386742
 40
0.0804292453
 40
0.1734963177
 40
0.2872612955
 40
0.4206029279
 40
0.5674805966
 40
0.7192879035
 40
0.8664846796
 40
1.0
 40
1.0
 40
1.0
 40
1.0
 10
13.7313133146
 20
8.9039006702
 30
0.0
 10
13.7313136528
 20
8.9057827562
 30
0.0
 10
13.7307597666
 20
8.9096438248
 30
0.0
 10
13.7272859485
 20
8.9172646769
 30
0.0
 10
13.7184811894
 20
8.9257066744
 30
0.0
 10
13.7036978217
 20
8.9327626131
 30
0.0
 10
13.685281329
 20
8.9370930529
 30
0.0
 10
13.6646194243
 20
8.9383485177
 30
0.0
 10
13.6433450461
 20
8.9364482592
 30
0.0
 10
13.6232165313
 20
8.9315603225
 30
0.0
 10
13.610817048
 20
8.9262237011
 30
0.0
 10
13.605300296
 20
8.9230358039
 30
0.0
  0
SPLINE
  5
95C
100
AcDbEntity
  8
0
100
AcDbSpline
 62
7
  6
CONTINUOUS
 70
0
 71
3
 72
11
 73
7
 74
0
 42
0.0000001
 43
0.0000001
 44
0.0000000001
 40
0.0
 40
0.0
 40
0.0
 40
0.0
 40
0.2191838473
 40
0.4529677202
 40
0.7117015847
 40
1.0
 40
1.0
 40
1.0
 40
1.0
 10
12.3478809854
 20
8.994271391
 30
0.0
 10
12.3478798338
 20
8.989949301
 30
0.0
 10
12.346334632
 20
8.980961007
 30
0.0
 10
12.3397243688
 20
8.9683743671
 30
0.0
 10
12.3292405427
 20
8.9569160878
 30
0.0
 10
12.3204311477
 20
8.9505701735
 30
0.0
 10
12.3155706962
 20
8.947621479
 30
0.0
  0
SPLINE
  5
95D
100
AcDbEntity
  8
0
100
AcDbSpline
 62
7
  6
CONTINUOUS
 70
0
 71
3
 72
11
 73
7
 74
0
 42
0.0000001
 43
0.0000001
 44
0.0000000001
 40
0.0
 40
0.0
 40
0.0
 40
0.0
 40
0.2356933295
 40
0.4984207127
 40
0.7619892772
 40
1.0
 40
1.0
 40
1.0
 40
1.0
 10
12.3155706962
 20
8.947621479
 30
0.0
 10
12.3038838227
 20
8.940531393
 30
0.0
 10
12.2763776683
 20
8.9301162583
 30
0.0
 10
12.23215021
 20
8.9249378427
 30
0.0
 10
12.187721982
 20
8.9295229599
 30
0.0
 10
12.159888327
 20
8.939532592
 30
0.0
 10
12.1479365167
 20
8.9464390367
 30
0.0
  0
SPLINE
  5
95E
100
AcDbEntity
  8
0
100
AcDbSpline
 62
7
  6
CONTINUOUS
 70
0
 71
3
 72
16
 73
12
 74
0
 42
0.0000001
 43
0.0000001
 44
0.0000000001
 40
0.0
 40
0.0
 40
0.0
 40
0.0
 40
0.1635330389
 40
0.3243606282
 40
0.4765014644
 40
0.6148977544
 40
0.7358297876
 40
0.8378299669
 40
0.9230964495
 40
0.9619098656
 40
1.0
 40
1.0
 40
1.0
 40
1.0
 10
13.2259959695
 20
8.9166945669
 30
0.0
 10
13.213023351
 20
8.9143126837
 30
0.0
 10
13.1870181165
 20
8.9109757474
 30
0.0
 10
13.1485290808
 20
8.9100739444
 30
0.0
 10
13.1121785443
 20
8.9132147645
 30
0.0
 10
13.0796246197
 20
8.9201667226
 30
0.0
 10
13.0522572507
 20
8.9306194103
 30
0.0
 10
13.0311447239
 20
8.9441622328
 30
0.0
 10
13.019187644
 20
8.9585615154
 30
0.0
 10
13.0145868694
 20
8.9709236243
 30
0.0
 10
13.0138516019
 20
8.9771528084
 30
0.0
 10
13.0138540058
 20
8.980224901
 30
0.0
  0
SPLINE
  5
95F
100
AcDbEntity
  8
0
100
AcDbSpline
 62
7
  6
CONTINUOUS
 70
0
 71
3
 72
11
 73
7
 74
0
 42
0.0000001
 43
0.0000001
 44
0.0000000001
 40
0.0
 40
0.0
 40
0.0
 40
0.0
 40
0.2178326871
 40
0.45098157
 40
0.710429148
 40
1.0
 40
1.0
 40
1.0
 40
1.0
 10
12.3252433021
 20
8.9942708794
 30
0.0
 10
12.3252449116
 20
8.9978745301
 30
0.0
 10
12.3239258184
 20
9.0053869031
 30
0.0
 10
12.3182380157
 20
9.0158566936
 30
0.0
 10
12.3092439059
 20
9.0253184272
 30
0.0
 10
12.3017180563
 20
9.0305092854
 30
0.0
 10
12.2975703335
 20
9.0329060787
 30
0.0
  0
SPLINE
  5
960
100
AcDbEntity
  8
0
100
AcDbSpline
 62
7
  6
CONTINUOUS
 70
0
 71
3
 72
9
 73
5
 74
0
 42
0.0000001
 43
0.0000001
 44
0.0000000001
 40
0.0
 40
0.0
 40
0.0
 40
0.0
 40
0.4737102843
 40
1.0
 40
1.0
 40
1.0
 40
1.0
 10
12.1612935181
 20
8.9670478743
 30
0.0
 10
12.1683452373
 20
8.971468603
 30
0.0
 10
12.1846036393
 20
8.9786367293
 30
0.0
 10
12.2018946875
 20
8.9823077796
 30
0.0
 10
12.211072055
 20
8.9834374017
 30
0.0
  0
SPLINE
  5
961
100
AcDbEntity
  8
0
100
AcDbSpline
 62
7
  6
CONTINUOUS
 70
0
 71
3
 72
11
 73
7
 74
0
 42
0.0000001
 43
0.0000001
 44
0.0000000001
 40
0.0
 40
0.0
 40
0.0
 40
0.0
 40
0.2191838473
 40
0.4529677202
 40
0.7117015847
 40
1.0
 40
1.0
 40
1.0
 40
1.0
 10
12.5149140833
 20
9.0907927402
 30
0.0
 10
12.5149129317
 20
9.0864706502
 30
0.0
 10
12.5133677299
 20
9.0774823561
 30
0.0
 10
12.5067574667
 20
9.0648957162
 30
0.0
 10
12.4962736407
 20
9.0534374369
 30
0.0
 10
12.4874642456
 20
9.0470915226
 30
0.0
 10
12.4826037941
 20
9.0441428282
 30
0.0
  0
SPLINE
  5
962
100
AcDbEntity
  8
0
100
AcDbSpline
 62
7
  6
CONTINUOUS
 70
0
 71
3
 72
11
 73
7
 74
0
 42
0.0000001
 43
0.0000001
 44
0.0000000001
 40
0.0
 40
0.0
 40
0.0
 40
0.0
 40
0.2356933295
 40
0.4984207127
 40
0.7619892772
 40
1.0
 40
1.0
 40
1.0
 40
1.0
 10
12.4826037941
 20
9.0441428282
 30
0.0
 10
12.4709169207
 20
9.0370527422
 30
0.0
 10
12.4434107662
 20
9.0266376075
 30
0.0
 10
12.3991833079
 20
9.0214591919
 30
0.0
 10
12.35475508
 20
9.0260443091
 30
0.0
 10
12.3269214249
 20
9.0360539412
 30
0.0
 10
12.3149696146
 20
9.0429603859
 30
0.0
  0
ELLIPSE
  5
963
100
AcDbEntity
  8
0
100
AcDbEllipse
 62
7
  6
CONTINUOUS
 10
1.5125303628
 20
6.0348559873
 30
0.0
 11
0.1777805118
 21
0.0
 31
0.0
 40
0.1666666667
 41
-0.9799146525
 42
0.9799146525
  0
ELLIPSE
  5
964
100
AcDbEntity
  8
0
100
AcDbEllipse
 62
7
  6
CONTINUOUS
 10
13.1916323894
 20
9.0595090294
 30
0.0
 11
0.1774677392
 21
0.0221466502
 31
0.0
 40
0.4759619687
 41
3.0826019418
 42
4.8475786674
  0
ENDSEC
  0
SECTION
  2
OBJECTS
  0
DICTIONARY
  5
C
100
AcDbDictionary
280
0
281
1
  3
ACAD_GROUP
350
D
  3
ACAD_MLINESTYLE
350
17
  3
ACAD_LAYOUT
350
1A
  3
ACAD_PLOTSETTINGS
350
19
  3
ACAD_PLOTSTYLENAME
350
E
  0
DICTIONARY
  5
D
102
{ACAD_REACTORS
330
C
102
}
100
AcDbDictionary
280
0
281
1
  0
ACDBDICTIONARYWDFLT
  5
E
102
{ACAD_REACTORS
330
C
102
}
100
AcDbDictionary
281
1
  3
Normal
350
F
100
AcDbDictionaryWithDefault
340
F
  0
DICTIONARY
  5
17
102
{ACAD_REACTORS
330
C
102
}
100
AcDbDictionary
280
0
281
1
  3
Standard
350
18
  0
DICTIONARY
  5
19
102
{ACAD_REACTORS
330
C
102
}
100
AcDbDictionary
281
1
  0
DICTIONARY
  5
1A
102
{ACAD_REACTORS
330
C
102
}
100
AcDbDictionary
281
1
  3
Model
350
965
  3
Layout1
350
966
  0
ACDBPLACEHOLDER
  5
F
102
{ACAD_REACTORS
330
E
102
}
  0
MLINESTYLE
  5
18
102
{ACAD_REACTORS
330
17
102
}
100
AcDbMlineStyle
  2
STANDARD
 70
0
  3

 62
256
 51
90.0
 52
90.0
 71
2
 49
0.5
 62
256
  6
BYLAYER
 49
-0.5
 62
256
  6
BYLAYER
  0
LAYOUT
  5
965
102
{ACAD_REACTORS
330
1A
102
}
100
AcDbPlotSettings
  1

  2
none_device
  4
ANSI_B_(17.00_x_11.00_Inches)
  6

 40
0.0
 41
0.0
 42
0.0
 43
0.0
 44
431.8
 45
279.4
 46
0.0
 47
0.0
 48
0.0
 49
0.0
140
0.0
141
0.0
142
1.0
143
1.0
 70
1024
 72
0
 73
0
 74
0
  7

 75
0
147
1.0
148
0.0
149
0.0
100
AcDbLayout
  1
Model
 70
0
 71
0
 10
0.0
 20
0.0
 11
17.0
 21
11.0
 12
0.0
 22
0.0
 32
0.0
 14
0.0
 24
0.0
 34
0.0
 15
0.0
 25
0.0
 35
0.0
146
0.0
 13
0.0
 23
0.0
 33
0.0
 16
1.0
 26
0.0
 36
0.0
 17
0.0
 27
1.0
 37
0.0
 76
0
330
1FF
345
0
346
0
  0
LAYOUT
  5
966
102
{ACAD_REACTORS
330
1A
102
}
100
AcDbPlotSettings
  1

  2
none_device
  4
ANSI_B_(17.00_x_11.00_Inches)
  6

 40
0.0
 41
0.0
 42
0.0
 43
0.0
 44
431.8
 45
279.4
 46
0.0
 47
0.0
 48
0.0
 49
0.0
140
0.0
141
0.0
142
1.0
143
1.0
 70
0
 72
0
 73
0
 74
0
  7

 75
0
147
1.0
148
0.0
149
0.0
100
AcDbLayout
  1
Layout1
 70
0
 71
1
 10
0.0
 20
0.0
 11
17.0
 21
11.0
 12
0.0
 22
0.0
 32
0.0
 14
0.0
 24
0.0
 34
0.0
 15
0.0
 25
0.0
 35
0.0
146
0.0
 13
0.0
 23
0.0
 33
0.0
 16
1.0
 26
0.0
 36
0.0
 17
0.0
 27
1.0
 37
0.0
 76
0
330
200
345
0
346
0
  0
ENDSEC
  0
EOF
