999
DXF file: 1606-xl120d.dxf
999
Pro/ENGINEER 2010140 by Parametric Technology Corporation
  0
SECTION
  2
HEADER
  9
$ACADVER
  1
AC1018
  9
$DWGCODEPAGE
  3
ANSI_1252
  9
$EXTMAX
 10
17.0
 20
11.0
 30
0.0
  9
$EXTMIN
 10
0.0
 20
0.0
 30
0.0
  9
$LIMMIN
 10
0.0
 20
0.0
  9
$LIMMAX
 10
17.0
 20
11.0
  9
$VIEWCTR
 10
8.5
 20
5.5
  9
$VIEWSIZE
 40
11.0
  9
$CLAYER
  8
0
  9
$LTSCALE
 40
0.935
  9
$CELTYPE
  6
BYLAYER
  9
$DIMSCALE
 40
1.0
  9
$DIMASZ
 40
0.1875
  9
$DIMEXO
 40
0.10625
  9
$DIMDLI
 40
0.646
  9
$DIMEXE
 40
0.306
  9
$DIMCEN
 40
0.153
  9
$DIMLFAC
 40
1.0
  9
$DIMBLK
  1
_CLOSED
  9
$DIMTXT
 40
0.15625
  9
$DIMTOL
 70
0
  9
$DIMLIM
 70
0
  9
$DIMTFAC
 40
1.0
  9
$PDMODE
 70
3
  9
$PDSIZE
 40
0.3125
  9
$HANDSEED
  5
6E1
  9
$TILEMODE
 70
1
  9
$MEASUREMENT
 70
0
  9
$INSUNITS
 70
1
  0
ENDSEC
  0
SECTION
  2
CLASSES
  0
CLASS
  1
ACDBDICTIONARYWDFLT
  2
AcDbDictionaryWithDefault
  3
AutoCAD 2000
 90
0
 91
1
280
0
281
0
  0
CLASS
  1
ACDBPLACEHOLDER
  2
AcDbPlaceHolder
  3
AutoCAD 2000
 90
0
 91
1
280
0
281
0
  0
CLASS
  1
LAYOUT
  2
AcDbLayout
  3
AutoCAD 2000
 90
0
 91
0
280
0
281
0
  0
ENDSEC
  0
SECTION
  2
TABLES
  0
TABLE
  2
VPORT
  5
8
100
AcDbSymbolTable
 70
2
  0
VPORT
  5
1F4
100
AcDbSymbolTableRecord
100
AcDbViewportTableRecord
  2
*ACTIVE
 70
0
 10
0.0
 20
0.0
 11
1.0
 21
1.0
 12
8.5
 22
5.5
 13
0.0
 23
0.0
 14
1.0
 24
1.0
 15
0.0
 25
0.0
 16
0.0
 26
0.0
 36
1.0
 17
0.0
 27
0.0
 37
0.0
 40
11.0
 41
1.5454545455
 42
50.0
 43
0.0
 44
0.0
 50
0.0
 51
0.0
 71
0
 72
100
 73
1
 74
1
 75
0
 76
0
 77
0
 78
0
  0
ENDTAB
  0
TABLE
  2
LTYPE
  5
5
100
AcDbSymbolTable
 70
6
  0
LTYPE
  5
14
100
AcDbSymbolTableRecord
100
AcDbLinetypeTableRecord
  2
BYBLOCK
 70
0
  3

 72
65
 73
0
 40
0.0
  0
LTYPE
  5
15
100
AcDbSymbolTableRecord
100
AcDbLinetypeTableRecord
  2
BYLAYER
 70
0
  3

 72
65
 73
0
 40
0.0
  0
LTYPE
  5
16
100
AcDbSymbolTableRecord
100
AcDbLinetypeTableRecord
  2
CONTINUOUS
 70
64
  3
Solid line
 72
65
 73
0
 40
0.0
  0
LTYPE
  5
1F5
100
AcDbSymbolTableRecord
100
AcDbLinetypeTableRecord
  2
CENTER
 70
64
  3
____ _ ____ _ ____ _ ____ _ ____ _ ____ _ ____
 72
65
 73
4
 40
0.6
 49
0.375
 74
0
 49
-0.075
 74
0
 49
0.075
 74
0
 49
-0.075
 74
0
  0
LTYPE
  5
1F6
100
AcDbSymbolTableRecord
100
AcDbLinetypeTableRecord
  2
HIDDEN
 70
64
  3
- - - - - - - - - - - - - - - - - - - -
 72
65
 73
2
 40
0.2
 49
0.1
 74
0
 49
-0.1
 74
0
  0
LTYPE
  5
1F7
100
AcDbSymbolTableRecord
100
AcDbLinetypeTableRecord
  2
PHANTOM
 70
64
  3
_____ _ _ _____ _ _ _____ _ _ _____
 72
65
 73
6
 40
0.8
 49
0.45
 74
0
 49
-0.05
 74
0
 49
0.1
 74
0
 49
-0.05
 74
0
 49
0.1
 74
0
 49
-0.05
 74
0
  0
LTYPE
  5
1F8
100
AcDbSymbolTableRecord
100
AcDbLinetypeTableRecord
  2
DOT
 70
64
  3
. . . . . . . . . . . . . . . . . . . .
 72
65
 73
2
 40
0.2
 49
0.1
 74
0
 49
-0.1
 74
0
  0
LTYPE
  5
1F9
100
AcDbSymbolTableRecord
100
AcDbLinetypeTableRecord
  2
DASHED
 70
64
  3
- - - - - - - - - - - - - - - - - - - -
 72
65
 73
2
 40
0.2
 49
0.1
 74
0
 49
-0.1
 74
0
  0
ENDTAB
  0
TABLE
  2
LAYER
  5
2
100
AcDbSymbolTable
 70
36
  0
LAYER
  5
10
100
AcDbSymbolTableRecord
100
AcDbLayerTableRecord
  2
0
 70
0
 62
7
  6
CONTINUOUS
370
-3
390
F
  0
LAYER
  5
1FA
100
AcDbSymbolTableRecord
100
AcDbLayerTableRecord
  2
DEFAULT_1
 70
0
 62
7
  6
CENTER
370
-3
390
F
  0
LAYER
  5
1FB
100
AcDbSymbolTableRecord
100
AcDbLayerTableRecord
  2
DEFAULT_2
 70
0
 62
8
  6
HIDDEN
370
-3
390
F
  0
LAYER
  5
1FC
100
AcDbSymbolTableRecord
100
AcDbLayerTableRecord
  2
DEFAULT_3
 70
0
 62
7
  6
PHANTOM
370
-3
390
F
  0
ENDTAB
  0
TABLE
  2
STYLE
  5
3
100
AcDbSymbolTable
 70
1
  0
STYLE
  5
11
100
AcDbSymbolTableRecord
100
AcDbTextStyleTableRecord
  2
STANDARD
 70
0
 40
0.0
 41
0.8
 50
0.0
 71
0
 42
0.2
  3
txt
  4

  0
STYLE
  5
1FD
100
AcDbSymbolTableRecord
100
AcDbTextStyleTableRecord
  2
TEXTSTYLE_1
 70
0
 40
0.0
 41
0.8
 50
0.0
 71
0
 42
0.2
  3
gdt
  4

  0
ENDTAB
  0
TABLE
  2
VIEW
  5
6
100
AcDbSymbolTable
 70
0
  0
ENDTAB
  0
TABLE
  2
UCS
  5
7
100
AcDbSymbolTable
 70
0
  0
ENDTAB
  0
TABLE
  2
APPID
  5
9
100
AcDbSymbolTable
 70
1
  0
APPID
  5
1FE
100
AcDbSymbolTableRecord
100
AcDbRegAppTableRecord
  2
ACAD
 70
0
  0
ENDTAB
  0
TABLE
  2
BLOCK_RECORD
  5
1
100
AcDbSymbolTable
 70
0
  0
BLOCK_RECORD
  5
1FF
100
AcDbSymbolTableRecord
100
AcDbBlockTableRecord
  2
*Model_Space
  0
BLOCK_RECORD
  5
200
100
AcDbSymbolTableRecord
100
AcDbBlockTableRecord
  2
*Paper_Space
  0
BLOCK_RECORD
  5
201
100
AcDbSymbolTableRecord
100
AcDbBlockTableRecord
  2
_CLOSED
  0
BLOCK_RECORD
  5
202
100
AcDbSymbolTableRecord
100
AcDbBlockTableRecord
  2
*D0
  0
BLOCK_RECORD
  5
203
100
AcDbSymbolTableRecord
100
AcDbBlockTableRecord
  2
*D1
  0
BLOCK_RECORD
  5
204
100
AcDbSymbolTableRecord
100
AcDbBlockTableRecord
  2
*D2
  0
ENDTAB
  0
TABLE
  2
DIMSTYLE
  5
A
100
AcDbSymbolTable
 70
1
100
AcDbDimStyleTable
 71
0
  0
DIMSTYLE
105
205
100
AcDbSymbolTableRecord
100
AcDbDimStyleTableRecord
  2
STANDARD
 70
0
  3

  4

 40
1.0
 41
0.1875
 42
0.0625
 43
0.38
 44
0.18
 45
0.0
 46
0.0
 47
0.001
 48
0.001
140
0.15625
141
0.09
142
0.0
143
25.4
144
1.0
145
0.0
146
1.0
147
0.09
 71
0.0
 72
0.0
 73
1
 74
1
 75
0
 76
0
 77
0
 78
0
170
0
171
2
172
0
173
0
174
0
175
0
176
0
177
0
178
0
270
2
271
3
272
3
273
2
274
2
275
0
280
0
281
0
282
0
283
1
284
0
285
0
286
0
287
3
288
0
340
11
341
201
342
201
343
201
344
201
  0
DIMSTYLE
105
206
100
AcDbSymbolTableRecord
100
AcDbDimStyleTableRecord
  2
DIMSTYLE_1
 70
0
  3

  4

 40
1.0
 41
0.1875
 42
0.0625
 43
0.38
 44
0.18
 45
0.0
 46
0.0
 47
0.0
 48
0.0
140
0.15625
141
0.09
142
0.0
143
25.4
144
1.0
145
0.0
146
1.0
147
0.09
 71
0.0
 72
0.0
 73
1
 74
1
 75
0
 76
0
 77
0
 78
0
170
0
171
2
172
0
173
0
174
0
175
0
176
0
177
0
178
0
270
2
271
2
272
2
273
2
274
2
275
0
280
0
281
0
282
0
283
1
284
0
285
0
286
0
287
3
288
0
340
11
341
201
342
201
343
201
344
201
  0
ENDTAB
  0
ENDSEC
  0
SECTION
  2
BLOCKS
  0
BLOCK
  5
20
100
AcDbEntity
  8
0
100
AcDbBlockBegin
  2
*Model_Space
 70
0
 10
0.0
 20
0.0
 30
0.0
  3
*Model_Space
  1

  0
ENDBLK
  5
21
100
AcDbEntity
  8
0
100
AcDbBlockEnd
  0
BLOCK
  5
1C
100
AcDbEntity
  8
0
100
AcDbBlockBegin
  2
*Paper_Space
 70
0
 10
0.0
 20
0.0
 30
0.0
  3
*Paper_Space
  1

  0
ENDBLK
  5
1D
100
AcDbEntity
  8
0
100
AcDbBlockEnd
  0
BLOCK
  5
207
100
AcDbEntity
  8
0
100
AcDbBlockBegin
  2
_CLOSED
 70
64
 10
0.0
 20
0.0
  3
_CLOSED
  1

  0
LINE
  5
208
100
AcDbEntity
  8
0
  6
BYBLOCK
 62
0
100
AcDbLine
 10
0.0
 20
0.0
 11
-1.0
 21
0.1666666667
  0
LINE
  5
209
100
AcDbEntity
  8
0
  6
BYBLOCK
 62
0
100
AcDbLine
 10
-1.0
 20
0.1666666667
 11
-1.0
 21
-0.1666666667
  0
LINE
  5
20A
100
AcDbEntity
  8
0
  6
BYBLOCK
 62
0
100
AcDbLine
 10
-1.0
 20
-0.1666666667
 11
0.0
 21
0.0
  0
LINE
  5
20B
100
AcDbEntity
  8
0
  6
BYBLOCK
 62
0
100
AcDbLine
 10
-1.0
 20
0.0
 11
0.0
 21
0.0
  0
ENDBLK
  5
20C
100
AcDbEntity
  8
0
  6
BYBLOCK
 62
0
100
AcDbBlockEnd
  0
BLOCK
  5
20D
100
AcDbEntity
  8
0
100
AcDbBlockBegin
 62
7
  6
CONTINUOUS
  2
*D0
 70
65
 10
0.0
 20
0.0
  3
*D0
  1

  0
MTEXT
  5
20E
100
AcDbEntity
  8
0
100
AcDbMText
 62
7
  6
CONTINUOUS
  7
STANDARD
 71
2
 72
1
 10
10.4778462454
 20
3.2213406838
 30
0.0
 11
1.0
 21
0.0
 31
0.0
 44
0.9
  1
4.02\P[102.10]
 40
0.15625
 41
1.0
  0
LINE
  5
20F
100
AcDbEntity
  8
0
100
AcDbLine
 62
7
  6
CONTINUOUS
 10
10.0127725213
 20
1.1333731642
 11
10.8528462454
 21
1.1333731642
  0
LINE
  5
210
100
AcDbEntity
  8
0
100
AcDbLine
 62
7
  6
CONTINUOUS
 10
9.9897497632
 20
5.1530582035
 11
10.8528462454
 21
5.1530582035
  0
LINE
  5
211
100
AcDbEntity
  8
0
100
AcDbLine
 62
7
  6
CONTINUOUS
 10
10.7278462454
 20
1.1333731642
 11
10.7278462454
 21
2.7525906838
  0
LINE
  5
212
100
AcDbEntity
  8
0
100
AcDbLine
 62
7
  6
CONTINUOUS
 10
10.7278462454
 20
5.1530582035
 11
10.7278462454
 21
3.2994656838
  0
INSERT
  5
213
100
AcDbEntity
  8
0
100
AcDbBlockReference
 62
7
  6
CONTINUOUS
  2
_CLOSED
 10
10.7278462454
 20
1.1333731642
 41
0.1875
 42
0.1875
 43
0.1875
 50
270.0
  0
INSERT
  5
214
100
AcDbEntity
  8
0
100
AcDbBlockReference
 62
7
  6
CONTINUOUS
  2
_CLOSED
 10
10.7278462454
 20
5.1530582035
 41
0.1875
 42
0.1875
 43
0.1875
 50
90.0
  0
ENDBLK
  5
215
100
AcDbEntity
  8
0
  6
BYBLOCK
 62
0
100
AcDbBlockEnd
  0
BLOCK
  5
216
100
AcDbEntity
  8
0
100
AcDbBlockBegin
 62
7
  6
CONTINUOUS
  2
*D1
 70
65
 10
0.0
 20
0.0
  3
*D1
  1

  0
MTEXT
  5
217
100
AcDbEntity
  8
0
100
AcDbMText
 62
7
  6
CONTINUOUS
  7
STANDARD
 71
2
 72
1
 10
7.3421939171
 20
10.5789632484
 30
0.0
 11
1.0
 21
0.0
 31
0.0
 44
0.9
  1
4.88{\Ftxt.shx;\W1.000000;\H0.156250; }[124.00]
 40
0.15625
 41
1.65625
  0
LINE
  5
218
100
AcDbEntity
  8
0
100
AcDbLine
 62
7
  6
CONTINUOUS
 10
4.9012490352
 20
9.916415919
 11
4.9012490352
 21
10.6258382484
  0
LINE
  5
219
100
AcDbEntity
  8
0
100
AcDbLine
 62
7
  6
CONTINUOUS
 10
9.7831387989
 20
9.916415919
 11
9.7831387989
 21
10.6258382484
  0
LINE
  5
21A
100
AcDbEntity
  8
0
100
AcDbLine
 62
7
  6
CONTINUOUS
 10
4.9012490352
 20
10.5008382484
 11
6.4359439171
 21
10.5008382484
  0
LINE
  5
21B
100
AcDbEntity
  8
0
100
AcDbLine
 62
7
  6
CONTINUOUS
 10
9.7831387989
 20
10.5008382484
 11
8.2484439171
 21
10.5008382484
  0
INSERT
  5
21C
100
AcDbEntity
  8
0
100
AcDbBlockReference
 62
7
  6
CONTINUOUS
  2
_CLOSED
 10
4.9012490352
 20
10.5008382484
 41
0.1875
 42
0.1875
 43
0.1875
 50
180.0
  0
INSERT
  5
21D
100
AcDbEntity
  8
0
100
AcDbBlockReference
 62
7
  6
CONTINUOUS
  2
_CLOSED
 10
9.7831387989
 20
10.5008382484
 41
0.1875
 42
0.1875
 43
0.1875
  0
ENDBLK
  5
21E
100
AcDbEntity
  8
0
  6
BYBLOCK
 62
0
100
AcDbBlockEnd
  0
BLOCK
  5
21F
100
AcDbEntity
  8
0
100
AcDbBlockBegin
 62
7
  6
CONTINUOUS
  2
*D2
 70
65
 10
0.0
 20
0.0
  3
*D2
  1

  0
MTEXT
  5
220
100
AcDbEntity
  8
0
100
AcDbMText
 62
7
  6
CONTINUOUS
  7
STANDARD
 71
2
 72
1
 10
3.6917602108
 20
8.6721983993
 30
0.0
 11
1.0
 21
0.0
 31
0.0
 44
0.9
  1
2.52\P[64.00]
 40
0.15625
 41
0.875
  0
LINE
  5
221
100
AcDbEntity
  8
0
100
AcDbLine
 62
7
  6
CONTINUOUS
 10
4.8387490352
 20
9.853915919
 11
3.7542602108
 21
9.853915919
  0
LINE
  5
222
100
AcDbEntity
  8
0
100
AcDbLine
 62
7
  6
CONTINUOUS
 10
4.8387490352
 20
7.3342308796
 11
3.7542602108
 21
7.3342308796
  0
LINE
  5
223
100
AcDbEntity
  8
0
100
AcDbLine
 62
7
  6
CONTINUOUS
 10
3.8792602108
 20
9.853915919
 11
3.8792602108
 21
8.7503233993
  0
LINE
  5
224
100
AcDbEntity
  8
0
100
AcDbLine
 62
7
  6
CONTINUOUS
 10
3.8792602108
 20
7.3342308796
 11
3.8792602108
 21
8.2034483993
  0
INSERT
  5
225
100
AcDbEntity
  8
0
100
AcDbBlockReference
 62
7
  6
CONTINUOUS
  2
_CLOSED
 10
3.8792602108
 20
9.853915919
 41
0.1875
 42
0.1875
 43
0.1875
 50
90.0
  0
INSERT
  5
226
100
AcDbEntity
  8
0
100
AcDbBlockReference
 62
7
  6
CONTINUOUS
  2
_CLOSED
 10
3.8792602108
 20
7.3342308796
 41
0.1875
 42
0.1875
 43
0.1875
 50
270.0
  0
ENDBLK
  5
227
100
AcDbEntity
  8
0
  6
BYBLOCK
 62
0
100
AcDbBlockEnd
  0
ENDSEC
  0
SECTION
  2
ENTITIES
  0
DIMENSION
  5
228
100
AcDbEntity
  8
0
100
AcDbDimension
 62
7
  6
CONTINUOUS
  2
*D0
 10
10.7278462454
 20
5.1530582035
 11
10.5715962454
 21
3.0260281838
 70
160
 71
2
 42
102.1
  3
DIMSTYLE_1
100
AcDbAlignedDimension
 13
10.0127725213
 23
1.1333731642
 14
9.9897497632
 24
5.1530582035
 50
90.0
100
AcDbRotatedDimension
  0
DIMENSION
  5
229
100
AcDbEntity
  8
0
100
AcDbDimension
 62
7
  6
CONTINUOUS
  2
*D1
 10
9.7831387989
 20
10.5008382484
 11
7.1859439171
 21
10.5008382484
 70
160
 71
2
 42
124.0
  3
DIMSTYLE_1
100
AcDbAlignedDimension
 13
4.9012490352
 23
9.916415919
 14
9.7831387989
 24
9.916415919
100
AcDbRotatedDimension
  0
DIMENSION
  5
22A
100
AcDbEntity
  8
0
100
AcDbDimension
 62
7
  6
CONTINUOUS
  2
*D2
 10
3.8792602108
 20
7.3342308796
 11
3.7230102108
 21
8.4768858993
 70
160
 71
2
 42
64.0
  3
DIMSTYLE_1
100
AcDbAlignedDimension
 13
4.8387490352
 23
9.853915919
 14
4.8387490352
 24
7.3342308796
 50
270.0
100
AcDbRotatedDimension
  0
LINE
  5
22B
100
AcDbEntity
  8
0
100
AcDbLine
 62
7
  6
CONTINUOUS
 10
0.0
 20
0.0
 11
0.0
 21
11.0
  0
LINE
  5
22C
100
AcDbEntity
  8
0
100
AcDbLine
 62
7
  6
CONTINUOUS
 10
0.0
 20
0.0
 11
17.0
 21
0.0
  0
LINE
  5
22D
100
AcDbEntity
  8
0
100
AcDbLine
 62
7
  6
CONTINUOUS
 10
0.0
 20
11.0
 11
17.0
 21
11.0
  0
LINE
  5
22E
100
AcDbEntity
  8
0
100
AcDbLine
 62
7
  6
CONTINUOUS
 10
17.0
 20
0.0
 11
17.0
 21
11.0
  0
LINE
  5
22F
100
AcDbEntity
  8
0
100
AcDbLine
 62
7
  6
CONTINUOUS
 10
4.5272332871
 20
4.452270802
 11
4.5862884052
 21
4.6884912744
  0
LINE
  5
230
100
AcDbEntity
  8
0
100
AcDbLine
 62
7
  6
CONTINUOUS
 10
4.5272332871
 20
4.452270802
 11
4.5272332871
 21
4.0979400933
  0
LINE
  5
231
100
AcDbEntity
  8
0
100
AcDbLine
 62
7
  6
CONTINUOUS
 10
4.7634537596
 20
1.3499085972
 11
4.7634537596
 21
1.1333731642
  0
LINE
  5
232
100
AcDbEntity
  8
0
100
AcDbLine
 62
7
  6
CONTINUOUS
 10
4.9012490352
 20
4.8341605657
 11
4.9012490352
 21
1.3695936366
  0
LINE
  5
233
100
AcDbEntity
  8
0
100
AcDbLine
 62
7
  6
CONTINUOUS
 10
4.9406191139
 20
4.8484694361
 11
4.9406191139
 21
4.8444036445
  0
LINE
  5
234
100
AcDbEntity
  8
0
100
AcDbLine
 62
7
  6
CONTINUOUS
 10
6.4760521848
 20
0.9365227705
 11
6.7280206887
 21
0.9365227705
  0
LINE
  5
235
100
AcDbEntity
  8
0
100
AcDbLine
 62
7
  6
CONTINUOUS
 10
8.0114852556
 20
0.9365227705
 11
9.9209340745
 21
0.9365227705
  0
LINE
  5
236
100
AcDbEntity
  8
0
100
AcDbLine
 62
7
  6
CONTINUOUS
 10
5.4918002163
 20
1.3499085972
 11
5.4918002163
 21
1.3695936366
  0
LINE
  5
237
100
AcDbEntity
  8
0
100
AcDbLine
 62
7
  6
CONTINUOUS
 10
7.9582420101
 20
1.0507032791
 11
8.0114852556
 21
1.0546330067
  0
LINE
  5
238
100
AcDbEntity
  8
0
100
AcDbLine
 62
7
  6
CONTINUOUS
 10
6.6295954919
 20
1.0605385185
 11
6.5862884052
 21
1.0605385185
  0
LINE
  5
239
100
AcDbEntity
  8
0
100
AcDbLine
 62
7
  6
CONTINUOUS
 10
8.0114852556
 20
1.1333731642
 11
6.5862884052
 21
1.1333731642
  0
LINE
  5
23A
100
AcDbEntity
  8
0
100
AcDbLine
 62
7
  6
CONTINUOUS
 10
4.7634537596
 20
1.1333731642
 11
6.4760521848
 21
1.1333731642
  0
LINE
  5
23B
100
AcDbEntity
  8
0
100
AcDbLine
 62
7
  6
CONTINUOUS
 10
6.6295954919
 20
1.0605385185
 11
6.7280206887
 21
0.9916408807
  0
LINE
  5
23C
100
AcDbEntity
  8
0
100
AcDbLine
 62
7
  6
CONTINUOUS
 10
4.7634537596
 20
1.3499085972
 11
5.4918002163
 21
1.3499085972
  0
LINE
  5
23D
100
AcDbEntity
  8
0
100
AcDbLine
 62
7
  6
CONTINUOUS
 10
9.1925876178
 20
1.3499085972
 11
9.9209340745
 21
1.3499085972
  0
LINE
  5
23E
100
AcDbEntity
  8
0
100
AcDbLine
 62
7
  6
CONTINUOUS
 10
4.9012490352
 20
1.3695936366
 11
9.7831387989
 21
1.3695936366
  0
LINE
  5
23F
100
AcDbEntity
  8
0
100
AcDbLine
 62
7
  6
CONTINUOUS
 10
6.4145664489
 20
5.1042745218
 11
6.4145664489
 21
5.1082299691
  0
LINE
  5
240
100
AcDbEntity
  8
0
100
AcDbLine
 62
7
  6
CONTINUOUS
 10
9.5075482478
 20
2.0782550539
 11
8.1689655706
 21
2.0782550539
  0
LINE
  5
241
100
AcDbEntity
  8
0
100
AcDbLine
 62
7
  6
CONTINUOUS
 10
6.4760521848
 20
1.3695936366
 11
6.4760521848
 21
0.9365227705
  0
LINE
  5
242
100
AcDbEntity
  8
0
100
AcDbLine
 62
7
  6
CONTINUOUS
 10
6.5862884052
 20
1.0605385185
 11
6.5862884052
 21
1.1333731642
  0
LINE
  5
243
100
AcDbEntity
  8
0
100
AcDbLine
 62
7
  6
CONTINUOUS
 10
6.7280206887
 20
0.9365227705
 11
6.7280206887
 21
0.9916408807
  0
LINE
  5
244
100
AcDbEntity
  8
0
100
AcDbLine
 62
7
  6
CONTINUOUS
 10
8.0114852556
 20
0.9365227705
 11
7.9582420101
 21
1.0507032791
  0
LINE
  5
245
100
AcDbEntity
  8
0
100
AcDbLine
 62
7
  6
CONTINUOUS
 10
8.0114852556
 20
1.1333731642
 11
8.0114852556
 21
0.9365227705
  0
LINE
  5
246
100
AcDbEntity
  8
0
100
AcDbLine
 62
7
  6
CONTINUOUS
 10
8.0902254131
 20
2.1569952114
 11
8.0902254131
 21
3.7711684397
  0
LINE
  5
247
100
AcDbEntity
  8
0
100
AcDbLine
 62
7
  6
CONTINUOUS
 10
8.1295954919
 20
0.9365227705
 11
8.1295954919
 21
1.3695936366
  0
LINE
  5
248
100
AcDbEntity
  8
0
100
AcDbLine
 62
7
  6
CONTINUOUS
 10
8.1689655706
 20
3.8499085972
 11
9.5075482478
 21
3.8499085972
  0
LINE
  5
249
100
AcDbEntity
  8
0
100
AcDbLine
 62
7
  6
CONTINUOUS
 10
4.5272332871
 20
4.0979400933
 11
4.9012490352
 21
4.0979400933
  0
LINE
  5
24A
100
AcDbEntity
  8
0
100
AcDbLine
 62
7
  6
CONTINUOUS
 10
10.157154547
 20
4.105814109
 11
9.7831387989
 21
4.105814109
  0
LINE
  5
24B
100
AcDbEntity
  8
0
100
AcDbLine
 62
7
  6
CONTINUOUS
 10
4.5862884052
 20
4.6884912744
 11
4.9012490352
 21
4.6884912744
  0
LINE
  5
24C
100
AcDbEntity
  8
0
100
AcDbLine
 62
7
  6
CONTINUOUS
 10
10.0980994289
 20
4.6963652901
 11
9.7831387989
 21
4.6963652901
  0
LINE
  5
24D
100
AcDbEntity
  8
0
100
AcDbLine
 62
7
  6
CONTINUOUS
 10
9.1925876178
 20
1.3499085972
 11
9.1925876178
 21
1.3695936366
  0
LINE
  5
24E
100
AcDbEntity
  8
0
100
AcDbLine
 62
7
  6
CONTINUOUS
 10
9.5862884052
 20
3.7711684397
 11
9.5862884052
 21
2.1569952114
  0
LINE
  5
24F
100
AcDbEntity
  8
0
100
AcDbLine
 62
7
  6
CONTINUOUS
 10
9.7437687202
 20
4.8484694361
 11
9.7437687202
 21
4.8444036445
  0
LINE
  5
250
100
AcDbEntity
  8
0
100
AcDbLine
 62
7
  6
CONTINUOUS
 10
9.7634537596
 20
1.3499085972
 11
9.7634537596
 21
0.9365227705
  0
LINE
  5
251
100
AcDbEntity
  8
0
100
AcDbLine
 62
7
  6
CONTINUOUS
 10
9.7831387989
 20
1.3695936366
 11
9.7831387989
 21
4.8341605657
  0
LINE
  5
252
100
AcDbEntity
  8
0
100
AcDbLine
 62
7
  6
CONTINUOUS
 10
9.9209340745
 20
1.3499085972
 11
9.9209340745
 21
0.9365227705
  0
LINE
  5
253
100
AcDbEntity
  8
0
100
AcDbLine
 62
7
  6
CONTINUOUS
 10
10.157154547
 20
4.105814109
 11
10.157154547
 21
4.4601448177
  0
LINE
  5
254
100
AcDbEntity
  8
0
100
AcDbLine
 62
7
  6
CONTINUOUS
 10
10.0980994289
 20
4.6963652901
 11
10.157154547
 21
4.4601448177
  0
LINE
  5
255
100
AcDbEntity
  8
0
100
AcDbLine
 62
7
  6
CONTINUOUS
 10
4.5272332871
 20
8.2003726119
 11
4.5272332871
 21
9.0271442655
  0
LINE
  5
256
100
AcDbEntity
  8
0
100
AcDbLine
 62
7
  6
CONTINUOUS
 10
4.5862884052
 20
9.0271442655
 11
4.5862884052
 21
8.2003726119
  0
LINE
  5
257
100
AcDbEntity
  8
0
100
AcDbLine
 62
7
  6
CONTINUOUS
 10
4.7634537596
 20
9.2830497773
 11
4.7634537596
 21
9.0271442655
  0
LINE
  5
258
100
AcDbEntity
  8
0
100
AcDbLine
 62
7
  6
CONTINUOUS
 10
4.9012490352
 20
7.3342308796
 11
4.9012490352
 21
9.853915919
  0
LINE
  5
259
100
AcDbEntity
  8
0
100
AcDbLine
 62
7
  6
CONTINUOUS
 10
4.9406191139
 20
7.3736009584
 11
4.9406191139
 21
9.8145458403
  0
LINE
  5
25A
100
AcDbEntity
  8
0
100
AcDbLine
 62
7
  6
CONTINUOUS
 10
5.9937687202
 20
9.8145458403
 11
5.9937687202
 21
7.885411982
  0
LINE
  5
25B
100
AcDbEntity
  8
0
100
AcDbLine
 62
7
  6
CONTINUOUS
 10
6.0036112399
 20
7.885411982
 11
6.0036112399
 21
9.8145458403
  0
LINE
  5
25C
100
AcDbEntity
  8
0
100
AcDbLine
 62
7
  6
CONTINUOUS
 10
8.0902254131
 20
7.3322623757
 11
9.5862884052
 21
7.3322623757
  0
LINE
  5
25D
100
AcDbEntity
  8
0
100
AcDbLine
 62
7
  6
CONTINUOUS
 10
4.9012490352
 20
7.3342308796
 11
9.7831387989
 21
7.3342308796
  0
LINE
  5
25E
100
AcDbEntity
  8
0
100
AcDbLine
 62
7
  6
CONTINUOUS
 10
4.9406191139
 20
7.3736009584
 11
6.4145664489
 21
7.3736009584
  0
LINE
  5
25F
100
AcDbEntity
  8
0
100
AcDbLine
 62
7
  6
CONTINUOUS
 10
6.5154222635
 20
7.3736009584
 11
9.7437687202
 21
7.3736009584
  0
LINE
  5
260
100
AcDbEntity
  8
0
100
AcDbLine
 62
7
  6
CONTINUOUS
 10
4.5272332871
 20
8.2003726119
 11
4.9012490352
 21
8.2003726119
  0
LINE
  5
261
100
AcDbEntity
  8
0
100
AcDbLine
 62
7
  6
CONTINUOUS
 10
9.7831387989
 20
8.2003726119
 11
10.157154547
 21
8.2003726119
  0
LINE
  5
262
100
AcDbEntity
  8
0
100
AcDbLine
 62
7
  6
CONTINUOUS
 10
10.157154547
 20
9.0271442655
 11
9.7831387989
 21
9.0271442655
  0
LINE
  5
263
100
AcDbEntity
  8
0
100
AcDbLine
 62
7
  6
CONTINUOUS
 10
4.5272332871
 20
9.0271442655
 11
4.9012490352
 21
9.0271442655
  0
LINE
  5
264
100
AcDbEntity
  8
0
100
AcDbLine
 62
7
  6
CONTINUOUS
 10
9.7831387989
 20
9.1649395411
 11
9.9209340745
 21
9.1649395411
  0
LINE
  5
265
100
AcDbEntity
  8
0
100
AcDbLine
 62
7
  6
CONTINUOUS
 10
8.0902254131
 20
7.3322623757
 11
8.0902254131
 21
7.3342308796
  0
LINE
  5
266
100
AcDbEntity
  8
0
100
AcDbLine
 62
7
  6
CONTINUOUS
 10
4.9012490352
 20
9.2830497773
 11
4.7634537596
 21
9.2830497773
  0
LINE
  5
267
100
AcDbEntity
  8
0
100
AcDbLine
 62
7
  6
CONTINUOUS
 10
9.7437687202
 20
9.8145458403
 11
6.0036112399
 21
9.8145458403
  0
LINE
  5
268
100
AcDbEntity
  8
0
100
AcDbLine
 62
7
  6
CONTINUOUS
 10
5.9937687202
 20
9.8145458403
 11
4.9406191139
 21
9.8145458403
  0
LINE
  5
269
100
AcDbEntity
  8
0
100
AcDbLine
 62
7
  6
CONTINUOUS
 10
9.7831387989
 20
9.853915919
 11
4.9012490352
 21
9.853915919
  0
LINE
  5
26A
100
AcDbEntity
  8
0
100
AcDbLine
 62
7
  6
CONTINUOUS
 10
9.5862884052
 20
7.3342308796
 11
9.5862884052
 21
7.3322623757
  0
LINE
  5
26B
100
AcDbEntity
  8
0
100
AcDbLine
 62
7
  6
CONTINUOUS
 10
9.7437687202
 20
9.8145458403
 11
9.7437687202
 21
7.3736009584
  0
LINE
  5
26C
100
AcDbEntity
  8
0
100
AcDbLine
 62
7
  6
CONTINUOUS
 10
9.7831387989
 20
9.853915919
 11
9.7831387989
 21
7.3342308796
  0
LINE
  5
26D
100
AcDbEntity
  8
0
100
AcDbLine
 62
7
  6
CONTINUOUS
 10
9.9209340745
 20
9.0271442655
 11
9.9209340745
 21
9.1649395411
  0
LINE
  5
26E
100
AcDbEntity
  8
0
100
AcDbLine
 62
7
  6
CONTINUOUS
 10
10.0980994289
 20
8.2003726119
 11
10.0980994289
 21
9.0271442655
  0
LINE
  5
26F
100
AcDbEntity
  8
0
100
AcDbLine
 62
7
  6
CONTINUOUS
 10
10.157154547
 20
9.0271442655
 11
10.157154547
 21
8.2003726119
  0
LINE
  5
270
100
AcDbEntity
  8
0
100
AcDbLine
 62
7
  6
CONTINUOUS
 10
12.2626777837
 20
9.0210058172
 11
11.7365235253
 21
8.7169635674
  0
LINE
  5
271
100
AcDbEntity
  8
0
100
AcDbLine
 62
7
  6
CONTINUOUS
 10
11.3857540197
 20
8.3896150621
 11
12.9892717597
 21
9.316220014
  0
LINE
  5
272
100
AcDbEntity
  8
0
100
AcDbLine
 62
7
  6
CONTINUOUS
 10
11.435863949
 20
8.4001252684
 11
12.9892717597
 21
9.2977738155
  0
LINE
  5
273
100
AcDbEntity
  8
0
100
AcDbLine
 62
7
  6
CONTINUOUS
 10
11.3857540197
 20
8.3896150621
 11
11.3857540197
 21
5.8448080883
  0
LINE
  5
274
100
AcDbEntity
  8
0
100
AcDbLine
 62
7
  6
CONTINUOUS
 10
11.7005074462
 20
8.5714977294
 11
11.7365235253
 21
8.7169635674
  0
LINE
  5
275
100
AcDbEntity
  8
0
100
AcDbLine
 62
7
  6
CONTINUOUS
 10
11.435863949
 20
8.4001252684
 11
11.435863949
 21
8.3971388475
  0
LINE
  5
276
100
AcDbEntity
  8
0
100
AcDbLine
 62
7
  6
CONTINUOUS
 10
13.6594920651
 20
9.0644506462
 11
12.4317987954
 21
8.3550187299
  0
LINE
  5
277
100
AcDbEntity
  8
0
100
AcDbLine
 62
7
  6
CONTINUOUS
 10
12.4317987954
 20
8.3520980583
 11
13.6594920651
 21
9.0615299746
  0
LINE
  5
278
100
AcDbEntity
  8
0
100
AcDbLine
 62
7
  6
CONTINUOUS
 10
12.4380625365
 20
8.3524188257
 11
13.6657558062
 21
9.061850742
  0
LINE
  5
279
100
AcDbEntity
  8
0
100
AcDbLine
 62
7
  6
CONTINUOUS
 10
12.3904581036
 20
4.9490269419
 11
12.5508098776
 21
4.8563664467
  0
LINE
  5
27A
100
AcDbEntity
  8
0
100
AcDbLine
 62
7
  6
CONTINUOUS
 10
13.3676017265
 20
4.3843770493
 11
13.4427666205
 21
4.3409424422
  0
LINE
  5
27B
100
AcDbEntity
  8
0
100
AcDbLine
 62
7
  6
CONTINUOUS
 10
12.4881724659
 20
4.983654475
 11
12.4606120048
 21
4.9995804976
  0
LINE
  5
27C
100
AcDbEntity
  8
0
100
AcDbLine
 62
7
  6
CONTINUOUS
 10
13.3676017265
 20
4.5289683546
 11
12.4606120048
 21
5.0530792806
  0
LINE
  5
27D
100
AcDbEntity
  8
0
100
AcDbLine
 62
7
  6
CONTINUOUS
 10
11.3857540197
 20
5.8448080883
 11
14.4925696409
 21
4.049510994
  0
LINE
  5
27E
100
AcDbEntity
  8
0
100
AcDbLine
 62
7
  6
CONTINUOUS
 10
12.4881724659
 20
4.983654475
 11
12.5508098776
 21
4.8968520122
  0
LINE
  5
27F
100
AcDbEntity
  8
0
100
AcDbLine
 62
7
  6
CONTINUOUS
 10
14.5938705149
 20
4.2769188138
 11
14.655878389
 21
4.2411814918
  0
LINE
  5
280
100
AcDbEntity
  8
0
100
AcDbLine
 62
7
  6
CONTINUOUS
 10
14.717886263
 20
4.3485822593
 11
14.655878389
 21
4.3843195813
  0
LINE
  5
281
100
AcDbEntity
  8
0
100
AcDbLine
 62
7
  6
CONTINUOUS
 10
14.5938705149
 20
4.4609535003
 11
14.655878389
 21
4.4252161783
  0
LINE
  5
282
100
AcDbEntity
  8
0
100
AcDbLine
 62
7
  6
CONTINUOUS
 10
14.6735949244
 20
4.4150055149
 11
14.7356027984
 21
4.3792681929
  0
LINE
  5
283
100
AcDbEntity
  8
0
100
AcDbLine
 62
7
  6
CONTINUOUS
 10
14.7533193338
 20
4.3690575295
 11
14.8153272079
 21
4.3333202075
  0
LINE
  5
284
100
AcDbEntity
  8
0
100
AcDbLine
 62
7
  6
CONTINUOUS
 10
14.3159321399
 20
4.6706631997
 11
13.4640633405
 21
5.1629220804
  0
LINE
  5
285
100
AcDbEntity
  8
0
100
AcDbLine
 62
7
  6
CONTINUOUS
 10
15.2191636169
 20
4.1657561935
 11
14.956449536
 21
4.3175675282
  0
LINE
  5
286
100
AcDbEntity
  8
0
100
AcDbLine
 62
7
  6
CONTINUOUS
 10
12.3738782891
 20
8.0459814617
 11
12.3738782891
 21
8.048886832
  0
LINE
  5
287
100
AcDbEntity
  8
0
100
AcDbLine
 62
7
  6
CONTINUOUS
 10
12.3904581036
 20
5.2642321731
 11
12.3904581036
 21
4.9490269419
  0
LINE
  5
288
100
AcDbEntity
  8
0
100
AcDbLine
 62
7
  6
CONTINUOUS
 10
12.4317987954
 20
8.3550187299
 11
12.4317987954
 21
8.3520980583
  0
LINE
  5
289
100
AcDbEntity
  8
0
100
AcDbLine
 62
7
  6
CONTINUOUS
 10
12.4380625365
 20
8.0185808485
 11
12.4380625365
 21
8.0156782788
  0
LINE
  5
28A
100
AcDbEntity
  8
0
100
AcDbLine
 62
7
  6
CONTINUOUS
 10
12.4606120048
 20
4.9995804976
 11
12.4606120048
 21
5.0530792806
  0
LINE
  5
28B
100
AcDbEntity
  8
0
100
AcDbLine
 62
7
  6
CONTINUOUS
 10
12.5508098776
 20
4.8563664467
 11
12.5508098776
 21
4.8968520122
  0
LINE
  5
28C
100
AcDbEntity
  8
0
100
AcDbLine
 62
7
  6
CONTINUOUS
 10
14.8773350819
 20
4.440720975
 11
14.8153272079
 21
4.476458297
  0
LINE
  5
28D
100
AcDbEntity
  8
0
100
AcDbLine
 62
7
  6
CONTINUOUS
 10
14.7976106724
 20
4.4866689604
 11
14.7356027984
 21
4.5224062824
  0
LINE
  5
28E
100
AcDbEntity
  8
0
100
AcDbLine
 62
7
  6
CONTINUOUS
 10
14.717886263
 20
4.5326169458
 11
14.655878389
 21
4.5683542678
  0
LINE
  5
28F
100
AcDbEntity
  8
0
100
AcDbLine
 62
7
  6
CONTINUOUS
 10
14.5938705149
 20
4.6449881868
 11
14.655878389
 21
4.6092508648
  0
LINE
  5
290
100
AcDbEntity
  8
0
100
AcDbLine
 62
7
  6
CONTINUOUS
 10
14.6735949244
 20
4.5990402014
 11
14.7356027984
 21
4.5633028794
  0
LINE
  5
291
100
AcDbEntity
  8
0
100
AcDbLine
 62
7
  6
CONTINUOUS
 10
14.7533193338
 20
4.553092216
 11
14.8153272079
 21
4.517354894
  0
LINE
  5
292
100
AcDbEntity
  8
0
100
AcDbLine
 62
7
  6
CONTINUOUS
 10
14.8330437433
 20
4.5071442306
 11
14.8950516173
 21
4.4714069086
  0
LINE
  5
293
100
AcDbEntity
  8
0
100
AcDbLine
 62
7
  6
CONTINUOUS
 10
14.9127681527
 20
4.4611962452
 11
14.9747760268
 21
4.4254589232
  0
LINE
  5
294
100
AcDbEntity
  8
0
100
AcDbLine
 62
7
  6
CONTINUOUS
 10
15.0367839008
 20
4.5328596907
 11
14.9747760268
 21
4.5685970127
  0
LINE
  5
295
100
AcDbEntity
  8
0
100
AcDbLine
 62
7
  6
CONTINUOUS
 10
14.9570594913
 20
4.5788076761
 11
14.8950516173
 21
4.6145449981
  0
LINE
  5
296
100
AcDbEntity
  8
0
100
AcDbLine
 62
7
  6
CONTINUOUS
 10
14.8773350819
 20
4.6247556615
 11
14.8153272079
 21
4.6604929835
  0
LINE
  5
297
100
AcDbEntity
  8
0
100
AcDbLine
 62
7
  6
CONTINUOUS
 10
14.7976106724
 20
4.6707036469
 11
14.7356027984
 21
4.7064409689
  0
LINE
  5
298
100
AcDbEntity
  8
0
100
AcDbLine
 62
7
  6
CONTINUOUS
 10
14.717886263
 20
4.7166516323
 11
14.655878389
 21
4.7523889543
  0
LINE
  5
299
100
AcDbEntity
  8
0
100
AcDbLine
 62
7
  6
CONTINUOUS
 10
14.5938705149
 20
4.8290228733
 11
14.655878389
 21
4.7932855513
  0
LINE
  5
29A
100
AcDbEntity
  8
0
100
AcDbLine
 62
7
  6
CONTINUOUS
 10
14.6735949244
 20
4.7830748879
 11
14.7356027984
 21
4.7473375659
  0
LINE
  5
29B
100
AcDbEntity
  8
0
100
AcDbLine
 62
7
  6
CONTINUOUS
 10
14.7533193338
 20
4.7371269025
 11
14.8153272079
 21
4.7013895805
  0
LINE
  5
29C
100
AcDbEntity
  8
0
100
AcDbLine
 62
7
  6
CONTINUOUS
 10
14.8330437433
 20
4.6911789171
 11
14.8950516173
 21
4.6554415951
  0
LINE
  5
29D
100
AcDbEntity
  8
0
100
AcDbLine
 62
7
  6
CONTINUOUS
 10
14.9127681527
 20
4.6452309317
 11
14.9747760268
 21
4.6094936097
  0
LINE
  5
29E
100
AcDbEntity
  8
0
100
AcDbLine
 62
7
  6
CONTINUOUS
 10
14.9924925622
 20
4.5992829463
 11
15.0545004362
 21
4.5635456243
  0
LINE
  5
29F
100
AcDbEntity
  8
0
100
AcDbLine
 62
7
  6
CONTINUOUS
 10
15.0722169716
 20
4.5533349609
 11
15.1342248457
 21
4.5175976389
  0
LINE
  5
2A0
100
AcDbEntity
  8
0
100
AcDbLine
 62
7
  6
CONTINUOUS
 10
15.2943285109
 20
4.2091908006
 11
15.3945483697
 21
4.1512779911
  0
LINE
  5
2A1
100
AcDbEntity
  8
0
100
AcDbLine
 62
7
  6
CONTINUOUS
 10
15.1962327197
 20
4.6249984064
 11
15.1342248457
 21
4.6607357284
  0
LINE
  5
2A2
100
AcDbEntity
  8
0
100
AcDbLine
 62
7
  6
CONTINUOUS
 10
15.1165083102
 20
4.6709463918
 11
15.0545004362
 21
4.7066837138
  0
LINE
  5
2A3
100
AcDbEntity
  8
0
100
AcDbLine
 62
7
  6
CONTINUOUS
 10
15.0367839008
 20
4.7168943772
 11
14.9747760268
 21
4.7526316992
  0
LINE
  5
2A4
100
AcDbEntity
  8
0
100
AcDbLine
 62
7
  6
CONTINUOUS
 10
14.9570594913
 20
4.7628423626
 11
14.8950516173
 21
4.7985796846
  0
LINE
  5
2A5
100
AcDbEntity
  8
0
100
AcDbLine
 62
7
  6
CONTINUOUS
 10
14.8773350819
 20
4.808790348
 11
14.8153272079
 21
4.84452767
  0
LINE
  5
2A6
100
AcDbEntity
  8
0
100
AcDbLine
 62
7
  6
CONTINUOUS
 10
14.7976106724
 20
4.8547383334
 11
14.7356027984
 21
4.8904756554
  0
LINE
  5
2A7
100
AcDbEntity
  8
0
100
AcDbLine
 62
7
  6
CONTINUOUS
 10
14.717886263
 20
4.9006863188
 11
14.655878389
 21
4.9364236408
  0
LINE
  5
2A8
100
AcDbEntity
  8
0
100
AcDbLine
 62
7
  6
CONTINUOUS
 10
14.5938705149
 20
5.0130575598
 11
14.655878389
 21
4.9773202378
  0
LINE
  5
2A9
100
AcDbEntity
  8
0
100
AcDbLine
 62
7
  6
CONTINUOUS
 10
14.6735949244
 20
4.9671095744
 11
14.7356027984
 21
4.9313722524
  0
LINE
  5
2AA
100
AcDbEntity
  8
0
100
AcDbLine
 62
7
  6
CONTINUOUS
 10
14.7533193338
 20
4.921161589
 11
14.8153272079
 21
4.885424267
  0
LINE
  5
2AB
100
AcDbEntity
  8
0
100
AcDbLine
 62
7
  6
CONTINUOUS
 10
14.8330437433
 20
4.8752136036
 11
14.8950516173
 21
4.8394762816
  0
LINE
  5
2AC
100
AcDbEntity
  8
0
100
AcDbLine
 62
7
  6
CONTINUOUS
 10
14.9127681527
 20
4.8292656182
 11
14.9747760268
 21
4.7935282962
  0
LINE
  5
2AD
100
AcDbEntity
  8
0
100
AcDbLine
 62
7
  6
CONTINUOUS
 10
14.9924925622
 20
4.7833176328
 11
15.0545004362
 21
4.7475803108
  0
LINE
  5
2AE
100
AcDbEntity
  8
0
100
AcDbLine
 62
7
  6
CONTINUOUS
 10
15.0722169716
 20
4.7373696474
 11
15.1342248457
 21
4.7016323254
  0
LINE
  5
2AF
100
AcDbEntity
  8
0
100
AcDbLine
 62
7
  6
CONTINUOUS
 10
15.1519413811
 20
4.691421662
 11
15.2139492551
 21
4.65568434
  0
LINE
  5
2B0
100
AcDbEntity
  8
0
100
AcDbLine
 62
7
  6
CONTINUOUS
 10
15.2316657905
 20
4.6454736766
 11
15.2936736646
 21
4.6097363546
  0
LINE
  5
2B1
100
AcDbEntity
  8
0
100
AcDbLine
 62
7
  6
CONTINUOUS
 10
15.2943285109
 20
4.5128325418
 11
15.3945483697
 21
4.4549197323
  0
LINE
  5
2B2
100
AcDbEntity
  8
0
100
AcDbLine
 62
7
  6
CONTINUOUS
 10
15.3556815386
 20
4.7171371221
 11
15.2936736646
 21
4.7528744441
  0
LINE
  5
2B3
100
AcDbEntity
  8
0
100
AcDbLine
 62
7
  6
CONTINUOUS
 10
15.2759571291
 20
4.7630851075
 11
15.2139492551
 21
4.7988224295
  0
LINE
  5
2B4
100
AcDbEntity
  8
0
100
AcDbLine
 62
7
  6
CONTINUOUS
 10
15.1962327197
 20
4.8090330929
 11
15.1342248457
 21
4.8447704149
  0
LINE
  5
2B5
100
AcDbEntity
  8
0
100
AcDbLine
 62
7
  6
CONTINUOUS
 10
15.1165083102
 20
4.8549810783
 11
15.0545004362
 21
4.8907184003
  0
LINE
  5
2B6
100
AcDbEntity
  8
0
100
AcDbLine
 62
7
  6
CONTINUOUS
 10
15.0367839008
 20
4.9009290637
 11
14.9747760268
 21
4.9366663857
  0
LINE
  5
2B7
100
AcDbEntity
  8
0
100
AcDbLine
 62
7
  6
CONTINUOUS
 10
14.9570594913
 20
4.9468770491
 11
14.8950516173
 21
4.9826143711
  0
LINE
  5
2B8
100
AcDbEntity
  8
0
100
AcDbLine
 62
7
  6
CONTINUOUS
 10
14.8773350819
 20
4.9928250345
 11
14.8153272079
 21
5.0285623565
  0
LINE
  5
2B9
100
AcDbEntity
  8
0
100
AcDbLine
 62
7
  6
CONTINUOUS
 10
14.7976106724
 20
5.0387730199
 11
14.7356027984
 21
5.0745103419
  0
LINE
  5
2BA
100
AcDbEntity
  8
0
100
AcDbLine
 62
7
  6
CONTINUOUS
 10
14.717886263
 20
5.0847210053
 11
14.655878389
 21
5.1204583273
  0
LINE
  5
2BB
100
AcDbEntity
  8
0
100
AcDbLine
 62
7
  6
CONTINUOUS
 10
14.5938705149
 20
5.1970922463
 11
14.655878389
 21
5.1613549243
  0
LINE
  5
2BC
100
AcDbEntity
  8
0
100
AcDbLine
 62
7
  6
CONTINUOUS
 10
14.6735949244
 20
5.1511442609
 11
14.7356027984
 21
5.1154069389
  0
LINE
  5
2BD
100
AcDbEntity
  8
0
100
AcDbLine
 62
7
  6
CONTINUOUS
 10
14.7533193338
 20
5.1051962755
 11
14.8153272079
 21
5.0694589535
  0
LINE
  5
2BE
100
AcDbEntity
  8
0
100
AcDbLine
 62
7
  6
CONTINUOUS
 10
14.8330437433
 20
5.0592482901
 11
14.8950516173
 21
5.0235109681
  0
LINE
  5
2BF
100
AcDbEntity
  8
0
100
AcDbLine
 62
7
  6
CONTINUOUS
 10
14.9127681527
 20
5.0133003047
 11
14.9747760268
 21
4.9775629827
  0
LINE
  5
2C0
100
AcDbEntity
  8
0
100
AcDbLine
 62
7
  6
CONTINUOUS
 10
14.9924925622
 20
4.9673523193
 11
15.0545004362
 21
4.9316149973
  0
LINE
  5
2C1
100
AcDbEntity
  8
0
100
AcDbLine
 62
7
  6
CONTINUOUS
 10
15.0722169716
 20
4.9214043339
 11
15.1342248457
 21
4.8856670119
  0
LINE
  5
2C2
100
AcDbEntity
  8
0
100
AcDbLine
 62
7
  6
CONTINUOUS
 10
15.1519413811
 20
4.8754563485
 11
15.2139492551
 21
4.8397190265
  0
LINE
  5
2C3
100
AcDbEntity
  8
0
100
AcDbLine
 62
7
  6
CONTINUOUS
 10
15.2316657905
 20
4.8295083631
 11
15.2936736646
 21
4.7937710411
  0
LINE
  5
2C4
100
AcDbEntity
  8
0
100
AcDbLine
 62
7
  6
CONTINUOUS
 10
15.3113902
 20
4.7835603777
 11
15.373398074
 21
4.7478230557
  0
LINE
  5
2C5
100
AcDbEntity
  8
0
100
AcDbLine
 62
7
  6
CONTINUOUS
 10
15.3911146094
 20
4.7376123923
 11
15.4531224834
 21
4.7018750703
  0
LINE
  5
2C6
100
AcDbEntity
  8
0
100
AcDbLine
 62
7
  6
CONTINUOUS
 10
15.5151303575
 20
4.8092758378
 11
15.4531224834
 21
4.8450131598
  0
LINE
  5
2C7
100
AcDbEntity
  8
0
100
AcDbLine
 62
7
  6
CONTINUOUS
 10
15.435405948
 20
4.8552238232
 11
15.373398074
 21
4.8909611452
  0
LINE
  5
2C8
100
AcDbEntity
  8
0
100
AcDbLine
 62
7
  6
CONTINUOUS
 10
15.3556815386
 20
4.9011718086
 11
15.2936736646
 21
4.9369091306
  0
LINE
  5
2C9
100
AcDbEntity
  8
0
100
AcDbLine
 62
7
  6
CONTINUOUS
 10
15.2759571291
 20
4.947119794
 11
15.2139492551
 21
4.982857116
  0
LINE
  5
2CA
100
AcDbEntity
  8
0
100
AcDbLine
 62
7
  6
CONTINUOUS
 10
15.1962327197
 20
4.9930677794
 11
15.1342248457
 21
5.0288051014
  0
LINE
  5
2CB
100
AcDbEntity
  8
0
100
AcDbLine
 62
7
  6
CONTINUOUS
 10
15.1165083102
 20
5.0390157648
 11
15.0545004362
 21
5.0747530868
  0
LINE
  5
2CC
100
AcDbEntity
  8
0
100
AcDbLine
 62
7
  6
CONTINUOUS
 10
15.0367839008
 20
5.0849637502
 11
14.9747760268
 21
5.1207010722
  0
LINE
  5
2CD
100
AcDbEntity
  8
0
100
AcDbLine
 62
7
  6
CONTINUOUS
 10
14.9570594913
 20
5.1309117356
 11
14.8950516173
 21
5.1666490576
  0
LINE
  5
2CE
100
AcDbEntity
  8
0
100
AcDbLine
 62
7
  6
CONTINUOUS
 10
14.8773350819
 20
5.176859721
 11
14.8153272079
 21
5.212597043
  0
LINE
  5
2CF
100
AcDbEntity
  8
0
100
AcDbLine
 62
7
  6
CONTINUOUS
 10
14.7976106724
 20
5.2228077064
 11
14.7356027984
 21
5.2585450284
  0
LINE
  5
2D0
100
AcDbEntity
  8
0
100
AcDbLine
 62
7
  6
CONTINUOUS
 10
14.717886263
 20
5.2687556918
 11
14.655878389
 21
5.3044930138
  0
LINE
  5
2D1
100
AcDbEntity
  8
0
100
AcDbLine
 62
7
  6
CONTINUOUS
 10
14.5938705149
 20
5.3811269328
 11
14.655878389
 21
5.3453896108
  0
LINE
  5
2D2
100
AcDbEntity
  8
0
100
AcDbLine
 62
7
  6
CONTINUOUS
 10
14.6735949244
 20
5.3351789474
 11
14.7356027984
 21
5.2994416254
  0
LINE
  5
2D3
100
AcDbEntity
  8
0
100
AcDbLine
 62
7
  6
CONTINUOUS
 10
14.7533193338
 20
5.289230962
 11
14.8153272079
 21
5.25349364
  0
LINE
  5
2D4
100
AcDbEntity
  8
0
100
AcDbLine
 62
7
  6
CONTINUOUS
 10
14.8330437433
 20
5.2432829766
 11
14.8950516173
 21
5.2075456546
  0
LINE
  5
2D5
100
AcDbEntity
  8
0
100
AcDbLine
 62
7
  6
CONTINUOUS
 10
14.9127681527
 20
5.1973349912
 11
14.9747760268
 21
5.1615976692
  0
LINE
  5
2D6
100
AcDbEntity
  8
0
100
AcDbLine
 62
7
  6
CONTINUOUS
 10
14.9924925622
 20
5.1513870058
 11
15.0545004362
 21
5.1156496838
  0
LINE
  5
2D7
100
AcDbEntity
  8
0
100
AcDbLine
 62
7
  6
CONTINUOUS
 10
15.0722169716
 20
5.1054390204
 11
15.1342248457
 21
5.0697016984
  0
LINE
  5
2D8
100
AcDbEntity
  8
0
100
AcDbLine
 62
7
  6
CONTINUOUS
 10
15.1519413811
 20
5.059491035
 11
15.2139492551
 21
5.023753713
  0
LINE
  5
2D9
100
AcDbEntity
  8
0
100
AcDbLine
 62
7
  6
CONTINUOUS
 10
15.2316657905
 20
5.0135430496
 11
15.2936736646
 21
4.9778057276
  0
LINE
  5
2DA
100
AcDbEntity
  8
0
100
AcDbLine
 62
7
  6
CONTINUOUS
 10
15.3113902
 20
4.9675950642
 11
15.373398074
 21
4.9318577422
  0
LINE
  5
2DB
100
AcDbEntity
  8
0
100
AcDbLine
 62
7
  6
CONTINUOUS
 10
15.3911146094
 20
4.9216470788
 11
15.4531224834
 21
4.8859097568
  0
LINE
  5
2DC
100
AcDbEntity
  8
0
100
AcDbLine
 62
7
  6
CONTINUOUS
 10
15.4708390189
 20
4.8756990934
 11
15.5328468929
 21
4.8399617714
  0
LINE
  5
2DD
100
AcDbEntity
  8
0
100
AcDbLine
 62
7
  6
CONTINUOUS
 10
15.5505634283
 20
4.829751108
 11
15.6125713023
 21
4.794013786
  0
LINE
  5
2DE
100
AcDbEntity
  8
0
100
AcDbLine
 62
7
  6
CONTINUOUS
 10
15.6450980166
 20
4.715527375
 11
15.7453178753
 21
4.6576145655
  0
LINE
  5
2DF
100
AcDbEntity
  8
0
100
AcDbLine
 62
7
  6
CONTINUOUS
 10
15.6745791764
 20
4.9014145535
 11
15.6125713023
 21
4.9371518755
  0
LINE
  5
2E0
100
AcDbEntity
  8
0
100
AcDbLine
 62
7
  6
CONTINUOUS
 10
15.5948547669
 20
4.9473625389
 11
15.5328468929
 21
4.9830998609
  0
LINE
  5
2E1
100
AcDbEntity
  8
0
100
AcDbLine
 62
7
  6
CONTINUOUS
 10
15.5151303575
 20
4.9933105243
 11
15.4531224834
 21
5.0290478463
  0
LINE
  5
2E2
100
AcDbEntity
  8
0
100
AcDbLine
 62
7
  6
CONTINUOUS
 10
15.435405948
 20
5.0392585097
 11
15.373398074
 21
5.0749958317
  0
LINE
  5
2E3
100
AcDbEntity
  8
0
100
AcDbLine
 62
7
  6
CONTINUOUS
 10
15.3556815386
 20
5.0852064951
 11
15.2936736646
 21
5.1209438171
  0
LINE
  5
2E4
100
AcDbEntity
  8
0
100
AcDbLine
 62
7
  6
CONTINUOUS
 10
15.2759571291
 20
5.1311544805
 11
15.2139492551
 21
5.1668918025
  0
LINE
  5
2E5
100
AcDbEntity
  8
0
100
AcDbLine
 62
7
  6
CONTINUOUS
 10
15.1962327197
 20
5.1771024659
 11
15.1342248457
 21
5.2128397879
  0
LINE
  5
2E6
100
AcDbEntity
  8
0
100
AcDbLine
 62
7
  6
CONTINUOUS
 10
15.1165083102
 20
5.2230504513
 11
15.0545004362
 21
5.2587877733
  0
LINE
  5
2E7
100
AcDbEntity
  8
0
100
AcDbLine
 62
7
  6
CONTINUOUS
 10
15.0367839008
 20
5.2689984367
 11
14.9747760268
 21
5.3047357587
  0
LINE
  5
2E8
100
AcDbEntity
  8
0
100
AcDbLine
 62
7
  6
CONTINUOUS
 10
14.9570594913
 20
5.3149464221
 11
14.8950516173
 21
5.3506837441
  0
LINE
  5
2E9
100
AcDbEntity
  8
0
100
AcDbLine
 62
7
  6
CONTINUOUS
 10
14.8773350819
 20
5.3608944075
 11
14.8153272079
 21
5.3966317295
  0
LINE
  5
2EA
100
AcDbEntity
  8
0
100
AcDbLine
 62
7
  6
CONTINUOUS
 10
14.7976106724
 20
5.4068423929
 11
14.7356027984
 21
5.4425797149
  0
LINE
  5
2EB
100
AcDbEntity
  8
0
100
AcDbLine
 62
7
  6
CONTINUOUS
 10
14.717886263
 20
5.4527903783
 11
14.655878389
 21
5.4885277003
  0
LINE
  5
2EC
100
AcDbEntity
  8
0
100
AcDbLine
 62
7
  6
CONTINUOUS
 10
14.5938705149
 20
5.5651616193
 11
14.655878389
 21
5.5294242973
  0
LINE
  5
2ED
100
AcDbEntity
  8
0
100
AcDbLine
 62
7
  6
CONTINUOUS
 10
14.6735949244
 20
5.5192136339
 11
14.7356027984
 21
5.4834763119
  0
LINE
  5
2EE
100
AcDbEntity
  8
0
100
AcDbLine
 62
7
  6
CONTINUOUS
 10
14.7533193338
 20
5.4732656485
 11
14.8153272079
 21
5.4375283265
  0
LINE
  5
2EF
100
AcDbEntity
  8
0
100
AcDbLine
 62
7
  6
CONTINUOUS
 10
14.8330437433
 20
5.4273176631
 11
14.8950516173
 21
5.3915803411
  0
LINE
  5
2F0
100
AcDbEntity
  8
0
100
AcDbLine
 62
7
  6
CONTINUOUS
 10
14.9127681527
 20
5.3813696777
 11
14.9747760268
 21
5.3456323557
  0
LINE
  5
2F1
100
AcDbEntity
  8
0
100
AcDbLine
 62
7
  6
CONTINUOUS
 10
14.9924925622
 20
5.3354216923
 11
15.0545004362
 21
5.2996843703
  0
LINE
  5
2F2
100
AcDbEntity
  8
0
100
AcDbLine
 62
7
  6
CONTINUOUS
 10
15.0722169716
 20
5.2894737069
 11
15.1342248457
 21
5.2537363849
  0
LINE
  5
2F3
100
AcDbEntity
  8
0
100
AcDbLine
 62
7
  6
CONTINUOUS
 10
15.1519413811
 20
5.2435257215
 11
15.2139492551
 21
5.2077883995
  0
LINE
  5
2F4
100
AcDbEntity
  8
0
100
AcDbLine
 62
7
  6
CONTINUOUS
 10
15.2316657905
 20
5.1975777361
 11
15.2936736646
 21
5.1618404141
  0
LINE
  5
2F5
100
AcDbEntity
  8
0
100
AcDbLine
 62
7
  6
CONTINUOUS
 10
15.3113902
 20
5.1516297507
 11
15.373398074
 21
5.1158924287
  0
LINE
  5
2F6
100
AcDbEntity
  8
0
100
AcDbLine
 62
7
  6
CONTINUOUS
 10
15.3911146094
 20
5.1056817653
 11
15.4531224834
 21
5.0699444433
  0
LINE
  5
2F7
100
AcDbEntity
  8
0
100
AcDbLine
 62
7
  6
CONTINUOUS
 10
15.4708390189
 20
5.0597337799
 11
15.5328468929
 21
5.0239964579
  0
LINE
  5
2F8
100
AcDbEntity
  8
0
100
AcDbLine
 62
7
  6
CONTINUOUS
 10
15.5505634283
 20
5.0137857945
 11
15.6125713023
 21
4.9780484725
  0
LINE
  5
2F9
100
AcDbEntity
  8
0
100
AcDbLine
 62
7
  6
CONTINUOUS
 10
15.6302878378
 20
4.9678378091
 11
15.6922957118
 21
4.9321004871
  0
LINE
  5
2FA
100
AcDbEntity
  8
0
100
AcDbLine
 62
7
  6
CONTINUOUS
 10
15.7100122472
 20
4.9218898237
 11
15.7720201212
 21
4.8861525017
  0
LINE
  5
2FB
100
AcDbEntity
  8
0
100
AcDbLine
 62
7
  6
CONTINUOUS
 10
13.3676017265
 20
4.5289683546
 11
13.3676017265
 21
4.3843770493
  0
LINE
  5
2FC
100
AcDbEntity
  8
0
100
AcDbLine
 62
7
  6
CONTINUOUS
 10
13.4139534111
 20
5.2497150073
 11
13.4139534111
 21
6.435363711
  0
LINE
  5
2FD
100
AcDbEntity
  8
0
100
AcDbLine
 62
7
  6
CONTINUOUS
 10
13.4427666205
 20
4.3409424422
 11
13.4427666205
 21
4.6561476734
  0
LINE
  5
2FE
100
AcDbEntity
  8
0
100
AcDbLine
 62
7
  6
CONTINUOUS
 10
15.8340279953
 20
4.9935532692
 11
15.7720201212
 21
5.0292905912
  0
LINE
  5
2FF
100
AcDbEntity
  8
0
100
AcDbLine
 62
7
  6
CONTINUOUS
 10
15.7543035858
 20
5.0395012546
 11
15.6922957118
 21
5.0752385766
  0
LINE
  5
300
100
AcDbEntity
  8
0
100
AcDbLine
 62
7
  6
CONTINUOUS
 10
15.6745791764
 20
5.08544924
 11
15.6125713023
 21
5.121186562
  0
LINE
  5
301
100
AcDbEntity
  8
0
100
AcDbLine
 62
7
  6
CONTINUOUS
 10
15.5948547669
 20
5.1313972254
 11
15.5328468929
 21
5.1671345474
  0
LINE
  5
302
100
AcDbEntity
  8
0
100
AcDbLine
 62
7
  6
CONTINUOUS
 10
15.5151303575
 20
5.1773452108
 11
15.4531224834
 21
5.2130825328
  0
LINE
  5
303
100
AcDbEntity
  8
0
100
AcDbLine
 62
7
  6
CONTINUOUS
 10
15.435405948
 20
5.2232931962
 11
15.373398074
 21
5.2590305182
  0
LINE
  5
304
100
AcDbEntity
  8
0
100
AcDbLine
 62
7
  6
CONTINUOUS
 10
15.3556815386
 20
5.2692411816
 11
15.2936736646
 21
5.3049785036
  0
LINE
  5
305
100
AcDbEntity
  8
0
100
AcDbLine
 62
7
  6
CONTINUOUS
 10
15.2759571291
 20
5.315189167
 11
15.2139492551
 21
5.350926489
  0
LINE
  5
306
100
AcDbEntity
  8
0
100
AcDbLine
 62
7
  6
CONTINUOUS
 10
15.1962327197
 20
5.3611371524
 11
15.1342248457
 21
5.3968744744
  0
LINE
  5
307
100
AcDbEntity
  8
0
100
AcDbLine
 62
7
  6
CONTINUOUS
 10
15.1165083102
 20
5.4070851378
 11
15.0545004362
 21
5.4428224598
  0
LINE
  5
308
100
AcDbEntity
  8
0
100
AcDbLine
 62
7
  6
CONTINUOUS
 10
15.0367839008
 20
5.4530331232
 11
14.9747760268
 21
5.4887704452
  0
LINE
  5
309
100
AcDbEntity
  8
0
100
AcDbLine
 62
7
  6
CONTINUOUS
 10
14.9570594913
 20
5.4989811086
 11
14.8950516173
 21
5.5347184306
  0
LINE
  5
30A
100
AcDbEntity
  8
0
100
AcDbLine
 62
7
  6
CONTINUOUS
 10
14.8773350819
 20
5.544929094
 11
14.8153272079
 21
5.580666416
  0
LINE
  5
30B
100
AcDbEntity
  8
0
100
AcDbLine
 62
7
  6
CONTINUOUS
 10
14.7976106724
 20
5.5908770794
 11
14.7356027984
 21
5.6266144014
  0
LINE
  5
30C
100
AcDbEntity
  8
0
100
AcDbLine
 62
7
  6
CONTINUOUS
 10
14.717886263
 20
5.6368250648
 11
14.655878389
 21
5.6725623868
  0
LINE
  5
30D
100
AcDbEntity
  8
0
100
AcDbLine
 62
7
  6
CONTINUOUS
 10
14.5938705149
 20
5.7491963058
 11
14.655878389
 21
5.7134589838
  0
LINE
  5
30E
100
AcDbEntity
  8
0
100
AcDbLine
 62
7
  6
CONTINUOUS
 10
14.6735949244
 20
5.7032483204
 11
14.7356027984
 21
5.6675109984
  0
LINE
  5
30F
100
AcDbEntity
  8
0
100
AcDbLine
 62
7
  6
CONTINUOUS
 10
14.7533193338
 20
5.657300335
 11
14.8153272079
 21
5.621563013
  0
LINE
  5
310
100
AcDbEntity
  8
0
100
AcDbLine
 62
7
  6
CONTINUOUS
 10
14.8330437433
 20
5.6113523496
 11
14.8950516173
 21
5.5756150276
  0
LINE
  5
311
100
AcDbEntity
  8
0
100
AcDbLine
 62
7
  6
CONTINUOUS
 10
14.9127681527
 20
5.5654043642
 11
14.9747760268
 21
5.5296670422
  0
LINE
  5
312
100
AcDbEntity
  8
0
100
AcDbLine
 62
7
  6
CONTINUOUS
 10
14.9924925622
 20
5.5194563788
 11
15.0545004362
 21
5.4837190568
  0
LINE
  5
313
100
AcDbEntity
  8
0
100
AcDbLine
 62
7
  6
CONTINUOUS
 10
15.0722169716
 20
5.4735083934
 11
15.1342248457
 21
5.4377710714
  0
LINE
  5
314
100
AcDbEntity
  8
0
100
AcDbLine
 62
7
  6
CONTINUOUS
 10
15.1519413811
 20
5.427560408
 11
15.2139492551
 21
5.391823086
  0
LINE
  5
315
100
AcDbEntity
  8
0
100
AcDbLine
 62
7
  6
CONTINUOUS
 10
15.2316657905
 20
5.3816124226
 11
15.2936736646
 21
5.3458751006
  0
LINE
  5
316
100
AcDbEntity
  8
0
100
AcDbLine
 62
7
  6
CONTINUOUS
 10
15.3113902
 20
5.3356644372
 11
15.373398074
 21
5.2999271152
  0
LINE
  5
317
100
AcDbEntity
  8
0
100
AcDbLine
 62
7
  6
CONTINUOUS
 10
15.3911146094
 20
5.2897164518
 11
15.4531224834
 21
5.2539791298
  0
LINE
  5
318
100
AcDbEntity
  8
0
100
AcDbLine
 62
7
  6
CONTINUOUS
 10
15.4708390189
 20
5.2437684664
 11
15.5328468929
 21
5.2080311444
  0
LINE
  5
319
100
AcDbEntity
  8
0
100
AcDbLine
 62
7
  6
CONTINUOUS
 10
15.5505634283
 20
5.197820481
 11
15.6125713023
 21
5.162083159
  0
LINE
  5
31A
100
AcDbEntity
  8
0
100
AcDbLine
 62
7
  6
CONTINUOUS
 10
15.6302878378
 20
5.1518724956
 11
15.6922957118
 21
5.1161351736
  0
LINE
  5
31B
100
AcDbEntity
  8
0
100
AcDbLine
 62
7
  6
CONTINUOUS
 10
15.7100122472
 20
5.1059245102
 11
15.7720201212
 21
5.0701871882
  0
LINE
  5
31C
100
AcDbEntity
  8
0
100
AcDbLine
 62
7
  6
CONTINUOUS
 10
15.7897366567
 20
5.0599765248
 11
15.8517445307
 21
5.0242392028
  0
LINE
  5
31D
100
AcDbEntity
  8
0
100
AcDbLine
 62
7
  6
CONTINUOUS
 10
15.8694610661
 20
5.0140285394
 11
15.9314689401
 21
4.9782912174
  0
LINE
  5
31E
100
AcDbEntity
  8
0
100
AcDbLine
 62
7
  6
CONTINUOUS
 10
15.9934768142
 20
5.0856919849
 11
15.9314689401
 21
5.1214293069
  0
LINE
  5
31F
100
AcDbEntity
  8
0
100
AcDbLine
 62
7
  6
CONTINUOUS
 10
15.9137524047
 20
5.1316399703
 11
15.8517445307
 21
5.1673772923
  0
LINE
  5
320
100
AcDbEntity
  8
0
100
AcDbLine
 62
7
  6
CONTINUOUS
 10
15.8340279953
 20
5.1775879557
 11
15.7720201212
 21
5.2133252777
  0
LINE
  5
321
100
AcDbEntity
  8
0
100
AcDbLine
 62
7
  6
CONTINUOUS
 10
15.7543035858
 20
5.2235359411
 11
15.6922957118
 21
5.2592732631
  0
LINE
  5
322
100
AcDbEntity
  8
0
100
AcDbLine
 62
7
  6
CONTINUOUS
 10
15.6745791764
 20
5.2694839265
 11
15.6125713023
 21
5.3052212485
  0
LINE
  5
323
100
AcDbEntity
  8
0
100
AcDbLine
 62
7
  6
CONTINUOUS
 10
15.5948547669
 20
5.3154319119
 11
15.5328468929
 21
5.3511692339
  0
LINE
  5
324
100
AcDbEntity
  8
0
100
AcDbLine
 62
7
  6
CONTINUOUS
 10
15.5151303575
 20
5.3613798973
 11
15.4531224834
 21
5.3971172193
  0
LINE
  5
325
100
AcDbEntity
  8
0
100
AcDbLine
 62
7
  6
CONTINUOUS
 10
15.435405948
 20
5.4073278827
 11
15.373398074
 21
5.4430652047
  0
LINE
  5
326
100
AcDbEntity
  8
0
100
AcDbLine
 62
7
  6
CONTINUOUS
 10
15.3556815386
 20
5.4532758681
 11
15.2936736646
 21
5.4890131901
  0
LINE
  5
327
100
AcDbEntity
  8
0
100
AcDbLine
 62
7
  6
CONTINUOUS
 10
15.2759571291
 20
5.4992238535
 11
15.2139492551
 21
5.5349611755
  0
LINE
  5
328
100
AcDbEntity
  8
0
100
AcDbLine
 62
7
  6
CONTINUOUS
 10
15.1962327197
 20
5.5451718389
 11
15.1342248457
 21
5.5809091609
  0
LINE
  5
329
100
AcDbEntity
  8
0
100
AcDbLine
 62
7
  6
CONTINUOUS
 10
15.1165083102
 20
5.5911198243
 11
15.0545004362
 21
5.6268571463
  0
LINE
  5
32A
100
AcDbEntity
  8
0
100
AcDbLine
 62
7
  6
CONTINUOUS
 10
15.0367839008
 20
5.6370678097
 11
14.9747760268
 21
5.6728051317
  0
LINE
  5
32B
100
AcDbEntity
  8
0
100
AcDbLine
 62
7
  6
CONTINUOUS
 10
14.9570594913
 20
5.6830157951
 11
14.8950516173
 21
5.7187531171
  0
LINE
  5
32C
100
AcDbEntity
  8
0
100
AcDbLine
 62
7
  6
CONTINUOUS
 10
14.8773350819
 20
5.7289637805
 11
14.8153272079
 21
5.7647011025
  0
LINE
  5
32D
100
AcDbEntity
  8
0
100
AcDbLine
 62
7
  6
CONTINUOUS
 10
14.7976106724
 20
5.7749117659
 11
14.7356027984
 21
5.8106490879
  0
LINE
  5
32E
100
AcDbEntity
  8
0
100
AcDbLine
 62
7
  6
CONTINUOUS
 10
14.717886263
 20
5.8208597513
 11
14.655878389
 21
5.8565970733
  0
LINE
  5
32F
100
AcDbEntity
  8
0
100
AcDbLine
 62
7
  6
CONTINUOUS
 10
14.5938705149
 20
5.9332309923
 11
14.655878389
 21
5.8974936703
  0
LINE
  5
330
100
AcDbEntity
  8
0
100
AcDbLine
 62
7
  6
CONTINUOUS
 10
14.6735949244
 20
5.8872830069
 11
14.7356027984
 21
5.8515456849
  0
LINE
  5
331
100
AcDbEntity
  8
0
100
AcDbLine
 62
7
  6
CONTINUOUS
 10
14.7533193338
 20
5.8413350215
 11
14.8153272079
 21
5.8055976995
  0
LINE
  5
332
100
AcDbEntity
  8
0
100
AcDbLine
 62
7
  6
CONTINUOUS
 10
14.8330437433
 20
5.7953870361
 11
14.8950516173
 21
5.7596497141
  0
LINE
  5
333
100
AcDbEntity
  8
0
100
AcDbLine
 62
7
  6
CONTINUOUS
 10
14.9127681527
 20
5.7494390507
 11
14.9747760268
 21
5.7137017287
  0
LINE
  5
334
100
AcDbEntity
  8
0
100
AcDbLine
 62
7
  6
CONTINUOUS
 10
14.9924925622
 20
5.7034910653
 11
15.0545004362
 21
5.6677537433
  0
LINE
  5
335
100
AcDbEntity
  8
0
100
AcDbLine
 62
7
  6
CONTINUOUS
 10
15.0722169716
 20
5.6575430799
 11
15.1342248457
 21
5.6218057579
  0
LINE
  5
336
100
AcDbEntity
  8
0
100
AcDbLine
 62
7
  6
CONTINUOUS
 10
15.1519413811
 20
5.6115950945
 11
15.2139492551
 21
5.5758577725
  0
LINE
  5
337
100
AcDbEntity
  8
0
100
AcDbLine
 62
7
  6
CONTINUOUS
 10
15.2316657905
 20
5.5656471091
 11
15.2936736646
 21
5.5299097871
  0
LINE
  5
338
100
AcDbEntity
  8
0
100
AcDbLine
 62
7
  6
CONTINUOUS
 10
15.3113902
 20
5.5196991237
 11
15.373398074
 21
5.4839618017
  0
LINE
  5
339
100
AcDbEntity
  8
0
100
AcDbLine
 62
7
  6
CONTINUOUS
 10
15.3911146094
 20
5.4737511383
 11
15.4531224834
 21
5.4380138163
  0
LINE
  5
33A
100
AcDbEntity
  8
0
100
AcDbLine
 62
7
  6
CONTINUOUS
 10
15.4708390189
 20
5.4278031529
 11
15.5328468929
 21
5.3920658309
  0
LINE
  5
33B
100
AcDbEntity
  8
0
100
AcDbLine
 62
7
  6
CONTINUOUS
 10
15.5505634283
 20
5.3818551675
 11
15.6125713023
 21
5.3461178455
  0
LINE
  5
33C
100
AcDbEntity
  8
0
100
AcDbLine
 62
7
  6
CONTINUOUS
 10
15.6302878378
 20
5.3359071821
 11
15.6922957118
 21
5.3001698601
  0
LINE
  5
33D
100
AcDbEntity
  8
0
100
AcDbLine
 62
7
  6
CONTINUOUS
 10
15.7100122472
 20
5.2899591967
 11
15.7720201212
 21
5.2542218747
  0
LINE
  5
33E
100
AcDbEntity
  8
0
100
AcDbLine
 62
7
  6
CONTINUOUS
 10
15.7897366567
 20
5.2440112113
 11
15.8517445307
 21
5.2082738893
  0
LINE
  5
33F
100
AcDbEntity
  8
0
100
AcDbLine
 62
7
  6
CONTINUOUS
 10
15.8694610661
 20
5.1980632259
 11
15.9314689401
 21
5.1623259039
  0
LINE
  5
340
100
AcDbEntity
  8
0
100
AcDbLine
 62
7
  6
CONTINUOUS
 10
13.4640633405
 20
6.4642438283
 11
14.3159321399
 21
5.9719849476
  0
LINE
  5
341
100
AcDbEntity
  8
0
100
AcDbLine
 62
7
  6
CONTINUOUS
 10
13.4653160887
 20
6.4649677385
 11
14.3171848881
 21
5.9727088578
  0
LINE
  5
342
100
AcDbEntity
  8
0
100
AcDbLine
 62
7
  6
CONTINUOUS
 10
13.6594920651
 20
9.0644506462
 11
13.6594920651
 21
9.0615299746
  0
LINE
  5
343
100
AcDbEntity
  8
0
100
AcDbLine
 62
7
  6
CONTINUOUS
 10
13.4286069243
 20
6.4677657009
 11
13.4298596726
 21
6.468489611
  0
LINE
  5
344
100
AcDbEntity
  8
0
100
AcDbLine
 62
7
  6
CONTINUOUS
 10
15.9934768142
 20
5.2697266714
 11
15.9314689401
 21
5.3054639934
  0
LINE
  5
345
100
AcDbEntity
  8
0
100
AcDbLine
 62
7
  6
CONTINUOUS
 10
15.9137524047
 20
5.3156746568
 11
15.8517445307
 21
5.3514119788
  0
LINE
  5
346
100
AcDbEntity
  8
0
100
AcDbLine
 62
7
  6
CONTINUOUS
 10
15.8340279953
 20
5.3616226422
 11
15.7720201212
 21
5.3973599642
  0
LINE
  5
347
100
AcDbEntity
  8
0
100
AcDbLine
 62
7
  6
CONTINUOUS
 10
15.7543035858
 20
5.4075706276
 11
15.6922957118
 21
5.4433079496
  0
LINE
  5
348
100
AcDbEntity
  8
0
100
AcDbLine
 62
7
  6
CONTINUOUS
 10
15.6745791764
 20
5.453518613
 11
15.6125713023
 21
5.489255935
  0
LINE
  5
349
100
AcDbEntity
  8
0
100
AcDbLine
 62
7
  6
CONTINUOUS
 10
15.5948547669
 20
5.4994665984
 11
15.5328468929
 21
5.5352039204
  0
LINE
  5
34A
100
AcDbEntity
  8
0
100
AcDbLine
 62
7
  6
CONTINUOUS
 10
15.5151303575
 20
5.5454145838
 11
15.4531224834
 21
5.5811519058
  0
LINE
  5
34B
100
AcDbEntity
  8
0
100
AcDbLine
 62
7
  6
CONTINUOUS
 10
15.435405948
 20
5.5913625692
 11
15.373398074
 21
5.6270998912
  0
LINE
  5
34C
100
AcDbEntity
  8
0
100
AcDbLine
 62
7
  6
CONTINUOUS
 10
15.3556815386
 20
5.6373105546
 11
15.2936736646
 21
5.6730478766
  0
LINE
  5
34D
100
AcDbEntity
  8
0
100
AcDbLine
 62
7
  6
CONTINUOUS
 10
15.2759571291
 20
5.68325854
 11
15.2139492551
 21
5.718995862
  0
LINE
  5
34E
100
AcDbEntity
  8
0
100
AcDbLine
 62
7
  6
CONTINUOUS
 10
15.1962327197
 20
5.7292065254
 11
15.1342248457
 21
5.7649438474
  0
LINE
  5
34F
100
AcDbEntity
  8
0
100
AcDbLine
 62
7
  6
CONTINUOUS
 10
15.1165083102
 20
5.7751545108
 11
15.0545004362
 21
5.8108918328
  0
LINE
  5
350
100
AcDbEntity
  8
0
100
AcDbLine
 62
7
  6
CONTINUOUS
 10
15.0367839008
 20
5.8211024962
 11
14.9747760268
 21
5.8568398182
  0
LINE
  5
351
100
AcDbEntity
  8
0
100
AcDbLine
 62
7
  6
CONTINUOUS
 10
14.9570594913
 20
5.8670504816
 11
14.8950516173
 21
5.9027878036
  0
LINE
  5
352
100
AcDbEntity
  8
0
100
AcDbLine
 62
7
  6
CONTINUOUS
 10
14.8773350819
 20
5.912998467
 11
14.8153272079
 21
5.948735789
  0
LINE
  5
353
100
AcDbEntity
  8
0
100
AcDbLine
 62
7
  6
CONTINUOUS
 10
14.7976106724
 20
5.9589464524
 11
14.7356027984
 21
5.9946837744
  0
LINE
  5
354
100
AcDbEntity
  8
0
100
AcDbLine
 62
7
  6
CONTINUOUS
 10
14.717886263
 20
6.0048944378
 11
14.655878389
 21
6.0406317598
  0
LINE
  5
355
100
AcDbEntity
  8
0
100
AcDbLine
 62
7
  6
CONTINUOUS
 10
14.5938705149
 20
6.1172656788
 11
14.655878389
 21
6.0815283568
  0
LINE
  5
356
100
AcDbEntity
  8
0
100
AcDbLine
 62
7
  6
CONTINUOUS
 10
14.6735949244
 20
6.0713176934
 11
14.7356027984
 21
6.0355803714
  0
LINE
  5
357
100
AcDbEntity
  8
0
100
AcDbLine
 62
7
  6
CONTINUOUS
 10
14.7533193338
 20
6.025369708
 11
14.8153272079
 21
5.989632386
  0
LINE
  5
358
100
AcDbEntity
  8
0
100
AcDbLine
 62
7
  6
CONTINUOUS
 10
14.8330437433
 20
5.9794217226
 11
14.8950516173
 21
5.9436844006
  0
LINE
  5
359
100
AcDbEntity
  8
0
100
AcDbLine
 62
7
  6
CONTINUOUS
 10
14.9127681527
 20
5.9334737372
 11
14.9747760268
 21
5.8977364152
  0
LINE
  5
35A
100
AcDbEntity
  8
0
100
AcDbLine
 62
7
  6
CONTINUOUS
 10
14.9924925622
 20
5.8875257518
 11
15.0545004362
 21
5.8517884298
  0
LINE
  5
35B
100
AcDbEntity
  8
0
100
AcDbLine
 62
7
  6
CONTINUOUS
 10
15.0722169716
 20
5.8415777664
 11
15.1342248457
 21
5.8058404444
  0
LINE
  5
35C
100
AcDbEntity
  8
0
100
AcDbLine
 62
7
  6
CONTINUOUS
 10
15.1519413811
 20
5.795629781
 11
15.2139492551
 21
5.759892459
  0
LINE
  5
35D
100
AcDbEntity
  8
0
100
AcDbLine
 62
7
  6
CONTINUOUS
 10
15.2316657905
 20
5.7496817956
 11
15.2936736646
 21
5.7139444736
  0
LINE
  5
35E
100
AcDbEntity
  8
0
100
AcDbLine
 62
7
  6
CONTINUOUS
 10
15.3113902
 20
5.7037338102
 11
15.373398074
 21
5.6679964882
  0
LINE
  5
35F
100
AcDbEntity
  8
0
100
AcDbLine
 62
7
  6
CONTINUOUS
 10
15.3911146094
 20
5.6577858248
 11
15.4531224834
 21
5.6220485028
  0
LINE
  5
360
100
AcDbEntity
  8
0
100
AcDbLine
 62
7
  6
CONTINUOUS
 10
15.4708390189
 20
5.6118378394
 11
15.5328468929
 21
5.5761005174
  0
LINE
  5
361
100
AcDbEntity
  8
0
100
AcDbLine
 62
7
  6
CONTINUOUS
 10
15.5505634283
 20
5.565889854
 11
15.6125713023
 21
5.530152532
  0
LINE
  5
362
100
AcDbEntity
  8
0
100
AcDbLine
 62
7
  6
CONTINUOUS
 10
15.6302878378
 20
5.5199418686
 11
15.6922957118
 21
5.4842045466
  0
LINE
  5
363
100
AcDbEntity
  8
0
100
AcDbLine
 62
7
  6
CONTINUOUS
 10
15.7100122472
 20
5.4739938832
 11
15.7720201212
 21
5.4382565612
  0
LINE
  5
364
100
AcDbEntity
  8
0
100
AcDbLine
 62
7
  6
CONTINUOUS
 10
15.7897366567
 20
5.4280458978
 11
15.8517445307
 21
5.3923085758
  0
LINE
  5
365
100
AcDbEntity
  8
0
100
AcDbLine
 62
7
  6
CONTINUOUS
 10
15.8694610661
 20
5.3820979124
 11
15.9314689401
 21
5.3463605904
  0
LINE
  5
366
100
AcDbEntity
  8
0
100
AcDbLine
 62
7
  6
CONTINUOUS
 10
13.4653160887
 20
6.4649677385
 11
13.4640633405
 21
6.4642438283
  0
LINE
  5
367
100
AcDbEntity
  8
0
100
AcDbLine
 62
7
  6
CONTINUOUS
 10
15.9934768142
 20
5.4537613579
 11
15.9314689401
 21
5.4894986799
  0
LINE
  5
368
100
AcDbEntity
  8
0
100
AcDbLine
 62
7
  6
CONTINUOUS
 10
15.9137524047
 20
5.4997093433
 11
15.8517445307
 21
5.5354466653
  0
LINE
  5
369
100
AcDbEntity
  8
0
100
AcDbLine
 62
7
  6
CONTINUOUS
 10
15.8340279953
 20
5.5456573287
 11
15.7720201212
 21
5.5813946507
  0
LINE
  5
36A
100
AcDbEntity
  8
0
100
AcDbLine
 62
7
  6
CONTINUOUS
 10
15.7543035858
 20
5.5916053141
 11
15.6922957118
 21
5.6273426361
  0
LINE
  5
36B
100
AcDbEntity
  8
0
100
AcDbLine
 62
7
  6
CONTINUOUS
 10
15.6745791764
 20
5.6375532995
 11
15.6125713023
 21
5.6732906215
  0
LINE
  5
36C
100
AcDbEntity
  8
0
100
AcDbLine
 62
7
  6
CONTINUOUS
 10
15.5948547669
 20
5.6835012849
 11
15.5328468929
 21
5.7192386069
  0
LINE
  5
36D
100
AcDbEntity
  8
0
100
AcDbLine
 62
7
  6
CONTINUOUS
 10
15.5151303575
 20
5.7294492703
 11
15.4531224834
 21
5.7651865923
  0
LINE
  5
36E
100
AcDbEntity
  8
0
100
AcDbLine
 62
7
  6
CONTINUOUS
 10
15.435405948
 20
5.7753972557
 11
15.373398074
 21
5.8111345777
  0
LINE
  5
36F
100
AcDbEntity
  8
0
100
AcDbLine
 62
7
  6
CONTINUOUS
 10
15.3556815386
 20
5.8213452411
 11
15.2936736646
 21
5.8570825631
  0
LINE
  5
370
100
AcDbEntity
  8
0
100
AcDbLine
 62
7
  6
CONTINUOUS
 10
15.2759571291
 20
5.8672932265
 11
15.2139492551
 21
5.9030305485
  0
LINE
  5
371
100
AcDbEntity
  8
0
100
AcDbLine
 62
7
  6
CONTINUOUS
 10
15.1962327197
 20
5.9132412119
 11
15.1342248457
 21
5.9489785339
  0
LINE
  5
372
100
AcDbEntity
  8
0
100
AcDbLine
 62
7
  6
CONTINUOUS
 10
15.1165083102
 20
5.9591891973
 11
15.0545004362
 21
5.9949265193
  0
LINE
  5
373
100
AcDbEntity
  8
0
100
AcDbLine
 62
7
  6
CONTINUOUS
 10
15.0367839008
 20
6.0051371827
 11
14.9747760268
 21
6.0408745047
  0
LINE
  5
374
100
AcDbEntity
  8
0
100
AcDbLine
 62
7
  6
CONTINUOUS
 10
14.9570594913
 20
6.0510851681
 11
14.8950516173
 21
6.0868224901
  0
LINE
  5
375
100
AcDbEntity
  8
0
100
AcDbLine
 62
7
  6
CONTINUOUS
 10
14.8773350819
 20
6.0970331535
 11
14.8153272079
 21
6.1327704755
  0
LINE
  5
376
100
AcDbEntity
  8
0
100
AcDbLine
 62
7
  6
CONTINUOUS
 10
14.7976106724
 20
6.1429811389
 11
14.7356027984
 21
6.1787184609
  0
LINE
  5
377
100
AcDbEntity
  8
0
100
AcDbLine
 62
7
  6
CONTINUOUS
 10
14.717886263
 20
6.1889291243
 11
14.655878389
 21
6.2246664463
  0
LINE
  5
378
100
AcDbEntity
  8
0
100
AcDbLine
 62
7
  6
CONTINUOUS
 10
14.5938705149
 20
6.3013003653
 11
14.655878389
 21
6.2655630433
  0
LINE
  5
379
100
AcDbEntity
  8
0
100
AcDbLine
 62
7
  6
CONTINUOUS
 10
14.6735949244
 20
6.2553523799
 11
14.7356027984
 21
6.2196150579
  0
LINE
  5
37A
100
AcDbEntity
  8
0
100
AcDbLine
 62
7
  6
CONTINUOUS
 10
14.7533193338
 20
6.2094043945
 11
14.8153272079
 21
6.1736670725
  0
LINE
  5
37B
100
AcDbEntity
  8
0
100
AcDbLine
 62
7
  6
CONTINUOUS
 10
14.9127681527
 20
6.1175084237
 11
14.9747760268
 21
6.0817711017
  0
LINE
  5
37C
100
AcDbEntity
  8
0
100
AcDbLine
 62
7
  6
CONTINUOUS
 10
14.9924925622
 20
6.0715604383
 11
15.0545004362
 21
6.0358231163
  0
LINE
  5
37D
100
AcDbEntity
  8
0
100
AcDbLine
 62
7
  6
CONTINUOUS
 10
15.0722169716
 20
6.0256124529
 11
15.1342248457
 21
5.9898751309
  0
LINE
  5
37E
100
AcDbEntity
  8
0
100
AcDbLine
 62
7
  6
CONTINUOUS
 10
15.1519413811
 20
5.9796644675
 11
15.2139492551
 21
5.9439271455
  0
LINE
  5
37F
100
AcDbEntity
  8
0
100
AcDbLine
 62
7
  6
CONTINUOUS
 10
15.2316657905
 20
5.9337164821
 11
15.2936736646
 21
5.8979791601
  0
LINE
  5
380
100
AcDbEntity
  8
0
100
AcDbLine
 62
7
  6
CONTINUOUS
 10
15.3113902
 20
5.8877684967
 11
15.373398074
 21
5.8520311747
  0
LINE
  5
381
100
AcDbEntity
  8
0
100
AcDbLine
 62
7
  6
CONTINUOUS
 10
15.3911146094
 20
5.8418205113
 11
15.4531224834
 21
5.8060831893
  0
LINE
  5
382
100
AcDbEntity
  8
0
100
AcDbLine
 62
7
  6
CONTINUOUS
 10
15.4708390189
 20
5.7958725259
 11
15.5328468929
 21
5.7601352039
  0
LINE
  5
383
100
AcDbEntity
  8
0
100
AcDbLine
 62
7
  6
CONTINUOUS
 10
15.5505634283
 20
5.7499245405
 11
15.6125713023
 21
5.7141872185
  0
LINE
  5
384
100
AcDbEntity
  8
0
100
AcDbLine
 62
7
  6
CONTINUOUS
 10
15.6302878378
 20
5.7039765551
 11
15.6922957118
 21
5.6682392331
  0
LINE
  5
385
100
AcDbEntity
  8
0
100
AcDbLine
 62
7
  6
CONTINUOUS
 10
15.7100122472
 20
5.6580285697
 11
15.7720201212
 21
5.6222912477
  0
LINE
  5
386
100
AcDbEntity
  8
0
100
AcDbLine
 62
7
  6
CONTINUOUS
 10
15.7897366567
 20
5.6120805843
 11
15.8517445307
 21
5.5763432623
  0
LINE
  5
387
100
AcDbEntity
  8
0
100
AcDbLine
 62
7
  6
CONTINUOUS
 10
15.8694610661
 20
5.5661325989
 11
15.9314689401
 21
5.5303952769
  0
LINE
  5
388
100
AcDbEntity
  8
0
100
AcDbLine
 62
7
  6
CONTINUOUS
 10
15.9934768142
 20
5.6377960444
 11
15.9314689401
 21
5.6735333664
  0
LINE
  5
389
100
AcDbEntity
  8
0
100
AcDbLine
 62
7
  6
CONTINUOUS
 10
15.9137524047
 20
5.6837440298
 11
15.8517445307
 21
5.7194813518
  0
LINE
  5
38A
100
AcDbEntity
  8
0
100
AcDbLine
 62
7
  6
CONTINUOUS
 10
15.8340279953
 20
5.7296920152
 11
15.7720201212
 21
5.7654293372
  0
LINE
  5
38B
100
AcDbEntity
  8
0
100
AcDbLine
 62
7
  6
CONTINUOUS
 10
15.7543035858
 20
5.7756400006
 11
15.6922957118
 21
5.8113773226
  0
LINE
  5
38C
100
AcDbEntity
  8
0
100
AcDbLine
 62
7
  6
CONTINUOUS
 10
15.6745791764
 20
5.821587986
 11
15.6125713023
 21
5.857325308
  0
LINE
  5
38D
100
AcDbEntity
  8
0
100
AcDbLine
 62
7
  6
CONTINUOUS
 10
15.5948547669
 20
5.8675359714
 11
15.5328468929
 21
5.9032732934
  0
LINE
  5
38E
100
AcDbEntity
  8
0
100
AcDbLine
 62
7
  6
CONTINUOUS
 10
15.5151303575
 20
5.9134839568
 11
15.4531224834
 21
5.9492212788
  0
LINE
  5
38F
100
AcDbEntity
  8
0
100
AcDbLine
 62
7
  6
CONTINUOUS
 10
15.435405948
 20
5.9594319422
 11
15.373398074
 21
5.9951692642
  0
LINE
  5
390
100
AcDbEntity
  8
0
100
AcDbLine
 62
7
  6
CONTINUOUS
 10
15.3556815386
 20
6.0053799276
 11
15.2936736646
 21
6.0411172496
  0
LINE
  5
391
100
AcDbEntity
  8
0
100
AcDbLine
 62
7
  6
CONTINUOUS
 10
15.2759571291
 20
6.051327913
 11
15.2139492551
 21
6.087065235
  0
LINE
  5
392
100
AcDbEntity
  8
0
100
AcDbLine
 62
7
  6
CONTINUOUS
 10
15.1962327197
 20
6.0972758984
 11
15.1342248457
 21
6.1330132204
  0
LINE
  5
393
100
AcDbEntity
  8
0
100
AcDbLine
 62
7
  6
CONTINUOUS
 10
15.1165083102
 20
6.1432238838
 11
15.0545004362
 21
6.1789612058
  0
LINE
  5
394
100
AcDbEntity
  8
0
100
AcDbLine
 62
7
  6
CONTINUOUS
 10
15.0367839008
 20
6.1891718692
 11
14.9747760268
 21
6.2249091912
  0
LINE
  5
395
100
AcDbEntity
  8
0
100
AcDbLine
 62
7
  6
CONTINUOUS
 10
14.8773350819
 20
6.28106784
 11
14.8153272079
 21
6.316805162
  0
LINE
  5
396
100
AcDbEntity
  8
0
100
AcDbLine
 62
7
  6
CONTINUOUS
 10
14.7976106724
 20
6.3270158254
 11
14.7356027984
 21
6.3627531474
  0
LINE
  5
397
100
AcDbEntity
  8
0
100
AcDbLine
 62
7
  6
CONTINUOUS
 10
14.717886263
 20
6.3729638108
 11
14.655878389
 21
6.4087011328
  0
LINE
  5
398
100
AcDbEntity
  8
0
100
AcDbLine
 62
7
  6
CONTINUOUS
 10
14.6735949244
 20
6.4393870664
 11
14.7356027984
 21
6.4036497444
  0
LINE
  5
399
100
AcDbEntity
  8
0
100
AcDbLine
 62
7
  6
CONTINUOUS
 10
14.7533193338
 20
6.393439081
 11
14.8153272079
 21
6.357701759
  0
LINE
  5
39A
100
AcDbEntity
  8
0
100
AcDbLine
 62
7
  6
CONTINUOUS
 10
15.0722169716
 20
6.2096471394
 11
15.1342248457
 21
6.1739098174
  0
LINE
  5
39B
100
AcDbEntity
  8
0
100
AcDbLine
 62
7
  6
CONTINUOUS
 10
15.1519413811
 20
6.163699154
 11
15.2139492551
 21
6.127961832
  0
LINE
  5
39C
100
AcDbEntity
  8
0
100
AcDbLine
 62
7
  6
CONTINUOUS
 10
15.2316657905
 20
6.1177511686
 11
15.2936736646
 21
6.0820138466
  0
LINE
  5
39D
100
AcDbEntity
  8
0
100
AcDbLine
 62
7
  6
CONTINUOUS
 10
15.3113902
 20
6.0718031832
 11
15.373398074
 21
6.0360658612
  0
LINE
  5
39E
100
AcDbEntity
  8
0
100
AcDbLine
 62
7
  6
CONTINUOUS
 10
15.3911146094
 20
6.0258551978
 11
15.4531224834
 21
5.9901178758
  0
LINE
  5
39F
100
AcDbEntity
  8
0
100
AcDbLine
 62
7
  6
CONTINUOUS
 10
15.4708390189
 20
5.9799072124
 11
15.5328468929
 21
5.9441698904
  0
LINE
  5
3A0
100
AcDbEntity
  8
0
100
AcDbLine
 62
7
  6
CONTINUOUS
 10
15.5505634283
 20
5.933959227
 11
15.6125713023
 21
5.898221905
  0
LINE
  5
3A1
100
AcDbEntity
  8
0
100
AcDbLine
 62
7
  6
CONTINUOUS
 10
15.6302878378
 20
5.8880112416
 11
15.6922957118
 21
5.8522739196
  0
LINE
  5
3A2
100
AcDbEntity
  8
0
100
AcDbLine
 62
7
  6
CONTINUOUS
 10
15.7100122472
 20
5.8420632562
 11
15.7720201212
 21
5.8063259342
  0
LINE
  5
3A3
100
AcDbEntity
  8
0
100
AcDbLine
 62
7
  6
CONTINUOUS
 10
15.7897366567
 20
5.7961152708
 11
15.8517445307
 21
5.7603779488
  0
LINE
  5
3A4
100
AcDbEntity
  8
0
100
AcDbLine
 62
7
  6
CONTINUOUS
 10
15.8694610661
 20
5.7501672854
 11
15.9314689401
 21
5.7144299634
  0
LINE
  5
3A5
100
AcDbEntity
  8
0
100
AcDbLine
 62
7
  6
CONTINUOUS
 10
16.0459774516
 20
7.531433126
 11
14.4925696409
 21
6.6337845788
  0
LINE
  5
3A6
100
AcDbEntity
  8
0
100
AcDbLine
 62
7
  6
CONTINUOUS
 10
14.4925696409
 20
6.630798158
 11
16.0459774516
 21
7.5284467051
  0
LINE
  5
3A7
100
AcDbEntity
  8
0
100
AcDbLine
 62
7
  6
CONTINUOUS
 10
16.096087381
 20
7.5209229197
 11
14.4925696409
 21
6.5943179678
  0
LINE
  5
3A8
100
AcDbEntity
  8
0
100
AcDbLine
 62
7
  6
CONTINUOUS
 10
15.9934768142
 20
5.8218307309
 11
15.9314689401
 21
5.8575680529
  0
LINE
  5
3A9
100
AcDbEntity
  8
0
100
AcDbLine
 62
7
  6
CONTINUOUS
 10
15.9137524047
 20
5.8677787163
 11
15.8517445307
 21
5.9035160383
  0
LINE
  5
3AA
100
AcDbEntity
  8
0
100
AcDbLine
 62
7
  6
CONTINUOUS
 10
15.8340279953
 20
5.9137267017
 11
15.7720201212
 21
5.9494640237
  0
LINE
  5
3AB
100
AcDbEntity
  8
0
100
AcDbLine
 62
7
  6
CONTINUOUS
 10
15.7543035858
 20
5.9596746871
 11
15.6922957118
 21
5.9954120091
  0
LINE
  5
3AC
100
AcDbEntity
  8
0
100
AcDbLine
 62
7
  6
CONTINUOUS
 10
15.6745791764
 20
6.0056226725
 11
15.6125713023
 21
6.0413599945
  0
LINE
  5
3AD
100
AcDbEntity
  8
0
100
AcDbLine
 62
7
  6
CONTINUOUS
 10
15.5948547669
 20
6.0515706579
 11
15.5328468929
 21
6.0873079799
  0
LINE
  5
3AE
100
AcDbEntity
  8
0
100
AcDbLine
 62
7
  6
CONTINUOUS
 10
15.5151303575
 20
6.0975186433
 11
15.4531224834
 21
6.1332559653
  0
LINE
  5
3AF
100
AcDbEntity
  8
0
100
AcDbLine
 62
7
  6
CONTINUOUS
 10
15.435405948
 20
6.1434666287
 11
15.373398074
 21
6.1792039507
  0
LINE
  5
3B0
100
AcDbEntity
  8
0
100
AcDbLine
 62
7
  6
CONTINUOUS
 10
15.3556815386
 20
6.1894146141
 11
15.2936736646
 21
6.2251519361
  0
LINE
  5
3B1
100
AcDbEntity
  8
0
100
AcDbLine
 62
7
  6
CONTINUOUS
 10
15.2759571291
 20
6.2353625995
 11
15.2139492551
 21
6.2710999215
  0
LINE
  5
3B2
100
AcDbEntity
  8
0
100
AcDbLine
 62
7
  6
CONTINUOUS
 10
15.1962327197
 20
6.2813105849
 11
15.1342248457
 21
6.3170479069
  0
LINE
  5
3B3
100
AcDbEntity
  8
0
100
AcDbLine
 62
7
  6
CONTINUOUS
 10
14.8773350819
 20
6.4651025265
 11
14.8153272079
 21
6.5008398485
  0
LINE
  5
3B4
100
AcDbEntity
  8
0
100
AcDbLine
 62
7
  6
CONTINUOUS
 10
14.7976106724
 20
6.5110505119
 11
14.7356027984
 21
6.5467878339
  0
LINE
  5
3B5
100
AcDbEntity
  8
0
100
AcDbLine
 62
7
  6
CONTINUOUS
 10
15.3113902
 20
6.2558378697
 11
15.373398074
 21
6.2201005477
  0
LINE
  5
3B6
100
AcDbEntity
  8
0
100
AcDbLine
 62
7
  6
CONTINUOUS
 10
15.3911146094
 20
6.2098898843
 11
15.4531224834
 21
6.1741525623
  0
LINE
  5
3B7
100
AcDbEntity
  8
0
100
AcDbLine
 62
7
  6
CONTINUOUS
 10
15.4708390189
 20
6.1639418989
 11
15.5328468929
 21
6.1282045769
  0
LINE
  5
3B8
100
AcDbEntity
  8
0
100
AcDbLine
 62
7
  6
CONTINUOUS
 10
15.5505634283
 20
6.1179939135
 11
15.6125713023
 21
6.0822565915
  0
LINE
  5
3B9
100
AcDbEntity
  8
0
100
AcDbLine
 62
7
  6
CONTINUOUS
 10
15.6302878378
 20
6.0720459281
 11
15.6922957118
 21
6.0363086061
  0
LINE
  5
3BA
100
AcDbEntity
  8
0
100
AcDbLine
 62
7
  6
CONTINUOUS
 10
15.7100122472
 20
6.0260979427
 11
15.7720201212
 21
5.9903606207
  0
LINE
  5
3BB
100
AcDbEntity
  8
0
100
AcDbLine
 62
7
  6
CONTINUOUS
 10
15.7897366567
 20
5.9801499573
 11
15.8517445307
 21
5.9444126353
  0
LINE
  5
3BC
100
AcDbEntity
  8
0
100
AcDbLine
 62
7
  6
CONTINUOUS
 10
15.8694610661
 20
5.9342019719
 11
15.9314689401
 21
5.8984646499
  0
LINE
  5
3BD
100
AcDbEntity
  8
0
100
AcDbLine
 62
7
  6
CONTINUOUS
 10
15.2818010286
 20
6.2403076677
 11
15.0437788641
 21
6.3778505903
  0
LINE
  5
3BE
100
AcDbEntity
  8
0
100
AcDbLine
 62
7
  6
CONTINUOUS
 10
14.3660420693
 20
5.8851920208
 11
14.3660420693
 21
4.6995433171
  0
LINE
  5
3BF
100
AcDbEntity
  8
0
100
AcDbLine
 62
7
  6
CONTINUOUS
 10
14.3672948175
 20
5.8859159309
 11
14.3672948175
 21
4.7002672272
  0
LINE
  5
3C0
100
AcDbEntity
  8
0
100
AcDbLine
 62
7
  6
CONTINUOUS
 10
15.0437788641
 20
6.8116245063
 11
15.5699331225
 21
7.1156667561
  0
LINE
  5
3C1
100
AcDbEntity
  8
0
100
AcDbLine
 62
7
  6
CONTINUOUS
 10
15.9934768142
 20
6.0058654174
 11
15.9314689401
 21
6.0416027394
  0
LINE
  5
3C2
100
AcDbEntity
  8
0
100
AcDbLine
 62
7
  6
CONTINUOUS
 10
15.9137524047
 20
6.0518134028
 11
15.8517445307
 21
6.0875507248
  0
LINE
  5
3C3
100
AcDbEntity
  8
0
100
AcDbLine
 62
7
  6
CONTINUOUS
 10
15.8340279953
 20
6.0977613882
 11
15.7720201212
 21
6.1334987102
  0
LINE
  5
3C4
100
AcDbEntity
  8
0
100
AcDbLine
 62
7
  6
CONTINUOUS
 10
15.7543035858
 20
6.1437093736
 11
15.6922957118
 21
6.1794466956
  0
LINE
  5
3C5
100
AcDbEntity
  8
0
100
AcDbLine
 62
7
  6
CONTINUOUS
 10
15.6745791764
 20
6.189657359
 11
15.6125713023
 21
6.225394681
  0
LINE
  5
3C6
100
AcDbEntity
  8
0
100
AcDbLine
 62
7
  6
CONTINUOUS
 10
15.5948547669
 20
6.2356053444
 11
15.5328468929
 21
6.2713426664
  0
LINE
  5
3C7
100
AcDbEntity
  8
0
100
AcDbLine
 62
7
  6
CONTINUOUS
 10
15.5151303575
 20
6.2815533298
 11
15.4531224834
 21
6.3172906518
  0
LINE
  5
3C8
100
AcDbEntity
  8
0
100
AcDbLine
 62
7
  6
CONTINUOUS
 10
15.435405948
 20
6.3275013152
 11
15.4340473134
 21
6.3282843442
  0
LINE
  5
3C9
100
AcDbEntity
  8
0
100
AcDbLine
 62
7
  6
CONTINUOUS
 10
15.4708390189
 20
6.3479765854
 11
15.5328468929
 21
6.3122392634
  0
LINE
  5
3CA
100
AcDbEntity
  8
0
100
AcDbLine
 62
7
  6
CONTINUOUS
 10
15.5505634283
 20
6.3020286
 11
15.6125713023
 21
6.266291278
  0
LINE
  5
3CB
100
AcDbEntity
  8
0
100
AcDbLine
 62
7
  6
CONTINUOUS
 10
15.6302878378
 20
6.2560806146
 11
15.6922957118
 21
6.2203432926
  0
LINE
  5
3CC
100
AcDbEntity
  8
0
100
AcDbLine
 62
7
  6
CONTINUOUS
 10
15.7100122472
 20
6.2101326292
 11
15.7720201212
 21
6.1743953072
  0
LINE
  5
3CD
100
AcDbEntity
  8
0
100
AcDbLine
 62
7
  6
CONTINUOUS
 10
15.7897366567
 20
6.1641846438
 11
15.8517445307
 21
6.1284473218
  0
LINE
  5
3CE
100
AcDbEntity
  8
0
100
AcDbLine
 62
7
  6
CONTINUOUS
 10
15.8694610661
 20
6.1182366584
 11
15.9314689401
 21
6.0824993364
  0
LINE
  5
3CF
100
AcDbEntity
  8
0
100
AcDbLine
 62
7
  6
CONTINUOUS
 10
15.9934768142
 20
6.1899001039
 11
15.9314689401
 21
6.2256374259
  0
LINE
  5
3D0
100
AcDbEntity
  8
0
100
AcDbLine
 62
7
  6
CONTINUOUS
 10
15.9137524047
 20
6.2358480893
 11
15.8517445307
 21
6.2715854113
  0
LINE
  5
3D1
100
AcDbEntity
  8
0
100
AcDbLine
 62
7
  6
CONTINUOUS
 10
15.8340279953
 20
6.2817960747
 11
15.7720201212
 21
6.3175333967
  0
LINE
  5
3D2
100
AcDbEntity
  8
0
100
AcDbLine
 62
7
  6
CONTINUOUS
 10
15.7543035858
 20
6.3277440601
 11
15.6922957118
 21
6.3634813821
  0
LINE
  5
3D3
100
AcDbEntity
  8
0
100
AcDbLine
 62
7
  6
CONTINUOUS
 10
15.6745791764
 20
6.3736920455
 11
15.6125713023
 21
6.4094293675
  0
LINE
  5
3D4
100
AcDbEntity
  8
0
100
AcDbLine
 62
7
  6
CONTINUOUS
 10
15.5948547669
 20
6.4196400309
 11
15.5934961323
 21
6.4204230599
  0
LINE
  5
3D5
100
AcDbEntity
  8
0
100
AcDbLine
 62
7
  6
CONTINUOUS
 10
15.6302878378
 20
6.4401153011
 11
15.6922957118
 21
6.4043779791
  0
LINE
  5
3D6
100
AcDbEntity
  8
0
100
AcDbLine
 62
7
  6
CONTINUOUS
 10
15.7100122472
 20
6.3941673157
 11
15.7720201212
 21
6.3584299937
  0
LINE
  5
3D7
100
AcDbEntity
  8
0
100
AcDbLine
 62
7
  6
CONTINUOUS
 10
15.7897366567
 20
6.3482193303
 11
15.8517445307
 21
6.3124820083
  0
LINE
  5
3D8
100
AcDbEntity
  8
0
100
AcDbLine
 62
7
  6
CONTINUOUS
 10
15.8694610661
 20
6.3022713449
 11
15.9314689401
 21
6.2665340229
  0
LINE
  5
3D9
100
AcDbEntity
  8
0
100
AcDbLine
 62
7
  6
CONTINUOUS
 10
15.4321308167
 20
6.3734460997
 11
15.3569659227
 21
6.4168425631
  0
LINE
  5
3DA
100
AcDbEntity
  8
0
100
AcDbLine
 62
7
  6
CONTINUOUS
 10
14.4925696409
 20
6.6337845788
 11
14.4925696409
 21
6.630798158
  0
LINE
  5
3DB
100
AcDbEntity
  8
0
100
AcDbLine
 62
7
  6
CONTINUOUS
 10
14.4925696409
 20
4.049510994
 11
14.4925696409
 21
6.5943179678
  0
LINE
  5
3DC
100
AcDbEntity
  8
0
100
AcDbLine
 62
7
  6
CONTINUOUS
 10
14.7356027984
 20
6.5467878339
 11
14.6735949244
 21
6.4393870664
  0
LINE
  5
3DD
100
AcDbEntity
  8
0
100
AcDbLine
 62
7
  6
CONTINUOUS
 10
14.655878389
 20
6.4087011328
 11
14.5938705149
 21
6.3013003653
  0
LINE
  5
3DE
100
AcDbEntity
  8
0
100
AcDbLine
 62
7
  6
CONTINUOUS
 10
15.2442185816
 20
6.6957988873
 11
15.77037284
 21
6.9998411371
  0
LINE
  5
3DF
100
AcDbEntity
  8
0
100
AcDbLine
 62
7
  6
CONTINUOUS
 10
12.5069026313
 20
5.0263298891
 11
12.4606120048
 21
4.9995804976
  0
LINE
  5
3E0
100
AcDbEntity
  8
0
100
AcDbLine
 62
7
  6
CONTINUOUS
 10
12.5344630925
 20
5.0104038665
 11
12.4881724659
 21
4.983654475
  0
LINE
  5
3E1
100
AcDbEntity
  8
0
100
AcDbLine
 62
7
  6
CONTINUOUS
 10
14.3159321399
 20
5.9719849476
 11
14.3171848881
 21
5.9727088578
  0
LINE
  5
3E2
100
AcDbEntity
  8
0
100
AcDbLine
 62
7
  6
CONTINUOUS
 10
15.807955287
 20
6.8046142672
 11
15.2818010286
 21
6.5005720173
  0
LINE
  5
3E3
100
AcDbEntity
  8
0
100
AcDbLine
 62
7
  6
CONTINUOUS
 10
12.6408889347
 20
4.9489048821
 11
12.5508098776
 21
4.8968520122
  0
LINE
  5
3E4
100
AcDbEntity
  8
0
100
AcDbLine
 62
7
  6
CONTINUOUS
 10
15.3068559933
 20
6.4890237848
 11
15.4321308167
 21
6.5614147966
  0
LINE
  5
3E5
100
AcDbEntity
  8
0
100
AcDbLine
 62
7
  6
CONTINUOUS
 10
15.4722187602
 20
6.5845799204
 11
15.5974935837
 21
6.6569709323
  0
LINE
  5
3E6
100
AcDbEntity
  8
0
100
AcDbLine
 62
7
  6
CONTINUOUS
 10
15.6375815272
 20
6.6801360561
 11
15.7628563506
 21
6.7525270679
  0
LINE
  5
3E7
100
AcDbEntity
  8
0
100
AcDbLine
 62
7
  6
CONTINUOUS
 10
15.9934768142
 20
6.3739347904
 11
15.9314689401
 21
6.4096721124
  0
LINE
  5
3E8
100
AcDbEntity
  8
0
100
AcDbLine
 62
7
  6
CONTINUOUS
 10
15.9137524047
 20
6.4198827758
 11
15.8517445307
 21
6.4556200978
  0
LINE
  5
3E9
100
AcDbEntity
  8
0
100
AcDbLine
 62
7
  6
CONTINUOUS
 10
15.8340279953
 20
6.4658307612
 11
15.7720201212
 21
6.5015680832
  0
LINE
  5
3EA
100
AcDbEntity
  8
0
100
AcDbLine
 62
7
  6
CONTINUOUS
 10
15.7543035858
 20
6.5117787466
 11
15.7529449512
 21
6.5125617756
  0
LINE
  5
3EB
100
AcDbEntity
  8
0
100
AcDbLine
 62
7
  6
CONTINUOUS
 10
15.7897366567
 20
6.5322540168
 11
15.8517445307
 21
6.4965166948
  0
LINE
  5
3EC
100
AcDbEntity
  8
0
100
AcDbLine
 62
7
  6
CONTINUOUS
 10
15.8694610661
 20
6.4863060314
 11
15.9314689401
 21
6.4505687094
  0
LINE
  5
3ED
100
AcDbEntity
  8
0
100
AcDbLine
 62
7
  6
CONTINUOUS
 10
15.5974935837
 20
6.4690022354
 11
15.5223286896
 21
6.5123986988
  0
LINE
  5
3EE
100
AcDbEntity
  8
0
100
AcDbLine
 62
7
  6
CONTINUOUS
 10
15.7628563506
 20
6.564558371
 11
15.6876914565
 21
6.6079548345
  0
LINE
  5
3EF
100
AcDbEntity
  8
0
100
AcDbLine
 62
7
  6
CONTINUOUS
 10
11.7365235253
 20
8.7169635674
 11
11.8443819897
 21
8.6546367313
  0
LINE
  5
3F0
100
AcDbEntity
  8
0
100
AcDbLine
 62
7
  6
CONTINUOUS
 10
15.2442185816
 20
6.6957988873
 11
15.0437788641
 21
6.8116245063
  0
LINE
  5
3F1
100
AcDbEntity
  8
0
100
AcDbLine
 62
7
  6
CONTINUOUS
 10
14.795105176
 20
6.5124983321
 11
14.7330973019
 21
6.4050975646
  0
LINE
  5
3F2
100
AcDbEntity
  8
0
100
AcDbLine
 62
7
  6
CONTINUOUS
 10
14.7153807665
 20
6.3744116311
 11
14.6533728925
 21
6.2670108635
  0
LINE
  5
3F3
100
AcDbEntity
  8
0
100
AcDbLine
 62
7
  6
CONTINUOUS
 10
14.655878389
 20
6.2655630433
 11
14.717886263
 21
6.3729638108
  0
LINE
  5
3F4
100
AcDbEntity
  8
0
100
AcDbLine
 62
7
  6
CONTINUOUS
 10
14.7356027984
 20
6.4036497444
 11
14.7976106724
 21
6.5110505119
  0
LINE
  5
3F5
100
AcDbEntity
  8
0
100
AcDbLine
 62
7
  6
CONTINUOUS
 10
14.8153272079
 20
6.5008398485
 11
14.7533193338
 21
6.393439081
  0
LINE
  5
3F6
100
AcDbEntity
  8
0
100
AcDbLine
 62
7
  6
CONTINUOUS
 10
14.7356027984
 20
6.3627531474
 11
14.6735949244
 21
6.2553523799
  0
LINE
  5
3F7
100
AcDbEntity
  8
0
100
AcDbLine
 62
7
  6
CONTINUOUS
 10
14.655878389
 20
6.2246664463
 11
14.5938705149
 21
6.1172656788
  0
LINE
  5
3F8
100
AcDbEntity
  8
0
100
AcDbLine
 62
7
  6
CONTINUOUS
 10
14.8748295854
 20
6.4665503467
 11
14.8128217114
 21
6.3591495792
  0
LINE
  5
3F9
100
AcDbEntity
  8
0
100
AcDbLine
 62
7
  6
CONTINUOUS
 10
14.795105176
 20
6.3284636457
 11
14.7330973019
 21
6.2210628781
  0
LINE
  5
3FA
100
AcDbEntity
  8
0
100
AcDbLine
 62
7
  6
CONTINUOUS
 10
14.7153807665
 20
6.1903769446
 11
14.6533728925
 21
6.082976177
  0
LINE
  5
3FB
100
AcDbEntity
  8
0
100
AcDbLine
 62
7
  6
CONTINUOUS
 10
14.655878389
 20
6.0815283568
 11
14.717886263
 21
6.1889291243
  0
LINE
  5
3FC
100
AcDbEntity
  8
0
100
AcDbLine
 62
7
  6
CONTINUOUS
 10
14.7356027984
 20
6.2196150579
 11
14.7976106724
 21
6.3270158254
  0
LINE
  5
3FD
100
AcDbEntity
  8
0
100
AcDbLine
 62
7
  6
CONTINUOUS
 10
14.8153272079
 20
6.357701759
 11
14.8773350819
 21
6.4651025265
  0
LINE
  5
3FE
100
AcDbEntity
  8
0
100
AcDbLine
 62
7
  6
CONTINUOUS
 10
14.8153272079
 20
6.316805162
 11
14.7533193338
 21
6.2094043945
  0
LINE
  5
3FF
100
AcDbEntity
  8
0
100
AcDbLine
 62
7
  6
CONTINUOUS
 10
14.7356027984
 20
6.1787184609
 11
14.6735949244
 21
6.0713176934
  0
LINE
  5
400
100
AcDbEntity
  8
0
100
AcDbLine
 62
7
  6
CONTINUOUS
 10
14.655878389
 20
6.0406317598
 11
14.5938705149
 21
5.9332309923
  0
LINE
  5
401
100
AcDbEntity
  8
0
100
AcDbLine
 62
7
  6
CONTINUOUS
 10
14.8748295854
 20
6.2825156603
 11
14.8128217114
 21
6.1751148927
  0
LINE
  5
402
100
AcDbEntity
  8
0
100
AcDbLine
 62
7
  6
CONTINUOUS
 10
14.795105176
 20
6.1444289592
 11
14.7330973019
 21
6.0370281916
  0
LINE
  5
403
100
AcDbEntity
  8
0
100
AcDbLine
 62
7
  6
CONTINUOUS
 10
14.7153807665
 20
6.0063422581
 11
14.6533728925
 21
5.8989414905
  0
LINE
  5
404
100
AcDbEntity
  8
0
100
AcDbLine
 62
7
  6
CONTINUOUS
 10
14.655878389
 20
5.8974936703
 11
14.717886263
 21
6.0048944378
  0
LINE
  5
405
100
AcDbEntity
  8
0
100
AcDbLine
 62
7
  6
CONTINUOUS
 10
14.7356027984
 20
6.0355803714
 11
14.7976106724
 21
6.1429811389
  0
LINE
  5
406
100
AcDbEntity
  8
0
100
AcDbLine
 62
7
  6
CONTINUOUS
 10
14.8153272079
 20
6.1736670725
 11
14.8773350819
 21
6.28106784
  0
LINE
  5
407
100
AcDbEntity
  8
0
100
AcDbLine
 62
7
  6
CONTINUOUS
 10
14.8153272079
 20
6.1327704755
 11
14.7533193338
 21
6.025369708
  0
LINE
  5
408
100
AcDbEntity
  8
0
100
AcDbLine
 62
7
  6
CONTINUOUS
 10
14.7356027984
 20
5.9946837744
 11
14.6735949244
 21
5.8872830069
  0
LINE
  5
409
100
AcDbEntity
  8
0
100
AcDbLine
 62
7
  6
CONTINUOUS
 10
14.655878389
 20
5.8565970733
 11
14.5938705149
 21
5.7491963058
  0
LINE
  5
40A
100
AcDbEntity
  8
0
100
AcDbLine
 62
7
  6
CONTINUOUS
 10
12.6759196791
 20
4.9286620994
 11
12.5508098776
 21
4.8563664467
  0
LINE
  5
40B
100
AcDbEntity
  8
0
100
AcDbLine
 62
7
  6
CONTINUOUS
 10
14.3672948175
 20
5.8859159309
 11
14.3660420693
 21
5.8851920208
  0
LINE
  5
40C
100
AcDbEntity
  8
0
100
AcDbLine
 62
7
  6
CONTINUOUS
 10
15.6876914565
 20
6.6079548345
 11
15.6375815272
 21
6.5789984297
  0
LINE
  5
40D
100
AcDbEntity
  8
0
100
AcDbLine
 62
7
  6
CONTINUOUS
 10
15.5223286896
 20
6.5123986988
 11
15.4722187602
 21
6.483442294
  0
LINE
  5
40E
100
AcDbEntity
  8
0
100
AcDbLine
 62
7
  6
CONTINUOUS
 10
15.3569659227
 20
6.4168425631
 11
15.3068559933
 21
6.3878861584
  0
LINE
  5
40F
100
AcDbEntity
  8
0
100
AcDbLine
 62
7
  6
CONTINUOUS
 10
15.7628563506
 20
6.564558371
 11
15.6375815272
 21
6.4921673592
  0
LINE
  5
410
100
AcDbEntity
  8
0
100
AcDbLine
 62
7
  6
CONTINUOUS
 10
15.5974935837
 20
6.4690022354
 11
15.4722187602
 21
6.3966112235
  0
LINE
  5
411
100
AcDbEntity
  8
0
100
AcDbLine
 62
7
  6
CONTINUOUS
 10
15.4321308167
 20
6.3734460997
 11
15.3068559933
 21
6.3010550878
  0
LINE
  5
412
100
AcDbEntity
  8
0
100
AcDbLine
 62
7
  6
CONTINUOUS
 10
15.807955287
 20
6.5443499176
 11
15.2818010286
 21
6.2403076677
  0
LINE
  5
413
100
AcDbEntity
  8
0
100
AcDbLine
 62
7
  6
CONTINUOUS
 10
15.9934768142
 20
6.5579694769
 11
15.9314689401
 21
6.5937067989
  0
LINE
  5
414
100
AcDbEntity
  8
0
100
AcDbLine
 62
7
  6
CONTINUOUS
 10
15.9137524047
 20
6.6039174623
 11
15.8517445307
 21
6.6396547843
  0
LINE
  5
415
100
AcDbEntity
  8
0
100
AcDbLine
 62
7
  6
CONTINUOUS
 10
15.8340279953
 20
6.6498654477
 11
15.807955287
 21
6.6648920678
  0
LINE
  5
416
100
AcDbEntity
  8
0
100
AcDbLine
 62
7
  6
CONTINUOUS
 10
15.807955287
 20
6.7057886648
 11
15.8517445307
 21
6.6805513813
  0
LINE
  5
417
100
AcDbEntity
  8
0
100
AcDbLine
 62
7
  6
CONTINUOUS
 10
15.8694610661
 20
6.6703407179
 11
15.9314689401
 21
6.6346033959
  0
LINE
  5
418
100
AcDbEntity
  8
0
100
AcDbLine
 62
7
  6
CONTINUOUS
 10
15.9934768142
 20
6.7420041634
 11
15.9314689401
 21
6.7777414854
  0
LINE
  5
419
100
AcDbEntity
  8
0
100
AcDbLine
 62
7
  6
CONTINUOUS
 10
15.9137524047
 20
6.7879521488
 11
15.8517445307
 21
6.8236894708
  0
LINE
  5
41A
100
AcDbEntity
  8
0
100
AcDbLine
 62
7
  6
CONTINUOUS
 10
15.0437788641
 20
6.3778505903
 11
15.0437788641
 21
6.8116245063
  0
LINE
  5
41B
100
AcDbEntity
  8
0
100
AcDbLine
 62
7
  6
CONTINUOUS
 10
14.8748295854
 20
6.0984809738
 11
14.8128217114
 21
5.9910802062
  0
LINE
  5
41C
100
AcDbEntity
  8
0
100
AcDbLine
 62
7
  6
CONTINUOUS
 10
14.795105176
 20
5.9603942727
 11
14.7330973019
 21
5.8529935051
  0
LINE
  5
41D
100
AcDbEntity
  8
0
100
AcDbLine
 62
7
  6
CONTINUOUS
 10
14.7153807665
 20
5.8223075716
 11
14.6533728925
 21
5.714906804
  0
LINE
  5
41E
100
AcDbEntity
  8
0
100
AcDbLine
 62
7
  6
CONTINUOUS
 10
14.655878389
 20
5.7134589838
 11
14.717886263
 21
5.8208597513
  0
LINE
  5
41F
100
AcDbEntity
  8
0
100
AcDbLine
 62
7
  6
CONTINUOUS
 10
14.7356027984
 20
5.8515456849
 11
14.7976106724
 21
5.9589464524
  0
LINE
  5
420
100
AcDbEntity
  8
0
100
AcDbLine
 62
7
  6
CONTINUOUS
 10
14.8153272079
 20
5.989632386
 11
14.8773350819
 21
6.0970331535
  0
LINE
  5
421
100
AcDbEntity
  8
0
100
AcDbLine
 62
7
  6
CONTINUOUS
 10
14.9747760268
 20
6.2249091912
 11
14.9127681527
 21
6.1175084237
  0
LINE
  5
422
100
AcDbEntity
  8
0
100
AcDbLine
 62
7
  6
CONTINUOUS
 10
14.8950516173
 20
6.0868224901
 11
14.8330437433
 21
5.9794217226
  0
LINE
  5
423
100
AcDbEntity
  8
0
100
AcDbLine
 62
7
  6
CONTINUOUS
 10
14.8153272079
 20
5.948735789
 11
14.7533193338
 21
5.8413350215
  0
LINE
  5
424
100
AcDbEntity
  8
0
100
AcDbLine
 62
7
  6
CONTINUOUS
 10
14.7356027984
 20
5.8106490879
 11
14.6735949244
 21
5.7032483204
  0
LINE
  5
425
100
AcDbEntity
  8
0
100
AcDbLine
 62
7
  6
CONTINUOUS
 10
14.655878389
 20
5.6725623868
 11
14.5938705149
 21
5.5651616193
  0
LINE
  5
426
100
AcDbEntity
  8
0
100
AcDbLine
 62
7
  6
CONTINUOUS
 10
15.0342784043
 20
6.1906196895
 11
14.9722705303
 21
6.0832189219
  0
LINE
  5
427
100
AcDbEntity
  8
0
100
AcDbLine
 62
7
  6
CONTINUOUS
 10
14.9545539949
 20
6.0525329884
 11
14.8925461208
 21
5.9451322208
  0
LINE
  5
428
100
AcDbEntity
  8
0
100
AcDbLine
 62
7
  6
CONTINUOUS
 10
14.8748295854
 20
5.9144462873
 11
14.8128217114
 21
5.8070455197
  0
LINE
  5
429
100
AcDbEntity
  8
0
100
AcDbLine
 62
7
  6
CONTINUOUS
 10
14.795105176
 20
5.7763595862
 11
14.7330973019
 21
5.6689588186
  0
LINE
  5
42A
100
AcDbEntity
  8
0
100
AcDbLine
 62
7
  6
CONTINUOUS
 10
14.7153807665
 20
5.6382728851
 11
14.6533728925
 21
5.5308721175
  0
LINE
  5
42B
100
AcDbEntity
  8
0
100
AcDbLine
 62
7
  6
CONTINUOUS
 10
14.655878389
 20
5.5294242973
 11
14.717886263
 21
5.6368250648
  0
LINE
  5
42C
100
AcDbEntity
  8
0
100
AcDbLine
 62
7
  6
CONTINUOUS
 10
14.7356027984
 20
5.6675109984
 11
14.7976106724
 21
5.7749117659
  0
LINE
  5
42D
100
AcDbEntity
  8
0
100
AcDbLine
 62
7
  6
CONTINUOUS
 10
14.8153272079
 20
5.8055976995
 11
14.8773350819
 21
5.912998467
  0
LINE
  5
42E
100
AcDbEntity
  8
0
100
AcDbLine
 62
7
  6
CONTINUOUS
 10
14.8950516173
 20
5.9436844006
 11
14.9570594913
 21
6.0510851681
  0
LINE
  5
42F
100
AcDbEntity
  8
0
100
AcDbLine
 62
7
  6
CONTINUOUS
 10
14.9747760268
 20
6.0817711017
 11
15.0367839008
 21
6.1891718692
  0
LINE
  5
430
100
AcDbEntity
  8
0
100
AcDbLine
 62
7
  6
CONTINUOUS
 10
15.1342248457
 20
6.3170479069
 11
15.0722169716
 21
6.2096471394
  0
LINE
  5
431
100
AcDbEntity
  8
0
100
AcDbLine
 62
7
  6
CONTINUOUS
 10
15.0545004362
 20
6.1789612058
 11
14.9924925622
 21
6.0715604383
  0
LINE
  5
432
100
AcDbEntity
  8
0
100
AcDbLine
 62
7
  6
CONTINUOUS
 10
14.9747760268
 20
6.0408745047
 11
14.9127681527
 21
5.9334737372
  0
LINE
  5
433
100
AcDbEntity
  8
0
100
AcDbLine
 62
7
  6
CONTINUOUS
 10
14.8950516173
 20
5.9027878036
 11
14.8330437433
 21
5.7953870361
  0
LINE
  5
434
100
AcDbEntity
  8
0
100
AcDbLine
 62
7
  6
CONTINUOUS
 10
14.8153272079
 20
5.7647011025
 11
14.7533193338
 21
5.657300335
  0
LINE
  5
435
100
AcDbEntity
  8
0
100
AcDbLine
 62
7
  6
CONTINUOUS
 10
14.7356027984
 20
5.6266144014
 11
14.6735949244
 21
5.5192136339
  0
LINE
  5
436
100
AcDbEntity
  8
0
100
AcDbLine
 62
7
  6
CONTINUOUS
 10
14.655878389
 20
5.4885277003
 11
14.5938705149
 21
5.3811269328
  0
LINE
  5
437
100
AcDbEntity
  8
0
100
AcDbLine
 62
7
  6
CONTINUOUS
 10
15.7543035858
 20
7.0638828061
 11
15.6922957118
 21
7.0996201281
  0
LINE
  5
438
100
AcDbEntity
  8
0
100
AcDbLine
 62
7
  6
CONTINUOUS
 10
12.2626777837
 20
9.0210058172
 11
12.3705362481
 21
8.9586789812
  0
LINE
  5
439
100
AcDbEntity
  8
0
100
AcDbLine
 62
7
  6
CONTINUOUS
 10
15.77037284
 20
6.9998411371
 11
15.5699331225
 21
7.1156667561
  0
LINE
  5
43A
100
AcDbEntity
  8
0
100
AcDbLine
 62
7
  6
CONTINUOUS
 10
15.2191636169
 20
4.4693979347
 11
15.2191636169
 21
4.1657561935
  0
LINE
  5
43B
100
AcDbEntity
  8
0
100
AcDbLine
 62
7
  6
CONTINUOUS
 10
15.2818010286
 20
6.2403076677
 11
15.2818010286
 21
6.5005720173
  0
LINE
  5
43C
100
AcDbEntity
  8
0
100
AcDbLine
 62
7
  6
CONTINUOUS
 10
15.2943285109
 20
4.5128325418
 11
15.2943285109
 21
4.2091908006
  0
LINE
  5
43D
100
AcDbEntity
  8
0
100
AcDbLine
 62
7
  6
CONTINUOUS
 10
15.3068559933
 20
6.3010550878
 11
15.3068559933
 21
6.4890237848
  0
LINE
  5
43E
100
AcDbEntity
  8
0
100
AcDbLine
 62
7
  6
CONTINUOUS
 10
15.3569659227
 20
6.5179801895
 11
15.3569659227
 21
6.4168425631
  0
LINE
  5
43F
100
AcDbEntity
  8
0
100
AcDbLine
 62
7
  6
CONTINUOUS
 10
15.3945483697
 20
4.4549197323
 11
15.3945483697
 21
4.1512779911
  0
LINE
  5
440
100
AcDbEntity
  8
0
100
AcDbLine
 62
7
  6
CONTINUOUS
 10
15.1937272232
 20
6.2827584052
 11
15.1317193492
 21
6.1753576376
  0
LINE
  5
441
100
AcDbEntity
  8
0
100
AcDbLine
 62
7
  6
CONTINUOUS
 10
15.1140028138
 20
6.1446717041
 11
15.0519949397
 21
6.0372709365
  0
LINE
  5
442
100
AcDbEntity
  8
0
100
AcDbLine
 62
7
  6
CONTINUOUS
 10
15.0342784043
 20
6.006585003
 11
14.9722705303
 21
5.8991842354
  0
LINE
  5
443
100
AcDbEntity
  8
0
100
AcDbLine
 62
7
  6
CONTINUOUS
 10
14.9545539949
 20
5.8684983019
 11
14.8925461208
 21
5.7610975343
  0
LINE
  5
444
100
AcDbEntity
  8
0
100
AcDbLine
 62
7
  6
CONTINUOUS
 10
14.8748295854
 20
5.7304116008
 11
14.8128217114
 21
5.6230108332
  0
LINE
  5
445
100
AcDbEntity
  8
0
100
AcDbLine
 62
7
  6
CONTINUOUS
 10
14.795105176
 20
5.5923248997
 11
14.7330973019
 21
5.4849241321
  0
LINE
  5
446
100
AcDbEntity
  8
0
100
AcDbLine
 62
7
  6
CONTINUOUS
 10
14.7153807665
 20
5.4542381986
 11
14.6533728925
 21
5.346837431
  0
LINE
  5
447
100
AcDbEntity
  8
0
100
AcDbLine
 62
7
  6
CONTINUOUS
 10
14.655878389
 20
5.3453896108
 11
14.717886263
 21
5.4527903783
  0
LINE
  5
448
100
AcDbEntity
  8
0
100
AcDbLine
 62
7
  6
CONTINUOUS
 10
14.7356027984
 20
5.4834763119
 11
14.7976106724
 21
5.5908770794
  0
LINE
  5
449
100
AcDbEntity
  8
0
100
AcDbLine
 62
7
  6
CONTINUOUS
 10
14.8153272079
 20
5.621563013
 11
14.8773350819
 21
5.7289637805
  0
LINE
  5
44A
100
AcDbEntity
  8
0
100
AcDbLine
 62
7
  6
CONTINUOUS
 10
14.8950516173
 20
5.7596497141
 11
14.9570594913
 21
5.8670504816
  0
LINE
  5
44B
100
AcDbEntity
  8
0
100
AcDbLine
 62
7
  6
CONTINUOUS
 10
14.9747760268
 20
5.8977364152
 11
15.0367839008
 21
6.0051371827
  0
LINE
  5
44C
100
AcDbEntity
  8
0
100
AcDbLine
 62
7
  6
CONTINUOUS
 10
15.0545004362
 20
6.0358231163
 11
15.1165083102
 21
6.1432238838
  0
LINE
  5
44D
100
AcDbEntity
  8
0
100
AcDbLine
 62
7
  6
CONTINUOUS
 10
15.1342248457
 20
6.1739098174
 11
15.1962327197
 21
6.2813105849
  0
LINE
  5
44E
100
AcDbEntity
  8
0
100
AcDbLine
 62
7
  6
CONTINUOUS
 10
15.6922957118
 20
7.0996201281
 11
15.6686317716
 21
7.0586329892
  0
LINE
  5
44F
100
AcDbEntity
  8
0
100
AcDbLine
 62
7
  6
CONTINUOUS
 10
15.2139492551
 20
6.2710999215
 11
15.1519413811
 21
6.163699154
  0
LINE
  5
450
100
AcDbEntity
  8
0
100
AcDbLine
 62
7
  6
CONTINUOUS
 10
15.1342248457
 20
6.1330132204
 11
15.0722169716
 21
6.0256124529
  0
LINE
  5
451
100
AcDbEntity
  8
0
100
AcDbLine
 62
7
  6
CONTINUOUS
 10
15.0545004362
 20
5.9949265193
 11
14.9924925622
 21
5.8875257518
  0
LINE
  5
452
100
AcDbEntity
  8
0
100
AcDbLine
 62
7
  6
CONTINUOUS
 10
14.9747760268
 20
5.8568398182
 11
14.9127681527
 21
5.7494390507
  0
LINE
  5
453
100
AcDbEntity
  8
0
100
AcDbLine
 62
7
  6
CONTINUOUS
 10
14.8950516173
 20
5.7187531171
 11
14.8330437433
 21
5.6113523496
  0
LINE
  5
454
100
AcDbEntity
  8
0
100
AcDbLine
 62
7
  6
CONTINUOUS
 10
14.8153272079
 20
5.580666416
 11
14.7533193338
 21
5.4732656485
  0
LINE
  5
455
100
AcDbEntity
  8
0
100
AcDbLine
 62
7
  6
CONTINUOUS
 10
14.7356027984
 20
5.4425797149
 11
14.6735949244
 21
5.3351789474
  0
LINE
  5
456
100
AcDbEntity
  8
0
100
AcDbLine
 62
7
  6
CONTINUOUS
 10
14.655878389
 20
5.3044930138
 11
14.5938705149
 21
5.1970922463
  0
LINE
  5
457
100
AcDbEntity
  8
0
100
AcDbLine
 62
7
  6
CONTINUOUS
 10
15.7517980893
 20
7.0653306263
 11
15.7280932814
 21
7.0242727025
  0
LINE
  5
458
100
AcDbEntity
  8
0
100
AcDbLine
 62
7
  6
CONTINUOUS
 10
15.2734516326
 20
6.2368104198
 11
15.2114437586
 21
6.1294096522
  0
LINE
  5
459
100
AcDbEntity
  8
0
100
AcDbLine
 62
7
  6
CONTINUOUS
 10
15.1937272232
 20
6.0987237187
 11
15.1317193492
 21
5.9913229511
  0
LINE
  5
45A
100
AcDbEntity
  8
0
100
AcDbLine
 62
7
  6
CONTINUOUS
 10
15.1140028138
 20
5.9606370176
 11
15.0519949397
 21
5.85323625
  0
LINE
  5
45B
100
AcDbEntity
  8
0
100
AcDbLine
 62
7
  6
CONTINUOUS
 10
15.0342784043
 20
5.8225503165
 11
14.9722705303
 21
5.7151495489
  0
LINE
  5
45C
100
AcDbEntity
  8
0
100
AcDbLine
 62
7
  6
CONTINUOUS
 10
14.9545539949
 20
5.6844636154
 11
14.8925461208
 21
5.5770628478
  0
LINE
  5
45D
100
AcDbEntity
  8
0
100
AcDbLine
 62
7
  6
CONTINUOUS
 10
14.8748295854
 20
5.5463769143
 11
14.8128217114
 21
5.4389761467
  0
LINE
  5
45E
100
AcDbEntity
  8
0
100
AcDbLine
 62
7
  6
CONTINUOUS
 10
14.795105176
 20
5.4082902132
 11
14.7330973019
 21
5.3008894456
  0
LINE
  5
45F
100
AcDbEntity
  8
0
100
AcDbLine
 62
7
  6
CONTINUOUS
 10
14.7153807665
 20
5.2702035121
 11
14.6533728925
 21
5.1628027445
  0
LINE
  5
460
100
AcDbEntity
  8
0
100
AcDbLine
 62
7
  6
CONTINUOUS
 10
14.655878389
 20
5.1613549243
 11
14.717886263
 21
5.2687556918
  0
LINE
  5
461
100
AcDbEntity
  8
0
100
AcDbLine
 62
7
  6
CONTINUOUS
 10
14.7356027984
 20
5.2994416254
 11
14.7976106724
 21
5.4068423929
  0
LINE
  5
462
100
AcDbEntity
  8
0
100
AcDbLine
 62
7
  6
CONTINUOUS
 10
14.8153272079
 20
5.4375283265
 11
14.8773350819
 21
5.544929094
  0
LINE
  5
463
100
AcDbEntity
  8
0
100
AcDbLine
 62
7
  6
CONTINUOUS
 10
14.8950516173
 20
5.5756150276
 11
14.9570594913
 21
5.6830157951
  0
LINE
  5
464
100
AcDbEntity
  8
0
100
AcDbLine
 62
7
  6
CONTINUOUS
 10
14.9747760268
 20
5.7137017287
 11
15.0367839008
 21
5.8211024962
  0
LINE
  5
465
100
AcDbEntity
  8
0
100
AcDbLine
 62
7
  6
CONTINUOUS
 10
15.0545004362
 20
5.8517884298
 11
15.1165083102
 21
5.9591891973
  0
LINE
  5
466
100
AcDbEntity
  8
0
100
AcDbLine
 62
7
  6
CONTINUOUS
 10
15.1342248457
 20
5.9898751309
 11
15.1962327197
 21
6.0972758984
  0
LINE
  5
467
100
AcDbEntity
  8
0
100
AcDbLine
 62
7
  6
CONTINUOUS
 10
15.2139492551
 20
6.127961832
 11
15.2759571291
 21
6.2353625995
  0
LINE
  5
468
100
AcDbEntity
  8
0
100
AcDbLine
 62
7
  6
CONTINUOUS
 10
15.7305987778
 20
7.0228248822
 11
15.7543035858
 21
7.0638828061
  0
LINE
  5
469
100
AcDbEntity
  8
0
100
AcDbLine
 62
7
  6
CONTINUOUS
 10
15.3127488346
 20
6.2581910934
 11
15.3113902
 21
6.2558378697
  0
LINE
  5
46A
100
AcDbEntity
  8
0
100
AcDbLine
 62
7
  6
CONTINUOUS
 10
15.2936736646
 20
6.2251519361
 11
15.2316657905
 21
6.1177511686
  0
LINE
  5
46B
100
AcDbEntity
  8
0
100
AcDbLine
 62
7
  6
CONTINUOUS
 10
15.2139492551
 20
6.087065235
 11
15.1519413811
 21
5.9796644675
  0
LINE
  5
46C
100
AcDbEntity
  8
0
100
AcDbLine
 62
7
  6
CONTINUOUS
 10
15.1342248457
 20
5.9489785339
 11
15.0722169716
 21
5.8415777664
  0
LINE
  5
46D
100
AcDbEntity
  8
0
100
AcDbLine
 62
7
  6
CONTINUOUS
 10
15.0545004362
 20
5.8108918328
 11
14.9924925622
 21
5.7034910653
  0
LINE
  5
46E
100
AcDbEntity
  8
0
100
AcDbLine
 62
7
  6
CONTINUOUS
 10
14.9747760268
 20
5.6728051317
 11
14.9127681527
 21
5.5654043642
  0
LINE
  5
46F
100
AcDbEntity
  8
0
100
AcDbLine
 62
7
  6
CONTINUOUS
 10
14.8950516173
 20
5.5347184306
 11
14.8330437433
 21
5.4273176631
  0
LINE
  5
470
100
AcDbEntity
  8
0
100
AcDbLine
 62
7
  6
CONTINUOUS
 10
14.8153272079
 20
5.3966317295
 11
14.7533193338
 21
5.289230962
  0
LINE
  5
471
100
AcDbEntity
  8
0
100
AcDbLine
 62
7
  6
CONTINUOUS
 10
14.7356027984
 20
5.2585450284
 11
14.6735949244
 21
5.1511442609
  0
LINE
  5
472
100
AcDbEntity
  8
0
100
AcDbLine
 62
7
  6
CONTINUOUS
 10
14.655878389
 20
5.1204583273
 11
14.5938705149
 21
5.0130575598
  0
LINE
  5
473
100
AcDbEntity
  8
0
100
AcDbLine
 62
7
  6
CONTINUOUS
 10
15.4317502849
 20
6.3269569888
 11
15.3708925775
 21
6.2215483679
  0
LINE
  5
474
100
AcDbEntity
  8
0
100
AcDbLine
 62
7
  6
CONTINUOUS
 10
15.3531760421
 20
6.1908624344
 11
15.2911681681
 21
6.0834616668
  0
LINE
  5
475
100
AcDbEntity
  8
0
100
AcDbLine
 62
7
  6
CONTINUOUS
 10
15.2734516326
 20
6.0527757333
 11
15.2114437586
 21
5.9453749657
  0
LINE
  5
476
100
AcDbEntity
  8
0
100
AcDbLine
 62
7
  6
CONTINUOUS
 10
15.1937272232
 20
5.9146890322
 11
15.1317193492
 21
5.8072882646
  0
LINE
  5
477
100
AcDbEntity
  8
0
100
AcDbLine
 62
7
  6
CONTINUOUS
 10
15.1140028138
 20
5.7766023311
 11
15.0519949397
 21
5.6692015635
  0
LINE
  5
478
100
AcDbEntity
  8
0
100
AcDbLine
 62
7
  6
CONTINUOUS
 10
15.0342784043
 20
5.63851563
 11
14.9722705303
 21
5.5311148624
  0
LINE
  5
479
100
AcDbEntity
  8
0
100
AcDbLine
 62
7
  6
CONTINUOUS
 10
14.9545539949
 20
5.5004289289
 11
14.8925461208
 21
5.3930281613
  0
LINE
  5
47A
100
AcDbEntity
  8
0
100
AcDbLine
 62
7
  6
CONTINUOUS
 10
14.8748295854
 20
5.3623422278
 11
14.8128217114
 21
5.2549414602
  0
LINE
  5
47B
100
AcDbEntity
  8
0
100
AcDbLine
 62
7
  6
CONTINUOUS
 10
14.795105176
 20
5.2242555267
 11
14.7330973019
 21
5.1168547591
  0
LINE
  5
47C
100
AcDbEntity
  8
0
100
AcDbLine
 62
7
  6
CONTINUOUS
 10
14.7153807665
 20
5.0861688256
 11
14.6533728925
 21
4.978768058
  0
LINE
  5
47D
100
AcDbEntity
  8
0
100
AcDbLine
 62
7
  6
CONTINUOUS
 10
14.655878389
 20
4.9773202378
 11
14.717886263
 21
5.0847210053
  0
LINE
  5
47E
100
AcDbEntity
  8
0
100
AcDbLine
 62
7
  6
CONTINUOUS
 10
14.7356027984
 20
5.1154069389
 11
14.7976106724
 21
5.2228077064
  0
LINE
  5
47F
100
AcDbEntity
  8
0
100
AcDbLine
 62
7
  6
CONTINUOUS
 10
14.8153272079
 20
5.25349364
 11
14.8773350819
 21
5.3608944075
  0
LINE
  5
480
100
AcDbEntity
  8
0
100
AcDbLine
 62
7
  6
CONTINUOUS
 10
14.8950516173
 20
5.3915803411
 11
14.9570594913
 21
5.4989811086
  0
LINE
  5
481
100
AcDbEntity
  8
0
100
AcDbLine
 62
7
  6
CONTINUOUS
 10
14.9747760268
 20
5.5296670422
 11
15.0367839008
 21
5.6370678097
  0
LINE
  5
482
100
AcDbEntity
  8
0
100
AcDbLine
 62
7
  6
CONTINUOUS
 10
15.0545004362
 20
5.6677537433
 11
15.1165083102
 21
5.7751545108
  0
LINE
  5
483
100
AcDbEntity
  8
0
100
AcDbLine
 62
7
  6
CONTINUOUS
 10
15.1342248457
 20
5.8058404444
 11
15.1962327197
 21
5.9132412119
  0
LINE
  5
484
100
AcDbEntity
  8
0
100
AcDbLine
 62
7
  6
CONTINUOUS
 10
15.2139492551
 20
5.9439271455
 11
15.2759571291
 21
6.051327913
  0
LINE
  5
485
100
AcDbEntity
  8
0
100
AcDbLine
 62
7
  6
CONTINUOUS
 10
15.2936736646
 20
6.0820138466
 11
15.3556815386
 21
6.1894146141
  0
LINE
  5
486
100
AcDbEntity
  8
0
100
AcDbLine
 62
7
  6
CONTINUOUS
 10
15.373398074
 20
6.2201005477
 11
15.435405948
 21
6.3275013152
  0
LINE
  5
487
100
AcDbEntity
  8
0
100
AcDbLine
 62
7
  6
CONTINUOUS
 10
15.4721976535
 20
6.3503298091
 11
15.4708390189
 21
6.3479765854
  0
LINE
  5
488
100
AcDbEntity
  8
0
100
AcDbLine
 62
7
  6
CONTINUOUS
 10
15.4531224834
 20
6.3172906518
 11
15.3911146094
 21
6.2098898843
  0
LINE
  5
489
100
AcDbEntity
  8
0
100
AcDbLine
 62
7
  6
CONTINUOUS
 10
15.373398074
 20
6.1792039507
 11
15.3113902
 21
6.0718031832
  0
LINE
  5
48A
100
AcDbEntity
  8
0
100
AcDbLine
 62
7
  6
CONTINUOUS
 10
15.2936736646
 20
6.0411172496
 11
15.2316657905
 21
5.9337164821
  0
LINE
  5
48B
100
AcDbEntity
  8
0
100
AcDbLine
 62
7
  6
CONTINUOUS
 10
15.2139492551
 20
5.9030305485
 11
15.1519413811
 21
5.795629781
  0
LINE
  5
48C
100
AcDbEntity
  8
0
100
AcDbLine
 62
7
  6
CONTINUOUS
 10
15.1342248457
 20
5.7649438474
 11
15.0722169716
 21
5.6575430799
  0
LINE
  5
48D
100
AcDbEntity
  8
0
100
AcDbLine
 62
7
  6
CONTINUOUS
 10
15.0545004362
 20
5.6268571463
 11
14.9924925622
 21
5.5194563788
  0
LINE
  5
48E
100
AcDbEntity
  8
0
100
AcDbLine
 62
7
  6
CONTINUOUS
 10
14.9747760268
 20
5.4887704452
 11
14.9127681527
 21
5.3813696777
  0
LINE
  5
48F
100
AcDbEntity
  8
0
100
AcDbLine
 62
7
  6
CONTINUOUS
 10
14.8950516173
 20
5.3506837441
 11
14.8330437433
 21
5.2432829766
  0
LINE
  5
490
100
AcDbEntity
  8
0
100
AcDbLine
 62
7
  6
CONTINUOUS
 10
14.8153272079
 20
5.212597043
 11
14.7533193338
 21
5.1051962755
  0
LINE
  5
491
100
AcDbEntity
  8
0
100
AcDbLine
 62
7
  6
CONTINUOUS
 10
14.7356027984
 20
5.0745103419
 11
14.6735949244
 21
4.9671095744
  0
LINE
  5
492
100
AcDbEntity
  8
0
100
AcDbLine
 62
7
  6
CONTINUOUS
 10
14.655878389
 20
4.9364236408
 11
14.5938705149
 21
4.8290228733
  0
LINE
  5
493
100
AcDbEntity
  8
0
100
AcDbLine
 62
7
  6
CONTINUOUS
 10
15.2442185816
 20
6.6957988873
 11
15.2818010286
 21
6.5005720173
  0
LINE
  5
494
100
AcDbEntity
  8
0
100
AcDbLine
 62
7
  6
CONTINUOUS
 10
15.4321308167
 20
6.5614147966
 11
15.4321308167
 21
6.3734460997
  0
LINE
  5
495
100
AcDbEntity
  8
0
100
AcDbLine
 62
7
  6
CONTINUOUS
 10
15.4722187602
 20
6.3966112235
 11
15.4722187602
 21
6.5845799204
  0
LINE
  5
496
100
AcDbEntity
  8
0
100
AcDbLine
 62
7
  6
CONTINUOUS
 10
15.5223286896
 20
6.6135363252
 11
15.5223286896
 21
6.5123986988
  0
LINE
  5
497
100
AcDbEntity
  8
0
100
AcDbLine
 62
7
  6
CONTINUOUS
 10
15.5974935837
 20
6.6569709323
 11
15.5974935837
 21
6.4690022354
  0
LINE
  5
498
100
AcDbEntity
  8
0
100
AcDbLine
 62
7
  6
CONTINUOUS
 10
15.6375815272
 20
6.4921673592
 11
15.6375815272
 21
6.6801360561
  0
LINE
  5
499
100
AcDbEntity
  8
0
100
AcDbLine
 62
7
  6
CONTINUOUS
 10
15.5911991038
 20
6.4190957045
 11
15.5303413964
 21
6.3136870836
  0
LINE
  5
49A
100
AcDbEntity
  8
0
100
AcDbLine
 62
7
  6
CONTINUOUS
 10
15.512624861
 20
6.2830011501
 11
15.450616987
 21
6.1756003825
  0
LINE
  5
49B
100
AcDbEntity
  8
0
100
AcDbLine
 62
7
  6
CONTINUOUS
 10
15.4329004515
 20
6.144914449
 11
15.3708925775
 21
6.0375136814
  0
LINE
  5
49C
100
AcDbEntity
  8
0
100
AcDbLine
 62
7
  6
CONTINUOUS
 10
15.3531760421
 20
6.0068277479
 11
15.2911681681
 21
5.8994269803
  0
LINE
  5
49D
100
AcDbEntity
  8
0
100
AcDbLine
 62
7
  6
CONTINUOUS
 10
15.2734516326
 20
5.8687410468
 11
15.2114437586
 21
5.7613402792
  0
LINE
  5
49E
100
AcDbEntity
  8
0
100
AcDbLine
 62
7
  6
CONTINUOUS
 10
15.1937272232
 20
5.7306543457
 11
15.1317193492
 21
5.6232535781
  0
LINE
  5
49F
100
AcDbEntity
  8
0
100
AcDbLine
 62
7
  6
CONTINUOUS
 10
15.1140028138
 20
5.5925676446
 11
15.0519949397
 21
5.485166877
  0
LINE
  5
4A0
100
AcDbEntity
  8
0
100
AcDbLine
 62
7
  6
CONTINUOUS
 10
15.0342784043
 20
5.4544809435
 11
14.9722705303
 21
5.3470801759
  0
LINE
  5
4A1
100
AcDbEntity
  8
0
100
AcDbLine
 62
7
  6
CONTINUOUS
 10
14.9545539949
 20
5.3163942424
 11
14.8925461208
 21
5.2089934748
  0
LINE
  5
4A2
100
AcDbEntity
  8
0
100
AcDbLine
 62
7
  6
CONTINUOUS
 10
14.8748295854
 20
5.1783075413
 11
14.8128217114
 21
5.0709067737
  0
LINE
  5
4A3
100
AcDbEntity
  8
0
100
AcDbLine
 62
7
  6
CONTINUOUS
 10
14.795105176
 20
5.0402208402
 11
14.7330973019
 21
4.9328200726
  0
LINE
  5
4A4
100
AcDbEntity
  8
0
100
AcDbLine
 62
7
  6
CONTINUOUS
 10
14.7153807665
 20
4.9021341391
 11
14.6533728925
 21
4.7947333715
  0
LINE
  5
4A5
100
AcDbEntity
  8
0
100
AcDbLine
 62
7
  6
CONTINUOUS
 10
14.655878389
 20
4.7932855513
 11
14.717886263
 21
4.9006863188
  0
LINE
  5
4A6
100
AcDbEntity
  8
0
100
AcDbLine
 62
7
  6
CONTINUOUS
 10
14.7356027984
 20
4.9313722524
 11
14.7976106724
 21
5.0387730199
  0
LINE
  5
4A7
100
AcDbEntity
  8
0
100
AcDbLine
 62
7
  6
CONTINUOUS
 10
14.8153272079
 20
5.0694589535
 11
14.8773350819
 21
5.176859721
  0
LINE
  5
4A8
100
AcDbEntity
  8
0
100
AcDbLine
 62
7
  6
CONTINUOUS
 10
14.8950516173
 20
5.2075456546
 11
14.9570594913
 21
5.3149464221
  0
LINE
  5
4A9
100
AcDbEntity
  8
0
100
AcDbLine
 62
7
  6
CONTINUOUS
 10
14.9747760268
 20
5.3456323557
 11
15.0367839008
 21
5.4530331232
  0
LINE
  5
4AA
100
AcDbEntity
  8
0
100
AcDbLine
 62
7
  6
CONTINUOUS
 10
15.0545004362
 20
5.4837190568
 11
15.1165083102
 21
5.5911198243
  0
LINE
  5
4AB
100
AcDbEntity
  8
0
100
AcDbLine
 62
7
  6
CONTINUOUS
 10
15.1342248457
 20
5.6218057579
 11
15.1962327197
 21
5.7292065254
  0
LINE
  5
4AC
100
AcDbEntity
  8
0
100
AcDbLine
 62
7
  6
CONTINUOUS
 10
15.2139492551
 20
5.759892459
 11
15.2759571291
 21
5.8672932265
  0
LINE
  5
4AD
100
AcDbEntity
  8
0
100
AcDbLine
 62
7
  6
CONTINUOUS
 10
15.2936736646
 20
5.8979791601
 11
15.3556815386
 21
6.0053799276
  0
LINE
  5
4AE
100
AcDbEntity
  8
0
100
AcDbLine
 62
7
  6
CONTINUOUS
 10
15.373398074
 20
6.0360658612
 11
15.435405948
 21
6.1434666287
  0
LINE
  5
4AF
100
AcDbEntity
  8
0
100
AcDbLine
 62
7
  6
CONTINUOUS
 10
15.4531224834
 20
6.1741525623
 11
15.5151303575
 21
6.2815533298
  0
LINE
  5
4B0
100
AcDbEntity
  8
0
100
AcDbLine
 62
7
  6
CONTINUOUS
 10
15.5328468929
 20
6.3122392634
 11
15.5948547669
 21
6.4196400309
  0
LINE
  5
4B1
100
AcDbEntity
  8
0
100
AcDbLine
 62
7
  6
CONTINUOUS
 10
15.8517445307
 20
6.8236894708
 11
15.807955287
 21
6.7478442906
  0
LINE
  5
4B2
100
AcDbEntity
  8
0
100
AcDbLine
 62
7
  6
CONTINUOUS
 10
15.6316464724
 20
6.4424685248
 11
15.6302878378
 21
6.4401153011
  0
LINE
  5
4B3
100
AcDbEntity
  8
0
100
AcDbLine
 62
7
  6
CONTINUOUS
 10
15.6125713023
 20
6.4094293675
 11
15.5505634283
 21
6.3020286
  0
LINE
  5
4B4
100
AcDbEntity
  8
0
100
AcDbLine
 62
7
  6
CONTINUOUS
 10
15.5328468929
 20
6.2713426664
 11
15.4708390189
 21
6.1639418989
  0
LINE
  5
4B5
100
AcDbEntity
  8
0
100
AcDbLine
 62
7
  6
CONTINUOUS
 10
15.4531224834
 20
6.1332559653
 11
15.3911146094
 21
6.0258551978
  0
LINE
  5
4B6
100
AcDbEntity
  8
0
100
AcDbLine
 62
7
  6
CONTINUOUS
 10
15.373398074
 20
5.9951692642
 11
15.3113902
 21
5.8877684967
  0
LINE
  5
4B7
100
AcDbEntity
  8
0
100
AcDbLine
 62
7
  6
CONTINUOUS
 10
15.2936736646
 20
5.8570825631
 11
15.2316657905
 21
5.7496817956
  0
LINE
  5
4B8
100
AcDbEntity
  8
0
100
AcDbLine
 62
7
  6
CONTINUOUS
 10
15.2139492551
 20
5.718995862
 11
15.1519413811
 21
5.6115950945
  0
LINE
  5
4B9
100
AcDbEntity
  8
0
100
AcDbLine
 62
7
  6
CONTINUOUS
 10
15.1342248457
 20
5.5809091609
 11
15.0722169716
 21
5.4735083934
  0
LINE
  5
4BA
100
AcDbEntity
  8
0
100
AcDbLine
 62
7
  6
CONTINUOUS
 10
15.0545004362
 20
5.4428224598
 11
14.9924925622
 21
5.3354216923
  0
LINE
  5
4BB
100
AcDbEntity
  8
0
100
AcDbLine
 62
7
  6
CONTINUOUS
 10
14.9747760268
 20
5.3047357587
 11
14.9127681527
 21
5.1973349912
  0
LINE
  5
4BC
100
AcDbEntity
  8
0
100
AcDbLine
 62
7
  6
CONTINUOUS
 10
14.8950516173
 20
5.1666490576
 11
14.8330437433
 21
5.0592482901
  0
LINE
  5
4BD
100
AcDbEntity
  8
0
100
AcDbLine
 62
7
  6
CONTINUOUS
 10
14.8153272079
 20
5.0285623565
 11
14.7533193338
 21
4.921161589
  0
LINE
  5
4BE
100
AcDbEntity
  8
0
100
AcDbLine
 62
7
  6
CONTINUOUS
 10
14.7356027984
 20
4.8904756554
 11
14.6735949244
 21
4.7830748879
  0
LINE
  5
4BF
100
AcDbEntity
  8
0
100
AcDbLine
 62
7
  6
CONTINUOUS
 10
14.655878389
 20
4.7523889543
 11
14.5938705149
 21
4.6449881868
  0
LINE
  5
4C0
100
AcDbEntity
  8
0
100
AcDbLine
 62
7
  6
CONTINUOUS
 10
15.9112469082
 20
6.789399969
 11
15.8492390342
 21
6.6819992015
  0
LINE
  5
4C1
100
AcDbEntity
  8
0
100
AcDbLine
 62
7
  6
CONTINUOUS
 10
15.8315224988
 20
6.6513132679
 11
15.807955287
 21
6.6104936677
  0
LINE
  5
4C2
100
AcDbEntity
  8
0
100
AcDbLine
 62
7
  6
CONTINUOUS
 10
15.7506479227
 20
6.5112344202
 11
15.6897902153
 21
6.4058257993
  0
LINE
  5
4C3
100
AcDbEntity
  8
0
100
AcDbLine
 62
7
  6
CONTINUOUS
 10
15.6720736799
 20
6.3751398658
 11
15.6100658059
 21
6.2677390982
  0
LINE
  5
4C4
100
AcDbEntity
  8
0
100
AcDbLine
 62
7
  6
CONTINUOUS
 10
15.5923492704
 20
6.2370531647
 11
15.5303413964
 21
6.1296523971
  0
LINE
  5
4C5
100
AcDbEntity
  8
0
100
AcDbLine
 62
7
  6
CONTINUOUS
 10
15.512624861
 20
6.0989664636
 11
15.450616987
 21
5.991565696
  0
LINE
  5
4C6
100
AcDbEntity
  8
0
100
AcDbLine
 62
7
  6
CONTINUOUS
 10
15.4329004515
 20
5.9608797625
 11
15.3708925775
 21
5.8534789949
  0
LINE
  5
4C7
100
AcDbEntity
  8
0
100
AcDbLine
 62
7
  6
CONTINUOUS
 10
15.3531760421
 20
5.8227930614
 11
15.2911681681
 21
5.7153922938
  0
LINE
  5
4C8
100
AcDbEntity
  8
0
100
AcDbLine
 62
7
  6
CONTINUOUS
 10
15.2734516326
 20
5.6847063603
 11
15.2114437586
 21
5.5773055927
  0
LINE
  5
4C9
100
AcDbEntity
  8
0
100
AcDbLine
 62
7
  6
CONTINUOUS
 10
15.1937272232
 20
5.5466196592
 11
15.1317193492
 21
5.4392188916
  0
LINE
  5
4CA
100
AcDbEntity
  8
0
100
AcDbLine
 62
7
  6
CONTINUOUS
 10
15.1140028138
 20
5.4085329581
 11
15.0519949397
 21
5.3011321905
  0
LINE
  5
4CB
100
AcDbEntity
  8
0
100
AcDbLine
 62
7
  6
CONTINUOUS
 10
15.0342784043
 20
5.270446257
 11
14.9722705303
 21
5.1630454894
  0
LINE
  5
4CC
100
AcDbEntity
  8
0
100
AcDbLine
 62
7
  6
CONTINUOUS
 10
14.9545539949
 20
5.1323595559
 11
14.8925461208
 21
5.0249587883
  0
LINE
  5
4CD
100
AcDbEntity
  8
0
100
AcDbLine
 62
7
  6
CONTINUOUS
 10
14.8748295854
 20
4.9942728548
 11
14.8128217114
 21
4.8868720872
  0
LINE
  5
4CE
100
AcDbEntity
  8
0
100
AcDbLine
 62
7
  6
CONTINUOUS
 10
14.795105176
 20
4.8561861537
 11
14.7330973019
 21
4.7487853861
  0
LINE
  5
4CF
100
AcDbEntity
  8
0
100
AcDbLine
 62
7
  6
CONTINUOUS
 10
14.7153807665
 20
4.7180994526
 11
14.6533728925
 21
4.610698685
  0
LINE
  5
4D0
100
AcDbEntity
  8
0
100
AcDbLine
 62
7
  6
CONTINUOUS
 10
14.655878389
 20
4.6092508648
 11
14.717886263
 21
4.7166516323
  0
LINE
  5
4D1
100
AcDbEntity
  8
0
100
AcDbLine
 62
7
  6
CONTINUOUS
 10
14.7356027984
 20
4.7473375659
 11
14.7976106724
 21
4.8547383334
  0
LINE
  5
4D2
100
AcDbEntity
  8
0
100
AcDbLine
 62
7
  6
CONTINUOUS
 10
14.8153272079
 20
4.885424267
 11
14.8773350819
 21
4.9928250345
  0
LINE
  5
4D3
100
AcDbEntity
  8
0
100
AcDbLine
 62
7
  6
CONTINUOUS
 10
14.8950516173
 20
5.0235109681
 11
14.9570594913
 21
5.1309117356
  0
LINE
  5
4D4
100
AcDbEntity
  8
0
100
AcDbLine
 62
7
  6
CONTINUOUS
 10
14.9747760268
 20
5.1615976692
 11
15.0367839008
 21
5.2689984367
  0
LINE
  5
4D5
100
AcDbEntity
  8
0
100
AcDbLine
 62
7
  6
CONTINUOUS
 10
15.0545004362
 20
5.2996843703
 11
15.1165083102
 21
5.4070851378
  0
LINE
  5
4D6
100
AcDbEntity
  8
0
100
AcDbLine
 62
7
  6
CONTINUOUS
 10
15.1342248457
 20
5.4377710714
 11
15.1962327197
 21
5.5451718389
  0
LINE
  5
4D7
100
AcDbEntity
  8
0
100
AcDbLine
 62
7
  6
CONTINUOUS
 10
15.2139492551
 20
5.5758577725
 11
15.2759571291
 21
5.68325854
  0
LINE
  5
4D8
100
AcDbEntity
  8
0
100
AcDbLine
 62
7
  6
CONTINUOUS
 10
15.2936736646
 20
5.7139444736
 11
15.3556815386
 21
5.8213452411
  0
LINE
  5
4D9
100
AcDbEntity
  8
0
100
AcDbLine
 62
7
  6
CONTINUOUS
 10
15.373398074
 20
5.8520311747
 11
15.435405948
 21
5.9594319422
  0
LINE
  5
4DA
100
AcDbEntity
  8
0
100
AcDbLine
 62
7
  6
CONTINUOUS
 10
15.4531224834
 20
5.9901178758
 11
15.5151303575
 21
6.0975186433
  0
LINE
  5
4DB
100
AcDbEntity
  8
0
100
AcDbLine
 62
7
  6
CONTINUOUS
 10
15.5328468929
 20
6.1282045769
 11
15.5948547669
 21
6.2356053444
  0
LINE
  5
4DC
100
AcDbEntity
  8
0
100
AcDbLine
 62
7
  6
CONTINUOUS
 10
15.6125713023
 20
6.266291278
 11
15.6745791764
 21
6.3736920455
  0
LINE
  5
4DD
100
AcDbEntity
  8
0
100
AcDbLine
 62
7
  6
CONTINUOUS
 10
15.6922957118
 20
6.4043779791
 11
15.7543035858
 21
6.5117787466
  0
LINE
  5
4DE
100
AcDbEntity
  8
0
100
AcDbLine
 62
7
  6
CONTINUOUS
 10
15.807955287
 20
6.6047062011
 11
15.8340279953
 21
6.6498654477
  0
LINE
  5
4DF
100
AcDbEntity
  8
0
100
AcDbLine
 62
7
  6
CONTINUOUS
 10
15.8517445307
 20
6.6805513813
 11
15.9137524047
 21
6.7879521488
  0
LINE
  5
4E0
100
AcDbEntity
  8
0
100
AcDbLine
 62
7
  6
CONTINUOUS
 10
15.9314689401
 20
6.7777414854
 11
15.8694610661
 21
6.6703407179
  0
LINE
  5
4E1
100
AcDbEntity
  8
0
100
AcDbLine
 62
7
  6
CONTINUOUS
 10
15.8517445307
 20
6.6396547843
 11
15.807955287
 21
6.5638096041
  0
LINE
  5
4E2
100
AcDbEntity
  8
0
100
AcDbLine
 62
7
  6
CONTINUOUS
 10
15.7910952913
 20
6.5346072405
 11
15.7897366567
 21
6.5322540168
  0
LINE
  5
4E3
100
AcDbEntity
  8
0
100
AcDbLine
 62
7
  6
CONTINUOUS
 10
15.7720201212
 20
6.5015680832
 11
15.7100122472
 21
6.3941673157
  0
LINE
  5
4E4
100
AcDbEntity
  8
0
100
AcDbLine
 62
7
  6
CONTINUOUS
 10
15.6922957118
 20
6.3634813821
 11
15.6302878378
 21
6.2560806146
  0
LINE
  5
4E5
100
AcDbEntity
  8
0
100
AcDbLine
 62
7
  6
CONTINUOUS
 10
15.6125713023
 20
6.225394681
 11
15.5505634283
 21
6.1179939135
  0
LINE
  5
4E6
100
AcDbEntity
  8
0
100
AcDbLine
 62
7
  6
CONTINUOUS
 10
15.5328468929
 20
6.0873079799
 11
15.4708390189
 21
5.9799072124
  0
LINE
  5
4E7
100
AcDbEntity
  8
0
100
AcDbLine
 62
7
  6
CONTINUOUS
 10
15.4531224834
 20
5.9492212788
 11
15.3911146094
 21
5.8418205113
  0
LINE
  5
4E8
100
AcDbEntity
  8
0
100
AcDbLine
 62
7
  6
CONTINUOUS
 10
15.373398074
 20
5.8111345777
 11
15.3113902
 21
5.7037338102
  0
LINE
  5
4E9
100
AcDbEntity
  8
0
100
AcDbLine
 62
7
  6
CONTINUOUS
 10
15.2936736646
 20
5.6730478766
 11
15.2316657905
 21
5.5656471091
  0
LINE
  5
4EA
100
AcDbEntity
  8
0
100
AcDbLine
 62
7
  6
CONTINUOUS
 10
15.2139492551
 20
5.5349611755
 11
15.1519413811
 21
5.427560408
  0
LINE
  5
4EB
100
AcDbEntity
  8
0
100
AcDbLine
 62
7
  6
CONTINUOUS
 10
15.1342248457
 20
5.3968744744
 11
15.0722169716
 21
5.2894737069
  0
LINE
  5
4EC
100
AcDbEntity
  8
0
100
AcDbLine
 62
7
  6
CONTINUOUS
 10
15.0545004362
 20
5.2587877733
 11
14.9924925622
 21
5.1513870058
  0
LINE
  5
4ED
100
AcDbEntity
  8
0
100
AcDbLine
 62
7
  6
CONTINUOUS
 10
14.9747760268
 20
5.1207010722
 11
14.9127681527
 21
5.0133003047
  0
LINE
  5
4EE
100
AcDbEntity
  8
0
100
AcDbLine
 62
7
  6
CONTINUOUS
 10
14.8950516173
 20
4.9826143711
 11
14.8330437433
 21
4.8752136036
  0
LINE
  5
4EF
100
AcDbEntity
  8
0
100
AcDbLine
 62
7
  6
CONTINUOUS
 10
14.8153272079
 20
4.84452767
 11
14.7533193338
 21
4.7371269025
  0
LINE
  5
4F0
100
AcDbEntity
  8
0
100
AcDbLine
 62
7
  6
CONTINUOUS
 10
14.7356027984
 20
4.7064409689
 11
14.6735949244
 21
4.5990402014
  0
LINE
  5
4F1
100
AcDbEntity
  8
0
100
AcDbLine
 62
7
  6
CONTINUOUS
 10
14.655878389
 20
4.5683542678
 11
14.5938705149
 21
4.4609535003
  0
LINE
  5
4F2
100
AcDbEntity
  8
0
100
AcDbLine
 62
7
  6
CONTINUOUS
 10
13.7155026873
 20
4.4985450578
 11
13.4427666205
 21
4.3409424422
  0
LINE
  5
4F3
100
AcDbEntity
  8
0
100
AcDbLine
 62
7
  6
CONTINUOUS
 10
15.6876914565
 20
6.7090924608
 11
15.6876914565
 21
6.6079548345
  0
LINE
  5
4F4
100
AcDbEntity
  8
0
100
AcDbLine
 62
7
  6
CONTINUOUS
 10
15.7202629106
 20
4.7589619821
 11
15.7202629106
 21
4.6720927679
  0
LINE
  5
4F5
100
AcDbEntity
  8
0
100
AcDbLine
 62
7
  6
CONTINUOUS
 10
15.7453178753
 20
4.6576145655
 11
15.7453178753
 21
4.3539728243
  0
LINE
  5
4F6
100
AcDbEntity
  8
0
100
AcDbLine
 62
7
  6
CONTINUOUS
 10
15.7628563506
 20
6.7525270679
 11
15.7628563506
 21
6.564558371
  0
LINE
  5
4F7
100
AcDbEntity
  8
0
100
AcDbLine
 62
7
  6
CONTINUOUS
 10
15.807955287
 20
6.8046142672
 11
15.807955287
 21
6.5443499176
  0
LINE
  5
4F8
100
AcDbEntity
  8
0
100
AcDbLine
 62
7
  6
CONTINUOUS
 10
15.9909713177
 20
6.7434519836
 11
15.9289634437
 21
6.6360512161
  0
LINE
  5
4F9
100
AcDbEntity
  8
0
100
AcDbLine
 62
7
  6
CONTINUOUS
 10
15.9112469082
 20
6.6053652825
 11
15.8492390342
 21
6.497964515
  0
LINE
  5
4FA
100
AcDbEntity
  8
0
100
AcDbLine
 62
7
  6
CONTINUOUS
 10
15.8315224988
 20
6.4672785814
 11
15.7695146248
 21
6.3598778139
  0
LINE
  5
4FB
100
AcDbEntity
  8
0
100
AcDbLine
 62
7
  6
CONTINUOUS
 10
15.7517980893
 20
6.3291918804
 11
15.6897902153
 21
6.2217911128
  0
LINE
  5
4FC
100
AcDbEntity
  8
0
100
AcDbLine
 62
7
  6
CONTINUOUS
 10
15.6720736799
 20
6.1911051793
 11
15.6100658059
 21
6.0837044117
  0
LINE
  5
4FD
100
AcDbEntity
  8
0
100
AcDbLine
 62
7
  6
CONTINUOUS
 10
15.5923492704
 20
6.0530184782
 11
15.5303413964
 21
5.9456177106
  0
LINE
  5
4FE
100
AcDbEntity
  8
0
100
AcDbLine
 62
7
  6
CONTINUOUS
 10
15.512624861
 20
5.9149317771
 11
15.450616987
 21
5.8075310095
  0
LINE
  5
4FF
100
AcDbEntity
  8
0
100
AcDbLine
 62
7
  6
CONTINUOUS
 10
15.4329004515
 20
5.776845076
 11
15.3708925775
 21
5.6694443084
  0
LINE
  5
500
100
AcDbEntity
  8
0
100
AcDbLine
 62
7
  6
CONTINUOUS
 10
15.3531760421
 20
5.6387583749
 11
15.2911681681
 21
5.5313576073
  0
LINE
  5
501
100
AcDbEntity
  8
0
100
AcDbLine
 62
7
  6
CONTINUOUS
 10
15.2734516326
 20
5.5006716738
 11
15.2114437586
 21
5.3932709062
  0
LINE
  5
502
100
AcDbEntity
  8
0
100
AcDbLine
 62
7
  6
CONTINUOUS
 10
15.1937272232
 20
5.3625849727
 11
15.1317193492
 21
5.2551842051
  0
LINE
  5
503
100
AcDbEntity
  8
0
100
AcDbLine
 62
7
  6
CONTINUOUS
 10
15.1140028138
 20
5.2244982716
 11
15.0519949397
 21
5.117097504
  0
LINE
  5
504
100
AcDbEntity
  8
0
100
AcDbLine
 62
7
  6
CONTINUOUS
 10
15.0342784043
 20
5.0864115705
 11
14.9722705303
 21
4.9790108029
  0
LINE
  5
505
100
AcDbEntity
  8
0
100
AcDbLine
 62
7
  6
CONTINUOUS
 10
14.9545539949
 20
4.9483248694
 11
14.8925461208
 21
4.8409241018
  0
LINE
  5
506
100
AcDbEntity
  8
0
100
AcDbLine
 62
7
  6
CONTINUOUS
 10
14.8748295854
 20
4.8102381683
 11
14.8128217114
 21
4.7028374007
  0
LINE
  5
507
100
AcDbEntity
  8
0
100
AcDbLine
 62
7
  6
CONTINUOUS
 10
14.795105176
 20
4.6721514672
 11
14.7330973019
 21
4.5647506996
  0
LINE
  5
508
100
AcDbEntity
  8
0
100
AcDbLine
 62
7
  6
CONTINUOUS
 10
14.7153807665
 20
4.5340647661
 11
14.6533728925
 21
4.4266639986
  0
LINE
  5
509
100
AcDbEntity
  8
0
100
AcDbLine
 62
7
  6
CONTINUOUS
 10
14.655878389
 20
4.4252161783
 11
14.717886263
 21
4.5326169458
  0
LINE
  5
50A
100
AcDbEntity
  8
0
100
AcDbLine
 62
7
  6
CONTINUOUS
 10
14.7356027984
 20
4.5633028794
 11
14.7976106724
 21
4.6707036469
  0
LINE
  5
50B
100
AcDbEntity
  8
0
100
AcDbLine
 62
7
  6
CONTINUOUS
 10
14.8153272079
 20
4.7013895805
 11
14.8773350819
 21
4.808790348
  0
LINE
  5
50C
100
AcDbEntity
  8
0
100
AcDbLine
 62
7
  6
CONTINUOUS
 10
14.8950516173
 20
4.8394762816
 11
14.9570594913
 21
4.9468770491
  0
LINE
  5
50D
100
AcDbEntity
  8
0
100
AcDbLine
 62
7
  6
CONTINUOUS
 10
14.9747760268
 20
4.9775629827
 11
15.0367839008
 21
5.0849637502
  0
LINE
  5
50E
100
AcDbEntity
  8
0
100
AcDbLine
 62
7
  6
CONTINUOUS
 10
15.0545004362
 20
5.1156496838
 11
15.1165083102
 21
5.2230504513
  0
LINE
  5
50F
100
AcDbEntity
  8
0
100
AcDbLine
 62
7
  6
CONTINUOUS
 10
15.1342248457
 20
5.2537363849
 11
15.1962327197
 21
5.3611371524
  0
LINE
  5
510
100
AcDbEntity
  8
0
100
AcDbLine
 62
7
  6
CONTINUOUS
 10
15.2139492551
 20
5.391823086
 11
15.2759571291
 21
5.4992238535
  0
LINE
  5
511
100
AcDbEntity
  8
0
100
AcDbLine
 62
7
  6
CONTINUOUS
 10
15.2936736646
 20
5.5299097871
 11
15.3556815386
 21
5.6373105546
  0
LINE
  5
512
100
AcDbEntity
  8
0
100
AcDbLine
 62
7
  6
CONTINUOUS
 10
15.373398074
 20
5.6679964882
 11
15.435405948
 21
5.7753972557
  0
LINE
  5
513
100
AcDbEntity
  8
0
100
AcDbLine
 62
7
  6
CONTINUOUS
 10
15.4531224834
 20
5.8060831893
 11
15.5151303575
 21
5.9134839568
  0
LINE
  5
514
100
AcDbEntity
  8
0
100
AcDbLine
 62
7
  6
CONTINUOUS
 10
15.5328468929
 20
5.9441698904
 11
15.5948547669
 21
6.0515706579
  0
LINE
  5
515
100
AcDbEntity
  8
0
100
AcDbLine
 62
7
  6
CONTINUOUS
 10
15.6125713023
 20
6.0822565915
 11
15.6745791764
 21
6.189657359
  0
LINE
  5
516
100
AcDbEntity
  8
0
100
AcDbLine
 62
7
  6
CONTINUOUS
 10
15.6922957118
 20
6.2203432926
 11
15.7543035858
 21
6.3277440601
  0
LINE
  5
517
100
AcDbEntity
  8
0
100
AcDbLine
 62
7
  6
CONTINUOUS
 10
15.7720201212
 20
6.3584299937
 11
15.8340279953
 21
6.4658307612
  0
LINE
  5
518
100
AcDbEntity
  8
0
100
AcDbLine
 62
7
  6
CONTINUOUS
 10
15.8517445307
 20
6.4965166948
 11
15.9137524047
 21
6.6039174623
  0
LINE
  5
519
100
AcDbEntity
  8
0
100
AcDbLine
 62
7
  6
CONTINUOUS
 10
15.9314689401
 20
6.6346033959
 11
15.9934768142
 21
6.7420041634
  0
LINE
  5
51A
100
AcDbEntity
  8
0
100
AcDbLine
 62
7
  6
CONTINUOUS
 10
15.9314689401
 20
6.5937067989
 11
15.8694610661
 21
6.4863060314
  0
LINE
  5
51B
100
AcDbEntity
  8
0
100
AcDbLine
 62
7
  6
CONTINUOUS
 10
15.8517445307
 20
6.4556200978
 11
15.7897366567
 21
6.3482193303
  0
LINE
  5
51C
100
AcDbEntity
  8
0
100
AcDbLine
 62
7
  6
CONTINUOUS
 10
15.7720201212
 20
6.3175333967
 11
15.7100122472
 21
6.2101326292
  0
LINE
  5
51D
100
AcDbEntity
  8
0
100
AcDbLine
 62
7
  6
CONTINUOUS
 10
15.6922957118
 20
6.1794466956
 11
15.6302878378
 21
6.0720459281
  0
LINE
  5
51E
100
AcDbEntity
  8
0
100
AcDbLine
 62
7
  6
CONTINUOUS
 10
15.6125713023
 20
6.0413599945
 11
15.5505634283
 21
5.933959227
  0
LINE
  5
51F
100
AcDbEntity
  8
0
100
AcDbLine
 62
7
  6
CONTINUOUS
 10
15.5328468929
 20
5.9032732934
 11
15.4708390189
 21
5.7958725259
  0
LINE
  5
520
100
AcDbEntity
  8
0
100
AcDbLine
 62
7
  6
CONTINUOUS
 10
15.4531224834
 20
5.7651865923
 11
15.3911146094
 21
5.6577858248
  0
LINE
  5
521
100
AcDbEntity
  8
0
100
AcDbLine
 62
7
  6
CONTINUOUS
 10
15.373398074
 20
5.6270998912
 11
15.3113902
 21
5.5196991237
  0
LINE
  5
522
100
AcDbEntity
  8
0
100
AcDbLine
 62
7
  6
CONTINUOUS
 10
15.2936736646
 20
5.4890131901
 11
15.2316657905
 21
5.3816124226
  0
LINE
  5
523
100
AcDbEntity
  8
0
100
AcDbLine
 62
7
  6
CONTINUOUS
 10
15.2139492551
 20
5.350926489
 11
15.1519413811
 21
5.2435257215
  0
LINE
  5
524
100
AcDbEntity
  8
0
100
AcDbLine
 62
7
  6
CONTINUOUS
 10
15.1342248457
 20
5.2128397879
 11
15.0722169716
 21
5.1054390204
  0
LINE
  5
525
100
AcDbEntity
  8
0
100
AcDbLine
 62
7
  6
CONTINUOUS
 10
15.0545004362
 20
5.0747530868
 11
14.9924925622
 21
4.9673523193
  0
LINE
  5
526
100
AcDbEntity
  8
0
100
AcDbLine
 62
7
  6
CONTINUOUS
 10
14.9747760268
 20
4.9366663857
 11
14.9127681527
 21
4.8292656182
  0
LINE
  5
527
100
AcDbEntity
  8
0
100
AcDbLine
 62
7
  6
CONTINUOUS
 10
14.8950516173
 20
4.7985796846
 11
14.8330437433
 21
4.6911789171
  0
LINE
  5
528
100
AcDbEntity
  8
0
100
AcDbLine
 62
7
  6
CONTINUOUS
 10
14.8153272079
 20
4.6604929835
 11
14.7533193338
 21
4.553092216
  0
LINE
  5
529
100
AcDbEntity
  8
0
100
AcDbLine
 62
7
  6
CONTINUOUS
 10
14.7356027984
 20
4.5224062824
 11
14.6735949244
 21
4.4150055149
  0
LINE
  5
52A
100
AcDbEntity
  8
0
100
AcDbLine
 62
7
  6
CONTINUOUS
 10
14.655878389
 20
4.3843195813
 11
14.5938705149
 21
4.2769188138
  0
LINE
  5
52B
100
AcDbEntity
  8
0
100
AcDbLine
 62
7
  6
CONTINUOUS
 10
15.9909713177
 20
6.5594172971
 11
15.9289634437
 21
6.4520165296
  0
LINE
  5
52C
100
AcDbEntity
  8
0
100
AcDbLine
 62
7
  6
CONTINUOUS
 10
15.9112469082
 20
6.421330596
 11
15.8492390342
 21
6.3139298285
  0
LINE
  5
52D
100
AcDbEntity
  8
0
100
AcDbLine
 62
7
  6
CONTINUOUS
 10
15.8315224988
 20
6.283243895
 11
15.7695146248
 21
6.1758431274
  0
LINE
  5
52E
100
AcDbEntity
  8
0
100
AcDbLine
 62
7
  6
CONTINUOUS
 10
15.7517980893
 20
6.1451571939
 11
15.6897902153
 21
6.0377564263
  0
LINE
  5
52F
100
AcDbEntity
  8
0
100
AcDbLine
 62
7
  6
CONTINUOUS
 10
15.6720736799
 20
6.0070704928
 11
15.6100658059
 21
5.8996697252
  0
LINE
  5
530
100
AcDbEntity
  8
0
100
AcDbLine
 62
7
  6
CONTINUOUS
 10
15.5923492704
 20
5.8689837917
 11
15.5303413964
 21
5.7615830241
  0
LINE
  5
531
100
AcDbEntity
  8
0
100
AcDbLine
 62
7
  6
CONTINUOUS
 10
15.512624861
 20
5.7308970906
 11
15.450616987
 21
5.623496323
  0
LINE
  5
532
100
AcDbEntity
  8
0
100
AcDbLine
 62
7
  6
CONTINUOUS
 10
15.4329004515
 20
5.5928103895
 11
15.3708925775
 21
5.4854096219
  0
LINE
  5
533
100
AcDbEntity
  8
0
100
AcDbLine
 62
7
  6
CONTINUOUS
 10
15.3531760421
 20
5.4547236884
 11
15.2911681681
 21
5.3473229208
  0
LINE
  5
534
100
AcDbEntity
  8
0
100
AcDbLine
 62
7
  6
CONTINUOUS
 10
15.2734516326
 20
5.3166369873
 11
15.2114437586
 21
5.2092362197
  0
LINE
  5
535
100
AcDbEntity
  8
0
100
AcDbLine
 62
7
  6
CONTINUOUS
 10
15.1937272232
 20
5.1785502862
 11
15.1317193492
 21
5.0711495186
  0
LINE
  5
536
100
AcDbEntity
  8
0
100
AcDbLine
 62
7
  6
CONTINUOUS
 10
15.1140028138
 20
5.0404635851
 11
15.0519949397
 21
4.9330628175
  0
LINE
  5
537
100
AcDbEntity
  8
0
100
AcDbLine
 62
7
  6
CONTINUOUS
 10
15.0342784043
 20
4.902376884
 11
14.9722705303
 21
4.7949761164
  0
LINE
  5
538
100
AcDbEntity
  8
0
100
AcDbLine
 62
7
  6
CONTINUOUS
 10
14.9545539949
 20
4.7642901829
 11
14.8925461208
 21
4.6568894153
  0
LINE
  5
539
100
AcDbEntity
  8
0
100
AcDbLine
 62
7
  6
CONTINUOUS
 10
14.8748295854
 20
4.6262034818
 11
14.8128217114
 21
4.5188027142
  0
LINE
  5
53A
100
AcDbEntity
  8
0
100
AcDbLine
 62
7
  6
CONTINUOUS
 10
14.795105176
 20
4.4881167807
 11
14.7330973019
 21
4.3807160132
  0
LINE
  5
53B
100
AcDbEntity
  8
0
100
AcDbLine
 62
7
  6
CONTINUOUS
 10
14.7153807665
 20
4.3500300796
 11
14.6533728925
 21
4.2426293121
  0
LINE
  5
53C
100
AcDbEntity
  8
0
100
AcDbLine
 62
7
  6
CONTINUOUS
 10
14.655878389
 20
4.2411814918
 11
14.717886263
 21
4.3485822593
  0
LINE
  5
53D
100
AcDbEntity
  8
0
100
AcDbLine
 62
7
  6
CONTINUOUS
 10
14.7356027984
 20
4.3792681929
 11
14.7976106724
 21
4.4866689604
  0
LINE
  5
53E
100
AcDbEntity
  8
0
100
AcDbLine
 62
7
  6
CONTINUOUS
 10
14.8153272079
 20
4.517354894
 11
14.8773350819
 21
4.6247556615
  0
LINE
  5
53F
100
AcDbEntity
  8
0
100
AcDbLine
 62
7
  6
CONTINUOUS
 10
14.8950516173
 20
4.6554415951
 11
14.9570594913
 21
4.7628423626
  0
LINE
  5
540
100
AcDbEntity
  8
0
100
AcDbLine
 62
7
  6
CONTINUOUS
 10
14.9747760268
 20
4.7935282962
 11
15.0367839008
 21
4.9009290637
  0
LINE
  5
541
100
AcDbEntity
  8
0
100
AcDbLine
 62
7
  6
CONTINUOUS
 10
15.0545004362
 20
4.9316149973
 11
15.1165083102
 21
5.0390157648
  0
LINE
  5
542
100
AcDbEntity
  8
0
100
AcDbLine
 62
7
  6
CONTINUOUS
 10
15.1342248457
 20
5.0697016984
 11
15.1962327197
 21
5.1771024659
  0
LINE
  5
543
100
AcDbEntity
  8
0
100
AcDbLine
 62
7
  6
CONTINUOUS
 10
15.2139492551
 20
5.2077883995
 11
15.2759571291
 21
5.315189167
  0
LINE
  5
544
100
AcDbEntity
  8
0
100
AcDbLine
 62
7
  6
CONTINUOUS
 10
15.2936736646
 20
5.3458751006
 11
15.3556815386
 21
5.4532758681
  0
LINE
  5
545
100
AcDbEntity
  8
0
100
AcDbLine
 62
7
  6
CONTINUOUS
 10
15.373398074
 20
5.4839618017
 11
15.435405948
 21
5.5913625692
  0
LINE
  5
546
100
AcDbEntity
  8
0
100
AcDbLine
 62
7
  6
CONTINUOUS
 10
15.4531224834
 20
5.6220485028
 11
15.5151303575
 21
5.7294492703
  0
LINE
  5
547
100
AcDbEntity
  8
0
100
AcDbLine
 62
7
  6
CONTINUOUS
 10
15.5328468929
 20
5.7601352039
 11
15.5948547669
 21
5.8675359714
  0
LINE
  5
548
100
AcDbEntity
  8
0
100
AcDbLine
 62
7
  6
CONTINUOUS
 10
15.6125713023
 20
5.898221905
 11
15.6745791764
 21
6.0056226725
  0
LINE
  5
549
100
AcDbEntity
  8
0
100
AcDbLine
 62
7
  6
CONTINUOUS
 10
15.6922957118
 20
6.0363086061
 11
15.7543035858
 21
6.1437093736
  0
LINE
  5
54A
100
AcDbEntity
  8
0
100
AcDbLine
 62
7
  6
CONTINUOUS
 10
15.7720201212
 20
6.1743953072
 11
15.8340279953
 21
6.2817960747
  0
LINE
  5
54B
100
AcDbEntity
  8
0
100
AcDbLine
 62
7
  6
CONTINUOUS
 10
15.8517445307
 20
6.3124820083
 11
15.9137524047
 21
6.4198827758
  0
LINE
  5
54C
100
AcDbEntity
  8
0
100
AcDbLine
 62
7
  6
CONTINUOUS
 10
15.9314689401
 20
6.4505687094
 11
15.9934768142
 21
6.5579694769
  0
LINE
  5
54D
100
AcDbEntity
  8
0
100
AcDbLine
 62
7
  6
CONTINUOUS
 10
15.9314689401
 20
6.4096721124
 11
15.8694610661
 21
6.3022713449
  0
LINE
  5
54E
100
AcDbEntity
  8
0
100
AcDbLine
 62
7
  6
CONTINUOUS
 10
15.8517445307
 20
6.2715854113
 11
15.7897366567
 21
6.1641846438
  0
LINE
  5
54F
100
AcDbEntity
  8
0
100
AcDbLine
 62
7
  6
CONTINUOUS
 10
15.7720201212
 20
6.1334987102
 11
15.7100122472
 21
6.0260979427
  0
LINE
  5
550
100
AcDbEntity
  8
0
100
AcDbLine
 62
7
  6
CONTINUOUS
 10
15.6922957118
 20
5.9954120091
 11
15.6302878378
 21
5.8880112416
  0
LINE
  5
551
100
AcDbEntity
  8
0
100
AcDbLine
 62
7
  6
CONTINUOUS
 10
15.6125713023
 20
5.857325308
 11
15.5505634283
 21
5.7499245405
  0
LINE
  5
552
100
AcDbEntity
  8
0
100
AcDbLine
 62
7
  6
CONTINUOUS
 10
15.5328468929
 20
5.7192386069
 11
15.4708390189
 21
5.6118378394
  0
LINE
  5
553
100
AcDbEntity
  8
0
100
AcDbLine
 62
7
  6
CONTINUOUS
 10
15.4531224834
 20
5.5811519058
 11
15.3911146094
 21
5.4737511383
  0
LINE
  5
554
100
AcDbEntity
  8
0
100
AcDbLine
 62
7
  6
CONTINUOUS
 10
15.373398074
 20
5.4430652047
 11
15.3113902
 21
5.3356644372
  0
LINE
  5
555
100
AcDbEntity
  8
0
100
AcDbLine
 62
7
  6
CONTINUOUS
 10
15.2936736646
 20
5.3049785036
 11
15.2316657905
 21
5.1975777361
  0
LINE
  5
556
100
AcDbEntity
  8
0
100
AcDbLine
 62
7
  6
CONTINUOUS
 10
15.2139492551
 20
5.1668918025
 11
15.1519413811
 21
5.059491035
  0
LINE
  5
557
100
AcDbEntity
  8
0
100
AcDbLine
 62
7
  6
CONTINUOUS
 10
15.1342248457
 20
5.0288051014
 11
15.0722169716
 21
4.9214043339
  0
LINE
  5
558
100
AcDbEntity
  8
0
100
AcDbLine
 62
7
  6
CONTINUOUS
 10
15.0545004362
 20
4.8907184003
 11
14.9924925622
 21
4.7833176328
  0
LINE
  5
559
100
AcDbEntity
  8
0
100
AcDbLine
 62
7
  6
CONTINUOUS
 10
14.9747760268
 20
4.7526316992
 11
14.9127681527
 21
4.6452309317
  0
LINE
  5
55A
100
AcDbEntity
  8
0
100
AcDbLine
 62
7
  6
CONTINUOUS
 10
14.8950516173
 20
4.6145449981
 11
14.8330437433
 21
4.5071442306
  0
LINE
  5
55B
100
AcDbEntity
  8
0
100
AcDbLine
 62
7
  6
CONTINUOUS
 10
14.8153272079
 20
4.476458297
 11
14.7533193338
 21
4.3690575295
  0
LINE
  5
55C
100
AcDbEntity
  8
0
100
AcDbLine
 62
7
  6
CONTINUOUS
 10
15.9909713177
 20
6.3753826107
 11
15.9289634437
 21
6.2679818431
  0
LINE
  5
55D
100
AcDbEntity
  8
0
100
AcDbLine
 62
7
  6
CONTINUOUS
 10
15.9112469082
 20
6.2372959096
 11
15.8492390342
 21
6.129895142
  0
LINE
  5
55E
100
AcDbEntity
  8
0
100
AcDbLine
 62
7
  6
CONTINUOUS
 10
15.8315224988
 20
6.0992092085
 11
15.7695146248
 21
5.9918084409
  0
LINE
  5
55F
100
AcDbEntity
  8
0
100
AcDbLine
 62
7
  6
CONTINUOUS
 10
15.7517980893
 20
5.9611225074
 11
15.6897902153
 21
5.8537217398
  0
LINE
  5
560
100
AcDbEntity
  8
0
100
AcDbLine
 62
7
  6
CONTINUOUS
 10
15.6720736799
 20
5.8230358063
 11
15.6100658059
 21
5.7156350387
  0
LINE
  5
561
100
AcDbEntity
  8
0
100
AcDbLine
 62
7
  6
CONTINUOUS
 10
15.5923492704
 20
5.6849491052
 11
15.5303413964
 21
5.5775483376
  0
LINE
  5
562
100
AcDbEntity
  8
0
100
AcDbLine
 62
7
  6
CONTINUOUS
 10
15.512624861
 20
5.5468624041
 11
15.450616987
 21
5.4394616365
  0
LINE
  5
563
100
AcDbEntity
  8
0
100
AcDbLine
 62
7
  6
CONTINUOUS
 10
15.4329004515
 20
5.408775703
 11
15.3708925775
 21
5.3013749354
  0
LINE
  5
564
100
AcDbEntity
  8
0
100
AcDbLine
 62
7
  6
CONTINUOUS
 10
15.3531760421
 20
5.2706890019
 11
15.2911681681
 21
5.1632882343
  0
LINE
  5
565
100
AcDbEntity
  8
0
100
AcDbLine
 62
7
  6
CONTINUOUS
 10
15.2734516326
 20
5.1326023008
 11
15.2114437586
 21
5.0252015332
  0
LINE
  5
566
100
AcDbEntity
  8
0
100
AcDbLine
 62
7
  6
CONTINUOUS
 10
15.1937272232
 20
4.9945155997
 11
15.1317193492
 21
4.8871148321
  0
LINE
  5
567
100
AcDbEntity
  8
0
100
AcDbLine
 62
7
  6
CONTINUOUS
 10
15.1140028138
 20
4.8564288986
 11
15.0519949397
 21
4.749028131
  0
LINE
  5
568
100
AcDbEntity
  8
0
100
AcDbLine
 62
7
  6
CONTINUOUS
 10
15.0342784043
 20
4.7183421975
 11
14.9722705303
 21
4.6109414299
  0
LINE
  5
569
100
AcDbEntity
  8
0
100
AcDbLine
 62
7
  6
CONTINUOUS
 10
14.9545539949
 20
4.5802554964
 11
14.8925461208
 21
4.4728547288
  0
LINE
  5
56A
100
AcDbEntity
  8
0
100
AcDbLine
 62
7
  6
CONTINUOUS
 10
14.8748295854
 20
4.4421687953
 11
14.8128217114
 21
4.3347680278
  0
LINE
  5
56B
100
AcDbEntity
  8
0
100
AcDbLine
 62
7
  6
CONTINUOUS
 10
14.8153272079
 20
4.3333202075
 11
14.8773350819
 21
4.440720975
  0
LINE
  5
56C
100
AcDbEntity
  8
0
100
AcDbLine
 62
7
  6
CONTINUOUS
 10
14.8950516173
 20
4.4714069086
 11
14.9570594913
 21
4.5788076761
  0
LINE
  5
56D
100
AcDbEntity
  8
0
100
AcDbLine
 62
7
  6
CONTINUOUS
 10
14.9747760268
 20
4.6094936097
 11
15.0367839008
 21
4.7168943772
  0
LINE
  5
56E
100
AcDbEntity
  8
0
100
AcDbLine
 62
7
  6
CONTINUOUS
 10
15.0545004362
 20
4.7475803108
 11
15.1165083102
 21
4.8549810783
  0
LINE
  5
56F
100
AcDbEntity
  8
0
100
AcDbLine
 62
7
  6
CONTINUOUS
 10
15.1342248457
 20
4.8856670119
 11
15.1962327197
 21
4.9930677794
  0
LINE
  5
570
100
AcDbEntity
  8
0
100
AcDbLine
 62
7
  6
CONTINUOUS
 10
15.2139492551
 20
5.023753713
 11
15.2759571291
 21
5.1311544805
  0
LINE
  5
571
100
AcDbEntity
  8
0
100
AcDbLine
 62
7
  6
CONTINUOUS
 10
15.2936736646
 20
5.1618404141
 11
15.3556815386
 21
5.2692411816
  0
LINE
  5
572
100
AcDbEntity
  8
0
100
AcDbLine
 62
7
  6
CONTINUOUS
 10
15.373398074
 20
5.2999271152
 11
15.435405948
 21
5.4073278827
  0
LINE
  5
573
100
AcDbEntity
  8
0
100
AcDbLine
 62
7
  6
CONTINUOUS
 10
15.4531224834
 20
5.4380138163
 11
15.5151303575
 21
5.5454145838
  0
LINE
  5
574
100
AcDbEntity
  8
0
100
AcDbLine
 62
7
  6
CONTINUOUS
 10
15.5328468929
 20
5.5761005174
 11
15.5948547669
 21
5.6835012849
  0
LINE
  5
575
100
AcDbEntity
  8
0
100
AcDbLine
 62
7
  6
CONTINUOUS
 10
15.6125713023
 20
5.7141872185
 11
15.6745791764
 21
5.821587986
  0
LINE
  5
576
100
AcDbEntity
  8
0
100
AcDbLine
 62
7
  6
CONTINUOUS
 10
15.6922957118
 20
5.8522739196
 11
15.7543035858
 21
5.9596746871
  0
LINE
  5
577
100
AcDbEntity
  8
0
100
AcDbLine
 62
7
  6
CONTINUOUS
 10
15.7720201212
 20
5.9903606207
 11
15.8340279953
 21
6.0977613882
  0
LINE
  5
578
100
AcDbEntity
  8
0
100
AcDbLine
 62
7
  6
CONTINUOUS
 10
15.8517445307
 20
6.1284473218
 11
15.9137524047
 21
6.2358480893
  0
LINE
  5
579
100
AcDbEntity
  8
0
100
AcDbLine
 62
7
  6
CONTINUOUS
 10
15.9314689401
 20
6.2665340229
 11
15.9934768142
 21
6.3739347904
  0
LINE
  5
57A
100
AcDbEntity
  8
0
100
AcDbLine
 62
7
  6
CONTINUOUS
 10
15.9314689401
 20
6.2256374259
 11
15.8694610661
 21
6.1182366584
  0
LINE
  5
57B
100
AcDbEntity
  8
0
100
AcDbLine
 62
7
  6
CONTINUOUS
 10
15.8517445307
 20
6.0875507248
 11
15.7897366567
 21
5.9801499573
  0
LINE
  5
57C
100
AcDbEntity
  8
0
100
AcDbLine
 62
7
  6
CONTINUOUS
 10
15.7720201212
 20
5.9494640237
 11
15.7100122472
 21
5.8420632562
  0
LINE
  5
57D
100
AcDbEntity
  8
0
100
AcDbLine
 62
7
  6
CONTINUOUS
 10
15.6922957118
 20
5.8113773226
 11
15.6302878378
 21
5.7039765551
  0
LINE
  5
57E
100
AcDbEntity
  8
0
100
AcDbLine
 62
7
  6
CONTINUOUS
 10
15.6125713023
 20
5.6732906215
 11
15.5505634283
 21
5.565889854
  0
LINE
  5
57F
100
AcDbEntity
  8
0
100
AcDbLine
 62
7
  6
CONTINUOUS
 10
15.5328468929
 20
5.5352039204
 11
15.4708390189
 21
5.4278031529
  0
LINE
  5
580
100
AcDbEntity
  8
0
100
AcDbLine
 62
7
  6
CONTINUOUS
 10
15.4531224834
 20
5.3971172193
 11
15.3911146094
 21
5.2897164518
  0
LINE
  5
581
100
AcDbEntity
  8
0
100
AcDbLine
 62
7
  6
CONTINUOUS
 10
15.373398074
 20
5.2590305182
 11
15.3113902
 21
5.1516297507
  0
LINE
  5
582
100
AcDbEntity
  8
0
100
AcDbLine
 62
7
  6
CONTINUOUS
 10
15.2936736646
 20
5.1209438171
 11
15.2316657905
 21
5.0135430496
  0
LINE
  5
583
100
AcDbEntity
  8
0
100
AcDbLine
 62
7
  6
CONTINUOUS
 10
15.2139492551
 20
4.982857116
 11
15.1519413811
 21
4.8754563485
  0
LINE
  5
584
100
AcDbEntity
  8
0
100
AcDbLine
 62
7
  6
CONTINUOUS
 10
15.1342248457
 20
4.8447704149
 11
15.0722169716
 21
4.7373696474
  0
LINE
  5
585
100
AcDbEntity
  8
0
100
AcDbLine
 62
7
  6
CONTINUOUS
 10
15.0545004362
 20
4.7066837138
 11
14.9924925622
 21
4.5992829463
  0
LINE
  5
586
100
AcDbEntity
  8
0
100
AcDbLine
 62
7
  6
CONTINUOUS
 10
14.9747760268
 20
4.5685970127
 11
14.9127681527
 21
4.4611962452
  0
LINE
  5
587
100
AcDbEntity
  8
0
100
AcDbLine
 62
7
  6
CONTINUOUS
 10
14.3660420693
 20
4.6995433171
 11
14.3672948175
 21
4.7002672272
  0
LINE
  5
588
100
AcDbEntity
  8
0
100
AcDbLine
 62
7
  6
CONTINUOUS
 10
14.3513885561
 20
4.6671413271
 11
14.3526413043
 21
4.6678652373
  0
LINE
  5
589
100
AcDbEntity
  8
0
100
AcDbLine
 62
7
  6
CONTINUOUS
 10
15.807955287
 20
6.8046142672
 11
15.77037284
 21
6.9998411371
  0
LINE
  5
58A
100
AcDbEntity
  8
0
100
AcDbLine
 62
7
  6
CONTINUOUS
 10
16.0459774516
 20
7.531433126
 11
16.0459774516
 21
7.5284467051
  0
LINE
  5
58B
100
AcDbEntity
  8
0
100
AcDbLine
 62
7
  6
CONTINUOUS
 10
16.096087381
 20
4.9761159459
 11
16.096087381
 21
7.5209229197
  0
LINE
  5
58C
100
AcDbEntity
  8
0
100
AcDbLine
 62
7
  6
CONTINUOUS
 10
15.9909713177
 20
6.1913479242
 11
15.9289634437
 21
6.0839471566
  0
LINE
  5
58D
100
AcDbEntity
  8
0
100
AcDbLine
 62
7
  6
CONTINUOUS
 10
15.9112469082
 20
6.0532612231
 11
15.8492390342
 21
5.9458604555
  0
LINE
  5
58E
100
AcDbEntity
  8
0
100
AcDbLine
 62
7
  6
CONTINUOUS
 10
15.8315224988
 20
5.915174522
 11
15.7695146248
 21
5.8077737544
  0
LINE
  5
58F
100
AcDbEntity
  8
0
100
AcDbLine
 62
7
  6
CONTINUOUS
 10
15.7517980893
 20
5.7770878209
 11
15.6897902153
 21
5.6696870533
  0
LINE
  5
590
100
AcDbEntity
  8
0
100
AcDbLine
 62
7
  6
CONTINUOUS
 10
15.6720736799
 20
5.6390011198
 11
15.6100658059
 21
5.5316003522
  0
LINE
  5
591
100
AcDbEntity
  8
0
100
AcDbLine
 62
7
  6
CONTINUOUS
 10
15.5923492704
 20
5.5009144187
 11
15.5303413964
 21
5.3935136511
  0
LINE
  5
592
100
AcDbEntity
  8
0
100
AcDbLine
 62
7
  6
CONTINUOUS
 10
15.512624861
 20
5.3628277176
 11
15.450616987
 21
5.25542695
  0
LINE
  5
593
100
AcDbEntity
  8
0
100
AcDbLine
 62
7
  6
CONTINUOUS
 10
15.4329004515
 20
5.2247410165
 11
15.3708925775
 21
5.1173402489
  0
LINE
  5
594
100
AcDbEntity
  8
0
100
AcDbLine
 62
7
  6
CONTINUOUS
 10
15.3531760421
 20
5.0866543154
 11
15.2911681681
 21
4.9792535478
  0
LINE
  5
595
100
AcDbEntity
  8
0
100
AcDbLine
 62
7
  6
CONTINUOUS
 10
15.2734516326
 20
4.9485676143
 11
15.2114437586
 21
4.8411668467
  0
LINE
  5
596
100
AcDbEntity
  8
0
100
AcDbLine
 62
7
  6
CONTINUOUS
 10
15.1937272232
 20
4.8104809132
 11
15.1317193492
 21
4.7030801456
  0
LINE
  5
597
100
AcDbEntity
  8
0
100
AcDbLine
 62
7
  6
CONTINUOUS
 10
15.1140028138
 20
4.6723942121
 11
15.0519949397
 21
4.5649934445
  0
LINE
  5
598
100
AcDbEntity
  8
0
100
AcDbLine
 62
7
  6
CONTINUOUS
 10
15.0342784043
 20
4.534307511
 11
14.9722705303
 21
4.4269067435
  0
LINE
  5
599
100
AcDbEntity
  8
0
100
AcDbLine
 62
7
  6
CONTINUOUS
 10
14.9747760268
 20
4.4254589232
 11
15.0367839008
 21
4.5328596907
  0
LINE
  5
59A
100
AcDbEntity
  8
0
100
AcDbLine
 62
7
  6
CONTINUOUS
 10
15.0545004362
 20
4.5635456243
 11
15.1165083102
 21
4.6709463918
  0
LINE
  5
59B
100
AcDbEntity
  8
0
100
AcDbLine
 62
7
  6
CONTINUOUS
 10
15.1342248457
 20
4.7016323254
 11
15.1962327197
 21
4.8090330929
  0
LINE
  5
59C
100
AcDbEntity
  8
0
100
AcDbLine
 62
7
  6
CONTINUOUS
 10
15.2139492551
 20
4.8397190265
 11
15.2759571291
 21
4.947119794
  0
LINE
  5
59D
100
AcDbEntity
  8
0
100
AcDbLine
 62
7
  6
CONTINUOUS
 10
15.2936736646
 20
4.9778057276
 11
15.3556815386
 21
5.0852064951
  0
LINE
  5
59E
100
AcDbEntity
  8
0
100
AcDbLine
 62
7
  6
CONTINUOUS
 10
15.373398074
 20
5.1158924287
 11
15.435405948
 21
5.2232931962
  0
LINE
  5
59F
100
AcDbEntity
  8
0
100
AcDbLine
 62
7
  6
CONTINUOUS
 10
15.4531224834
 20
5.2539791298
 11
15.5151303575
 21
5.3613798973
  0
LINE
  5
5A0
100
AcDbEntity
  8
0
100
AcDbLine
 62
7
  6
CONTINUOUS
 10
15.5328468929
 20
5.3920658309
 11
15.5948547669
 21
5.4994665984
  0
LINE
  5
5A1
100
AcDbEntity
  8
0
100
AcDbLine
 62
7
  6
CONTINUOUS
 10
15.6125713023
 20
5.530152532
 11
15.6745791764
 21
5.6375532995
  0
LINE
  5
5A2
100
AcDbEntity
  8
0
100
AcDbLine
 62
7
  6
CONTINUOUS
 10
15.6922957118
 20
5.6682392331
 11
15.7543035858
 21
5.7756400006
  0
LINE
  5
5A3
100
AcDbEntity
  8
0
100
AcDbLine
 62
7
  6
CONTINUOUS
 10
15.7720201212
 20
5.8063259342
 11
15.8340279953
 21
5.9137267017
  0
LINE
  5
5A4
100
AcDbEntity
  8
0
100
AcDbLine
 62
7
  6
CONTINUOUS
 10
15.8517445307
 20
5.9444126353
 11
15.9137524047
 21
6.0518134028
  0
LINE
  5
5A5
100
AcDbEntity
  8
0
100
AcDbLine
 62
7
  6
CONTINUOUS
 10
15.9314689401
 20
6.0824993364
 11
15.9934768142
 21
6.1899001039
  0
LINE
  5
5A6
100
AcDbEntity
  8
0
100
AcDbLine
 62
7
  6
CONTINUOUS
 10
15.9314689401
 20
6.0416027394
 11
15.8694610661
 21
5.9342019719
  0
LINE
  5
5A7
100
AcDbEntity
  8
0
100
AcDbLine
 62
7
  6
CONTINUOUS
 10
15.8517445307
 20
5.9035160383
 11
15.7897366567
 21
5.7961152708
  0
LINE
  5
5A8
100
AcDbEntity
  8
0
100
AcDbLine
 62
7
  6
CONTINUOUS
 10
15.7720201212
 20
5.7654293372
 11
15.7100122472
 21
5.6580285697
  0
LINE
  5
5A9
100
AcDbEntity
  8
0
100
AcDbLine
 62
7
  6
CONTINUOUS
 10
15.6922957118
 20
5.6273426361
 11
15.6302878378
 21
5.5199418686
  0
LINE
  5
5AA
100
AcDbEntity
  8
0
100
AcDbLine
 62
7
  6
CONTINUOUS
 10
15.6125713023
 20
5.489255935
 11
15.5505634283
 21
5.3818551675
  0
LINE
  5
5AB
100
AcDbEntity
  8
0
100
AcDbLine
 62
7
  6
CONTINUOUS
 10
15.5328468929
 20
5.3511692339
 11
15.4708390189
 21
5.2437684664
  0
LINE
  5
5AC
100
AcDbEntity
  8
0
100
AcDbLine
 62
7
  6
CONTINUOUS
 10
15.4531224834
 20
5.2130825328
 11
15.3911146094
 21
5.1056817653
  0
LINE
  5
5AD
100
AcDbEntity
  8
0
100
AcDbLine
 62
7
  6
CONTINUOUS
 10
15.373398074
 20
5.0749958317
 11
15.3113902
 21
4.9675950642
  0
LINE
  5
5AE
100
AcDbEntity
  8
0
100
AcDbLine
 62
7
  6
CONTINUOUS
 10
15.2936736646
 20
4.9369091306
 11
15.2316657905
 21
4.8295083631
  0
LINE
  5
5AF
100
AcDbEntity
  8
0
100
AcDbLine
 62
7
  6
CONTINUOUS
 10
15.2139492551
 20
4.7988224295
 11
15.1519413811
 21
4.691421662
  0
LINE
  5
5B0
100
AcDbEntity
  8
0
100
AcDbLine
 62
7
  6
CONTINUOUS
 10
15.1342248457
 20
4.6607357284
 11
15.0722169716
 21
4.5533349609
  0
LINE
  5
5B1
100
AcDbEntity
  8
0
100
AcDbLine
 62
7
  6
CONTINUOUS
 10
15.9909713177
 20
6.0073132377
 11
15.9289634437
 21
5.8999124701
  0
LINE
  5
5B2
100
AcDbEntity
  8
0
100
AcDbLine
 62
7
  6
CONTINUOUS
 10
15.9112469082
 20
5.8692265366
 11
15.8492390342
 21
5.761825769
  0
LINE
  5
5B3
100
AcDbEntity
  8
0
100
AcDbLine
 62
7
  6
CONTINUOUS
 10
15.8315224988
 20
5.7311398355
 11
15.7695146248
 21
5.6237390679
  0
LINE
  5
5B4
100
AcDbEntity
  8
0
100
AcDbLine
 62
7
  6
CONTINUOUS
 10
15.7517980893
 20
5.5930531344
 11
15.6897902153
 21
5.4856523668
  0
LINE
  5
5B5
100
AcDbEntity
  8
0
100
AcDbLine
 62
7
  6
CONTINUOUS
 10
15.6720736799
 20
5.4549664333
 11
15.6100658059
 21
5.3475656657
  0
LINE
  5
5B6
100
AcDbEntity
  8
0
100
AcDbLine
 62
7
  6
CONTINUOUS
 10
15.5923492704
 20
5.3168797322
 11
15.5303413964
 21
5.2094789646
  0
LINE
  5
5B7
100
AcDbEntity
  8
0
100
AcDbLine
 62
7
  6
CONTINUOUS
 10
15.512624861
 20
5.1787930311
 11
15.450616987
 21
5.0713922635
  0
LINE
  5
5B8
100
AcDbEntity
  8
0
100
AcDbLine
 62
7
  6
CONTINUOUS
 10
15.4329004515
 20
5.04070633
 11
15.3708925775
 21
4.9333055624
  0
LINE
  5
5B9
100
AcDbEntity
  8
0
100
AcDbLine
 62
7
  6
CONTINUOUS
 10
15.3531760421
 20
4.9026196289
 11
15.2911681681
 21
4.7952188613
  0
LINE
  5
5BA
100
AcDbEntity
  8
0
100
AcDbLine
 62
7
  6
CONTINUOUS
 10
15.2734516326
 20
4.7645329278
 11
15.2114437586
 21
4.6571321602
  0
LINE
  5
5BB
100
AcDbEntity
  8
0
100
AcDbLine
 62
7
  6
CONTINUOUS
 10
15.1937272232
 20
4.6264462267
 11
15.1317193492
 21
4.5190454591
  0
LINE
  5
5BC
100
AcDbEntity
  8
0
100
AcDbLine
 62
7
  6
CONTINUOUS
 10
15.1342248457
 20
4.5175976389
 11
15.1962327197
 21
4.6249984064
  0
LINE
  5
5BD
100
AcDbEntity
  8
0
100
AcDbLine
 62
7
  6
CONTINUOUS
 10
15.2139492551
 20
4.65568434
 11
15.2759571291
 21
4.7630851075
  0
LINE
  5
5BE
100
AcDbEntity
  8
0
100
AcDbLine
 62
7
  6
CONTINUOUS
 10
15.2936736646
 20
4.7937710411
 11
15.3556815386
 21
4.9011718086
  0
LINE
  5
5BF
100
AcDbEntity
  8
0
100
AcDbLine
 62
7
  6
CONTINUOUS
 10
15.373398074
 20
4.9318577422
 11
15.435405948
 21
5.0392585097
  0
LINE
  5
5C0
100
AcDbEntity
  8
0
100
AcDbLine
 62
7
  6
CONTINUOUS
 10
15.4531224834
 20
5.0699444433
 11
15.5151303575
 21
5.1773452108
  0
LINE
  5
5C1
100
AcDbEntity
  8
0
100
AcDbLine
 62
7
  6
CONTINUOUS
 10
15.5328468929
 20
5.2080311444
 11
15.5948547669
 21
5.3154319119
  0
LINE
  5
5C2
100
AcDbEntity
  8
0
100
AcDbLine
 62
7
  6
CONTINUOUS
 10
15.6125713023
 20
5.3461178455
 11
15.6745791764
 21
5.453518613
  0
LINE
  5
5C3
100
AcDbEntity
  8
0
100
AcDbLine
 62
7
  6
CONTINUOUS
 10
15.6922957118
 20
5.4842045466
 11
15.7543035858
 21
5.5916053141
  0
LINE
  5
5C4
100
AcDbEntity
  8
0
100
AcDbLine
 62
7
  6
CONTINUOUS
 10
15.7720201212
 20
5.6222912477
 11
15.8340279953
 21
5.7296920152
  0
LINE
  5
5C5
100
AcDbEntity
  8
0
100
AcDbLine
 62
7
  6
CONTINUOUS
 10
15.8517445307
 20
5.7603779488
 11
15.9137524047
 21
5.8677787163
  0
LINE
  5
5C6
100
AcDbEntity
  8
0
100
AcDbLine
 62
7
  6
CONTINUOUS
 10
15.9314689401
 20
5.8984646499
 11
15.9934768142
 21
6.0058654174
  0
LINE
  5
5C7
100
AcDbEntity
  8
0
100
AcDbLine
 62
7
  6
CONTINUOUS
 10
15.9314689401
 20
5.8575680529
 11
15.8694610661
 21
5.7501672854
  0
LINE
  5
5C8
100
AcDbEntity
  8
0
100
AcDbLine
 62
7
  6
CONTINUOUS
 10
15.8517445307
 20
5.7194813518
 11
15.7897366567
 21
5.6120805843
  0
LINE
  5
5C9
100
AcDbEntity
  8
0
100
AcDbLine
 62
7
  6
CONTINUOUS
 10
15.7720201212
 20
5.5813946507
 11
15.7100122472
 21
5.4739938832
  0
LINE
  5
5CA
100
AcDbEntity
  8
0
100
AcDbLine
 62
7
  6
CONTINUOUS
 10
15.6922957118
 20
5.4433079496
 11
15.6302878378
 21
5.3359071821
  0
LINE
  5
5CB
100
AcDbEntity
  8
0
100
AcDbLine
 62
7
  6
CONTINUOUS
 10
15.6125713023
 20
5.3052212485
 11
15.5505634283
 21
5.197820481
  0
LINE
  5
5CC
100
AcDbEntity
  8
0
100
AcDbLine
 62
7
  6
CONTINUOUS
 10
15.5328468929
 20
5.1671345474
 11
15.4708390189
 21
5.0597337799
  0
LINE
  5
5CD
100
AcDbEntity
  8
0
100
AcDbLine
 62
7
  6
CONTINUOUS
 10
15.4531224834
 20
5.0290478463
 11
15.3911146094
 21
4.9216470788
  0
LINE
  5
5CE
100
AcDbEntity
  8
0
100
AcDbLine
 62
7
  6
CONTINUOUS
 10
15.373398074
 20
4.8909611452
 11
15.3113902
 21
4.7835603777
  0
LINE
  5
5CF
100
AcDbEntity
  8
0
100
AcDbLine
 62
7
  6
CONTINUOUS
 10
15.2936736646
 20
4.7528744441
 11
15.2316657905
 21
4.6454736766
  0
LINE
  5
5D0
100
AcDbEntity
  8
0
100
AcDbLine
 62
7
  6
CONTINUOUS
 10
15.9909713177
 20
5.8232785512
 11
15.9289634437
 21
5.7158777836
  0
LINE
  5
5D1
100
AcDbEntity
  8
0
100
AcDbLine
 62
7
  6
CONTINUOUS
 10
15.9112469082
 20
5.6851918501
 11
15.8492390342
 21
5.5777910825
  0
LINE
  5
5D2
100
AcDbEntity
  8
0
100
AcDbLine
 62
7
  6
CONTINUOUS
 10
15.8315224988
 20
5.547105149
 11
15.7695146248
 21
5.4397043814
  0
LINE
  5
5D3
100
AcDbEntity
  8
0
100
AcDbLine
 62
7
  6
CONTINUOUS
 10
15.7517980893
 20
5.4090184479
 11
15.6897902153
 21
5.3016176803
  0
LINE
  5
5D4
100
AcDbEntity
  8
0
100
AcDbLine
 62
7
  6
CONTINUOUS
 10
15.6720736799
 20
5.2709317468
 11
15.6100658059
 21
5.1635309792
  0
LINE
  5
5D5
100
AcDbEntity
  8
0
100
AcDbLine
 62
7
  6
CONTINUOUS
 10
15.5923492704
 20
5.1328450457
 11
15.5303413964
 21
5.0254442781
  0
LINE
  5
5D6
100
AcDbEntity
  8
0
100
AcDbLine
 62
7
  6
CONTINUOUS
 10
15.512624861
 20
4.9947583446
 11
15.450616987
 21
4.887357577
  0
LINE
  5
5D7
100
AcDbEntity
  8
0
100
AcDbLine
 62
7
  6
CONTINUOUS
 10
15.4329004515
 20
4.8566716435
 11
15.3708925775
 21
4.7492708759
  0
LINE
  5
5D8
100
AcDbEntity
  8
0
100
AcDbLine
 62
7
  6
CONTINUOUS
 10
15.3531760421
 20
4.7185849424
 11
15.2911681681
 21
4.6111841748
  0
LINE
  5
5D9
100
AcDbEntity
  8
0
100
AcDbLine
 62
7
  6
CONTINUOUS
 10
15.2936736646
 20
4.6097363546
 11
15.3556815386
 21
4.7171371221
  0
LINE
  5
5DA
100
AcDbEntity
  8
0
100
AcDbLine
 62
7
  6
CONTINUOUS
 10
15.373398074
 20
4.7478230557
 11
15.435405948
 21
4.8552238232
  0
LINE
  5
5DB
100
AcDbEntity
  8
0
100
AcDbLine
 62
7
  6
CONTINUOUS
 10
15.4531224834
 20
4.8859097568
 11
15.5151303575
 21
4.9933105243
  0
LINE
  5
5DC
100
AcDbEntity
  8
0
100
AcDbLine
 62
7
  6
CONTINUOUS
 10
15.5328468929
 20
5.0239964579
 11
15.5948547669
 21
5.1313972254
  0
LINE
  5
5DD
100
AcDbEntity
  8
0
100
AcDbLine
 62
7
  6
CONTINUOUS
 10
15.6125713023
 20
5.162083159
 11
15.6745791764
 21
5.2694839265
  0
LINE
  5
5DE
100
AcDbEntity
  8
0
100
AcDbLine
 62
7
  6
CONTINUOUS
 10
15.6922957118
 20
5.3001698601
 11
15.7543035858
 21
5.4075706276
  0
LINE
  5
5DF
100
AcDbEntity
  8
0
100
AcDbLine
 62
7
  6
CONTINUOUS
 10
15.7720201212
 20
5.4382565612
 11
15.8340279953
 21
5.5456573287
  0
LINE
  5
5E0
100
AcDbEntity
  8
0
100
AcDbLine
 62
7
  6
CONTINUOUS
 10
15.8517445307
 20
5.5763432623
 11
15.9137524047
 21
5.6837440298
  0
LINE
  5
5E1
100
AcDbEntity
  8
0
100
AcDbLine
 62
7
  6
CONTINUOUS
 10
15.9314689401
 20
5.7144299634
 11
15.9934768142
 21
5.8218307309
  0
LINE
  5
5E2
100
AcDbEntity
  8
0
100
AcDbLine
 62
7
  6
CONTINUOUS
 10
15.9314689401
 20
5.6735333664
 11
15.8694610661
 21
5.5661325989
  0
LINE
  5
5E3
100
AcDbEntity
  8
0
100
AcDbLine
 62
7
  6
CONTINUOUS
 10
15.8517445307
 20
5.5354466653
 11
15.7897366567
 21
5.4280458978
  0
LINE
  5
5E4
100
AcDbEntity
  8
0
100
AcDbLine
 62
7
  6
CONTINUOUS
 10
15.7720201212
 20
5.3973599642
 11
15.7100122472
 21
5.2899591967
  0
LINE
  5
5E5
100
AcDbEntity
  8
0
100
AcDbLine
 62
7
  6
CONTINUOUS
 10
15.6922957118
 20
5.2592732631
 11
15.6302878378
 21
5.1518724956
  0
LINE
  5
5E6
100
AcDbEntity
  8
0
100
AcDbLine
 62
7
  6
CONTINUOUS
 10
15.6125713023
 20
5.121186562
 11
15.5505634283
 21
5.0137857945
  0
LINE
  5
5E7
100
AcDbEntity
  8
0
100
AcDbLine
 62
7
  6
CONTINUOUS
 10
15.5328468929
 20
4.9830998609
 11
15.4708390189
 21
4.8756990934
  0
LINE
  5
5E8
100
AcDbEntity
  8
0
100
AcDbLine
 62
7
  6
CONTINUOUS
 10
15.4531224834
 20
4.8450131598
 11
15.3911146094
 21
4.7376123923
  0
LINE
  5
5E9
100
AcDbEntity
  8
0
100
AcDbLine
 62
7
  6
CONTINUOUS
 10
15.9909713177
 20
5.6392438647
 11
15.9289634437
 21
5.5318430971
  0
LINE
  5
5EA
100
AcDbEntity
  8
0
100
AcDbLine
 62
7
  6
CONTINUOUS
 10
15.9112469082
 20
5.5011571636
 11
15.8492390342
 21
5.393756396
  0
LINE
  5
5EB
100
AcDbEntity
  8
0
100
AcDbLine
 62
7
  6
CONTINUOUS
 10
15.8315224988
 20
5.3630704625
 11
15.7695146248
 21
5.2556696949
  0
LINE
  5
5EC
100
AcDbEntity
  8
0
100
AcDbLine
 62
7
  6
CONTINUOUS
 10
15.7517980893
 20
5.2249837614
 11
15.6897902153
 21
5.1175829938
  0
LINE
  5
5ED
100
AcDbEntity
  8
0
100
AcDbLine
 62
7
  6
CONTINUOUS
 10
15.6720736799
 20
5.0868970603
 11
15.6100658059
 21
4.9794962927
  0
LINE
  5
5EE
100
AcDbEntity
  8
0
100
AcDbLine
 62
7
  6
CONTINUOUS
 10
15.5923492704
 20
4.9488103592
 11
15.5303413964
 21
4.8414095916
  0
LINE
  5
5EF
100
AcDbEntity
  8
0
100
AcDbLine
 62
7
  6
CONTINUOUS
 10
15.512624861
 20
4.8107236581
 11
15.450616987
 21
4.7033228905
  0
LINE
  5
5F0
100
AcDbEntity
  8
0
100
AcDbLine
 62
7
  6
CONTINUOUS
 10
15.4531224834
 20
4.7018750703
 11
15.5151303575
 21
4.8092758378
  0
LINE
  5
5F1
100
AcDbEntity
  8
0
100
AcDbLine
 62
7
  6
CONTINUOUS
 10
15.5328468929
 20
4.8399617714
 11
15.5948547669
 21
4.9473625389
  0
LINE
  5
5F2
100
AcDbEntity
  8
0
100
AcDbLine
 62
7
  6
CONTINUOUS
 10
15.6125713023
 20
4.9780484725
 11
15.6745791764
 21
5.08544924
  0
LINE
  5
5F3
100
AcDbEntity
  8
0
100
AcDbLine
 62
7
  6
CONTINUOUS
 10
15.6922957118
 20
5.1161351736
 11
15.7543035858
 21
5.2235359411
  0
LINE
  5
5F4
100
AcDbEntity
  8
0
100
AcDbLine
 62
7
  6
CONTINUOUS
 10
15.7720201212
 20
5.2542218747
 11
15.8340279953
 21
5.3616226422
  0
LINE
  5
5F5
100
AcDbEntity
  8
0
100
AcDbLine
 62
7
  6
CONTINUOUS
 10
15.8517445307
 20
5.3923085758
 11
15.9137524047
 21
5.4997093433
  0
LINE
  5
5F6
100
AcDbEntity
  8
0
100
AcDbLine
 62
7
  6
CONTINUOUS
 10
15.9314689401
 20
5.5303952769
 11
15.9934768142
 21
5.6377960444
  0
LINE
  5
5F7
100
AcDbEntity
  8
0
100
AcDbLine
 62
7
  6
CONTINUOUS
 10
15.9314689401
 20
5.4894986799
 11
15.8694610661
 21
5.3820979124
  0
LINE
  5
5F8
100
AcDbEntity
  8
0
100
AcDbLine
 62
7
  6
CONTINUOUS
 10
15.8517445307
 20
5.3514119788
 11
15.7897366567
 21
5.2440112113
  0
LINE
  5
5F9
100
AcDbEntity
  8
0
100
AcDbLine
 62
7
  6
CONTINUOUS
 10
15.7720201212
 20
5.2133252777
 11
15.7100122472
 21
5.1059245102
  0
LINE
  5
5FA
100
AcDbEntity
  8
0
100
AcDbLine
 62
7
  6
CONTINUOUS
 10
15.6922957118
 20
5.0752385766
 11
15.6302878378
 21
4.9678378091
  0
LINE
  5
5FB
100
AcDbEntity
  8
0
100
AcDbLine
 62
7
  6
CONTINUOUS
 10
15.6125713023
 20
4.9371518755
 11
15.5505634283
 21
4.829751108
  0
LINE
  5
5FC
100
AcDbEntity
  8
0
100
AcDbLine
 62
7
  6
CONTINUOUS
 10
15.9909713177
 20
5.4552091782
 11
15.9289634437
 21
5.3478084106
  0
LINE
  5
5FD
100
AcDbEntity
  8
0
100
AcDbLine
 62
7
  6
CONTINUOUS
 10
15.9112469082
 20
5.3171224771
 11
15.8492390342
 21
5.2097217095
  0
LINE
  5
5FE
100
AcDbEntity
  8
0
100
AcDbLine
 62
7
  6
CONTINUOUS
 10
15.8315224988
 20
5.179035776
 11
15.7695146248
 21
5.0716350084
  0
LINE
  5
5FF
100
AcDbEntity
  8
0
100
AcDbLine
 62
7
  6
CONTINUOUS
 10
15.7517980893
 20
5.0409490749
 11
15.6897902153
 21
4.9335483073
  0
LINE
  5
600
100
AcDbEntity
  8
0
100
AcDbLine
 62
7
  6
CONTINUOUS
 10
15.6720736799
 20
4.9028623738
 11
15.6100658059
 21
4.7954616062
  0
LINE
  5
601
100
AcDbEntity
  8
0
100
AcDbLine
 62
7
  6
CONTINUOUS
 10
15.6125713023
 20
4.794013786
 11
15.6745791764
 21
4.9014145535
  0
LINE
  5
602
100
AcDbEntity
  8
0
100
AcDbLine
 62
7
  6
CONTINUOUS
 10
15.6922957118
 20
4.9321004871
 11
15.7543035858
 21
5.0395012546
  0
LINE
  5
603
100
AcDbEntity
  8
0
100
AcDbLine
 62
7
  6
CONTINUOUS
 10
15.7720201212
 20
5.0701871882
 11
15.8340279953
 21
5.1775879557
  0
LINE
  5
604
100
AcDbEntity
  8
0
100
AcDbLine
 62
7
  6
CONTINUOUS
 10
15.8517445307
 20
5.2082738893
 11
15.9137524047
 21
5.3156746568
  0
LINE
  5
605
100
AcDbEntity
  8
0
100
AcDbLine
 62
7
  6
CONTINUOUS
 10
15.9314689401
 20
5.3463605904
 11
15.9934768142
 21
5.4537613579
  0
LINE
  5
606
100
AcDbEntity
  8
0
100
AcDbLine
 62
7
  6
CONTINUOUS
 10
15.9314689401
 20
5.3054639934
 11
15.8694610661
 21
5.1980632259
  0
LINE
  5
607
100
AcDbEntity
  8
0
100
AcDbLine
 62
7
  6
CONTINUOUS
 10
15.8517445307
 20
5.1673772923
 11
15.7897366567
 21
5.0599765248
  0
LINE
  5
608
100
AcDbEntity
  8
0
100
AcDbLine
 62
7
  6
CONTINUOUS
 10
15.7720201212
 20
5.0292905912
 11
15.7100122472
 21
4.9218898237
  0
LINE
  5
609
100
AcDbEntity
  8
0
100
AcDbLine
 62
7
  6
CONTINUOUS
 10
15.9909713177
 20
5.2711744917
 11
15.9289634437
 21
5.1637737241
  0
LINE
  5
60A
100
AcDbEntity
  8
0
100
AcDbLine
 62
7
  6
CONTINUOUS
 10
15.9112469082
 20
5.1330877906
 11
15.8492390342
 21
5.025687023
  0
LINE
  5
60B
100
AcDbEntity
  8
0
100
AcDbLine
 62
7
  6
CONTINUOUS
 10
15.8315224988
 20
4.9950010895
 11
15.7695146248
 21
4.8876003219
  0
LINE
  5
60C
100
AcDbEntity
  8
0
100
AcDbLine
 62
7
  6
CONTINUOUS
 10
15.7720201212
 20
4.8861525017
 11
15.8340279953
 21
4.9935532692
  0
LINE
  5
60D
100
AcDbEntity
  8
0
100
AcDbLine
 62
7
  6
CONTINUOUS
 10
15.8517445307
 20
5.0242392028
 11
15.9137524047
 21
5.1316399703
  0
LINE
  5
60E
100
AcDbEntity
  8
0
100
AcDbLine
 62
7
  6
CONTINUOUS
 10
15.9314689401
 20
5.1623259039
 11
15.9934768142
 21
5.2697266714
  0
LINE
  5
60F
100
AcDbEntity
  8
0
100
AcDbLine
 62
7
  6
CONTINUOUS
 10
15.9314689401
 20
5.1214293069
 11
15.8694610661
 21
5.0140285394
  0
LINE
  5
610
100
AcDbEntity
  8
0
100
AcDbLine
 62
7
  6
CONTINUOUS
 10
15.9909713177
 20
5.0871398052
 11
15.9289634437
 21
4.9797390376
  0
LINE
  5
611
100
AcDbEntity
  8
0
100
AcDbLine
 62
7
  6
CONTINUOUS
 10
15.9314689401
 20
4.9782912174
 11
15.9934768142
 21
5.0856919849
  0
LINE
  5
612
100
AcDbEntity
  8
0
100
AcDbLine
 62
7
  6
CONTINUOUS
 10
16.096087381
 20
4.9761159459
 11
14.4925696409
 21
4.049510994
  0
LINE
  5
613
100
AcDbEntity
  8
0
100
AcDbLine
 62
7
  6
CONTINUOUS
 10
15.3945483697
 20
4.4549197323
 11
15.7453178753
 21
4.6576145655
  0
LINE
  5
614
100
AcDbEntity
  8
0
100
AcDbLine
 62
7
  6
CONTINUOUS
 10
15.2191636169
 20
4.1657561935
 11
15.2943285109
 21
4.2091908006
  0
LINE
  5
615
100
AcDbEntity
  8
0
100
AcDbLine
 62
7
  6
CONTINUOUS
 10
15.7453178753
 20
4.3539728243
 11
15.3945483697
 21
4.1512779911
  0
LINE
  5
616
100
AcDbEntity
  8
0
100
AcDbLine
 62
7
  6
CONTINUOUS
 10
1.4678568233
 20
0.9365227705
 11
0.9954158784
 21
0.9365227705
  0
LINE
  5
617
100
AcDbEntity
  8
0
100
AcDbLine
 62
7
  6
CONTINUOUS
 10
1.5623450122
 20
0.9365227705
 11
2.349746587
 21
0.9365227705
  0
LINE
  5
618
100
AcDbEntity
  8
0
100
AcDbLine
 62
7
  6
CONTINUOUS
 10
3.0347859571
 20
0.9365227705
 11
3.507226902
 21
0.9365227705
  0
LINE
  5
619
100
AcDbEntity
  8
0
100
AcDbLine
 62
7
  6
CONTINUOUS
 10
1.6607702091
 20
1.0507032791
 11
2.2513213902
 21
1.0507032791
  0
LINE
  5
61A
100
AcDbEntity
  8
0
100
AcDbLine
 62
7
  6
CONTINUOUS
 10
1.6607702091
 20
1.0546330067
 11
2.2513213902
 21
1.0546330067
  0
LINE
  5
61B
100
AcDbEntity
  8
0
100
AcDbLine
 62
7
  6
CONTINUOUS
 10
2.349746587
 20
1.1333731642
 11
1.5623450122
 21
1.1333731642
  0
LINE
  5
61C
100
AcDbEntity
  8
0
100
AcDbLine
 62
7
  6
CONTINUOUS
 10
1.5623450122
 20
1.3499085972
 11
2.349746587
 21
1.3499085972
  0
LINE
  5
61D
100
AcDbEntity
  8
0
100
AcDbLine
 62
7
  6
CONTINUOUS
 10
3.5111639099
 20
1.3695936366
 11
0.9914788705
 21
1.3695936366
  0
LINE
  5
61E
100
AcDbEntity
  8
0
100
AcDbLine
 62
7
  6
CONTINUOUS
 10
0.9914788705
 20
5.1491143592
 11
0.9914788705
 21
1.3695936366
  0
LINE
  5
61F
100
AcDbEntity
  8
0
100
AcDbLine
 62
7
  6
CONTINUOUS
 10
0.9954158784
 20
0.9365227705
 11
0.9954158784
 21
1.3695936366
  0
LINE
  5
620
100
AcDbEntity
  8
0
100
AcDbLine
 62
7
  6
CONTINUOUS
 10
1.0308489492
 20
5.1530539118
 11
1.0308489492
 21
4.8444036445
  0
LINE
  5
621
100
AcDbEntity
  8
0
100
AcDbLine
 62
7
  6
CONTINUOUS
 10
3.5131324138
 20
2.0782550539
 11
3.5111639099
 21
2.0782550539
  0
LINE
  5
622
100
AcDbEntity
  8
0
100
AcDbLine
 62
7
  6
CONTINUOUS
 10
1.8576206028
 20
4.1609322193
 11
1.8773056421
 21
4.200302298
  0
LINE
  5
623
100
AcDbEntity
  8
0
100
AcDbLine
 62
7
  6
CONTINUOUS
 10
2.0151009177
 20
4.4168377311
 11
1.9954158784
 21
4.3774676523
  0
LINE
  5
624
100
AcDbEntity
  8
0
100
AcDbLine
 62
7
  6
CONTINUOUS
 10
1.4678568233
 20
0.9365227705
 11
1.4678568233
 21
1.3695936366
  0
LINE
  5
625
100
AcDbEntity
  8
0
100
AcDbLine
 62
7
  6
CONTINUOUS
 10
1.5623450122
 20
0.9365227705
 11
1.5623450122
 21
1.3695936366
  0
LINE
  5
626
100
AcDbEntity
  8
0
100
AcDbLine
 62
7
  6
CONTINUOUS
 10
2.038722965
 20
4.1609322193
 11
2.0584080044
 21
4.200302298
  0
LINE
  5
627
100
AcDbEntity
  8
0
100
AcDbLine
 62
7
  6
CONTINUOUS
 10
2.1962032799
 20
4.4168377311
 11
2.1765182406
 21
4.3774676523
  0
LINE
  5
628
100
AcDbEntity
  8
0
100
AcDbLine
 62
7
  6
CONTINUOUS
 10
1.6607702091
 20
1.0546330067
 11
1.6607702091
 21
0.9365227705
  0
LINE
  5
629
100
AcDbEntity
  8
0
100
AcDbLine
 62
7
  6
CONTINUOUS
 10
2.2198253272
 20
4.1609322193
 11
2.2395103666
 21
4.200302298
  0
LINE
  5
62A
100
AcDbEntity
  8
0
100
AcDbLine
 62
7
  6
CONTINUOUS
 10
2.3773056421
 20
4.4168377311
 11
2.3576206028
 21
4.3774676523
  0
LINE
  5
62B
100
AcDbEntity
  8
0
100
AcDbLine
 62
7
  6
CONTINUOUS
 10
1.818250524
 20
4.0979400933
 11
1.818250524
 21
4.6884912744
  0
LINE
  5
62C
100
AcDbEntity
  8
0
100
AcDbLine
 62
7
  6
CONTINUOUS
 10
1.8576206028
 20
4.1609322193
 11
1.8576206028
 21
4.4168377311
  0
LINE
  5
62D
100
AcDbEntity
  8
0
100
AcDbLine
 62
7
  6
CONTINUOUS
 10
1.8773056421
 20
4.200302298
 11
1.8773056421
 21
4.3774676523
  0
LINE
  5
62E
100
AcDbEntity
  8
0
100
AcDbLine
 62
7
  6
CONTINUOUS
 10
2.4009276894
 20
4.1609322193
 11
2.4206127288
 21
4.200302298
  0
LINE
  5
62F
100
AcDbEntity
  8
0
100
AcDbLine
 62
7
  6
CONTINUOUS
 10
2.5584080044
 20
4.4168377311
 11
2.538722965
 21
4.3774676523
  0
LINE
  5
630
100
AcDbEntity
  8
0
100
AcDbLine
 62
7
  6
CONTINUOUS
 10
1.9954158784
 20
4.3774676523
 11
1.9954158784
 21
4.200302298
  0
LINE
  5
631
100
AcDbEntity
  8
0
100
AcDbLine
 62
7
  6
CONTINUOUS
 10
2.0151009177
 20
4.4168377311
 11
2.0151009177
 21
4.1609322193
  0
LINE
  5
632
100
AcDbEntity
  8
0
100
AcDbLine
 62
7
  6
CONTINUOUS
 10
2.038722965
 20
4.1609322193
 11
2.038722965
 21
4.4168377311
  0
LINE
  5
633
100
AcDbEntity
  8
0
100
AcDbLine
 62
7
  6
CONTINUOUS
 10
2.0584080044
 20
4.200302298
 11
2.0584080044
 21
4.3774676523
  0
LINE
  5
634
100
AcDbEntity
  8
0
100
AcDbLine
 62
7
  6
CONTINUOUS
 10
2.1765182406
 20
4.3774676523
 11
2.1765182406
 21
4.200302298
  0
LINE
  5
635
100
AcDbEntity
  8
0
100
AcDbLine
 62
7
  6
CONTINUOUS
 10
2.1962032799
 20
4.4168377311
 11
2.1962032799
 21
4.1609322193
  0
LINE
  5
636
100
AcDbEntity
  8
0
100
AcDbLine
 62
7
  6
CONTINUOUS
 10
2.2198253272
 20
4.1609322193
 11
2.2198253272
 21
4.4168377311
  0
LINE
  5
637
100
AcDbEntity
  8
0
100
AcDbLine
 62
7
  6
CONTINUOUS
 10
2.2395103666
 20
4.200302298
 11
2.2395103666
 21
4.3774676523
  0
LINE
  5
638
100
AcDbEntity
  8
0
100
AcDbLine
 62
7
  6
CONTINUOUS
 10
2.2513213902
 20
0.9365227705
 11
2.2513213902
 21
1.0546330067
  0
LINE
  5
639
100
AcDbEntity
  8
0
100
AcDbLine
 62
7
  6
CONTINUOUS
 10
2.349746587
 20
0.9365227705
 11
2.349746587
 21
1.3695936366
  0
LINE
  5
63A
100
AcDbEntity
  8
0
100
AcDbLine
 62
7
  6
CONTINUOUS
 10
2.3576206028
 20
4.3774676523
 11
2.3576206028
 21
4.200302298
  0
LINE
  5
63B
100
AcDbEntity
  8
0
100
AcDbLine
 62
7
  6
CONTINUOUS
 10
2.3773056421
 20
4.4168377311
 11
2.3773056421
 21
4.1609322193
  0
LINE
  5
63C
100
AcDbEntity
  8
0
100
AcDbLine
 62
7
  6
CONTINUOUS
 10
2.4009276894
 20
4.1609322193
 11
2.4009276894
 21
4.4168377311
  0
LINE
  5
63D
100
AcDbEntity
  8
0
100
AcDbLine
 62
7
  6
CONTINUOUS
 10
2.4206127288
 20
4.200302298
 11
2.4206127288
 21
4.3774676523
  0
LINE
  5
63E
100
AcDbEntity
  8
0
100
AcDbLine
 62
7
  6
CONTINUOUS
 10
2.538722965
 20
4.3774676523
 11
2.538722965
 21
4.200302298
  0
LINE
  5
63F
100
AcDbEntity
  8
0
100
AcDbLine
 62
7
  6
CONTINUOUS
 10
2.5584080044
 20
4.4168377311
 11
2.5584080044
 21
4.1609322193
  0
LINE
  5
640
100
AcDbEntity
  8
0
100
AcDbLine
 62
7
  6
CONTINUOUS
 10
1.8576206028
 20
4.4168377311
 11
1.8773056421
 21
4.3774676523
  0
LINE
  5
641
100
AcDbEntity
  8
0
100
AcDbLine
 62
7
  6
CONTINUOUS
 10
2.0151009177
 20
4.1609322193
 11
1.9954158784
 21
4.200302298
  0
LINE
  5
642
100
AcDbEntity
  8
0
100
AcDbLine
 62
7
  6
CONTINUOUS
 10
2.6450221776
 20
4.0979400933
 11
2.6450221776
 21
4.6884912744
  0
LINE
  5
643
100
AcDbEntity
  8
0
100
AcDbLine
 62
7
  6
CONTINUOUS
 10
2.038722965
 20
4.4168377311
 11
2.0584080044
 21
4.3774676523
  0
LINE
  5
644
100
AcDbEntity
  8
0
100
AcDbLine
 62
7
  6
CONTINUOUS
 10
2.1962032799
 20
4.1609322193
 11
2.1765182406
 21
4.200302298
  0
LINE
  5
645
100
AcDbEntity
  8
0
100
AcDbLine
 62
7
  6
CONTINUOUS
 10
2.2198253272
 20
4.4168377311
 11
2.2395103666
 21
4.3774676523
  0
LINE
  5
646
100
AcDbEntity
  8
0
100
AcDbLine
 62
7
  6
CONTINUOUS
 10
2.3773056421
 20
4.1609322193
 11
2.3576206028
 21
4.200302298
  0
LINE
  5
647
100
AcDbEntity
  8
0
100
AcDbLine
 62
7
  6
CONTINUOUS
 10
3.0347859571
 20
1.3695936366
 11
3.0347859571
 21
0.9365227705
  0
LINE
  5
648
100
AcDbEntity
  8
0
100
AcDbLine
 62
7
  6
CONTINUOUS
 10
3.5111639099
 20
3.8499085972
 11
3.5131324138
 21
3.8499085972
  0
LINE
  5
649
100
AcDbEntity
  8
0
100
AcDbLine
 62
7
  6
CONTINUOUS
 10
2.4009276894
 20
4.4168377311
 11
2.4206127288
 21
4.3774676523
  0
LINE
  5
64A
100
AcDbEntity
  8
0
100
AcDbLine
 62
7
  6
CONTINUOUS
 10
2.5584080044
 20
4.1609322193
 11
2.538722965
 21
4.200302298
  0
LINE
  5
64B
100
AcDbEntity
  8
0
100
AcDbLine
 62
7
  6
CONTINUOUS
 10
2.6450221776
 20
4.0979400933
 11
1.818250524
 21
4.0979400933
  0
LINE
  5
64C
100
AcDbEntity
  8
0
100
AcDbLine
 62
7
  6
CONTINUOUS
 10
2.5584080044
 20
4.1609322193
 11
2.4009276894
 21
4.1609322193
  0
LINE
  5
64D
100
AcDbEntity
  8
0
100
AcDbLine
 62
7
  6
CONTINUOUS
 10
2.3773056421
 20
4.1609322193
 11
2.2198253272
 21
4.1609322193
  0
LINE
  5
64E
100
AcDbEntity
  8
0
100
AcDbLine
 62
7
  6
CONTINUOUS
 10
2.1962032799
 20
4.1609322193
 11
2.038722965
 21
4.1609322193
  0
LINE
  5
64F
100
AcDbEntity
  8
0
100
AcDbLine
 62
7
  6
CONTINUOUS
 10
2.0151009177
 20
4.1609322193
 11
1.8576206028
 21
4.1609322193
  0
LINE
  5
650
100
AcDbEntity
  8
0
100
AcDbLine
 62
7
  6
CONTINUOUS
 10
2.538722965
 20
4.200302298
 11
2.4206127288
 21
4.200302298
  0
LINE
  5
651
100
AcDbEntity
  8
0
100
AcDbLine
 62
7
  6
CONTINUOUS
 10
2.3576206028
 20
4.200302298
 11
2.2395103666
 21
4.200302298
  0
LINE
  5
652
100
AcDbEntity
  8
0
100
AcDbLine
 62
7
  6
CONTINUOUS
 10
2.1765182406
 20
4.200302298
 11
2.0584080044
 21
4.200302298
  0
LINE
  5
653
100
AcDbEntity
  8
0
100
AcDbLine
 62
7
  6
CONTINUOUS
 10
1.9954158784
 20
4.200302298
 11
1.8773056421
 21
4.200302298
  0
LINE
  5
654
100
AcDbEntity
  8
0
100
AcDbLine
 62
7
  6
CONTINUOUS
 10
3.4717938311
 20
4.8444036445
 11
3.4717938311
 21
5.1082299691
  0
LINE
  5
655
100
AcDbEntity
  8
0
100
AcDbLine
 62
7
  6
CONTINUOUS
 10
3.4717938311
 20
5.1135133967
 11
3.4717938311
 21
5.1530550977
  0
LINE
  5
656
100
AcDbEntity
  8
0
100
AcDbLine
 62
7
  6
CONTINUOUS
 10
3.507226902
 20
1.3695936366
 11
3.507226902
 21
0.9365227705
  0
LINE
  5
657
100
AcDbEntity
  8
0
100
AcDbLine
 62
7
  6
CONTINUOUS
 10
3.5111639099
 20
1.3695936366
 11
3.5111639099
 21
5.1491143592
  0
LINE
  5
658
100
AcDbEntity
  8
0
100
AcDbLine
 62
7
  6
CONTINUOUS
 10
3.5131324138
 20
2.0782550539
 11
3.5131324138
 21
3.8499085972
  0
LINE
  5
659
100
AcDbEntity
  8
0
100
AcDbLine
 62
7
  6
CONTINUOUS
 10
1.8773056421
 20
4.3774676523
 11
1.9954158784
 21
4.3774676523
  0
LINE
  5
65A
100
AcDbEntity
  8
0
100
AcDbLine
 62
7
  6
CONTINUOUS
 10
2.0584080044
 20
4.3774676523
 11
2.1765182406
 21
4.3774676523
  0
LINE
  5
65B
100
AcDbEntity
  8
0
100
AcDbLine
 62
7
  6
CONTINUOUS
 10
2.2395103666
 20
4.3774676523
 11
2.3576206028
 21
4.3774676523
  0
LINE
  5
65C
100
AcDbEntity
  8
0
100
AcDbLine
 62
7
  6
CONTINUOUS
 10
2.4206127288
 20
4.3774676523
 11
2.538722965
 21
4.3774676523
  0
LINE
  5
65D
100
AcDbEntity
  8
0
100
AcDbLine
 62
7
  6
CONTINUOUS
 10
1.8576206028
 20
4.4168377311
 11
2.0151009177
 21
4.4168377311
  0
LINE
  5
65E
100
AcDbEntity
  8
0
100
AcDbLine
 62
7
  6
CONTINUOUS
 10
2.038722965
 20
4.4168377311
 11
2.1962032799
 21
4.4168377311
  0
LINE
  5
65F
100
AcDbEntity
  8
0
100
AcDbLine
 62
7
  6
CONTINUOUS
 10
2.2198253272
 20
4.4168377311
 11
2.3773056421
 21
4.4168377311
  0
LINE
  5
660
100
AcDbEntity
  8
0
100
AcDbLine
 62
7
  6
CONTINUOUS
 10
2.4009276894
 20
4.4168377311
 11
2.5584080044
 21
4.4168377311
  0
LINE
  5
661
100
AcDbEntity
  8
0
100
AcDbLine
 62
7
  6
CONTINUOUS
 10
2.6450221776
 20
4.452270802
 11
1.818250524
 21
4.452270802
  0
LINE
  5
662
100
AcDbEntity
  8
0
100
AcDbLine
 62
7
  6
CONTINUOUS
 10
1.818250524
 20
4.6884912744
 11
2.6450221776
 21
4.6884912744
  0
LINE
  5
663
100
AcDbEntity
  8
0
100
AcDbLine
 62
7
  6
CONTINUOUS
 10
3.5111639099
 20
4.8341605657
 11
0.9914788705
 21
4.8341605657
  0
LINE
  5
664
100
AcDbEntity
  8
0
100
AcDbLine
 62
7
  6
CONTINUOUS
 10
1.0308489492
 20
4.8444036445
 11
3.4717938311
 21
4.8444036445
  0
LINE
  5
665
100
AcDbEntity
  8
0
100
AcDbLine
 62
7
  6
CONTINUOUS
 10
3.4717938311
 20
4.8484694361
 11
1.0308489492
 21
4.8484694361
  0
LINE
  5
666
100
AcDbEntity
  8
0
100
AcDbLine
 62
7
  6
CONTINUOUS
 10
1.0308489492
 20
5.0580865208
 11
2.9599828075
 21
5.0580865208
  0
LINE
  5
667
100
AcDbEntity
  8
0
100
AcDbLine
 62
7
  6
CONTINUOUS
 10
2.9599828075
 20
5.0594746942
 11
1.0308489492
 21
5.0594746942
  0
LINE
  5
668
100
AcDbEntity
  8
0
100
AcDbLine
 62
7
  6
CONTINUOUS
 10
3.5111639099
 20
5.1491211957
 11
3.4717938311
 21
5.1491211957
  0
LINE
  5
669
100
AcDbEntity
  8
0
100
AcDbLine
 62
7
  6
CONTINUOUS
 10
1.0308489492
 20
5.1491211957
 11
0.9914788705
 21
5.1491211957
  0
LINE
  5
66A
100
AcDbEntity
  8
0
100
AcDbLine
 62
7
  6
CONTINUOUS
 10
1.0308489492
 20
5.1530582035
 11
3.4717938311
 21
5.1530582035
  0
ARC
  5
66B
100
AcDbEntity
  8
0
100
AcDbCircle
 62
7
  6
CONTINUOUS
 10
7.3421939171
 20
-4.4670205366
 40
9.6200787402
100
AcDbArc
 50
75.5436768882
 51
104.4563231118
  0
ARC
  5
66C
100
AcDbEntity
  8
0
100
AcDbCircle
 62
7
  6
CONTINUOUS
 10
7.3421939171
 20
-4.4670205366
 40
9.6161417323
100
AcDbArc
 50
75.2952412802
 51
104.7047587198
  0
ARC
  5
66D
100
AcDbEntity
  8
0
100
AcDbCircle
 62
7
  6
CONTINUOUS
 10
9.5075482478
 20
2.1569952114
 40
0.0787401575
100
AcDbArc
 50
270.0
 51
360.0
  0
ARC
  5
66E
100
AcDbEntity
  8
0
100
AcDbCircle
 62
7
  6
CONTINUOUS
 10
9.5075482478
 20
3.7711684397
 40
0.0787401575
100
AcDbArc
 50
0.0
 51
90.0
  0
ARC
  5
66F
100
AcDbEntity
  8
0
100
AcDbCircle
 62
7
  6
CONTINUOUS
 10
8.1689655706
 20
3.7711684397
 40
0.0787401575
100
AcDbArc
 50
90.0
 51
180.0
  0
ARC
  5
670
100
AcDbEntity
  8
0
100
AcDbCircle
 62
7
  6
CONTINUOUS
 10
8.1689655706
 20
2.1569952114
 40
0.0787401575
100
AcDbArc
 50
180.0
 51
270.0
  0
ARC
  5
671
100
AcDbEntity
  8
0
100
AcDbCircle
 62
7
  6
CONTINUOUS
 10
6.5154222635
 20
7.885411982
 40
0.5216535433
100
AcDbArc
 50
180.0
 51
258.8523089815
  0
ARC
  5
672
100
AcDbEntity
  8
0
100
AcDbCircle
 62
7
  6
CONTINUOUS
 10
6.5154222635
 20
7.885411982
 40
0.5118110236
100
AcDbArc
 50
180.0
 51
270.0
  0
CIRCLE
  5
673
100
AcDbEntity
  8
0
100
AcDbCircle
 62
7
  6
CONTINUOUS
 10
4.7437687202
 20
8.8676954466
 40
0.0787401575
  0
CIRCLE
  5
674
100
AcDbEntity
  8
0
100
AcDbCircle
 62
7
  6
CONTINUOUS
 10
4.7437687202
 20
8.6846245804
 40
0.0787401575
  0
CIRCLE
  5
675
100
AcDbEntity
  8
0
100
AcDbCircle
 62
7
  6
CONTINUOUS
 10
4.7437687202
 20
8.5015537143
 40
0.0787401575
  0
CIRCLE
  5
676
100
AcDbEntity
  8
0
100
AcDbCircle
 62
7
  6
CONTINUOUS
 10
4.7437687202
 20
8.3184828481
 40
0.0787401575
  0
CIRCLE
  5
677
100
AcDbEntity
  8
0
100
AcDbCircle
 62
7
  6
CONTINUOUS
 10
9.9406191139
 20
8.8499789111
 40
0.0787401575
  0
CIRCLE
  5
678
100
AcDbEntity
  8
0
100
AcDbCircle
 62
7
  6
CONTINUOUS
 10
9.9406191139
 20
8.5940733993
 40
0.0787401575
  0
CIRCLE
  5
679
100
AcDbEntity
  8
0
100
AcDbCircle
 62
7
  6
CONTINUOUS
 10
9.9406191139
 20
8.3381678875
 40
0.0787401575
  0
ARC
  5
67A
100
AcDbEntity
  8
0
100
AcDbCircle
 62
7
  6
CONTINUOUS
 10
12.6871979691
 20
7.9212719219
 40
0.4979519218
100
AcDbArc
 50
120.0211901737
 51
120.4692765401
  0
ARC
  5
67B
100
AcDbEntity
  8
0
100
AcDbCircle
 62
7
  6
CONTINUOUS
 10
12.6842205595
 20
7.9263409599
 40
0.4920731382
100
AcDbArc
 50
120.4697604488
 51
120.6718236502
  0
ARC
  5
67C
100
AcDbEntity
  8
0
100
AcDbCircle
 62
7
  6
CONTINUOUS
 10
12.5532499184
 20
8.2900354007
 40
0.2937861047
100
AcDbArc
 50
233.4579012921
 51
233.8659904942
  0
ARC
  5
67D
100
AcDbEntity
  8
0
100
AcDbCircle
 62
7
  6
CONTINUOUS
 10
12.5507117121
 20
8.2837217692
 40
0.2895367646
100
AcDbArc
 50
233.0444905711
 51
233.4565665608
  0
ARC
  5
67E
100
AcDbEntity
  8
0
100
AcDbCircle
 62
7
  6
CONTINUOUS
 10
12.4141307243
 20
8.1781594583
 40
0.1198418275
100
AcDbArc
 50
178.9268843245
 51
180.0022836924
  0
ARC
  5
67F
100
AcDbEntity
  8
0
100
AcDbCircle
 62
7
  6
CONTINUOUS
 10
12.4136851468
 20
8.1781575397
 40
0.1193962274
100
AcDbArc
 50
180.0026218842
 51
181.8775452972
  0
ARC
  5
680
100
AcDbEntity
  8
0
100
AcDbCircle
 62
7
  6
CONTINUOUS
 10
3.438525046
 20
5.1525859849
 40
0.0536079195
100
AcDbArc
 50
295.9376953865
 51
297.9731879633
  0
SPLINE
  5
681
100
AcDbEntity
  8
0
100
AcDbSpline
 62
7
  6
CONTINUOUS
 70
0
 71
3
 72
11
 73
7
 74
0
 42
0.0000001
 43
0.0000001
 44
0.0000000001
 40
0.0
 40
0.0
 40
0.0
 40
0.0
 40
0.2176757884
 40
0.450782052
 40
0.7103828432
 40
1.0
 40
1.0
 40
1.0
 40
1.0
 10
14.3513867258
 20
4.667144849
 30
0.0
 10
14.3490491125
 20
4.6657940406
 30
0.0
 10
14.343678139
 20
4.663837088
 30
0.0
 10
14.3347478579
 20
4.6636147519
 30
0.0
 10
14.325234356
 20
4.6659211553
 30
0.0
 10
14.3190423296
 20
4.6688659528
 30
0.0
 10
14.3159321399
 20
4.6706631997
 30
0.0
  0
SPLINE
  5
682
100
AcDbEntity
  8
0
100
AcDbSpline
 62
7
  6
CONTINUOUS
 70
0
 71
3
 72
9
 73
5
 74
0
 42
0.0000001
 43
0.0000001
 44
0.0000000001
 40
0.0
 40
0.0
 40
0.0
 40
0.0
 40
0.4769121654
 40
1.0
 40
1.0
 40
1.0
 40
1.0
 10
12.1905618089
 20
8.9044488721
 30
0.0
 10
12.1905627568
 20
8.9012212638
 30
0.0
 10
12.1920214847
 20
8.8944018728
 30
0.0
 10
12.19584484
 20
8.888653543
 30
0.0
 10
12.1981752186
 20
8.8859886355
 30
0.0
  0
SPLINE
  5
683
100
AcDbEntity
  8
0
100
AcDbSpline
 62
7
  6
CONTINUOUS
 70
0
 71
3
 72
9
 73
5
 74
0
 42
0.0000001
 43
0.0000001
 44
0.0000000001
 40
0.0
 40
0.0
 40
0.0
 40
0.0
 40
0.2271719753
 40
1.0
 40
1.0
 40
1.0
 40
1.0
 10
12.1981752186
 20
8.8859886355
 30
0.0
 10
12.1994764024
 20
8.8845006651
 30
0.0
 10
12.2057012927
 20
8.8783844773
 30
0.0
 10
12.2134544765
 20
8.8739922632
 30
0.0
 10
12.2196504815
 20
8.8713792441
 30
0.0
  0
SPLINE
  5
684
100
AcDbEntity
  8
0
100
AcDbSpline
 62
7
  6
CONTINUOUS
 70
0
 71
3
 72
11
 73
7
 74
0
 42
0.0000001
 43
0.0000001
 44
0.0000000001
 40
0.0
 40
0.0
 40
0.0
 40
0.0
 40
0.2670398157
 40
0.5233156839
 40
0.7678479246
 40
1.0
 40
1.0
 40
1.0
 40
1.0
 10
16.096087381
 20
7.5209229197
 30
0.0
 10
15.9026464625
 20
7.6912973456
 30
0.0
 10
15.5120562593
 20
8.0124377773
 30
0.0
 10
14.9054277139
 20
8.4396060992
 30
0.0
 10
14.2950263298
 20
8.7989717581
 30
0.0
 10
13.8783793602
 20
8.9962063639
 30
0.0
 10
13.671165076
 20
9.0815360973
 30
0.0
  0
LINE
  5
685
100
AcDbEntity
  8
0
100
AcDbLine
 62
7
  6
CONTINUOUS
 10
13.671165076
 20
9.0815360973
 11
13.6648773372
 21
9.0841215097
  0
SPLINE
  5
686
100
AcDbEntity
  8
0
100
AcDbSpline
 62
7
  6
CONTINUOUS
 70
0
 71
3
 72
9
 73
5
 74
0
 42
0.0000001
 43
0.0000001
 44
0.0000000001
 40
0.0
 40
0.0
 40
0.0
 40
0.0
 40
0.2560637818
 40
1.0
 40
1.0
 40
1.0
 40
1.0
 10
13.6648773372
 20
9.0841215097
 30
0.0
 10
13.6088869928
 20
9.1071095538
 30
0.0
 10
13.3889922517
 20
9.1938204512
 30
0.0
 10
13.1640766709
 20
9.2679656373
 30
0.0
 10
12.994572998
 20
9.3147594638
 30
0.0
  0
LINE
  5
687
100
AcDbEntity
  8
0
100
AcDbLine
 62
7
  6
CONTINUOUS
 10
12.994572998
 20
9.3147594638
 11
12.9892717597
 21
9.316220014
  0
SPLINE
  5
688
100
AcDbEntity
  8
0
100
AcDbSpline
 62
7
  6
CONTINUOUS
 70
0
 71
3
 72
9
 73
5
 74
0
 42
0.0000001
 43
0.0000001
 44
0.0000000001
 40
0.0
 40
0.0
 40
0.0
 40
0.0
 40
0.4769121654
 40
1.0
 40
1.0
 40
1.0
 40
1.0
 10
12.0740562231
 20
8.837125231
 30
0.0
 10
12.074057171
 20
8.8338976227
 30
0.0
 10
12.0755158989
 20
8.8270782318
 30
0.0
 10
12.0793392542
 20
8.821329902
 30
0.0
 10
12.0816696328
 20
8.8186649945
 30
0.0
  0
SPLINE
  5
689
100
AcDbEntity
  8
0
100
AcDbSpline
 62
7
  6
CONTINUOUS
 70
0
 71
3
 72
9
 73
5
 74
0
 42
0.0000001
 43
0.0000001
 44
0.0000000001
 40
0.0
 40
0.0
 40
0.0
 40
0.0
 40
0.2271719753
 40
1.0
 40
1.0
 40
1.0
 40
1.0
 10
12.0816696328
 20
8.8186649945
 30
0.0
 10
12.0829708166
 20
8.817177024
 30
0.0
 10
12.0891957069
 20
8.8110608363
 30
0.0
 10
12.0969488907
 20
8.8066686222
 30
0.0
 10
12.1031448957
 20
8.804055603
 30
0.0
  0
SPLINE
  5
68A
100
AcDbEntity
  8
0
100
AcDbSpline
 62
7
  6
CONTINUOUS
 70
0
 71
3
 72
11
 73
7
 74
0
 42
0.0000001
 43
0.0000001
 44
0.0000000001
 40
0.0
 40
0.0
 40
0.0
 40
0.0
 40
0.2667384123
 40
0.5228889719
 40
0.767511943
 40
1.0
 40
1.0
 40
1.0
 40
1.0
 10
16.0459774516
 20
7.531433126
 30
0.0
 10
15.8558953227
 20
7.6978336221
 30
0.0
 10
15.4722153152
 20
8.0117011017
 30
0.0
 10
14.8767982357
 20
8.4298939386
 30
0.0
 10
14.2777903828
 20
8.7827906843
 30
0.0
 10
13.8690778726
 20
8.9773337868
 30
0.0
 10
13.6657558062
 20
9.061850742
 30
0.0
  0
SPLINE
  5
68B
100
AcDbEntity
  8
0
100
AcDbSpline
 62
7
  6
CONTINUOUS
 70
0
 71
3
 72
9
 73
5
 74
0
 42
0.0000001
 43
0.0000001
 44
0.0000000001
 40
0.0
 40
0.0
 40
0.0
 40
0.0
 40
0.4769121654
 40
1.0
 40
1.0
 40
1.0
 40
1.0
 10
11.9575506373
 20
8.76980159
 30
0.0
 10
11.9575515852
 20
8.7665739817
 30
0.0
 10
11.9590103131
 20
8.7597545908
 30
0.0
 10
11.9628336684
 20
8.754006261
 30
0.0
 10
11.965164047
 20
8.7513413535
 30
0.0
  0
SPLINE
  5
68C
100
AcDbEntity
  8
0
100
AcDbSpline
 62
7
  6
CONTINUOUS
 70
0
 71
3
 72
9
 73
5
 74
0
 42
0.0000001
 43
0.0000001
 44
0.0000000001
 40
0.0
 40
0.0
 40
0.0
 40
0.0
 40
0.2271719753
 40
1.0
 40
1.0
 40
1.0
 40
1.0
 10
11.965164047
 20
8.7513413535
 30
0.0
 10
11.9664652308
 20
8.749853383
 30
0.0
 10
11.9726901211
 20
8.7437371952
 30
0.0
 10
11.9804433049
 20
8.7393449812
 30
0.0
 10
11.9866393099
 20
8.736731962
 30
0.0
  0
SPLINE
  5
68D
100
AcDbEntity
  8
0
100
AcDbSpline
 62
7
  6
CONTINUOUS
 70
0
 71
3
 72
11
 73
7
 74
0
 42
0.0000001
 43
0.0000001
 44
0.0000000001
 40
0.0
 40
0.0
 40
0.0
 40
0.0
 40
0.3027387321
 40
0.5666812283
 40
0.7951901382
 40
1.0
 40
1.0
 40
1.0
 40
1.0
 10
12.433204207
 20
8.3495746591
 30
0.0
 10
12.4138005423
 20
8.3380664513
 30
0.0
 10
12.3788299165
 20
8.3140236491
 30
0.0
 10
12.3366708255
 20
8.2717698634
 30
0.0
 10
12.3097205297
 20
8.2265401263
 30
0.0
 10
12.3031471035
 20
8.194054676
 30
0.0
 10
12.3031471573
 20
8.1787924944
 30
0.0
  0
SPLINE
  5
68E
100
AcDbEntity
  8
0
100
AcDbSpline
 62
7
  6
CONTINUOUS
 70
0
 71
3
 72
9
 73
5
 74
0
 42
0.0000001
 43
0.0000001
 44
0.0000000001
 40
0.0
 40
0.0
 40
0.0
 40
0.0
 40
0.2560478071
 40
1.0
 40
1.0
 40
1.0
 40
1.0
 10
13.6594920651
 20
9.0644506462
 30
0.0
 10
13.6035191661
 20
9.0876493921
 30
0.0
 10
13.3836731206
 20
9.1752039614
 30
0.0
 10
13.1587839392
 20
9.2502592859
 30
0.0
 10
12.9892717597
 20
9.2977738155
 30
0.0
  0
SPLINE
  5
68F
100
AcDbEntity
  8
0
100
AcDbSpline
 62
7
  6
CONTINUOUS
 70
0
 71
3
 72
9
 73
5
 74
0
 42
0.0000001
 43
0.0000001
 44
0.0000000001
 40
0.0
 40
0.0
 40
0.0
 40
0.0
 40
0.4769121654
 40
1.0
 40
1.0
 40
1.0
 40
1.0
 10
11.8410450515
 20
8.702477949
 30
0.0
 10
11.8410459994
 20
8.6992503406
 30
0.0
 10
11.8425047273
 20
8.6924309497
 30
0.0
 10
11.8463280826
 20
8.6866826199
 30
0.0
 10
11.8486584612
 20
8.6840177124
 30
0.0
  0
SPLINE
  5
690
100
AcDbEntity
  8
0
100
AcDbSpline
 62
7
  6
CONTINUOUS
 70
0
 71
3
 72
9
 73
5
 74
0
 42
0.0000001
 43
0.0000001
 44
0.0000000001
 40
0.0
 40
0.0
 40
0.0
 40
0.0
 40
0.2271719753
 40
1.0
 40
1.0
 40
1.0
 40
1.0
 10
11.8486584612
 20
8.6840177124
 30
0.0
 10
11.849959645
 20
8.682529742
 30
0.0
 10
11.8561845353
 20
8.6764135542
 30
0.0
 10
11.8639377191
 20
8.6720213401
 30
0.0
 10
11.8701337241
 20
8.6694083209
 30
0.0
  0
SPLINE
  5
691
100
AcDbEntity
  8
0
100
AcDbSpline
 62
7
  6
CONTINUOUS
 70
0
 71
3
 72
11
 73
7
 74
0
 42
0.0000001
 43
0.0000001
 44
0.0000000001
 40
0.0
 40
0.0
 40
0.0
 40
0.0
 40
0.2858441192
 40
0.5428704809
 40
0.7773177983
 40
1.0
 40
1.0
 40
1.0
 40
1.0
 10
12.3738782891
 20
8.048886832
 30
0.0
 10
12.3620219555
 20
8.0574498792
 30
0.0
 10
12.3405981546
 20
8.0753589682
 30
0.0
 10
12.3151666228
 20
8.1063068377
 30
0.0
 10
12.298939331
 20
8.1394716198
 30
0.0
 10
12.2947263156
 20
8.1628582448
 30
0.0
 10
12.2943530193
 20
8.1742457034
 30
0.0
  0
SPLINE
  5
692
100
AcDbEntity
  8
0
100
AcDbSpline
 62
7
  6
CONTINUOUS
 70
0
 71
3
 72
9
 73
5
 74
0
 42
0.0000001
 43
0.0000001
 44
0.0000000001
 40
0.0
 40
0.0
 40
0.0
 40
0.0
 40
0.4769121654
 40
1.0
 40
1.0
 40
1.0
 40
1.0
 10
15.4865424136
 20
6.9925946199
 30
0.0
 10
15.4865433614
 20
6.9893670116
 30
0.0
 10
15.4880020894
 20
6.9825476207
 30
0.0
 10
15.4918254446
 20
6.9767992909
 30
0.0
 10
15.4941558233
 20
6.9741343834
 30
0.0
  0
SPLINE
  5
693
100
AcDbEntity
  8
0
100
AcDbSpline
 62
7
  6
CONTINUOUS
 70
0
 71
3
 72
11
 73
7
 74
0
 42
0.0000001
 43
0.0000001
 44
0.0000000001
 40
0.0
 40
0.0
 40
0.0
 40
0.0
 40
0.215372574
 40
0.4765434904
 40
0.7510707607
 40
1.0
 40
1.0
 40
1.0
 40
1.0
 10
15.4941558233
 20
6.9741343834
 30
0.0
 10
15.4998495541
 20
6.9676233101
 30
0.0
 10
15.5168623392
 20
6.9572738051
 30
0.0
 10
15.546608789
 20
6.9507349234
 30
0.0
 10
15.5784175605
 20
6.9520133507
 30
0.0
 10
15.5988597494
 20
6.9586437995
 30
0.0
 10
15.6075155695
 20
6.9636456312
 30
0.0
  0
SPLINE
  5
694
100
AcDbEntity
  8
0
100
AcDbSpline
 62
7
  6
CONTINUOUS
 70
0
 71
3
 72
9
 73
5
 74
0
 42
0.0000001
 43
0.0000001
 44
0.0000000001
 40
0.0
 40
0.0
 40
0.0
 40
0.0
 40
0.4769121654
 40
1.0
 40
1.0
 40
1.0
 40
1.0
 10
15.3236851431
 20
6.8984863045
 30
0.0
 10
15.323686091
 20
6.8952586962
 30
0.0
 10
15.3251448189
 20
6.8884393053
 30
0.0
 10
15.3289681742
 20
6.8826909754
 30
0.0
 10
15.3312985528
 20
6.880026068
 30
0.0
  0
SPLINE
  5
695
100
AcDbEntity
  8
0
100
AcDbSpline
 62
7
  6
CONTINUOUS
 70
0
 71
3
 72
11
 73
7
 74
0
 42
0.0000001
 43
0.0000001
 44
0.0000000001
 40
0.0
 40
0.0
 40
0.0
 40
0.0
 40
0.215372574
 40
0.4765434904
 40
0.7510707607
 40
1.0
 40
1.0
 40
1.0
 40
1.0
 10
15.3312985528
 20
6.880026068
 30
0.0
 10
15.3369922837
 20
6.8735149946
 30
0.0
 10
15.3540050688
 20
6.8631654897
 30
0.0
 10
15.3837515185
 20
6.8566266079
 30
0.0
 10
15.41556029
 20
6.8579050353
 30
0.0
 10
15.4360024789
 20
6.8645354841
 30
0.0
 10
15.4446582991
 20
6.8695373158
 30
0.0
  0
SPLINE
  5
696
100
AcDbEntity
  8
0
100
AcDbSpline
 62
7
  6
CONTINUOUS
 70
0
 71
3
 72
9
 73
5
 74
0
 42
0.0000001
 43
0.0000001
 44
0.0000000001
 40
0.0
 40
0.0
 40
0.0
 40
0.0
 40
0.4769121654
 40
1.0
 40
1.0
 40
1.0
 40
1.0
 10
15.1608278726
 20
6.8043779891
 30
0.0
 10
15.1608288205
 20
6.8011503807
 30
0.0
 10
15.1622875484
 20
6.7943309898
 30
0.0
 10
15.1661109037
 20
6.78858266
 30
0.0
 10
15.1684412823
 20
6.7859177525
 30
0.0
  0
SPLINE
  5
697
100
AcDbEntity
  8
0
100
AcDbSpline
 62
7
  6
CONTINUOUS
 70
0
 71
3
 72
11
 73
7
 74
0
 42
0.0000001
 43
0.0000001
 44
0.0000000001
 40
0.0
 40
0.0
 40
0.0
 40
0.0
 40
0.215372574
 40
0.4765434904
 40
0.7510707607
 40
1.0
 40
1.0
 40
1.0
 40
1.0
 10
15.1684412823
 20
6.7859177525
 30
0.0
 10
15.1741350132
 20
6.7794066792
 30
0.0
 10
15.1911477983
 20
6.7690571743
 30
0.0
 10
15.2208942481
 20
6.7625182925
 30
0.0
 10
15.2527030196
 20
6.7637967198
 30
0.0
 10
15.2731452084
 20
6.7704271687
 30
0.0
 10
15.2818010286
 20
6.7754290003
 30
0.0
  0
SPLINE
  5
698
100
AcDbEntity
  8
0
100
AcDbSpline
 62
7
  6
CONTINUOUS
 70
0
 71
3
 72
9
 73
5
 74
0
 42
0.0000001
 43
0.0000001
 44
0.0000000001
 40
0.0
 40
0.0
 40
0.0
 40
0.0
 40
0.5437724795
 40
1.0
 40
1.0
 40
1.0
 40
1.0
 10
13.4139534111
 20
6.435363711
 30
0.0
 10
13.4139534111
 20
6.4409136136
 30
0.0
 10
13.4151466521
 20
6.4512221141
 30
0.0
 10
13.420260347
 20
6.4605382502
 30
0.0
 10
13.4235394892
 20
6.4638441875
 30
0.0
  0
SPLINE
  5
699
100
AcDbEntity
  8
0
100
AcDbSpline
 62
7
  6
CONTINUOUS
 70
0
 71
3
 72
8
 73
4
 74
0
 42
0.0000001
 43
0.0000001
 44
0.0000000001
 40
0.0
 40
0.0
 40
0.0
 40
0.0
 40
1.0
 40
1.0
 40
1.0
 40
1.0
 10
13.4235394892
 20
6.4638441875
 30
0.0
 10
13.4250434481
 20
6.4653604357
 30
0.0
 10
13.4267596543
 20
6.4666936618
 30
0.0
 10
13.4286087546
 20
6.467762179
 30
0.0
  0
SPLINE
  5
69A
100
AcDbEntity
  8
0
100
AcDbSpline
 62
7
  6
CONTINUOUS
 70
0
 71
3
 72
11
 73
7
 74
0
 42
0.0000001
 43
0.0000001
 44
0.0000000001
 40
0.0
 40
0.0
 40
0.0
 40
0.0
 40
0.2373072848
 40
0.500083484
 40
0.7628142822
 40
1.0
 40
1.0
 40
1.0
 40
1.0
 10
13.4640633405
 20
5.1629220804
 30
0.0
 10
13.4569489358
 20
5.1670331934
 30
0.0
 10
13.4434863014
 20
5.1783672666
 30
0.0
 10
13.4277784009
 20
5.199843635
 30
0.0
 10
13.4170344592
 20
5.2241811612
 30
0.0
 10
13.4139534111
 20
5.2415024043
 30
0.0
 10
13.4139534111
 20
5.2497150073
 30
0.0
  0
SPLINE
  5
69B
100
AcDbEntity
  8
0
100
AcDbSpline
 62
7
  6
CONTINUOUS
 70
0
 71
3
 72
9
 73
5
 74
0
 42
0.0000001
 43
0.0000001
 44
0.0000000001
 40
0.0
 40
0.0
 40
0.0
 40
0.0
 40
0.2663018895
 40
1.0
 40
1.0
 40
1.0
 40
1.0
 10
15.6075155695
 20
6.9636456312
 30
0.0
 10
15.6088068407
 20
6.9643918021
 30
0.0
 10
15.6135555014
 20
6.9673560376
 30
0.0
 10
15.6179112238
 20
6.9710061652
 30
0.0
 10
15.6206213029
 20
6.9740946142
 30
0.0
  0
SPLINE
  5
69C
100
AcDbEntity
  8
0
100
AcDbSpline
 62
7
  6
CONTINUOUS
 70
0
 71
3
 72
9
 73
5
 74
0
 42
0.0000001
 43
0.0000001
 44
0.0000000001
 40
0.0
 40
0.0
 40
0.0
 40
0.0
 40
0.5232798893
 40
1.0
 40
1.0
 40
1.0
 40
1.0
 10
15.6206213029
 20
6.9740946142
 30
0.0
 10
15.6229646568
 20
6.9767651375
 30
0.0
 10
15.6268071418
 20
6.9825291208
 30
0.0
 10
15.6282696843
 20
6.9893716931
 30
0.0
 10
15.6282689382
 20
6.992608455
 30
0.0
  0
SPLINE
  5
69D
100
AcDbEntity
  8
0
100
AcDbSpline
 62
7
  6
CONTINUOUS
 70
0
 71
3
 72
9
 73
5
 74
0
 42
0.0000001
 43
0.0000001
 44
0.0000000001
 40
0.0
 40
0.0
 40
0.0
 40
0.0
 40
0.2663018895
 40
1.0
 40
1.0
 40
1.0
 40
1.0
 10
15.4446582991
 20
6.8695373158
 30
0.0
 10
15.4459495702
 20
6.8702834867
 30
0.0
 10
15.4506982309
 20
6.8732477222
 30
0.0
 10
15.4550539534
 20
6.8768978497
 30
0.0
 10
15.4577640324
 20
6.8799862988
 30
0.0
  0
SPLINE
  5
69E
100
AcDbEntity
  8
0
100
AcDbSpline
 62
7
  6
CONTINUOUS
 70
0
 71
3
 72
9
 73
5
 74
0
 42
0.0000001
 43
0.0000001
 44
0.0000000001
 40
0.0
 40
0.0
 40
0.0
 40
0.0
 40
0.5232798893
 40
1.0
 40
1.0
 40
1.0
 40
1.0
 10
15.4577640324
 20
6.8799862988
 30
0.0
 10
15.4601073863
 20
6.882656822
 30
0.0
 10
15.4639498713
 20
6.8884208054
 30
0.0
 10
15.4654124139
 20
6.8952633777
 30
0.0
 10
15.4654116677
 20
6.8985001395
 30
0.0
  0
SPLINE
  5
69F
100
AcDbEntity
  8
0
100
AcDbSpline
 62
7
  6
CONTINUOUS
 70
0
 71
3
 72
9
 73
5
 74
0
 42
0.0000001
 43
0.0000001
 44
0.0000000001
 40
0.0
 40
0.0
 40
0.0
 40
0.0
 40
0.2663313803
 40
1.0
 40
1.0
 40
1.0
 40
1.0
 10
15.2818010286
 20
6.7754290003
 30
0.0
 10
15.2830944487
 20
6.776176413
 30
0.0
 10
15.2878503002
 20
6.7791455148
 30
0.0
 10
15.2922119728
 20
6.7828028328
 30
0.0
 10
15.2949240866
 20
6.7858977663
 30
0.0
  0
SPLINE
  5
6A0
100
AcDbEntity
  8
0
100
AcDbSpline
 62
7
  6
CONTINUOUS
 70
0
 71
3
 72
9
 73
5
 74
0
 42
0.0000001
 43
0.0000001
 44
0.0000000001
 40
0.0
 40
0.0
 40
0.0
 40
0.0
 40
0.5232361741
 40
1.0
 40
1.0
 40
1.0
 40
1.0
 10
15.2949240866
 20
6.7858977663
 30
0.0
 10
15.2972625877
 20
6.788566351
 30
0.0
 10
15.3010965626
 20
6.7943255488
 30
0.0
 10
15.3025552753
 20
6.8011597355
 30
0.0
 10
15.3025543258
 20
6.8043928211
 30
0.0
  0
SPLINE
  5
6A1
100
AcDbEntity
  8
0
100
AcDbSpline
 62
7
  6
CONTINUOUS
 70
0
 71
3
 72
11
 73
7
 74
0
 42
0.0000001
 43
0.0000001
 44
0.0000000001
 40
0.0
 40
0.0
 40
0.0
 40
0.0
 40
0.2270244168
 40
0.4893400011
 40
0.7575513463
 40
1.0
 40
1.0
 40
1.0
 40
1.0
 10
12.3186658818
 20
8.9285960305
 30
0.0
 10
12.3119986707
 20
8.9338754203
 30
0.0
 10
12.2949947374
 20
8.9418777353
 30
0.0
 10
12.2667428476
 20
8.9464696921
 30
0.0
 10
12.237616677
 20
8.9442932511
 30
0.0
 10
12.2191787278
 20
8.9379567466
 30
0.0
 10
12.2113151061
 20
8.9334126928
 30
0.0
  0
SPLINE
  5
6A2
100
AcDbEntity
  8
0
100
AcDbSpline
 62
7
  6
CONTINUOUS
 70
0
 71
3
 72
11
 73
7
 74
0
 42
0.0000001
 43
0.0000001
 44
0.0000000001
 40
0.0
 40
0.0
 40
0.0
 40
0.0
 40
0.2896171791
 40
0.5492181518
 40
0.7823243446
 40
1.0
 40
1.0
 40
1.0
 40
1.0
 10
13.4653160887
 20
6.4649677385
 30
0.0
 10
13.462205893
 20
6.4667649888
 30
0.0
 10
13.4560138508
 20
6.469709788
 30
0.0
 10
13.4465003285
 20
6.4720161946
 30
0.0
 10
13.437570031
 20
6.4717938399
 30
0.0
 10
13.4321990536
 20
6.4698368723
 30
0.0
 10
13.4298614421
 20
6.4684860541
 30
0.0
  0
SPLINE
  5
6A3
100
AcDbEntity
  8
0
100
AcDbSpline
 62
7
  6
CONTINUOUS
 70
0
 71
3
 72
9
 73
5
 74
0
 42
0.0000001
 43
0.0000001
 44
0.0000000001
 40
0.0
 40
0.0
 40
0.0
 40
0.0
 40
0.4562309354
 40
1.0
 40
1.0
 40
1.0
 40
1.0
 10
14.3577104573
 20
4.6717884836
 30
0.0
 10
14.3609890513
 20
4.6750945049
 30
0.0
 10
14.3661017472
 20
4.6844101212
 30
0.0
 10
14.3672948175
 20
4.6947177901
 30
0.0
 10
14.3672948175
 20
4.7002672272
 30
0.0
  0
SPLINE
  5
6A4
100
AcDbEntity
  8
0
100
AcDbSpline
 62
7
  6
CONTINUOUS
 70
0
 71
3
 72
9
 73
5
 74
0
 42
0.0000001
 43
0.0000001
 44
0.0000000001
 40
0.0
 40
0.0
 40
0.0
 40
0.0
 40
0.2378826181
 40
1.0
 40
1.0
 40
1.0
 40
1.0
 10
12.1916591139
 20
8.897184095
 30
0.0
 10
12.1919638942
 20
8.8981721756
 30
0.0
 10
12.1934944157
 20
8.9022488649
 30
0.0
 10
12.1959673475
 20
8.9059370109
 30
0.0
 10
12.1981462319
 20
8.9084323496
 30
0.0
  0
SPLINE
  5
6A5
100
AcDbEntity
  8
0
100
AcDbSpline
 62
7
  6
CONTINUOUS
 70
0
 71
3
 72
9
 73
5
 74
0
 42
0.0000001
 43
0.0000001
 44
0.0000000001
 40
0.0
 40
0.0
 40
0.0
 40
0.0
 40
0.2341914856
 40
1.0
 40
1.0
 40
1.0
 40
1.0
 10
12.1981462319
 20
8.9084323496
 30
0.0
 10
12.1990139464
 20
8.9094260883
 30
0.0
 10
12.2029344605
 20
8.9134808675
 30
0.0
 10
12.2075799011
 20
8.9167951456
 30
0.0
 10
12.2113151061
 20
8.9189535623
 30
0.0
  0
SPLINE
  5
6A6
100
AcDbEntity
  8
0
100
AcDbSpline
 62
7
  6
CONTINUOUS
 70
0
 71
3
 72
9
 73
5
 74
0
 42
0.0000001
 43
0.0000001
 44
0.0000000001
 40
0.0
 40
0.0
 40
0.0
 40
0.0
 40
0.2378826181
 40
1.0
 40
1.0
 40
1.0
 40
1.0
 10
12.0751535281
 20
8.829860454
 30
0.0
 10
12.0754583084
 20
8.8308485346
 30
0.0
 10
12.0769888299
 20
8.8349252239
 30
0.0
 10
12.0794617617
 20
8.8386133698
 30
0.0
 10
12.0816406461
 20
8.8411087086
 30
0.0
  0
SPLINE
  5
6A7
100
AcDbEntity
  8
0
100
AcDbSpline
 62
7
  6
CONTINUOUS
 70
0
 71
3
 72
9
 73
5
 74
0
 42
0.0000001
 43
0.0000001
 44
0.0000000001
 40
0.0
 40
0.0
 40
0.0
 40
0.0
 40
0.2341914856
 40
1.0
 40
1.0
 40
1.0
 40
1.0
 10
12.0816406461
 20
8.8411087086
 30
0.0
 10
12.0825083606
 20
8.8421024473
 30
0.0
 10
12.0864288747
 20
8.8461572265
 30
0.0
 10
12.0910743153
 20
8.8494715046
 30
0.0
 10
12.0948095203
 20
8.8516299213
 30
0.0
  0
SPLINE
  5
6A8
100
AcDbEntity
  8
0
100
AcDbSpline
 62
7
  6
CONTINUOUS
 70
0
 71
3
 72
11
 73
7
 74
0
 42
0.0000001
 43
0.0000001
 44
0.0000000001
 40
0.0
 40
0.0
 40
0.0
 40
0.0
 40
0.2270244168
 40
0.4893400011
 40
0.7575513463
 40
1.0
 40
1.0
 40
1.0
 40
1.0
 10
12.0856547102
 20
8.7939487484
 30
0.0
 10
12.0789874991
 20
8.7992281383
 30
0.0
 10
12.0619835658
 20
8.8072304532
 30
0.0
 10
12.033731676
 20
8.81182241
 30
0.0
 10
12.0046055054
 20
8.809645969
 30
0.0
 10
11.9861675562
 20
8.8033094645
 30
0.0
 10
11.9783039345
 20
8.7987654108
 30
0.0
  0
SPLINE
  5
6A9
100
AcDbEntity
  8
0
100
AcDbSpline
 62
7
  6
CONTINUOUS
 70
0
 71
3
 72
11
 73
7
 74
0
 42
0.0000001
 43
0.0000001
 44
0.0000000001
 40
0.0
 40
0.0
 40
0.0
 40
0.0
 40
0.2353281341
 40
0.4808290935
 40
0.7359655439
 40
1.0
 40
1.0
 40
1.0
 40
1.0
 10
12.4380625365
 20
8.0185808485
 30
0.0
 10
12.6138965073
 20
7.9344802916
 30
0.0
 10
12.9662653095
 20
7.7479120335
 30
0.0
 10
13.483108222
 20
7.4238460367
 30
0.0
 10
13.996178235
 20
7.0517781669
 30
0.0
 10
14.3280241737
 20
6.777829932
 30
0.0
 10
14.4925696409
 20
6.6337845788
 30
0.0
  0
SPLINE
  5
6AA
100
AcDbEntity
  8
0
100
AcDbSpline
 62
7
  6
CONTINUOUS
 70
0
 71
3
 72
11
 73
7
 74
0
 42
0.0000001
 43
0.0000001
 44
0.0000000001
 40
0.0
 40
0.0
 40
0.0
 40
0.0
 40
0.2640394339
 40
0.5191779821
 40
0.7646774432
 40
1.0
 40
1.0
 40
1.0
 40
1.0
 10
14.4925696409
 20
6.630798158
 30
0.0
 10
14.3280281886
 20
6.7748613747
 30
0.0
 10
13.9961880309
 20
7.0488404477
 30
0.0
 10
13.4831185783
 20
7.4209403378
 30
0.0
 10
12.966273011
 20
7.7450193039
 30
0.0
 10
12.6138988677
 20
7.9315838139
 30
0.0
 10
12.4380625365
 20
8.0156782788
 30
0.0
  0
SPLINE
  5
6AB
100
AcDbEntity
  8
0
100
AcDbSpline
 62
7
  6
CONTINUOUS
 70
0
 71
3
 72
9
 73
5
 74
0
 42
0.0000001
 43
0.0000001
 44
0.0000000001
 40
0.0
 40
0.0
 40
0.0
 40
0.0
 40
0.2630552254
 40
1.0
 40
1.0
 40
1.0
 40
1.0
 10
12.4380625365
 20
8.0156782788
 30
0.0
 10
12.4325631477
 20
8.0183083846
 30
0.0
 10
12.4118702084
 20
8.0287354251
 30
0.0
 10
12.39203252
 20
8.0409375305
 30
0.0
 10
12.3783122618
 20
8.0511062763
 30
0.0
  0
SPLINE
  5
6AC
100
AcDbEntity
  8
0
100
AcDbSpline
 62
7
  6
CONTINUOUS
 70
0
 71
3
 72
11
 73
7
 74
0
 42
0.0000001
 43
0.0000001
 44
0.0000000001
 40
0.0
 40
0.0
 40
0.0
 40
0.0
 40
0.284723766
 40
0.5409095434
 40
0.7756372572
 40
1.0
 40
1.0
 40
1.0
 40
1.0
 10
12.3766437451
 20
8.0523521928
 30
0.0
 10
12.3653588939
 20
8.060842361
 30
0.0
 10
12.3450308111
 20
8.0785806208
 30
0.0
 10
12.3212251215
 20
8.1091683426
 30
0.0
 10
12.3064729478
 20
8.1418540196
 30
0.0
 10
12.3031471944
 20
8.1647501353
 30
0.0
 10
12.3031471571
 20
8.1758782902
 30
0.0
  0
SPLINE
  5
6AD
100
AcDbEntity
  8
0
100
AcDbSpline
 62
7
  6
CONTINUOUS
 70
0
 71
3
 72
9
 73
5
 74
0
 42
0.0000001
 43
0.0000001
 44
0.0000000001
 40
0.0
 40
0.0
 40
0.0
 40
0.0
 40
0.2378826181
 40
1.0
 40
1.0
 40
1.0
 40
1.0
 10
11.9586479423
 20
8.7625368129
 30
0.0
 10
11.9589527226
 20
8.7635248936
 30
0.0
 10
11.9604832441
 20
8.7676015829
 30
0.0
 10
11.9629561759
 20
8.7712897288
 30
0.0
 10
11.9651350603
 20
8.7737850676
 30
0.0
  0
SPLINE
  5
6AE
100
AcDbEntity
  8
0
100
AcDbSpline
 62
7
  6
CONTINUOUS
 70
0
 71
3
 72
9
 73
5
 74
0
 42
0.0000001
 43
0.0000001
 44
0.0000000001
 40
0.0
 40
0.0
 40
0.0
 40
0.0
 40
0.2341914856
 40
1.0
 40
1.0
 40
1.0
 40
1.0
 10
11.9651350603
 20
8.7737850676
 30
0.0
 10
11.9660027748
 20
8.7747788062
 30
0.0
 10
11.9699232889
 20
8.7788335855
 30
0.0
 10
11.9745687295
 20
8.7821478635
 30
0.0
 10
11.9783039345
 20
8.7843062802
 30
0.0
  0
SPLINE
  5
6AF
100
AcDbEntity
  8
0
100
AcDbSpline
 62
7
  6
CONTINUOUS
 70
0
 71
3
 72
11
 73
7
 74
0
 42
0.0000001
 43
0.0000001
 44
0.0000000001
 40
0.0
 40
0.0
 40
0.0
 40
0.0
 40
0.2270244168
 40
0.4893400011
 40
0.7575513463
 40
1.0
 40
1.0
 40
1.0
 40
1.0
 10
11.9691491244
 20
8.7266251074
 30
0.0
 10
11.9624819133
 20
8.7319044972
 30
0.0
 10
11.94547798
 20
8.7399068122
 30
0.0
 10
11.9172260902
 20
8.744498769
 30
0.0
 10
11.8880999196
 20
8.742322328
 30
0.0
 10
11.8696619704
 20
8.7359858235
 30
0.0
 10
11.8617983487
 20
8.7314417697
 30
0.0
  0
SPLINE
  5
6B0
100
AcDbEntity
  8
0
100
AcDbSpline
 62
7
  6
CONTINUOUS
 70
0
 71
3
 72
11
 73
7
 74
0
 42
0.0000001
 43
0.0000001
 44
0.0000000001
 40
0.0
 40
0.0
 40
0.0
 40
0.0
 40
0.3024801792
 40
0.5669408345
 40
0.7959196118
 40
1.0
 40
1.0
 40
1.0
 40
1.0
 10
12.4317987954
 20
8.3520980583
 30
0.0
 10
12.4118511676
 20
8.3405711695
 30
0.0
 10
12.3757881032
 20
8.31645477
 30
0.0
 10
12.3318726455
 20
8.2740675301
 30
0.0
 10
12.3030621258
 20
8.228659403
 30
0.0
 10
12.2950455937
 20
8.1958088609
 30
0.0
 10
12.2943945242
 20
8.1802785875
 30
0.0
  0
SPLINE
  5
6B1
100
AcDbEntity
  8
0
100
AcDbSpline
 62
7
  6
CONTINUOUS
 70
0
 71
3
 72
9
 73
5
 74
0
 42
0.0000001
 43
0.0000001
 44
0.0000000001
 40
0.0
 40
0.0
 40
0.0
 40
0.0
 40
0.2418530263
 40
1.0
 40
1.0
 40
1.0
 40
1.0
 10
11.435863949
 20
8.4001252684
 30
0.0
 10
11.5136646881
 20
8.3783175993
 30
0.0
 10
11.8333095491
 20
8.2809251823
 30
0.0
 10
12.144300733
 20
8.1558796544
 30
0.0
 10
12.3738782891
 20
8.048886832
 30
0.0
  0
LINE
  5
6B2
100
AcDbEntity
  8
0
100
AcDbLine
 62
7
  6
CONTINUOUS
 10
12.3738782891
 20
8.0459814617
 11
12.3728117699
 21
8.0464783465
  0
SPLINE
  5
6B3
100
AcDbEntity
  8
0
100
AcDbSpline
 62
7
  6
CONTINUOUS
 70
0
 71
3
 72
9
 73
5
 74
0
 42
0.0000001
 43
0.0000001
 44
0.0000000001
 40
0.0
 40
0.0
 40
0.0
 40
0.0
 40
0.2583774053
 40
1.0
 40
1.0
 40
1.0
 40
1.0
 10
12.3728117699
 20
8.0464783465
 30
0.0
 10
12.2946600084
 20
8.0828808012
 30
0.0
 10
11.9896454342
 20
8.2181754722
 30
0.0
 10
11.6741487884
 20
8.330378193
 30
0.0
 10
11.435863949
 20
8.3971388475
 30
0.0
  0
SPLINE
  5
6B4
100
AcDbEntity
  8
0
100
AcDbSpline
 62
7
  6
CONTINUOUS
 70
0
 71
3
 72
9
 73
5
 74
0
 42
0.0000001
 43
0.0000001
 44
0.0000000001
 40
0.0
 40
0.0
 40
0.0
 40
0.0
 40
0.2378826181
 40
1.0
 40
1.0
 40
1.0
 40
1.0
 10
11.8421423565
 20
8.6952131719
 30
0.0
 10
11.8424471368
 20
8.6962012525
 30
0.0
 10
11.8439776583
 20
8.7002779418
 30
0.0
 10
11.8464505901
 20
8.7039660878
 30
0.0
 10
11.8486294745
 20
8.7064614265
 30
0.0
  0
SPLINE
  5
6B5
100
AcDbEntity
  8
0
100
AcDbSpline
 62
7
  6
CONTINUOUS
 70
0
 71
3
 72
9
 73
5
 74
0
 42
0.0000001
 43
0.0000001
 44
0.0000000001
 40
0.0
 40
0.0
 40
0.0
 40
0.0
 40
0.2341914856
 40
1.0
 40
1.0
 40
1.0
 40
1.0
 10
11.8486294745
 20
8.7064614265
 30
0.0
 10
11.849497189
 20
8.7074551652
 30
0.0
 10
11.8534177031
 20
8.7115099444
 30
0.0
 10
11.8580631437
 20
8.7148242225
 30
0.0
 10
11.8617983487
 20
8.7169826392
 30
0.0
  0
SPLINE
  5
6B6
100
AcDbEntity
  8
0
100
AcDbSpline
 62
7
  6
CONTINUOUS
 70
0
 71
3
 72
15
 73
11
 74
0
 42
0.0000001
 43
0.0000001
 44
0.0000000001
 40
0.0
 40
0.0
 40
0.0
 40
0.0
 40
0.0869808554
 40
0.1864817722
 40
0.3038789478
 40
0.4376755565
 40
0.5821562656
 40
0.7294492074
 40
0.871195695
 40
1.0
 40
1.0
 40
1.0
 40
1.0
 10
15.6282689382
 20
6.992608455
 30
0.0
 10
15.6282679952
 20
6.9966986913
 30
0.0
 10
15.6258007423
 20
7.0055479098
 30
0.0
 10
15.6161600468
 20
7.0165191001
 30
0.0
 10
15.6019303898
 20
7.0251970416
 30
0.0
 10
15.5841653131
 20
7.0311381146
 30
0.0
 10
15.5642504111
 20
7.0339364358
 30
0.0
 10
15.5437737179
 20
7.0333718441
 30
0.0
 10
15.5244167986
 20
7.0294929051
 30
0.0
 10
15.5125400445
 20
7.0245889189
 30
0.0
 10
15.5072957108
 20
7.0215584407
 30
0.0
  0
SPLINE
  5
6B7
100
AcDbEntity
  8
0
100
AcDbSpline
 62
7
  6
CONTINUOUS
 70
0
 71
3
 72
9
 73
5
 74
0
 42
0.0000001
 43
0.0000001
 44
0.0000000001
 40
0.0
 40
0.0
 40
0.0
 40
0.0
 40
0.2378826181
 40
1.0
 40
1.0
 40
1.0
 40
1.0
 10
15.4876397186
 20
6.9853298429
 30
0.0
 10
15.4879444989
 20
6.9863179235
 30
0.0
 10
15.4894750204
 20
6.9903946128
 30
0.0
 10
15.4919479521
 20
6.9940827587
 30
0.0
 10
15.4941268365
 20
6.9965780975
 30
0.0
  0
SPLINE
  5
6B8
100
AcDbEntity
  8
0
100
AcDbSpline
 62
7
  6
CONTINUOUS
 70
0
 71
3
 72
9
 73
5
 74
0
 42
0.0000001
 43
0.0000001
 44
0.0000000001
 40
0.0
 40
0.0
 40
0.0
 40
0.0
 40
0.2341914856
 40
1.0
 40
1.0
 40
1.0
 40
1.0
 10
15.4941268365
 20
6.9965780975
 30
0.0
 10
15.4949945511
 20
6.9975718361
 30
0.0
 10
15.4989150652
 20
7.0016266154
 30
0.0
 10
15.5035605058
 20
7.0049408935
 30
0.0
 10
15.5072957108
 20
7.0070993102
 30
0.0
  0
SPLINE
  5
6B9
100
AcDbEntity
  8
0
100
AcDbSpline
 62
7
  6
CONTINUOUS
 70
0
 71
3
 72
15
 73
11
 74
0
 42
0.0000001
 43
0.0000001
 44
0.0000000001
 40
0.0
 40
0.0
 40
0.0
 40
0.0
 40
0.0869808554
 40
0.1864817722
 40
0.3038789478
 40
0.4376755565
 40
0.5821562656
 40
0.7294492074
 40
0.871195695
 40
1.0
 40
1.0
 40
1.0
 40
1.0
 10
15.4654116677
 20
6.8985001395
 30
0.0
 10
15.4654107247
 20
6.9025903759
 30
0.0
 10
15.4629434718
 20
6.9114395944
 30
0.0
 10
15.4533027763
 20
6.9224107847
 30
0.0
 10
15.4390731194
 20
6.9310887262
 30
0.0
 10
15.4213080426
 20
6.9370297991
 30
0.0
 10
15.4013931407
 20
6.9398281204
 30
0.0
 10
15.3809164475
 20
6.9392635286
 30
0.0
 10
15.3615595282
 20
6.9353845896
 30
0.0
 10
15.3496827741
 20
6.9304806035
 30
0.0
 10
15.3444384403
 20
6.9274501253
 30
0.0
  0
SPLINE
  5
6BA
100
AcDbEntity
  8
0
100
AcDbSpline
 62
7
  6
CONTINUOUS
 70
0
 71
3
 72
9
 73
5
 74
0
 42
0.0000001
 43
0.0000001
 44
0.0000000001
 40
0.0
 40
0.0
 40
0.0
 40
0.0
 40
0.2378826181
 40
1.0
 40
1.0
 40
1.0
 40
1.0
 10
15.3247824481
 20
6.8912215274
 30
0.0
 10
15.3250872284
 20
6.8922096081
 30
0.0
 10
15.3266177499
 20
6.8962862974
 30
0.0
 10
15.3290906817
 20
6.8999744433
 30
0.0
 10
15.3312695661
 20
6.902469782
 30
0.0
  0
SPLINE
  5
6BB
100
AcDbEntity
  8
0
100
AcDbSpline
 62
7
  6
CONTINUOUS
 70
0
 71
3
 72
9
 73
5
 74
0
 42
0.0000001
 43
0.0000001
 44
0.0000000001
 40
0.0
 40
0.0
 40
0.0
 40
0.0
 40
0.2341914856
 40
1.0
 40
1.0
 40
1.0
 40
1.0
 10
15.3312695661
 20
6.902469782
 30
0.0
 10
15.3321372806
 20
6.9034635207
 30
0.0
 10
15.3360577947
 20
6.9075183
 30
0.0
 10
15.3407032353
 20
6.910832578
 30
0.0
 10
15.3444384403
 20
6.9129909947
 30
0.0
  0
SPLINE
  5
6BC
100
AcDbEntity
  8
0
100
AcDbSpline
 62
7
  6
CONTINUOUS
 70
0
 71
3
 72
15
 73
11
 74
0
 42
0.0000001
 43
0.0000001
 44
0.0000000001
 40
0.0
 40
0.0
 40
0.0
 40
0.0
 40
0.0869836912
 40
0.1864873991
 40
0.3038869858
 40
0.4376832063
 40
0.5821524432
 40
0.729428233
 40
0.8711851652
 40
1.0
 40
1.0
 40
1.0
 40
1.0
 10
15.3025543258
 20
6.8043928211
 30
0.0
 10
15.3025531246
 20
6.808483161
 30
0.0
 10
15.3000855602
 20
6.8173324727
 30
0.0
 10
15.2904442297
 20
6.8283035016
 30
0.0
 10
15.2762143018
 20
6.8369811548
 30
0.0
 10
15.2584496648
 20
6.8429216749
 30
0.0
 10
15.2385362818
 20
6.8457198105
 30
0.0
 10
15.2180606126
 20
6.8451552001
 30
0.0
 10
15.1987036053
 20
6.841276606
 30
0.0
 10
15.1868258942
 20
6.8363725138
 30
0.0
 10
15.1815811698
 20
6.8333418098
 30
0.0
  0
SPLINE
  5
6BD
100
AcDbEntity
  8
0
100
AcDbSpline
 62
7
  6
CONTINUOUS
 70
0
 71
3
 72
9
 73
5
 74
0
 42
0.0000001
 43
0.0000001
 44
0.0000000001
 40
0.0
 40
0.0
 40
0.0
 40
0.0
 40
0.2378826181
 40
1.0
 40
1.0
 40
1.0
 40
1.0
 10
15.1619251776
 20
6.797113212
 30
0.0
 10
15.1622299579
 20
6.7981012926
 30
0.0
 10
15.1637604794
 20
6.8021779819
 30
0.0
 10
15.1662334112
 20
6.8058661279
 30
0.0
 10
15.1684122956
 20
6.8083614666
 30
0.0
  0
SPLINE
  5
6BE
100
AcDbEntity
  8
0
100
AcDbSpline
 62
7
  6
CONTINUOUS
 70
0
 71
3
 72
9
 73
5
 74
0
 42
0.0000001
 43
0.0000001
 44
0.0000000001
 40
0.0
 40
0.0
 40
0.0
 40
0.0
 40
0.2341914856
 40
1.0
 40
1.0
 40
1.0
 40
1.0
 10
15.1684122956
 20
6.8083614666
 30
0.0
 10
15.1692800101
 20
6.8093552053
 30
0.0
 10
15.1732005242
 20
6.8134099845
 30
0.0
 10
15.1778459648
 20
6.8167242626
 30
0.0
 10
15.1815811698
 20
6.8188826793
 30
0.0
  0
SPLINE
  5
6BF
100
AcDbEntity
  8
0
100
AcDbSpline
 62
7
  6
CONTINUOUS
 70
0
 71
3
 72
11
 73
7
 74
0
 42
0.0000001
 43
0.0000001
 44
0.0000000001
 40
0.0
 40
0.0
 40
0.0
 40
0.0
 40
0.2038785294
 40
0.4323927115
 40
0.6968266755
 40
1.0
 40
1.0
 40
1.0
 40
1.0
 10
12.2943099159
 20
8.1804038928
 30
0.0
 10
12.294604157
 20
8.1961172589
 30
0.0
 10
12.3020682235
 20
8.2295045841
 30
0.0
 10
12.3307523663
 20
8.2757413758
 30
0.0
 10
12.3750388157
 20
8.3188523155
 30
0.0
 10
12.4115639425
 20
8.3433258659
 30
0.0
 10
12.4317987954
 20
8.3550187299
 30
0.0
  0
SPLINE
  5
6C0
100
AcDbEntity
  8
0
100
AcDbSpline
 62
7
  6
CONTINUOUS
 70
0
 71
3
 72
11
 73
7
 74
0
 42
0.0000001
 43
0.0000001
 44
0.0000000001
 40
0.0
 40
0.0
 40
0.0
 40
0.0
 40
0.2238654612
 40
0.458341162
 40
0.7146816918
 40
1.0
 40
1.0
 40
1.0
 40
1.0
 10
12.3031471573
 20
8.1787924944
 30
0.0
 10
12.303147197
 20
8.1675325665
 30
0.0
 10
12.3065562346
 20
8.1443491786
 30
0.0
 10
12.3216656725
 20
8.111296264
 30
0.0
 10
12.3460244159
 20
8.0804123558
 30
0.0
 10
12.3667960785
 20
8.0625466842
 30
0.0
 10
12.3783257734
 20
8.0540018886
 30
0.0
  0
SPLINE
  5
6C1
100
AcDbEntity
  8
0
100
AcDbSpline
 62
7
  6
CONTINUOUS
 70
0
 71
3
 72
9
 73
5
 74
0
 42
0.0000001
 43
0.0000001
 44
0.0000000001
 40
0.0
 40
0.0
 40
0.0
 40
0.0
 40
0.2374885524
 40
1.0
 40
1.0
 40
1.0
 40
1.0
 10
12.3800113449
 20
8.0527619888
 30
0.0
 10
12.3843219458
 20
8.0496146672
 30
0.0
 10
12.4028312145
 20
8.036854593
 30
0.0
 10
12.4226031688
 20
8.025974991
 30
0.0
 10
12.4380625365
 20
8.0185808485
 30
0.0
  0
SPLINE
  5
6C2
100
AcDbEntity
  8
0
100
AcDbSpline
 62
7
  6
CONTINUOUS
 70
0
 71
3
 72
11
 73
7
 74
0
 42
0.0000001
 43
0.0000001
 44
0.0000000001
 40
0.0
 40
0.0
 40
0.0
 40
0.0
 40
0.2895402593
 40
0.5491143487
 40
0.7822520078
 40
1.0
 40
1.0
 40
1.0
 40
1.0
 10
14.3660420693
 20
4.6995433171
 30
0.0
 10
14.3660420693
 20
4.6959594945
 30
0.0
 10
14.3654950791
 20
4.6891401559
 30
0.0
 10
14.3627393042
 20
4.6797689029
 30
0.0
 10
14.3580905946
 20
4.6721613819
 30
0.0
 10
14.3537203281
 20
4.6684933396
 30
0.0
 10
14.3513867258
 20
4.667144849
 30
0.0
  0
SPLINE
  5
6C3
100
AcDbEntity
  8
0
100
AcDbSpline
 62
7
  6
CONTINUOUS
 70
0
 71
3
 72
11
 73
7
 74
0
 42
0.0000001
 43
0.0000001
 44
0.0000000001
 40
0.0
 40
0.0
 40
0.0
 40
0.0
 40
0.2373072848
 40
0.500083484
 40
0.7628142822
 40
1.0
 40
1.0
 40
1.0
 40
1.0
 10
14.3159321399
 20
5.9719849476
 30
0.0
 10
14.3230465446
 20
5.9678738347
 30
0.0
 10
14.336509179
 20
5.9565397614
 30
0.0
 10
14.3522170795
 20
5.935063393
 30
0.0
 10
14.3629610212
 20
5.9107258668
 30
0.0
 10
14.3660420693
 20
5.8934046238
 30
0.0
 10
14.3660420693
 20
5.8851920208
 30
0.0
  0
SPLINE
  5
6C4
100
AcDbEntity
  8
0
100
AcDbSpline
 62
7
  6
CONTINUOUS
 70
0
 71
3
 72
11
 73
7
 74
0
 42
0.0000001
 43
0.0000001
 44
0.0000000001
 40
0.0
 40
0.0
 40
0.0
 40
0.0
 40
0.2258683662
 40
0.4683423605
 40
0.7268608545
 40
1.0
 40
1.0
 40
1.0
 40
1.0
 10
11.3857540197
 20
8.3896150621
 30
0.0
 10
11.648286179
 20
8.3174296561
 30
0.0
 10
12.1817221369
 20
8.1261994799
 30
0.0
 10
12.9643162261
 20
7.727998536
 30
0.0
 10
13.7458272391
 20
7.2150042422
 30
0.0
 10
14.2454836835
 20
6.8119406326
 30
0.0
 10
14.4925696409
 20
6.5943179678
 30
0.0
  0
SPLINE
  5
6C5
100
AcDbEntity
  8
0
100
AcDbSpline
 62
7
  6
CONTINUOUS
 70
0
 71
3
 72
11
 73
7
 74
0
 42
0.0000001
 43
0.0000001
 44
0.0000000001
 40
0.0
 40
0.0
 40
0.0
 40
0.0
 40
0.2176757884
 40
0.450782052
 40
0.7103828432
 40
1.0
 40
1.0
 40
1.0
 40
1.0
 10
13.4286087546
 20
6.467762179
 30
0.0
 10
13.4309463679
 20
6.4691129874
 30
0.0
 10
13.4363173414
 20
6.47106994
 30
0.0
 10
13.4452476225
 20
6.4712922761
 30
0.0
 10
13.4547611244
 20
6.4689858727
 30
0.0
 10
13.4609531508
 20
6.4660410752
 30
0.0
 10
13.4640633405
 20
6.4642438283
 30
0.0
  0
SPLINE
  5
6C6
100
AcDbEntity
  8
0
100
AcDbSpline
 62
7
  6
CONTINUOUS
 70
0
 71
3
 72
11
 73
7
 74
0
 42
0.0000001
 43
0.0000001
 44
0.0000000001
 40
0.0
 40
0.0
 40
0.0
 40
0.0
 40
0.2270244168
 40
0.4893400011
 40
0.7575513463
 40
1.0
 40
1.0
 40
1.0
 40
1.0
 10
12.202160296
 20
8.8612723895
 30
0.0
 10
12.1954930849
 20
8.8665517793
 30
0.0
 10
12.1784891516
 20
8.8745540943
 30
0.0
 10
12.1502372618
 20
8.8791460511
 30
0.0
 10
12.1211110912
 20
8.87696961
 30
0.0
 10
12.102673142
 20
8.8706331055
 30
0.0
 10
12.0948095203
 20
8.8660890518
 30
0.0
  0
SPLINE
  5
6C7
100
AcDbEntity
  8
0
100
AcDbSpline
 62
7
  6
CONTINUOUS
 70
0
 71
3
 72
11
 73
7
 74
0
 42
0.0000001
 43
0.0000001
 44
0.0000000001
 40
0.0
 40
0.0
 40
0.0
 40
0.0
 40
0.2345609791
 40
0.4941676341
 40
0.7569398406
 40
1.0
 40
1.0
 40
1.0
 40
1.0
 10
12.2113151061
 20
8.9189535623
 30
0.0
 10
12.2179567512
 20
8.9227914876
 30
0.0
 10
12.2333104126
 20
8.9285493463
 30
0.0
 10
12.2580203208
 20
8.9317758785
 30
0.0
 10
12.2831489197
 20
8.9299026792
 30
0.0
 10
12.2991843645
 20
8.9250609107
 30
0.0
 10
12.3063676609
 20
8.921657563
 30
0.0
  0
SPLINE
  5
6C8
100
AcDbEntity
  8
0
100
AcDbSpline
 62
7
  6
CONTINUOUS
 70
0
 71
3
 72
11
 73
7
 74
0
 42
0.0000001
 43
0.0000001
 44
0.0000000001
 40
0.0
 40
0.0
 40
0.0
 40
0.0
 40
0.2345609791
 40
0.4941676341
 40
0.7569398406
 40
1.0
 40
1.0
 40
1.0
 40
1.0
 10
12.0948095203
 20
8.8516299213
 30
0.0
 10
12.1014511654
 20
8.8554678465
 30
0.0
 10
12.1168048268
 20
8.8612257052
 30
0.0
 10
12.141514735
 20
8.8644522375
 30
0.0
 10
12.1666433339
 20
8.8625790382
 30
0.0
 10
12.1826787787
 20
8.8577372697
 30
0.0
 10
12.1898620751
 20
8.854333922
 30
0.0
  0
SPLINE
  5
6C9
100
AcDbEntity
  8
0
100
AcDbSpline
 62
7
  6
CONTINUOUS
 70
0
 71
3
 72
11
 73
7
 74
0
 42
0.0000001
 43
0.0000001
 44
0.0000000001
 40
0.0
 40
0.0
 40
0.0
 40
0.0
 40
0.2345609791
 40
0.4941676341
 40
0.7569398406
 40
1.0
 40
1.0
 40
1.0
 40
1.0
 10
11.9783039345
 20
8.7843062802
 30
0.0
 10
11.9849455796
 20
8.7881442055
 30
0.0
 10
12.0002992411
 20
8.7939020642
 30
0.0
 10
12.0250091492
 20
8.7971285964
 30
0.0
 10
12.0501377481
 20
8.7952553971
 30
0.0
 10
12.0661731929
 20
8.7904136286
 30
0.0
 10
12.0733564893
 20
8.7870102809
 30
0.0
  0
SPLINE
  5
6CA
100
AcDbEntity
  8
0
100
AcDbSpline
 62
7
  6
CONTINUOUS
 70
0
 71
3
 72
11
 73
7
 74
0
 42
0.0000001
 43
0.0000001
 44
0.0000000001
 40
0.0
 40
0.0
 40
0.0
 40
0.0
 40
0.2345609791
 40
0.4941676341
 40
0.7569398406
 40
1.0
 40
1.0
 40
1.0
 40
1.0
 10
11.8617983487
 20
8.7169826392
 30
0.0
 10
11.8684399938
 20
8.7208205645
 30
0.0
 10
11.8837936553
 20
8.7265784232
 30
0.0
 10
11.9085035634
 20
8.7298049554
 30
0.0
 10
11.9336321623
 20
8.7279317561
 30
0.0
 10
11.9496676071
 20
8.7230899876
 30
0.0
 10
11.9568509035
 20
8.7196866399
 30
0.0
  0
SPLINE
  5
6CB
100
AcDbEntity
  8
0
100
AcDbSpline
 62
7
  6
CONTINUOUS
 70
0
 71
3
 72
11
 73
7
 74
0
 42
0.0000001
 43
0.0000001
 44
0.0000000001
 40
0.0
 40
0.0
 40
0.0
 40
0.0
 40
0.2894760005
 40
0.5490446296
 40
0.7822119818
 40
1.0
 40
1.0
 40
1.0
 40
1.0
 10
12.2113151061
 20
8.9334126928
 30
0.0
 10
12.2082064034
 20
8.9316163053
 30
0.0
 10
12.2025650859
 20
8.9277227185
 30
0.0
 10
12.1958180514
 20
8.920631846
 30
0.0
 10
12.191551622
 20
8.9127818246
 30
0.0
 10
12.1905610156
 20
8.9071501259
 30
0.0
 10
12.1905618089
 20
8.9044488721
 30
0.0
  0
SPLINE
  5
6CC
100
AcDbEntity
  8
0
100
AcDbSpline
 62
7
  6
CONTINUOUS
 70
0
 71
3
 72
11
 73
7
 74
0
 42
0.0000001
 43
0.0000001
 44
0.0000000001
 40
0.0
 40
0.0
 40
0.0
 40
0.0
 40
0.2894760005
 40
0.5490446296
 40
0.7822119818
 40
1.0
 40
1.0
 40
1.0
 40
1.0
 10
12.0948095203
 20
8.8660890518
 30
0.0
 10
12.0917008176
 20
8.8642926643
 30
0.0
 10
12.0860595001
 20
8.8603990775
 30
0.0
 10
12.0793124656
 20
8.853308205
 30
0.0
 10
12.0750460362
 20
8.8454581836
 30
0.0
 10
12.0740554298
 20
8.8398264848
 30
0.0
 10
12.0740562231
 20
8.837125231
 30
0.0
  0
SPLINE
  5
6CD
100
AcDbEntity
  8
0
100
AcDbSpline
 62
7
  6
CONTINUOUS
 70
0
 71
3
 72
11
 73
7
 74
0
 42
0.0000001
 43
0.0000001
 44
0.0000000001
 40
0.0
 40
0.0
 40
0.0
 40
0.0
 40
0.2894760005
 40
0.5490446296
 40
0.7822119818
 40
1.0
 40
1.0
 40
1.0
 40
1.0
 10
11.9783039345
 20
8.7987654108
 30
0.0
 10
11.9751952318
 20
8.7969690232
 30
0.0
 10
11.9695539143
 20
8.7930754365
 30
0.0
 10
11.9628068799
 20
8.7859845639
 30
0.0
 10
11.9585404504
 20
8.7781345425
 30
0.0
 10
11.957549844
 20
8.7725028438
 30
0.0
 10
11.9575506373
 20
8.76980159
 30
0.0
  0
SPLINE
  5
6CE
100
AcDbEntity
  8
0
100
AcDbSpline
 62
7
  6
CONTINUOUS
 70
0
 71
3
 72
11
 73
7
 74
0
 42
0.0000001
 43
0.0000001
 44
0.0000000001
 40
0.0
 40
0.0
 40
0.0
 40
0.0
 40
0.2894760005
 40
0.5490446296
 40
0.7822119818
 40
1.0
 40
1.0
 40
1.0
 40
1.0
 10
11.8617983487
 20
8.7314417697
 30
0.0
 10
11.858689646
 20
8.7296453822
 30
0.0
 10
11.8530483285
 20
8.7257517954
 30
0.0
 10
11.8463012941
 20
8.7186609229
 30
0.0
 10
11.8420348646
 20
8.7108109015
 30
0.0
 10
11.8410442582
 20
8.7051792027
 30
0.0
 10
11.8410450515
 20
8.702477949
 30
0.0
  0
SPLINE
  5
6CF
100
AcDbEntity
  8
0
100
AcDbSpline
 62
7
  6
CONTINUOUS
 70
0
 71
3
 72
11
 73
7
 74
0
 42
0.0000001
 43
0.0000001
 44
0.0000000001
 40
0.0
 40
0.0
 40
0.0
 40
0.0
 40
0.237185963
 40
0.4999168509
 40
0.7626929605
 40
1.0
 40
1.0
 40
1.0
 40
1.0
 10
14.3672948175
 20
5.8859159309
 30
0.0
 10
14.3672948175
 20
5.8941285424
 30
0.0
 10
14.3642137644
 20
5.911449797
 30
0.0
 10
14.3534698132
 20
5.9357873283
 30
0.0
 10
14.3377619123
 20
5.957263686
 30
0.0
 10
14.3242992855
 20
5.968597749
 30
0.0
 10
14.3171848881
 20
5.9727088578
 30
0.0
  0
SPLINE
  5
6D0
100
AcDbEntity
  8
0
100
AcDbSpline
 62
7
  6
CONTINUOUS
 70
0
 71
3
 72
11
 73
7
 74
0
 42
0.0000001
 43
0.0000001
 44
0.0000000001
 40
0.0
 40
0.0
 40
0.0
 40
0.0
 40
0.2486025788
 40
0.522815942
 40
0.7840648473
 40
1.0
 40
1.0
 40
1.0
 40
1.0
 10
15.5072957108
 20
7.0070993102
 30
0.0
 10
15.5159147428
 20
7.0120798835
 30
0.0
 10
15.5362636416
 20
7.0186979968
 30
0.0
 10
15.5679516177
 20
7.0200220878
 30
0.0
 10
15.5976384703
 20
7.013574997
 30
0.0
 10
15.6146633344
 20
7.0033397474
 30
0.0
 10
15.6204146237
 20
6.9968833658
 30
0.0
  0
SPLINE
  5
6D1
100
AcDbEntity
  8
0
100
AcDbSpline
 62
7
  6
CONTINUOUS
 70
0
 71
3
 72
9
 73
5
 74
0
 42
0.0000001
 43
0.0000001
 44
0.0000000001
 40
0.0
 40
0.0
 40
0.0
 40
0.0
 40
0.2651765517
 40
1.0
 40
1.0
 40
1.0
 40
1.0
 10
15.6204146237
 20
6.9968833658
 30
0.0
 10
15.6211965308
 20
6.996005599
 30
0.0
 10
15.6239962361
 20
6.992570802
 30
0.0
 10
15.6261510913
 20
6.988573257
 30
0.0
 10
15.6271287644
 20
6.9854659769
 30
0.0
  0
SPLINE
  5
6D2
100
AcDbEntity
  8
0
100
AcDbSpline
 62
7
  6
CONTINUOUS
 70
0
 71
3
 72
11
 73
7
 74
0
 42
0.0000001
 43
0.0000001
 44
0.0000000001
 40
0.0
 40
0.0
 40
0.0
 40
0.0
 40
0.2486025788
 40
0.522815942
 40
0.7840648473
 40
1.0
 40
1.0
 40
1.0
 40
1.0
 10
15.3444384403
 20
6.9129909947
 30
0.0
 10
15.3530574723
 20
6.9179715681
 30
0.0
 10
15.3734063711
 20
6.9245896814
 30
0.0
 10
15.4050943472
 20
6.9259137724
 30
0.0
 10
15.4347811999
 20
6.9194666815
 30
0.0
 10
15.451806064
 20
6.909231432
 30
0.0
 10
15.4575573532
 20
6.9027750504
 30
0.0
  0
SPLINE
  5
6D3
100
AcDbEntity
  8
0
100
AcDbSpline
 62
7
  6
CONTINUOUS
 70
0
 71
3
 72
9
 73
5
 74
0
 42
0.0000001
 43
0.0000001
 44
0.0000000001
 40
0.0
 40
0.0
 40
0.0
 40
0.0
 40
0.2651765517
 40
1.0
 40
1.0
 40
1.0
 40
1.0
 10
15.4575573532
 20
6.9027750504
 30
0.0
 10
15.4583392604
 20
6.9018972836
 30
0.0
 10
15.4611389656
 20
6.8984624866
 30
0.0
 10
15.4632938208
 20
6.8944649416
 30
0.0
 10
15.4642714939
 20
6.8913576615
 30
0.0
  0
SPLINE
  5
6D4
100
AcDbEntity
  8
0
100
AcDbSpline
 62
7
  6
CONTINUOUS
 70
0
 71
3
 72
11
 73
7
 74
0
 42
0.0000001
 43
0.0000001
 44
0.0000000001
 40
0.0
 40
0.0
 40
0.0
 40
0.0
 40
0.2485787562
 40
0.5227703011
 40
0.7840251799
 40
1.0
 40
1.0
 40
1.0
 40
1.0
 10
15.1815811698
 20
6.8188826793
 30
0.0
 10
15.1901973294
 20
6.8238615928
 30
0.0
 10
15.2105389793
 20
6.8304787317
 30
0.0
 10
15.2422174944
 20
6.831806382
 30
0.0
 10
15.2718993409
 20
6.8253664152
 30
0.0
 10
15.2889249797
 20
6.8151404771
 30
0.0
 10
15.2946806039
 20
6.8086885831
 30
0.0
  0
SPLINE
  5
6D5
100
AcDbEntity
  8
0
100
AcDbSpline
 62
7
  6
CONTINUOUS
 70
0
 71
3
 72
9
 73
5
 74
0
 42
0.0000001
 43
0.0000001
 44
0.0000000001
 40
0.0
 40
0.0
 40
0.0
 40
0.0
 40
0.2651910714
 40
1.0
 40
1.0
 40
1.0
 40
1.0
 10
15.2946806039
 20
6.8086885831
 30
0.0
 10
15.2954638144
 20
6.807810626
 30
0.0
 10
15.2982682605
 20
6.8043751092
 30
0.0
 10
15.3004279402
 20
6.8003760152
 30
0.0
 10
15.3014086477
 20
6.7972670132
 30
0.0
  0
SPLINE
  5
6D6
100
AcDbEntity
  8
0
100
AcDbSpline
 62
7
  6
CONTINUOUS
 70
0
 71
3
 72
11
 73
7
 74
0
 42
0.0000001
 43
0.0000001
 44
0.0000000001
 40
0.0
 40
0.0
 40
0.0
 40
0.0
 40
0.2894760005
 40
0.5490446296
 40
0.7822119818
 40
1.0
 40
1.0
 40
1.0
 40
1.0
 10
15.5072957108
 20
7.0215584407
 30
0.0
 10
15.5041870081
 20
7.0197620531
 30
0.0
 10
15.4985456906
 20
7.0158684664
 30
0.0
 10
15.4917986561
 20
7.0087775938
 30
0.0
 10
15.4875322267
 20
7.0009275725
 30
0.0
 10
15.4865416203
 20
6.9952958737
 30
0.0
 10
15.4865424136
 20
6.9925946199
 30
0.0
  0
SPLINE
  5
6D7
100
AcDbEntity
  8
0
100
AcDbSpline
 62
7
  6
CONTINUOUS
 70
0
 71
3
 72
11
 73
7
 74
0
 42
0.0000001
 43
0.0000001
 44
0.0000000001
 40
0.0
 40
0.0
 40
0.0
 40
0.0
 40
0.2894760005
 40
0.5490446296
 40
0.7822119818
 40
1.0
 40
1.0
 40
1.0
 40
1.0
 10
15.3444384403
 20
6.9274501253
 30
0.0
 10
15.3413297376
 20
6.9256537377
 30
0.0
 10
15.3356884201
 20
6.921760151
 30
0.0
 10
15.3289413856
 20
6.9146692784
 30
0.0
 10
15.3246749562
 20
6.906819257
 30
0.0
 10
15.3236843498
 20
6.9011875583
 30
0.0
 10
15.3236851431
 20
6.8984863045
 30
0.0
  0
SPLINE
  5
6D8
100
AcDbEntity
  8
0
100
AcDbSpline
 62
7
  6
CONTINUOUS
 70
0
 71
3
 72
11
 73
7
 74
0
 42
0.0000001
 43
0.0000001
 44
0.0000000001
 40
0.0
 40
0.0
 40
0.0
 40
0.0
 40
0.2894760005
 40
0.5490446296
 40
0.7822119818
 40
1.0
 40
1.0
 40
1.0
 40
1.0
 10
15.1815811698
 20
6.8333418098
 30
0.0
 10
15.1784724672
 20
6.8315454223
 30
0.0
 10
15.1728311496
 20
6.8276518355
 30
0.0
 10
15.1660841152
 20
6.820560963
 30
0.0
 10
15.1618176858
 20
6.8127109416
 30
0.0
 10
15.1608270794
 20
6.8070792428
 30
0.0
 10
15.1608278726
 20
6.8043779891
 30
0.0
  0
SPLINE
  5
6D9
100
AcDbEntity
  8
0
100
AcDbSpline
 62
7
  6
CONTINUOUS
 70
0
 71
3
 72
15
 73
11
 74
0
 42
0.0000001
 43
0.0000001
 44
0.0000000001
 40
0.0
 40
0.0
 40
0.0
 40
0.0
 40
0.0220548232
 40
0.0509185194
 40
0.1285810463
 40
0.2312320387
 40
0.3561194282
 40
0.4997654968
 40
0.6580698013
 40
1.0
 40
1.0
 40
1.0
 40
1.0
 10
3.4717938311
 20
5.1082299691
 30
0.0
 10
3.4683894344
 20
5.1065562895
 30
0.0
 10
3.4602068149
 20
5.1033647362
 30
0.0
 10
3.4390236053
 20
5.0969844126
 30
0.0
 10
3.4037915042
 20
5.0894474744
 30
0.0
 10
3.3519518951
 20
5.0811388091
 30
0.0
 10
3.2885485299
 20
5.0734933374
 30
0.0
 10
3.2154128436
 20
5.0669500147
 30
0.0
 10
3.104863461
 20
5.0601034564
 30
0.0
 10
3.0187968699
 20
5.0580865208
 30
0.0
 10
2.9599828075
 20
5.0580865208
 30
0.0
  0
SPLINE
  5
6DA
100
AcDbEntity
  8
0
100
AcDbSpline
 62
7
  6
CONTINUOUS
 70
0
 71
3
 72
9
 73
5
 74
0
 42
0.0000001
 43
0.0000001
 44
0.0000000001
 40
0.0
 40
0.0
 40
0.0
 40
0.0
 40
0.2355011814
 40
1.0
 40
1.0
 40
1.0
 40
1.0
 10
3.4717938311
 20
5.1135133967
 30
0.0
 10
3.4717938311
 20
5.1133187172
 30
0.0
 10
3.4717302507
 20
5.1124915148
 30
0.0
 10
3.4714066721
 20
5.1116993407
 30
0.0
 10
3.4710849855
 20
5.1111553573
 30
0.0
  0
SPLINE
  5
6DB
100
AcDbEntity
  8
0
100
AcDbSpline
 62
7
  6
CONTINUOUS
 70
0
 71
3
 72
9
 73
5
 74
0
 42
0.0000001
 43
0.0000001
 44
0.0000000001
 40
0.0
 40
0.0
 40
0.0
 40
0.0
 40
0.4157660591
 40
1.0
 40
1.0
 40
1.0
 40
1.0
 10
3.4710849855
 20
5.1111553573
 30
0.0
 10
3.4704105661
 20
5.1100148901
 30
0.0
 10
3.4680476688
 20
5.1077516009
 30
0.0
 10
3.4653140054
 20
5.1061156353
 30
0.0
 10
3.4636702871
 20
5.1052412293
 30
0.0
  0
SPLINE
  5
6DC
100
AcDbEntity
  8
0
100
AcDbSpline
 62
7
  6
CONTINUOUS
 70
0
 71
3
 72
15
 73
11
 74
0
 42
0.0000001
 43
0.0000001
 44
0.0000000001
 40
0.0
 40
0.0
 40
0.0
 40
0.0
 40
0.3415746236
 40
0.499755434
 40
0.6433376163
 40
0.7682329471
 40
0.8709780539
 40
0.9488155649
 40
0.9777925911
 40
1.0
 40
1.0
 40
1.0
 40
1.0
 10
2.9599828075
 20
5.0594746942
 30
0.0
 10
3.017594784
 20
5.0594746942
 30
0.0
 10
3.1019089035
 20
5.0614312994
 30
0.0
 10
3.2102234059
 20
5.068083246
 30
0.0
 10
3.2819135068
 20
5.0744413792
 30
0.0
 10
3.3440991668
 20
5.0818777599
 30
0.0
 10
3.3949878005
 20
5.0899736342
 30
0.0
 10
3.429609406
 20
5.0973226871
 30
0.0
 10
3.4504682011
 20
5.1035483886
 30
0.0
 10
3.4585432425
 20
5.1066680002
 30
0.0
 10
3.4619125646
 20
5.1083042842
 30
0.0
  0
SPLINE
  5
6DD
100
AcDbEntity
  8
0
100
AcDbSpline
 62
7
  6
CONTINUOUS
 70
0
 71
3
 72
9
 73
5
 74
0
 42
0.0000001
 43
0.0000001
 44
0.0000000001
 40
0.0
 40
0.0
 40
0.0
 40
0.0
 40
0.299694452
 40
1.0
 40
1.0
 40
1.0
 40
1.0
 10
3.4619125646
 20
5.1083042842
 30
0.0
 10
3.4627412799
 20
5.1087067431
 30
0.0
 10
3.4654658131
 20
5.1101147482
 30
0.0
 10
3.4681097245
 20
5.1117901687
 30
0.0
 10
3.4696386779
 20
5.1133056559
 30
0.0
  0
SPLINE
  5
6DE
100
AcDbEntity
  8
0
100
AcDbSpline
 62
7
  6
CONTINUOUS
 70
0
 71
3
 72
9
 73
5
 74
0
 42
0.0000001
 43
0.0000001
 44
0.0000000001
 40
0.0
 40
0.0
 40
0.0
 40
0.0
 40
0.2987623428
 40
1.0
 40
1.0
 40
1.0
 40
1.0
 10
3.4696386779
 20
5.1133056559
 30
0.0
 10
3.4699743879
 20
5.1136384091
 30
0.0
 10
3.471033444
 20
5.1147953691
 30
0.0
 10
3.4717938311
 20
5.1163555854
 30
0.0
 10
3.4717938311
 20
5.1174650312
 30
0.0
  0
ENDSEC
  0
SECTION
  2
OBJECTS
  0
DICTIONARY
  5
C
100
AcDbDictionary
280
0
281
1
  3
ACAD_GROUP
350
D
  3
ACAD_MLINESTYLE
350
17
  3
ACAD_LAYOUT
350
1A
  3
ACAD_PLOTSETTINGS
350
19
  3
ACAD_PLOTSTYLENAME
350
E
  0
DICTIONARY
  5
D
102
{ACAD_REACTORS
330
C
102
}
100
AcDbDictionary
280
0
281
1
  0
ACDBDICTIONARYWDFLT
  5
E
102
{ACAD_REACTORS
330
C
102
}
100
AcDbDictionary
281
1
  3
Normal
350
F
100
AcDbDictionaryWithDefault
340
F
  0
DICTIONARY
  5
17
102
{ACAD_REACTORS
330
C
102
}
100
AcDbDictionary
280
0
281
1
  3
Standard
350
18
  0
DICTIONARY
  5
19
102
{ACAD_REACTORS
330
C
102
}
100
AcDbDictionary
281
1
  0
DICTIONARY
  5
1A
102
{ACAD_REACTORS
330
C
102
}
100
AcDbDictionary
281
1
  3
Model
350
6DF
  3
Layout1
350
6E0
  0
ACDBPLACEHOLDER
  5
F
102
{ACAD_REACTORS
330
E
102
}
  0
MLINESTYLE
  5
18
102
{ACAD_REACTORS
330
17
102
}
100
AcDbMlineStyle
  2
STANDARD
 70
0
  3

 62
256
 51
90.0
 52
90.0
 71
2
 49
0.5
 62
256
  6
BYLAYER
 49
-0.5
 62
256
  6
BYLAYER
  0
LAYOUT
  5
6DF
102
{ACAD_REACTORS
330
1A
102
}
100
AcDbPlotSettings
  1

  2
none_device
  4
ANSI_B_(17.00_x_11.00_Inches)
  6

 40
0.0
 41
0.0
 42
0.0
 43
0.0
 44
431.8
 45
279.4
 46
0.0
 47
0.0
 48
0.0
 49
0.0
140
0.0
141
0.0
142
1.0
143
1.0
 70
1024
 72
0
 73
0
 74
0
  7

 75
0
147
1.0
148
0.0
149
0.0
100
AcDbLayout
  1
Model
 70
0
 71
0
 10
0.0
 20
0.0
 11
17.0
 21
11.0
 12
0.0
 22
0.0
 32
0.0
 14
0.0
 24
0.0
 34
0.0
 15
0.0
 25
0.0
 35
0.0
146
0.0
 13
0.0
 23
0.0
 33
0.0
 16
1.0
 26
0.0
 36
0.0
 17
0.0
 27
1.0
 37
0.0
 76
0
330
1FF
345
0
346
0
  0
LAYOUT
  5
6E0
102
{ACAD_REACTORS
330
1A
102
}
100
AcDbPlotSettings
  1

  2
none_device
  4
ANSI_B_(17.00_x_11.00_Inches)
  6

 40
0.0
 41
0.0
 42
0.0
 43
0.0
 44
431.8
 45
279.4
 46
0.0
 47
0.0
 48
0.0
 49
0.0
140
0.0
141
0.0
142
1.0
143
1.0
 70
0
 72
0
 73
0
 74
0
  7

 75
0
147
1.0
148
0.0
149
0.0
100
AcDbLayout
  1
Layout1
 70
0
 71
1
 10
0.0
 20
0.0
 11
17.0
 21
11.0
 12
0.0
 22
0.0
 32
0.0
 14
0.0
 24
0.0
 34
0.0
 15
0.0
 25
0.0
 35
0.0
146
0.0
 13
0.0
 23
0.0
 33
0.0
 16
1.0
 26
0.0
 36
0.0
 17
0.0
 27
1.0
 37
0.0
 76
0
330
200
345
0
346
0
  0
ENDSEC
  0
EOF
